osu file format v14

[General]
AudioFilename: Otome.mp3
AudioLeadIn: 0
PreviewTime: 59482
Countdown: 0
SampleSet: Normal
StackLeniency: 0.7
Mode: 3
LetterboxInBreaks: 0
SpecialStyle: 0
WidescreenStoryboard: 1

[Editor]
DistanceSpacing: 0.8
BeatDivisor: 4
GridSize: 8
TimelineZoom: 1.9

[Metadata]
Title:Inochi mijikashi koi seyo otome
TitleUnicode:命短し恋せよ乙女
Artist:Hanazawa Kana
ArtistUnicode:花澤 香菜
Creator:Eternalie
Version:Easy
Source:Ore no Imouto ga Konna ni Kawaii Wake ga nai
Tags:
BeatmapID:804157
BeatmapSetID:366438

[Difficulty]
HPDrainRate:6
CircleSize:7
OverallDifficulty:7
ApproachRate:5
SliderMultiplier:1.4
SliderTickRate:1

[Events]
//Background and Video events
0,0,"bddi7IY.jpg",0,0
//Break Periods
//Storyboard Layer 0 (Background)
//Storyboard Layer 1 (Fail)
//Storyboard Layer 2 (Pass)
//Storyboard Layer 3 (Foreground)
//Storyboard Sound Samples

[TimingPoints]
4862,413.793103448276,4,1,0,30,1,0
59482,-100,4,1,0,30,0,1
85965,-100,4,1,0,30,0,0

[HitObjects]
109,192,4862,5,0,0:0:0:0:
402,192,4862,1,0,0:0:0:0:
329,192,5275,1,0,0:0:0:0:
109,192,5689,1,0,0:0:0:0:
182,192,6103,1,0,0:0:0:0:
475,192,6517,1,0,0:0:0:0:
329,192,6930,1,0,0:0:0:0:
36,192,7344,1,0,0:0:0:0:
182,192,7758,1,0,0:0:0:0:
402,192,8172,1,0,0:0:0:0:
109,192,8586,1,0,0:0:0:0:
329,192,8999,1,0,0:0:0:0:
36,192,9413,1,0,0:0:0:0:
475,192,9827,1,0,0:0:0:0:
182,192,10241,1,0,0:0:0:0:
402,192,10655,1,0,0:0:0:0:
109,192,11068,1,0,0:0:0:0:
256,192,11482,1,0,0:0:0:0:
36,192,11482,1,0,0:0:0:0:
475,192,11896,1,0,0:0:0:0:
109,192,12310,1,0,0:0:0:0:
402,192,12724,1,0,0:0:0:0:
256,192,13137,1,0,0:0:0:0:
475,192,13137,1,0,0:0:0:0:
109,192,13551,1,0,0:0:0:0:
402,192,13965,1,0,0:0:0:0:
36,192,14379,1,0,0:0:0:0:
256,192,14793,1,0,0:0:0:0:
475,192,14793,1,0,0:0:0:0:
109,192,15206,1,0,0:0:0:0:
402,192,15620,1,0,0:0:0:0:
109,192,16034,1,0,0:0:0:0:
402,192,16448,1,0,0:0:0:0:
182,192,16655,1,0,0:0:0:0:
402,192,16862,1,0,0:0:0:0:
182,192,17068,1,0,0:0:0:0:
475,192,17275,1,0,0:0:0:0:
36,192,17482,1,0,0:0:0:0:
475,192,17689,1,0,0:0:0:0:
36,192,17896,1,0,0:0:0:0:
182,192,18103,1,0,0:0:0:0:
329,192,18103,1,0,0:0:0:0:
475,192,18517,1,0,0:0:0:0:
182,192,18930,1,0,0:0:0:0:
36,192,19344,1,0,0:0:0:0:
402,192,19551,1,0,0:0:0:0:
402,192,19965,1,0,0:0:0:0:
109,192,20379,1,0,0:0:0:0:
109,192,20586,1,0,0:0:0:0:
475,192,20999,1,0,0:0:0:0:
109,192,21827,1,0,0:0:0:0:
402,192,21827,1,0,0:0:0:0:
256,192,22241,1,0,0:0:0:0:
109,192,22655,1,0,0:0:0:0:
475,192,22862,1,0,0:0:0:0:
475,192,23275,1,0,0:0:0:0:
36,192,23689,1,0,0:0:0:0:
36,192,23896,1,0,0:0:0:0:
475,192,24310,1,0,0:0:0:0:
182,192,24724,1,0,0:0:0:0:
329,192,24724,1,0,0:0:0:0:
36,192,25137,1,0,0:0:0:0:
256,192,25551,1,0,0:0:0:0:
475,192,25965,1,0,0:0:0:0:
109,192,26172,1,0,0:0:0:0:
109,192,26586,1,0,0:0:0:0:
402,192,26999,1,0,0:0:0:0:
402,192,27206,1,0,0:0:0:0:
256,192,27620,1,0,0:0:0:0:
109,192,28034,1,0,0:0:0:0:
475,192,28034,1,0,0:0:0:0:
402,192,28655,1,0,0:0:0:0:
182,192,28862,1,0,0:0:0:0:
402,192,29482,1,0,0:0:0:0:
182,192,29896,1,0,0:0:0:0:
402,192,30310,1,0,0:0:0:0:
182,192,30517,1,0,0:0:0:0:
36,192,30724,1,0,0:0:0:0:
402,192,30930,128,0,31344:0:0:0:0:
256,192,31344,1,0,0:0:0:0:
36,192,31344,1,0,0:0:0:0:
402,192,31758,1,0,0:0:0:0:
182,192,32172,1,0,0:0:0:0:
329,192,32586,1,0,0:0:0:0:
256,192,32999,1,0,0:0:0:0:
402,192,33413,1,0,0:0:0:0:
329,192,33827,1,0,0:0:0:0:
475,192,34241,1,0,0:0:0:0:
182,192,34655,1,0,0:0:0:0:
36,192,35068,1,0,0:0:0:0:
256,192,35482,1,0,0:0:0:0:
109,192,35896,1,0,0:0:0:0:
182,192,36310,1,0,0:0:0:0:
36,192,36724,1,0,0:0:0:0:
329,192,37137,1,0,0:0:0:0:
182,192,37551,1,0,0:0:0:0:
475,192,37965,1,0,0:0:0:0:
109,192,37965,1,0,0:0:0:0:
329,192,38379,1,0,0:0:0:0:
36,192,38793,1,0,0:0:0:0:
182,192,39206,1,0,0:0:0:0:
402,192,39620,1,0,0:0:0:0:
109,192,39620,1,0,0:0:0:0:
256,192,40034,1,0,0:0:0:0:
475,192,40448,1,0,0:0:0:0:
329,192,40862,1,0,0:0:0:0:
36,192,41275,1,0,0:0:0:0:
182,192,41275,1,0,0:0:0:0:
402,192,41689,1,0,0:0:0:0:
109,192,41689,1,0,0:0:0:0:
256,192,41896,1,0,0:0:0:0:
256,192,42310,1,0,0:0:0:0:
109,192,42517,1,0,0:0:0:0:
402,192,42517,1,0,0:0:0:0:
256,192,43344,1,0,0:0:0:0:
402,192,43344,1,0,0:0:0:0:
36,192,43758,1,0,0:0:0:0:
182,192,43965,1,0,0:0:0:0:
329,192,44172,1,0,0:0:0:0:
475,192,44379,1,0,0:0:0:0:
256,192,44586,1,0,0:0:0:0:
109,192,44586,1,0,0:0:0:0:
402,192,44999,1,0,0:0:0:0:
109,192,45413,1,0,0:0:0:0:
402,192,45827,1,0,0:0:0:0:
36,192,46241,1,0,0:0:0:0:
329,192,46655,1,0,0:0:0:0:
36,192,47068,1,0,0:0:0:0:
329,192,47482,1,0,0:0:0:0:
182,192,47896,1,0,0:0:0:0:
475,192,47896,1,0,0:0:0:0:
256,192,48310,1,0,0:0:0:0:
475,192,48724,1,0,0:0:0:0:
256,192,49137,1,0,0:0:0:0:
402,192,49551,1,0,0:0:0:0:
109,192,49551,1,0,0:0:0:0:
182,192,49965,1,0,0:0:0:0:
256,192,50379,1,0,0:0:0:0:
475,192,50379,1,0,0:0:0:0:
36,192,50793,1,0,0:0:0:0:
402,192,51206,1,0,0:0:0:0:
109,192,51517,1,0,0:0:0:0:
329,192,51827,1,0,0:0:0:0:
36,192,52137,1,0,0:0:0:0:
256,192,52448,128,0,52862:0:0:0:0:
109,192,52862,1,0,0:0:0:0:
402,192,53172,1,0,0:0:0:0:
36,192,53482,1,0,0:0:0:0:
475,192,53793,1,0,0:0:0:0:
256,192,54103,128,0,54517:0:0:0:0:
475,192,54517,1,0,0:0:0:0:
329,192,54724,1,0,0:0:0:0:
36,192,54930,1,0,0:0:0:0:
182,192,55137,1,0,0:0:0:0:
475,192,55344,1,0,0:0:0:0:
329,192,55551,1,0,0:0:0:0:
36,192,55758,1,0,0:0:0:0:
182,192,55965,1,0,0:0:0:0:
109,192,56172,1,0,0:0:0:0:
402,192,56172,128,0,57827:0:0:0:0:
256,192,58655,128,0,59482:0:0:0:0:
36,192,59482,1,0,0:0:0:0:
475,192,59482,1,0,0:0:0:0:
329,192,59896,1,0,0:0:0:0:
475,192,60310,1,0,0:0:0:0:
329,192,60724,1,0,0:0:0:0:
36,192,61137,1,0,0:0:0:0:
182,192,61551,1,0,0:0:0:0:
36,192,61965,1,0,0:0:0:0:
182,192,62379,1,0,0:0:0:0:
402,192,62793,1,0,0:0:0:0:
109,192,63206,1,0,0:0:0:0:
402,192,63620,1,0,0:0:0:0:
109,192,64034,1,0,0:0:0:0:
329,192,64448,1,0,0:0:0:0:
36,192,64862,1,0,0:0:0:0:
329,192,65275,1,0,0:0:0:0:
36,192,65689,1,0,0:0:0:0:
475,192,66103,1,0,0:0:0:0:
109,192,66103,1,0,0:0:0:0:
329,192,66517,1,0,0:0:0:0:
36,192,66930,1,0,0:0:0:0:
182,192,67344,1,0,0:0:0:0:
402,192,67758,1,0,0:0:0:0:
256,192,68172,1,0,0:0:0:0:
109,192,68586,1,0,0:0:0:0:
256,192,68999,1,0,0:0:0:0:
402,192,69413,1,0,0:0:0:0:
109,192,69413,1,0,0:0:0:0:
329,192,69827,1,0,0:0:0:0:
475,192,70241,1,0,0:0:0:0:
402,192,70655,1,0,0:0:0:0:
329,192,71068,1,0,0:0:0:0:
109,192,71068,1,0,0:0:0:0:
36,192,71482,1,0,0:0:0:0:
256,192,71482,1,0,0:0:0:0:
475,192,71896,1,0,0:0:0:0:
329,192,71896,1,0,0:0:0:0:
36,192,72310,1,0,0:0:0:0:
182,192,72310,1,0,0:0:0:0:
402,192,72724,1,0,0:0:0:0:
329,192,72724,1,0,0:0:0:0:
109,192,73137,1,0,0:0:0:0:
475,192,73551,1,0,0:0:0:0:
109,192,73965,1,0,0:0:0:0:
402,192,74379,1,0,0:0:0:0:
36,192,74793,1,0,0:0:0:0:
402,192,75206,1,0,0:0:0:0:
36,192,75620,1,0,0:0:0:0:
329,192,76034,1,0,0:0:0:0:
109,192,76448,1,0,0:0:0:0:
329,192,76862,1,0,0:0:0:0:
109,192,77275,1,0,0:0:0:0:
256,192,77689,1,0,0:0:0:0:
475,192,78103,1,0,0:0:0:0:
182,192,78517,1,0,0:0:0:0:
402,192,78930,1,0,0:0:0:0:
109,192,79344,1,0,0:0:0:0:
329,192,79344,1,0,0:0:0:0:
475,192,79758,1,0,0:0:0:0:
182,192,80172,1,0,0:0:0:0:
402,192,80586,1,0,0:0:0:0:
36,192,80999,1,0,0:0:0:0:
256,192,81413,1,0,0:0:0:0:
475,192,81827,1,0,0:0:0:0:
109,192,82241,1,0,0:0:0:0:
402,192,82655,1,0,0:0:0:0:
182,192,82655,1,0,0:0:0:0:
109,192,83068,1,0,0:0:0:0:
329,192,83068,1,0,0:0:0:0:
256,192,83482,1,0,0:0:0:0:
475,192,83482,1,0,0:0:0:0:
182,192,83896,1,0,0:0:0:0:
402,192,83896,1,0,0:0:0:0:
109,192,84310,1,0,0:0:0:0:
329,192,84310,1,0,0:0:0:0:
182,192,84724,1,0,0:0:0:0:
475,192,84724,1,0,0:0:0:0:
109,192,85137,1,0,0:0:0:0:
329,192,85137,1,0,0:0:0:0:
182,192,85551,1,0,0:0:0:0:
402,192,85551,1,0,0:0:0:0:
36,192,85965,1,0,0:0:0:0:
475,192,85965,128,0,86793:0:0:0:0:
