osu file format v14

[General]
AudioFilename: audio.mp3
AudioLeadIn: 0
PreviewTime: 67332
Countdown: 0
SampleSet: Soft
StackLeniency: 0.7
Mode: 0
LetterboxInBreaks: 0
WidescreenStoryboard: 1

[Editor]
Bookmarks: 117654
DistanceSpacing: 1.1
BeatDivisor: 4
GridSize: 16
TimelineZoom: 2.799999

[Metadata]
Title:Atarashii Uta (Cut Ver.)
TitleUnicode:あたらしいうた (Cut Ver.)
Artist:Hanazawa Kana
ArtistUnicode:花澤香菜
Creator:Shunao
Version:Nikakis' Hard
Source:
Tags:cut ver version edit opportunity japanese pop j-pop jpop female vocals vocalist shogunmoon hikomori [a_l_p_h_a] yuii- nikakis hypercyte hypercute kocari winnie
BeatmapID:1820371
BeatmapSetID:871204

[Difficulty]
HPDrainRate:5
CircleSize:4
OverallDifficulty:6
ApproachRate:8
SliderMultiplier:1.5
SliderTickRate:1

[Events]
//Background and Video events
0,0,"BG.jpg",0,0
//Break Periods
//Storyboard Layer 0 (Background)
//Storyboard Layer 1 (Fail)
//Storyboard Layer 2 (Pass)
//Storyboard Layer 3 (Foreground)
//Storyboard Layer 4 (Overlay)
//Storyboard Sound Samples

[TimingPoints]
1140,342.857142857143,4,2,5,30,1,0
1140,-133.333333333333,4,2,5,30,0,0
11425,-100,4,2,5,40,0,0
12111,-100,4,2,5,60,0,0
22568,-100,4,2,5,65,0,0
22997,-133.333333333333,4,2,5,65,0,0
23082,-133.333333333333,4,2,5,40,0,0
24282,-133.333333333333,4,2,5,5,0,0
24454,-133.333333333333,4,2,5,40,0,0
35340,-117.647058823529,4,2,5,5,0,0
35425,-117.647058823529,4,2,5,60,0,0
46397,-117.647058823529,4,2,5,50,0,0
57368,-105.263157894737,4,2,5,60,0,0
66990,342.857142857143,4,2,5,40,1,0
66990,-105.263157894737,4,2,5,40,0,0
68018,-100,4,2,5,50,0,0
68275,-100,4,2,5,5,0,0
68361,-100,4,2,5,80,0,1
90218,-100,4,2,5,5,0,1
90304,-100,4,2,5,70,0,0
95790,-100,4,2,5,60,0,0
106761,-100,4,2,5,65,0,0
117218,-100,4,2,5,70,0,0
117732,-100,4,2,5,30,0,0

[Colours]
Combo1 : 152,40,24
Combo2 : 216,233,220
Combo3 : 205,243,182
Combo4 : 70,84,115

[HitObjects]
94,76,1140,6,0,L|89:6,2,56.2500021457673,0|0|0,0:0|0:0|0:0,0:0:0:0:
137,142,1654,2,0,L|193:146,2,56.2500021457673,0|0|0,0:0|0:0|0:0,0:0:0:0:
58,147,2168,2,0,L|-12:152,2,56.2500021457673,0|0|0,0:0|0:0|0:0,0:0:0:0:
102,212,2682,2,0,L|107:282,2,56.2500021457673,0|0|0,0:0|0:0|0:0,0:0:0:0:
137,142,3197,6,0,L|142:72,2,56.2500021457673,0|0|0,0:0|0:0|0:0,0:0:0:0:
178,209,3711,2,0,L|182:265,2,56.2500021457673,0|0|0,0:0|0:0|0:0,0:0:0:0:
217,140,4225,2,0,L|221:83,2,56.2500021457673,0|0|0,0:0|0:0|0:0,0:0:0:0:
260,206,4740,2,0,L|264:262,2,56.2500021457673,0|0|0,0:0|0:0|0:0,0:0:0:0:
311,146,5254,2,0,L|367:141,2,56.2500021457673,0|0|0,0:0|0:0|0:0,0:0:0:0:
335,70,5768,2,0,L|391:65,2,56.2500021457673,0|0|0,0:0|1:0|1:0,0:0:0:0:
282,10,6282,2,0,P|256:50|255:71,1,56.2500021457673,0|0,1:0|1:0,0:0:0:0:
261,136,6625,6,0,P|223:96|168:93,1,112.500004291535,2|0,0:0|0:0,0:0:0:0:
100,134,7140,2,0,L|92:255,1,112.500004291535,2|0,0:0|0:0,0:0:0:0:
122,319,7654,2,0,P|167:345|225:337,1,112.500004291535,2|0,0:0|0:0,0:0:0:0:
275,276,8168,2,0,P|302:326|293:380,1,112.500004291535,2|0,0:0|0:0,0:0:0:0:
224,337,8682,2,0,L|232:213,1,112.500004291535,2|2,0:0|0:0,0:0:0:0:
242,67,9368,1,2,0:0:0:0:
256,192,9454,12,2,11940,0:0:0:0:
315,69,12111,6,0,L|469:84,1,150,12|0,0:0|1:0,0:0:0:0:
423,155,12625,2,0,P|391:223|426:313,1,150,12|0,0:0|1:0,0:0:0:0:
459,358,13140,2,0,L|354:350,1,75,12|0,0:0|0:0,0:0:0:0:
314,319,13482,6,0,L|308:266,2,37.5,0|0|0,1:0|1:0|1:0,0:0:0:0:
237,288,13825,2,0,L|231:235,2,37.5,0|0|0,1:0|1:0|1:0,0:0:0:0:
160,255,14168,2,0,L|154:202,2,37.5,0|0|0,1:0|1:0|1:0,0:0:0:0:
83,222,14511,2,0,L|77:169,2,37.5,0|0|0,1:0|1:0|1:0,0:0:0:0:
45,148,14854,6,0,P|102:149|165:77,1,150,12|0,0:0|1:0,0:0:0:0:
82,67,15368,2,0,L|72:221,1,150,12|0,0:0|1:0,0:0:0:0:
109,290,15882,2,0,P|144:303|185:292,1,75,12|0,0:0|1:0,0:0:0:0:
248,248,16225,6,0,L|285:252,3,37.5,2|0|0|0,1:2|1:0|1:0|1:0,0:0:0:0:
307,287,16568,2,0,L|344:291,3,37.5,0|0|0|0,1:0|1:0|1:0|1:0,0:0:0:0:
369,323,16911,2,0,L|406:327,3,37.5,0|0|0|0,1:0|1:0|1:0|1:0,0:0:0:0:
428,362,17254,2,0,L|465:366,3,37.5,0|0|0|0,1:0|1:0|1:0|1:0,0:0:0:0:
496,339,17597,6,0,P|513:238|478:189,1,150,12|0,0:0|1:0,0:0:0:0:
421,155,18111,2,0,L|256:161,1,150,12|0,0:0|1:0,0:0:0:0:
235,85,18625,2,0,P|188:126|182:154,1,75,12|0,0:0|1:0,0:0:0:0:
106,162,18968,2,0,P|147:208|175:213,1,75,4|0,1:2|1:0,0:0:0:0:
239,226,19311,6,0,L|234:263,3,37.5,0|0|0|0,1:0|1:0|1:0|1:0,0:0:0:0:
200,285,19654,2,0,L|195:322,3,37.5,0|0|0|0,1:0|1:0|1:0|1:0,0:0:0:0:
169,354,19997,2,0,L|131:358,3,37.5,0|0|0|0,1:0|1:0|1:0|1:0,0:0:0:0:
96,336,20340,2,0,P|40:302|38:209,1,150,12|0,0:0|1:0,0:0:0:0:
75,153,20854,2,0,L|233:149,1,150,12|0,0:0|1:0,0:0:0:0:
293,102,21368,2,0,P|297:39|288:22,1,75,12|0,0:0|1:0,0:0:0:0:
213,6,21711,2,0,P|155:1|135:10,1,75,4|0,1:2|1:0,0:0:0:0:
77,60,22054,6,0,L|81:97,3,37.5,0|0|0|0,1:0|1:0|1:0|1:0,0:0:0:0:
116,119,22397,2,0,L|120:156,3,37.5,0|0|0|0,1:0|1:0|1:0|1:0,0:0:0:0:
152,181,22740,2,0,L|156:218,3,37.5,0|0|2|0,1:0|1:0|1:2|1:0,0:0:0:0:
177,247,23082,2,0,B|227:318|326:311|312:225|381:267|412:247|412:247|425:176|366:192|369:105,1,393.750015020371,2|0,0:0|0:0,0:0:0:0:
367,37,24454,5,0,1:0:0:0:
259,152,24797,2,0,L|255:229,1,56.2500021457673,2|0,1:2|0:0,0:0:0:0:
279,283,25140,2,0,P|346:298|404:283,1,112.500004291535,2|2,1:2|1:2,0:0:0:0:
455,248,25654,1,0,0:0:0:0:
450,169,25825,6,0,L|459:36,1,112.500004291535,2|0,0:0|0:0,0:0:0:0:
378,78,26340,2,0,P|298:103|257:80,1,112.500004291535,2|0,0:0|0:0,0:0:0:0:
229,158,26854,2,0,P|197:120|193:93,1,56.2500021457673,2|0,0:0|0:0,0:0:0:0:
127,74,27197,2,0,P|164:42|191:38,1,56.2500021457673,2|0,1:2|1:0,0:0:0:0:
244,14,27540,2,0,L|249:92,1,56.2500021457673,2|0,1:2|1:0,0:0:0:0:
270,145,27882,2,0,L|264:281,1,112.500004291535,2|0,1:2|1:0,0:0:0:0:
235,331,28397,1,0,0:0:0:0:
159,310,28568,6,0,P|112:298|37:313,1,112.500004291535,2|0,0:0|0:0,0:0:0:0:
64,229,29082,2,0,P|76:182|61:107,1,112.500004291535,2|2,0:0|0:0,0:0:0:0:
36,46,29597,2,0,L|116:51,1,56.2500021457673,2|0,0:0|0:0,0:0:0:0:
165,19,29940,6,0,P|171:57|155:95,1,56.2500021457673,2|0,1:2|1:0,0:0:0:0:
143,148,30282,1,2,1:2:0:0:
130,226,30454,2,0,P|181:162|230:155,1,112.500004291535,2|2,1:2|1:2,0:0:0:0:
279,186,30968,1,2,1:2:0:0:
220,239,31140,2,0,L|84:230,1,112.500004291535,2|2,0:0|0:0,0:0:0:0:
236,141,31825,2,0,L|372:132,1,112.500004291535,2|0,0:0|1:0,0:0:0:0:
382,61,32340,2,0,P|415:86|424:116,1,56.2500021457673,0|0,1:0|1:0,0:0:0:0:
497,117,32682,6,0,P|468:159|385:169,1,112.500004291535,2|0,1:2|1:0,0:0:0:0:
336,150,33197,2,0,L|331:13,1,112.500004291535,2|0,1:2|1:0,0:0:0:0:
255,17,33711,2,0,P|223:9|192:15,1,56.2500021457673,2|0,0:0|0:0,0:0:0:0:
124,35,34054,6,0,P|139:87|119:158,1,112.500004291535,2|0,0:0|0:0,0:0:0:0:
196,285,34740,2,0,P|193:228|199:211,1,56.2500021457673,2|0,0:0|1:0,0:0:0:0:
237,171,35082,2,0,P|277:161|318:170,1,84.3750032186509,8|0,0:0|0:0,0:0:0:0:
353,192,35425,6,0,L|357:262,1,63.7500012159348,4|0,1:2|0:0,0:0:0:0:
307,322,35768,2,0,P|272:330|238:323,1,63.7500012159348,10|2,0:0|0:0,0:0:0:0:
189,263,36111,2,0,P|197:228|190:194,1,63.7500012159348,2|2,1:2|1:2,0:0:0:0:
160,124,36454,2,0,L|86:122,1,63.7500012159348,10|0,0:0|0:0,0:0:0:0:
24,79,36797,5,2,1:2:0:0:
84,23,36968,2,0,P|114:15|146:19,1,63.7500012159348,2|8,0:0|0:0,0:0:0:0:
204,78,37311,2,0,P|193:129|209:212,1,127.50000243187,2|2,0:0|1:2,0:0:0:0:
172,279,37825,2,0,P|141:283|108:276,1,63.7500012159348,10|0,0:0|0:0,0:0:0:0:
142,200,38168,6,0,P|173:196|205:202,1,63.7500012159348,2|0,1:2|0:0,0:0:0:0:
272,249,38511,2,0,L|275:329,1,63.7500012159348,10|2,0:0|0:0,0:0:0:0:
341,361,38854,2,0,P|388:368|441:294,1,127.50000243187,2|8,1:2|0:0,0:0:0:0:
440,231,39368,2,0,L|436:167,1,63.7500012159348,2|2,0:0|1:2,0:0:0:0:
383,103,39711,6,0,P|352:99|319:105,1,63.7500012159348,2|8,0:0|0:0,0:0:0:0:
252,153,40054,2,0,P|265:221|251:301,1,127.50000243187,2|2,0:0|1:2,0:0:0:0:
219,351,40568,2,0,P|165:357|140:349,1,63.7500012159348,10|0,0:0|0:0,0:0:0:0:
114,283,40911,6,0,P|144:275|176:278,1,63.7500012159348,2|0,1:2|0:0,0:0:0:0:
258,278,41254,1,10,0:0:0:0:
296,204,41425,2,0,L|306:55,1,127.50000243187,2|2,0:0|1:2,0:0:0:0:
266,2,41940,1,10,0:0:0:0:
209,61,42111,2,0,P|192:94|192:123,1,63.7500012159348,2|0,0:0|1:0,0:0:0:0:
141,186,42454,6,0,P|174:203|203:203,1,63.7500012159348,2|8,0:0|0:0,0:0:0:0:
267,154,42797,2,0,P|245:180|253:288,1,127.50000243187,2|0,0:0|1:0,0:0:0:0:
285,340,43311,2,0,P|325:348|370:334,1,63.7500012159348,10|0,0:0|0:0,0:0:0:0:
404,284,43654,6,0,L|410:139,1,127.50000243187,2|8,1:2|0:0,0:0:0:0:
383,77,44168,2,0,P|357:39|323:100,1,127.50000243187,2|0,0:0|1:0,0:0:0:0:
315,167,44682,2,0,L|323:248,1,63.7500012159348,10|0,0:0|0:0,0:0:0:0:
309,312,45025,5,0,1:0:0:0:
230,283,45197,2,0,P|186:277|154:285,1,63.7500012159348,8|0,0:0|0:0,0:0:0:0:
86,297,45540,1,0,1:0:0:0:
30,236,45711,2,0,P|26:204|32:173,1,63.7500012159348,8|0,0:0|1:0,0:0:0:0:
73,100,46054,2,0,P|108:109|168:104,1,95.6250018239022,8|0,0:0|0:0,0:0:0:0:
206,91,46397,6,0,L|214:238,1,127.50000243187,6|0,1:2|1:0,0:0:0:0:
304,98,47082,2,0,P|346:74|442:89,1,127.50000243187,8|0,0:0|0:0,0:0:0:0:
483,136,47597,2,0,L|487:208,1,63.7500012159348,0|2,1:0|0:0,0:0:0:0:
456,277,47940,6,0,P|389:292|319:278,1,127.50000243187,8|0,0:0|1:0,0:0:0:0:
280,217,48454,2,0,P|293:155|285:92,1,127.50000243187,8|0,0:0|0:0,0:0:0:0:
132,155,49140,6,0,L|124:311,1,127.50000243187,2|0,1:2|1:0,0:0:0:0:
148,362,49654,1,2,0:0:0:0:
207,304,49825,2,0,P|264:291|330:306,1,127.50000243187,8|2,0:0|0:0,0:0:0:0:
399,352,50340,2,0,P|429:359|461:353,1,63.7500012159348,0|2,1:0|0:0,0:0:0:0:
487,275,50682,6,0,L|493:137,1,127.50000243187,10|2,0:0|1:2,0:0:0:0:
440,82,51197,2,0,P|378:66|316:79,1,127.50000243187,8|2,0:0|0:0,0:0:0:0:
163,143,51882,6,0,L|171:290,1,127.50000243187,2|0,1:2|1:0,0:0:0:0:
248,124,52568,2,0,P|290:100|386:115,1,127.50000243187,8|0,0:0|0:0,0:0:0:0:
427,162,53082,2,0,L|431:234,1,63.7500012159348,0|2,1:0|0:0,0:0:0:0:
400,303,53425,6,0,P|333:318|263:304,1,127.50000243187,8|0,0:0|1:0,0:0:0:0:
227,235,53939,2,0,P|240:173|232:110,1,127.50000243187,10|0,0:0|0:0,0:0:0:0:
87,29,54625,6,0,L|79:185,1,127.50000243187,2|0,1:2|1:0,0:0:0:0:
102,236,55140,1,2,0:0:0:0:
161,178,55311,2,0,P|218:165|284:180,1,127.50000243187,8|2,0:0|0:0,0:0:0:0:
341,240,55825,2,0,P|348:270|342:302,1,63.7500012159348,0|0,1:0|0:0,0:0:0:0:
279,355,56168,6,0,L|141:349,1,127.50000243187,8|0,0:0|1:0,0:0:0:0:
80,305,56682,2,0,P|84:244|73:220,1,63.7500012159348,10|0,0:0|1:0,0:0:0:0:
53,165,57025,2,0,P|49:104|60:80,1,63.7500012159348,14|0,0:0|0:0,0:0:0:0:
110,42,57368,6,0,P|183:29|256:46,1,142.49999619484,6|8,1:2|0:0,0:0:0:0:
296,114,57882,2,0,L|300:265,1,142.49999619484,2|2,0:0|1:2,0:0:0:0:
340,332,58397,2,0,P|375:336|409:326,1,71.2499980974198,10|0,0:0|1:0,0:0:0:0:
368,251,58740,6,0,L|225:254,1,142.49999619484,2|10,0:0|0:0,0:0:0:0:
148,217,59254,2,0,P|133:147|147:77,1,142.49999619484,2|0,0:0|1:0,0:0:0:0:
218,30,59768,2,0,L|312:25,1,71.2499980974198,8|0,0:0|0:0,0:0:0:0:
364,67,60111,6,0,L|377:231,1,142.49999619484,6|8,1:2|0:0,0:0:0:0:
349,290,60625,2,0,P|296:301|274:296,1,71.2499980974198,2|0,0:0|1:0,0:0:0:0:
219,237,60968,1,2,1:2:0:0:
302,218,61140,2,0,L|373:221,1,71.2499980974198,10|0,0:0|1:0,0:0:0:0:
436,165,61482,6,0,P|447:111|438:57,1,106.87499714613,0|0,0:0|0:0,0:0:0:0:
408,30,61825,2,0,L|332:26,1,71.2499980974198,8|0,0:0|0:0,0:0:0:0:
269,79,62168,2,0,L|266:133,3,35.6249990487099,8|8|8|8,1:2|0:0|0:0|0:0,0:0:0:0:
241,149,62511,2,0,L|238:203,3,35.6249990487099,8|8|8|8,1:2|0:0|0:0|0:0,0:0:0:0:
223,224,62854,6,0,P|182:240|79:218,1,142.49999619484,4|8,1:2|0:0,0:0:0:0:
25,163,63368,1,0,0:0:0:0:
77,95,63540,2,0,L|223:91,1,142.49999619484,0|8,1:0|0:0,0:0:0:0:
275,155,64054,2,0,P|259:196|281:299,1,142.49999619484,0|0,1:0|1:0,0:0:0:0:
324,361,64568,6,0,P|255:337|233:341,1,71.2499980974198,8|0,0:0|0:0,0:0:0:0:
178,306,64911,2,0,L|175:228,1,71.2499980974198,0|0,1:0|1:0,0:0:0:0:
137,158,65254,2,0,L|140:80,1,71.2499980974198,8|0,0:0|0:0,0:0:0:0:
197,23,65597,6,0,P|240:10|302:32,1,106.87499714613,4|0,1:2|0:0,0:0:0:0:
324,61,65940,2,0,L|331:124,3,35.6249990487099,8|8|8|8,1:2|0:0|0:0|0:0,0:0:0:0:
316,137,66282,2,0,L|323:200,3,35.6249990487099,8|8|8|8,0:0|0:0|0:0|0:0,0:0:0:0:
306,213,66625,1,8,0:0:0:0:
242,90,66797,1,12,0:0:0:0:
262,324,67333,6,0,L|334:319,2,71.2499980974198,2|0|2,0:0|0:0|0:0,0:0:0:0:
217,259,67847,1,2,0:0:0:0:
217,259,67932,1,0,0:0:0:0:
217,259,68018,2,0,P|243:209|310:196,1,112.5,4|0,1:2|0:0,0:0:0:0:
339,199,68361,6,0,L|351:370,1,150,6|8,1:2|0:0,0:0:0:0:
261,370,68875,2,0,P|201:385|95:361,1,150,2|0,0:0|1:0,0:0:0:0:
85,285,69390,2,0,L|91:179,1,75,10|0,0:0|1:0,0:0:0:0:
177,187,69733,2,0,P|217:198|262:185,1,75,0|0,0:0|1:0,0:0:0:0:
292,112,70075,6,0,P|252:101|207:114,1,75,10|2,0:0|0:0,0:0:0:0:
132,129,70418,2,0,P|94:128|61:111,1,75,2|2,1:2|1:2,0:0:0:0:
121,43,70761,2,0,P|154:26|191:25,1,75,10|2,0:0|0:0,0:0:0:0:
219,107,71104,6,0,P|202:158|229:269,1,150,2|10,1:2|0:0,0:0:0:0:
272,323,71618,2,0,L|433:313,1,150,2|0,0:0|1:0,0:0:0:0:
467,235,72133,2,0,P|474:184|461:155,1,75,10|2,0:0|1:2,0:0:0:0:
388,117,72475,2,0,L|307:122,1,75,0|2,0:0|1:2,0:0:0:0:
222,124,72818,1,8,0:0:0:0:
215,211,72990,2,0,P|274:195|309:98,1,150,2|2,0:0|1:2,0:0:0:0:
290,33,73504,2,0,P|235:16|199:28,1,75,8|2,0:0|0:0,0:0:0:0:
146,71,73847,5,6,0:0:0:0:
208,136,74019,2,0,L|214:210,1,75,2|8,0:0|0:0,0:0:0:0:
163,284,74361,2,0,L|156:358,1,75,2|0,0:0|1:0,0:0:0:0:
242,380,74704,2,0,P|278:389|314:383,1,75,2|8,1:2|0:0,0:0:0:0:
359,304,75047,2,0,P|322:294|286:300,1,75,2|0,1:2|0:0,0:0:0:0:
242,380,75390,2,0,L|159:384,1,75,2|8,1:2|0:0,0:0:0:0:
82,351,75733,2,0,P|45:294|67:214,1,150,2|0,0:0|1:0,0:0:0:0:
145,181,76247,2,0,L|238:175,1,75,8|0,0:0|0:0,0:0:0:0:
279,108,76590,6,0,P|261:37|175:6,1,150,6|10,1:2|0:0,0:0:0:0:
189,94,77104,2,0,L|347:105,1,150,2|2,1:2|1:2,0:0:0:0:
416,149,77618,2,0,P|424:192|400:249,1,75,10|0,0:0|1:0,0:0:0:0:
341,271,77961,2,0,L|249:266,1,75,0|0,0:0|1:0,0:0:0:0:
214,192,78304,6,0,L|209:100,1,75,10|2,0:0|0:0,0:0:0:0:
167,37,78647,1,10,0:0:0:0:
77,46,78818,1,10,0:0:0:0:
77,46,78904,1,8,0:0:0:0:
77,46,78990,2,0,L|23:41,3,37.5,8|0|0|0,0:0|1:0|1:0|1:0,0:0:0:0:
1,58,79333,6,0,P|-19:99|27:217,1,150,6|8,1:2|0:0,0:0:0:0:
68,259,79847,2,0,L|224:251,1,150,2|0,0:0|1:0,0:0:0:0:
263,173,80361,2,0,P|251:127|261:85,1,75,10|0,0:0|1:0,0:0:0:0:
330,51,80704,2,0,P|342:97|332:139,1,75,0|0,0:0|1:0,0:0:0:0:
306,208,81047,6,0,L|313:313,1,75,10|2,0:0|0:0,0:0:0:0:
257,355,81390,2,0,P|212:368|164:352,1,75,2|2,1:2|1:2,0:0:0:0:
120,300,81733,2,0,L|115:225,1,75,10|0,0:0|0:0,0:0:0:0:
197,259,82075,6,0,P|248:280|339:257,1,150,2|10,1:2|0:0,0:0:0:0:
388,182,82590,2,0,L|397:11,1,150,2|2,0:0|1:2,0:0:0:0:
307,13,83104,2,0,P|270:4|233:11,1,75,10|2,0:0|1:2,0:0:0:0:
170,75,83447,2,0,L|165:172,1,75,2|2,0:0|1:2,0:0:0:0:
190,236,83790,1,8,0:0:0:0:
114,278,83961,2,0,P|77:283|41:272,1,75,2|0,0:0|1:0,0:0:0:0:
11,187,84304,2,0,L|6:31,1,150,2|2,1:2|0:0,0:0:0:0:
89,1,84818,5,6,1:2:0:0:
130,81,84990,2,0,L|135:165,1,75,2|8,0:0|0:0,0:0:0:0:
179,234,85333,2,0,L|174:318,1,75,2|0,0:0|1:0,0:0:0:0:
234,375,85675,2,0,P|267:387|309:382,1,75,2|8,1:2|0:0,0:0:0:0:
364,314,86018,6,0,L|369:230,1,75,6|0,1:2|0:0,0:0:0:0:
415,162,86361,2,0,L|410:78,1,75,2|8,1:2|0:0,0:0:0:0:
460,11,86704,2,0,P|420:-8|307:14,1,150,2|0,0:0|1:0,0:0:0:0:
268,81,87218,2,0,L|262:224,1,112.5,8|0,0:0|0:0,0:0:0:0:
263,238,87561,6,0,P|303:257|416:235,1,150,4|8,1:2|0:0,0:0:0:0:
462,173,88075,1,0,0:0:0:0:
387,121,88247,2,0,L|312:126,1,75,2|0,0:0|1:0,0:0:0:0:
241,70,88590,2,0,L|166:64,1,75,10|0,0:0|1:0,0:0:0:0:
84,26,88933,6,0,L|79:66,2,37.5,6|0|0,1:2|1:0|1:0,0:0:0:0:
44,131,89275,2,0,L|39:171,2,37.5,8|8|8,0:0|0:0|0:0,0:0:0:0:
46,244,89618,2,0,L|51:284,2,37.5,2|0|0,1:2|1:0|1:0,0:0:0:0:
106,337,89961,6,0,P|172:349|229:328,1,112.5,6|0,0:0|0:0,0:0:0:0:
246,305,90304,2,0,P|257:267|250:226,1,75,12|0,0:0|1:0,0:0:0:0:
224,146,90647,1,0,1:0:0:0:
269,68,90818,2,0,L|358:62,1,75,8|0,0:0|0:0,0:0:0:0:
433,56,91161,1,0,1:0:0:0:
405,142,91333,6,0,P|391:182|398:216,1,75,8|0,0:0|1:0,0:0:0:0:
426,297,91675,1,0,1:0:0:0:
340,267,91847,2,0,L|257:263,1,75,8|0,0:0|1:0,0:0:0:0:
178,239,92190,1,0,1:0:0:0:
104,291,92361,2,0,P|96:327|106:363,1,75,8|0,0:0|1:0,0:0:0:0:
194,381,92704,2,0,L|277:377,1,75,0|0,1:0|1:0,0:0:0:0:
328,309,93047,6,0,P|313:247|324:161,1,150,14|0,1:2|1:0,0:0:0:0:
300,74,93561,2,0,L|144:65,1,150,2|0,0:0|0:0,0:0:0:0:
79,121,94075,2,0,P|33:193|58:255,1,150,2|0,1:2|1:0,0:0:0:0:
141,266,94590,2,0,P|222:245|295:273,1,150,2|0,0:0|0:0,0:0:0:0:
353,320,95104,1,2,1:2:0:0:
406,247,95275,1,8,0:0:0:0:
406,247,95361,1,8,0:0:0:0:
406,247,95447,2,0,L|411:186,3,37.5,10|8|8|8,0:0|0:0|0:0|0:0,0:0:0:0:
394,166,95790,6,0,L|388:78,1,75,6|0,1:2|0:0,0:0:0:0:
327,24,96133,2,0,P|252:24|230:42,1,75,8|0,0:0|0:0,0:0:0:0:
198,92,96475,2,0,L|192:166,1,75,0|0,1:0|1:0,0:0:0:0:
171,254,96818,1,8,0:0:0:0:
251,214,96990,6,0,P|287:207|323:216,1,75,4|0,1:2|0:0,0:0:0:0:
397,267,97333,1,0,1:0:0:0:
337,334,97504,2,0,L|255:340,1,75,8|0,0:0|0:0,0:0:0:0:
191,283,97847,2,0,L|116:277,1,75,0|0,1:0|1:0,0:0:0:0:
51,213,98190,2,0,P|44:176|53:140,1,75,8|0,0:0|0:0,0:0:0:0:
131,95,98533,6,0,P|174:104|224:88,1,75,4|0,1:2|0:0,0:0:0:0:
285,59,98875,2,0,P|321:50|357:55,1,75,8|0,0:0|0:0,0:0:0:0:
438,96,99218,2,0,L|445:183,1,75,0|0,0:0|1:0,0:0:0:0:
414,256,99561,2,0,L|407:343,1,75,10|0,0:0|1:0,0:0:0:0:
324,365,99904,6,0,P|262:386|176:362,1,150,2|8,0:0|0:0,0:0:0:0:
120,299,100418,2,0,L|113:138,1,150,2|0,0:0|1:0,0:0:0:0:
188,97,100933,2,0,P|223:86|260:93,1,75,10|0,0:0|0:0,0:0:0:0:
301,172,101275,6,0,L|305:246,1,75,6|0,1:2|0:0,0:0:0:0:
339,330,101618,2,0,P|375:337|411:326,1,75,8|0,0:0|0:0,0:0:0:0:
465,254,101961,2,0,L|469:179,1,75,0|0,1:0|1:0,0:0:0:0:
425,99,102304,2,0,P|389:88|352:95,1,75,8|0,0:0|1:0,0:0:0:0:
285,154,102647,2,0,L|289:228,1,75,0|0,0:0|0:0,0:0:0:0:
245,308,102990,2,0,P|209:318|172:311,1,75,8|0,0:0|0:0,0:0:0:0:
122,235,103333,2,0,L|126:160,1,75,0|0,1:0|0:0,0:0:0:0:
191,98,103675,2,0,P|227:90|263:101,1,75,8|0,0:0|0:0,0:0:0:0:
314,174,104018,6,0,P|304:219|313:295,1,112.5,4|0,1:2|0:0,0:0:0:0:
318,328,104361,2,0,L|243:324,1,75,8|0,0:0|0:0,0:0:0:0:
179,260,104704,2,0,P|171:224|182:188,1,75,0|0,1:0|1:0,0:0:0:0:
225,108,105047,2,0,P|233:72|222:36,1,75,8|2,0:0|1:2,0:0:0:0:
134,14,105390,2,0,L|52:10,1,75,0|2,0:0|1:2,0:0:0:0:
4,82,105733,6,0,P|-6:117|1:153,1,75,8|2,0:0|0:0,0:0:0:0:
60,221,106075,2,0,L|122:226,3,37.5,8|8|8|8,0:0|0:0|0:0|0:0,0:0:0:0:
128,251,106418,2,0,L|165:247,3,37.5,8|8|8|8,0:0|0:0|0:0|0:0,0:0:0:0:
190,280,106761,6,0,L|280:288,1,75,14|0,1:2|1:0,0:0:0:0:
360,311,107104,1,0,1:0:0:0:
324,228,107275,2,0,P|320:179|333:146,1,75,12|0,0:0|1:0,0:0:0:0:
369,74,107618,1,0,0:0:0:0:
289,30,107790,6,0,L|214:23,1,75,12|0,0:0|1:0,0:0:0:0:
126,45,108133,2,0,L|119:97,2,37.5,0|0|0,1:0|1:0|1:0,0:0:0:0:
168,148,108475,2,0,L|175:200,2,37.5,0|0|0,1:0|1:0|1:0,0:0:0:0:
120,251,108818,2,0,L|113:303,2,37.5,0|0|0,1:0|1:0|1:0,0:0:0:0:
184,334,109161,2,0,L|191:386,2,37.5,0|0|0,1:0|1:0|1:0,0:0:0:0:
251,276,109504,6,0,L|336:283,1,75,12|0,0:0|0:0,0:0:0:0:
401,237,109847,1,0,1:0:0:0:
341,169,110018,2,0,P|332:119|343:85,1,75,12|0,0:0|0:0,0:0:0:0:
366,10,110361,1,0,1:0:0:0:
277,25,110533,6,0,L|199:21,1,75,12|0,0:0|1:0,0:0:0:0:
116,46,110875,2,0,P|107:96|118:130,1,75,8|0,0:0|1:0,0:0:0:0:
147,201,111218,2,0,L|153:251,2,37.5,2|0|0,1:2|0:0|0:0,0:0:0:0:
146,315,111561,2,0,L|141:373,2,37.5,2|0|0,1:2|0:0|0:0,0:0:0:0:
217,381,111904,2,0,L|254:384,2,37.5,2|0|0,1:2|0:0|0:0,0:0:0:0:
315,325,112247,6,0,P|327:272|316:237,1,75,14|0,0:0|0:0,0:0:0:0:
249,203,112590,1,0,1:0:0:0:
163,229,112761,2,0,L|88:230,1,75,12|0,0:0|0:0,0:0:0:0:
0,248,113104,1,0,1:0:0:0:
0,157,113275,6,0,P|1:120|18:84,1,75,12|0,0:0|0:0,0:0:0:0:
78,19,113618,2,0,L|169:25,1,75,8|0,0:0|1:0,0:0:0:0:
229,72,113961,2,0,L|235:125,2,37.5,0|0|0,1:0|1:0|1:0,0:0:0:0:
213,183,114304,2,0,L|207:236,2,37.5,0|0|0,1:0|1:0|1:0,0:0:0:0:
245,291,114647,2,0,L|251:344,2,37.5,0|0|0,1:0|1:0|1:0,0:0:0:0:
333,361,114990,6,0,P|367:375|403:370,1,75,12|0,0:0|0:0,0:0:0:0:
444,289,115333,1,0,1:0:0:0:
410,202,115504,2,0,L|415:118,1,75,12|0,0:0|0:0,0:0:0:0:
368,49,115847,1,0,1:0:0:0:
282,75,116018,6,0,P|239:84|201:76,1,75,12|0,0:0|1:0,0:0:0:0:
127,39,116361,2,0,P|84:30|46:38,1,75,8|0,0:0|1:0,0:0:0:0:
1,109,116704,1,8,0:0:0:0:
1,109,116790,1,8,0:0:0:0:
1,109,116875,2,0,L|-2:170,3,37.5,8|8|8|8,0:0|0:0|0:0|0:0,0:0:0:0:
19,186,117218,2,0,L|22:247,3,37.5,8|8|8|8,0:0|0:0|0:0|0:0,0:0:0:0:
35,266,117561,1,8,0:0:0:0:
110,216,117733,6,0,L|115:134,2,75,12|0|0,0:0|0:0|0:0,0:0:0:0:
138,293,118247,2,0,L|142:367,2,75,0|0|0,0:0|0:0|0:0,0:0:0:0:
192,230,118761,2,0,L|196:155,2,75,0|0|0,0:0|0:0|0:0,0:0:0:0:
232,302,119275,2,0,L|236:376,2,75,0|0|0,0:0|0:0|0:0,0:0:0:0:
279,233,119790,2,0,L|283:158,2,75,0|0|0,0:0|0:0|0:0,0:0:0:0:
323,303,120304,2,0,L|327:377,2,75,0|0|0,0:0|0:0|0:0,0:0:0:0:
373,237,120818,2,0,L|377:162,2,75,0|0|0,0:0|0:0|0:0,0:0:0:0:
427,300,121333,2,0,L|431:374,2,75
465,226,121847,2,0,L|469:151,2,75,0|0|0,0:0|0:0|0:0,0:0:0:0:
506,297,122361,5,0,0:0:0:0:
