osu file format v14

[General]
AudioFilename: audio.mp3
AudioLeadIn: 0
PreviewTime: 208751
Countdown: 0
SampleSet: Soft
StackLeniency: 0.5
Mode: 0
LetterboxInBreaks: 0
WidescreenStoryboard: 1

[Editor]
DistanceSpacing: 1
BeatDivisor: 4
GridSize: 16
TimelineZoom: 1.8

[Metadata]
Title:Koko kara, Koko kara
TitleUnicode:ここから、ここから
Artist:Hanayori Girls' Dormitory
ArtistUnicode:花寄女子寮
Creator:Ayucchi
Version:Penguins
Source:宇宙よりも遠い場所
Tags:japanese anime pop vtuber virtual youtuber v-tuber Sora Yori mo Tooi Basho ed ending full version cover a place further than the universe Hanayori Jyoshiryou joshiryou 鹿乃 kano 野々宮ののの nonomiya nonono 花丸はれる hanamaru hareru 小東ひとな kohigashi hitona 玉木マリ 小淵沢報瀬 三宅日向 白石結月 Tamaki Mari Kobuchizawa Shirase Miyake Hinata Shiraishi Yuzuki 水瀬いのり 花澤香菜 井口裕香 早見沙織 Minase Inori Hanazawa Kana Iguchi Yuka Hayami Saori
BeatmapID:2359459
BeatmapSetID:1129434

[Difficulty]
HPDrainRate:5
CircleSize:3.8
OverallDifficulty:8.5
ApproachRate:9
SliderMultiplier:1.6
SliderTickRate:1

[Events]
//Background and Video events
0,0,"newbg.jpg",0,0
//Break Periods
//Storyboard Layer 0 (Background)
//Storyboard Layer 1 (Fail)
//Storyboard Layer 2 (Pass)
//Storyboard Layer 3 (Foreground)
//Storyboard Layer 4 (Overlay)
//Storyboard Sound Samples

[TimingPoints]
1409,342.857142857143,4,2,1,40,1,0
12380,-133.333333333333,4,2,1,40,0,0
16666,-133.333333333333,4,2,1,30,0,0
16751,-133.333333333333,4,2,1,40,0,0
22151,-133.333333333333,4,2,1,30,0,0
22236,-133.333333333333,4,2,1,40,0,0
27637,-133.333333333333,4,2,1,30,0,0
27722,-133.333333333333,4,2,1,40,0,0
33123,-133.333333333333,4,2,1,30,0,0
33208,-133.333333333333,4,2,1,40,0,0
34323,-133.333333333333,4,2,1,55,0,0
39809,-100,4,2,1,70,0,1
83694,-133.333333333333,4,2,1,40,0,0
116609,-133.333333333333,4,2,1,55,0,0
120723,-111.111111111111,4,2,1,40,0,0
122094,-100,4,2,1,70,0,1
165980,-111.111111111111,4,2,1,50,0,0
171380,-111.111111111111,4,2,1,5,0,0
171466,-111.111111111111,4,2,1,50,0,0
176866,-111.111111111111,4,2,1,5,0,0
176952,-111.111111111111,4,2,1,50,0,0
187923,-100,4,2,1,60,0,0
209866,-270.27027027027,4,2,1,30,0,0
215351,-357.142857142857,4,2,1,30,0,0
220837,-133.333333333333,4,2,1,40,0,0
229066,-111.111111111111,4,2,1,50,0,0
231809,-100,4,2,1,70,0,1
264723,-200,4,2,1,30,0,0
271580,-200,4,2,1,5,0,0

[Colours]
Combo1 : 255,192,203
Combo2 : 177,156,217
Combo3 : 255,179,71
Combo4 : 136,255,255

[HitObjects]
224,65,12380,5,4,0:0:0:0:
177,214,12723,2,0,L|52:238,2,120.000004577637,10|2|2,0:3|0:2|0:3,0:0:0:0:
335,289,13751,6,0,P|284:312|228:284,1,120.000004577637,2|8,1:2|0:3,0:0:0:0:
177,214,14266,2,0,P|188:184|183:93,1,120.000004577637,10|0,2:3|1:2,0:0:0:0:
110,55,14780,1,2,1:2:0:0:
110,55,14951,1,2,0:2:0:0:
255,40,15123,6,0,L|383:58,1,120.000004577637,0|8,1:2|2:3,0:0:0:0:
454,104,15637,2,0,P|459:167|430:229,1,120.000004577637,8|0,0:3|0:0,0:0:0:0:
354,194,16151,1,0,1:2:0:0:
354,194,16494,6,0,P|340:230|341:262,1,60.0000022888184,2|8,1:2|0:0,0:0:0:0:
423,275,16837,2,0,P|437:239|436:207,1,60.0000022888184,2|8,0:2|0:3,0:0:0:0:
254,264,17180,2,0,P|266:300|287:324,1,60.0000022888184,2|8,0:2|2:3,0:0:0:0:
414,142,17523,1,10,0:3:0:0:
414,142,17866,6,0,P|343:140|278:160,1,120.000004577637,4|8,0:0|0:3,0:0:0:0:
232,215,18380,2,0,L|255:338,1,120.000004577637,8|0,0:3|0:0,0:0:0:0:
188,383,18894,1,2,1:2:0:0:
188,383,19237,6,0,P|136:343|77:367,1,120.000004577637,2|10,1:2|0:3,0:0:0:0:
7,384,19751,2,0,P|-1:332|22:256,1,120.000004577637,10|0,0:3|1:2,0:0:0:0:
105,239,20266,1,2,1:2:0:0:
105,239,20437,1,2,0:2:0:0:
24,132,20609,6,0,P|83:155|156:158,1,120.000004577637,0|8,1:2|2:3,0:0:0:0:
214,95,21123,2,0,L|233:227,1,120.000004577637,8|0,2:3|0:0,0:0:0:0:
306,276,21637,1,0,1:2:0:0:
306,276,21980,5,0,1:2:0:0:
403,335,22151,2,0,L|320:351,1,60.0000022888184,8|0,0:0|0:0,0:0:0:0:
482,376,22494,1,8,2:3:0:0:
512,283,22666,1,0,0:0:0:0:
486,380,22837,1,8,2:3:0:0:
441,207,23009,1,8,2:3:0:0:
486,380,23351,5,4,0:0:0:0:
329,197,23694,2,0,P|375:183|451:217,2,120.000004577637,10|2|2,2:3|0:2|1:2,0:0:0:0:
231,314,24723,6,0,L|358:279,1,120.000004577637,2|10,1:2|2:3,0:0:0:0:
329,197,25237,2,0,P|309:142|368:107,1,120.000004577637,10|0,2:3|1:2,0:0:0:0:
440,132,25751,1,2,1:2:0:0:
440,132,25923,1,2,0:2:0:0:
511,18,26094,6,0,P|455:37|387:36,1,120.000004577637,0|8,1:2|2:3,0:0:0:0:
319,0,26609,2,0,L|198:27,1,120.000004577637,8|0,2:3|0:0,0:0:0:0:
158,98,27123,1,0,1:2:0:0:
158,98,27466,6,0,P|172:134|171:166,1,60.0000022888184,2|8,1:2|0:0,0:0:0:0:
89,179,27809,2,0,P|75:143|76:111,1,60.0000022888184,2|8,0:2|2:3,0:0:0:0:
258,168,28152,2,0,P|246:204|225:228,1,60.0000022888184,2|0,0:2|1:2,0:0:0:0:
98,46,28495,1,2,1:2:0:0:
98,46,28837,6,0,P|151:27|218:45,1,120.000004577637,4|8,1:2|2:3,0:0:0:0:
268,106,29351,2,0,L|252:250,1,120.000004577637,8|0,2:3|0:0,0:0:0:0:
173,182,29866,1,2,1:2:0:0:
173,182,30209,6,0,P|127:203|49:209,1,120.000004577637,2|10,1:2|2:3,0:0:0:0:
0,273,30723,2,0,P|-10:311|61:346,1,120.000004577637,10|0,2:3|1:2,0:0:0:0:
124,311,31237,1,2,1:2:0:0:
124,311,31409,1,2,0:2:0:0:
270,379,31580,6,0,L|286:244,1,120.000004577637,0|8,1:2|2:3,0:0:0:0:
365,303,32094,2,0,P|414:341|483:311,1,120.000004577637,8|0,2:3|0:0,0:0:0:0:
509,261,32609,1,0,1:2:0:0:
509,261,32951,5,0,1:2:0:0:
450,150,33123,2,0,L|438:224,1,60.0000022888184,8|0,0:0|0:0,0:0:0:0:
504,89,33466,1,8,2:3:0:0:
453,31,33637,2,0,P|427:22|373:32,1,60.0000022888184,2|8,0:2|2:3,0:0:0:0:
304,98,33980,2,0,P|333:107|363:106,1,60.0000022888184,10|0,2:3|0:0,0:0:0:0:
198,31,34323,5,4,0:0:0:0:
198,31,34666,2,0,P|189:65|180:115,1,60.0000022888184,2|0,0:2|1:0,0:0:0:0:
119,192,35009,2,0,L|101:108,1,60.0000022888184,10|0,0:0|0:0,0:0:0:0:
35,34,35351,2,0,L|17:118,1,60.0000022888184,2|0,0:2|0:0,0:0:0:0:
32,209,35694,5,0,1:2:0:0:
32,209,36037,2,0,L|109:214,1,60.0000022888184,2|0,0:2|1:2,0:0:0:0:
131,332,36380,2,0,L|54:337,1,60.0000022888184,10|0,0:0|1:2,0:0:0:0:
202,170,36723,2,0,P|218:209|204:270,1,90.0000034332277,2|0,1:2|0:0,0:0:0:0:
195,281,37066,5,4,0:0:0:0:
195,281,37409,1,0,1:2:0:0:
300,358,37580,1,0,1:2:0:0:
300,358,37666,1,0,1:2:0:0:
300,358,37751,1,8,2:2:0:0:
297,198,37923,1,0,1:2:0:0:
388,289,38094,1,2,1:2:0:0:
287,189,38266,1,2,1:2:0:0:
475,191,38437,5,4,1:2:0:0:
475,191,39809,6,0,P|431:125|330:139,1,160,6|8,0:0|0:0,0:0:0:0:
246,335,40323,2,0,B|291:310|328:343|312:340|354:370|410:338,1,160,0|0,1:2|1:2,0:0:0:0:
390,195,40837,2,0,P|369:234|367:278,1,80,10|0,0:0|0:0,0:0:0:0:
488,206,41180,6,0,L|474:113,1,80,2|0,1:2|0:0,0:0:0:0:
323,50,41523,2,0,L|309:143,1,80,10|0,0:0|1:2,0:0:0:0:
266,231,41866,1,2,0:2:0:0:
226,81,42037,1,0,1:2:0:0:
92,171,42209,2,0,P|130:191|194:173,1,80,10|0,0:0|0:0,0:0:0:0:
156,353,42551,6,0,P|76:326|3:388,1,160,0|8,1:2|0:0,0:0:0:0:
196,271,43066,2,0,B|181:205|181:205|193:172|193:172|174:80,1,160,0|0,1:2|1:2,0:0:0:0:
29,134,43580,2,0,P|63:158|108:154,1,80,8|0,0:0|0:0,0:0:0:0:
198,34,43923,5,0,1:2:0:0:
270,158,44094,1,0,1:2:0:0:
373,58,44266,2,0,L|265:74,1,80,10|0,0:0|1:2,0:0:0:0:
412,177,44609,2,0,L|520:193,1,80,2|0,0:2|1:2,0:0:0:0:
299,234,44951,2,0,P|285:277|297:328,1,80,10|0,0:0|0:0,0:0:0:0:
483,362,45294,6,0,P|456:296|366:286,1,160,0|8,1:2|0:0,0:0:0:0:
197,372,45809,2,0,B|241:347|281:364|266:373|303:389|364:362,1,160,0|0,1:2|1:2,0:0:0:0:
268,197,46323,2,0,L|250:295,1,80,10|0,0:0|0:0,0:0:0:0:
159,108,46666,6,0,P|199:102|253:125,1,80,2|0,1:2|0:0,0:0:0:0:
81,247,47009,2,0,L|70:165,1,80,10|0,0:0|1:2,0:0:0:0:
39,33,47351,1,2,0:2:0:0:
141,129,47523,1,0,1:2:0:0:
257,23,47694,2,0,L|165:34,1,80,10|0,0:0|0:0,0:0:0:0:
265,215,48037,6,0,P|304:156|388:161,1,160,0|8,1:2|0:0,0:0:0:0:
446,230,48551,1,0,1:2:0:0:
512,69,48723,2,0,L|420:87,1,80,2|0,0:2|1:2,0:0:0:0:
269,219,49066,2,0,L|361:237,1,80,8|0,0:0|0:0,0:0:0:0:
309,102,49409,5,2,1:2:0:0:
269,219,49580,1,0,1:2:0:0:
166,134,49751,2,0,P|125:133|69:163,1,80,6|0,0:0|0:0,0:0:0:0:
44,279,50094,1,2,1:2:0:0:
158,372,50266,1,0,1:2:0:0:
139,215,50437,2,0,L|129:309,1,80,6|0,0:0|0:0,0:0:0:0:
13,382,50780,6,0,L|3:288,1,80,4|0,0:0|0:0,0:0:0:0:
58,153,51123,1,10,0:0:0:0:
137,260,51294,1,0,1:2:0:0:
245,126,51466,2,0,P|211:148|145:145,1,80,2|0,0:2|1:2,0:0:0:0:
34,70,51809,6,0,P|104:35|192:85,1,160,10|0,0:0|1:2,0:0:0:0:
184,200,52323,1,0,1:2:0:0:
324,116,52494,2,0,L|243:126,1,80,10|0,0:0|1:2,0:0:0:0:
326,226,52837,2,0,L|407:236,1,80,2|0,0:2|1:2,0:0:0:0:
289,376,53180,2,0,P|276:329|284:293,1,80,10|0,0:0|0:0,0:0:0:0:
471,321,53523,6,0,P|423:373|368:305,1,160,0|8,1:2|0:0,0:0:0:0:
499,169,54037,2,0,B|493:235|493:235|475:249|475:249|470:320,1,160,0|0,1:2|1:2,0:0:0:0:
337,187,54551,2,0,P|387:177|445:187,1,80,8|0,0:0|0:0,0:0:0:0:
505,57,54894,6,0,P|455:67|397:57,1,80,0|0,1:2|1:2,0:0:0:0:
273,47,55237,2,0,L|263:146,1,80,10|0,0:0|1:2,0:0:0:0:
165,252,55580,2,0,L|155:153,1,80,2|0,0:2|1:2,0:0:0:0:
228,306,55923,2,0,P|191:331|125:311,1,80,10|0,0:0|0:0,0:0:0:0:
3,170,56266,6,0,B|45:194|83:171|71:162|117:146|162:175,1,160,0|10,1:2|0:0,0:0:0:0:
118,251,56780,1,0,1:2:0:0:
41,98,56951,2,0,L|51:13,1,80,2|0,0:2|1:2,0:0:0:0:
173,88,57294,2,0,L|183:173,1,80,10|0,0:0|0:0,0:0:0:0:
252,280,57637,6,0,P|296:291|341:280,1,80,2|0,1:2|1:2,0:0:0:0:
348,119,57980,2,0,P|316:151|303:196,1,80,10|0,0:0|1:2,0:0:0:0:
440,283,58323,2,0,P|427:239|395:205,1,80,2|0,0:2|1:2,0:0:0:0:
252,280,58666,2,0,P|296:291|341:280,1,80,10|0,0:0|0:0,0:0:0:0:
154,193,59009,6,0,P|85:185|37:239,1,120,0|0,1:2|0:0,0:0:0:0:
33,246,59351,1,4,0:0:0:0:
88,348,59523,1,0,0:0:0:0:
37,250,59694,2,0,L|28:144,1,80,0|0,1:2|1:2,0:0:0:0:
168,204,60037,2,0,L|159:310,1,80,4|0,0:0|0:0,0:0:0:0:
256,374,60380,5,4,1:2:0:0:
352,281,60551,1,0,1:2:0:0:
352,281,60637,1,0,1:2:0:0:
352,281,60723,1,10,0:0:0:0:
491,347,60894,1,0,1:2:0:0:
491,347,60980,1,0,1:2:0:0:
491,347,61066,1,10,0:0:0:0:
457,221,61237,1,2,1:2:0:0:
391,362,61409,1,8,0:0:0:0:
377,179,61580,1,0,1:2:0:0:
377,179,61666,1,0,1:2:0:0:
377,179,61751,6,0,P|417:137|519:157,1,160,6|8,0:0|0:0,0:0:0:0:
384,284,62266,2,0,B|347:263|315:275|315:275|285:324|212:295,1,160,0|0,1:2|1:2,0:0:0:0:
464,329,62780,2,0,P|476:284|454:235,1,80,10|0,0:0|0:0,0:0:0:0:
264,148,63123,6,0,L|249:241,1,80,2|0,1:2|0:0,0:0:0:0:
371,362,63466,2,0,L|386:269,1,80,10|0,0:0|1:2,0:0:0:0:
383,152,63809,1,2,0:2:0:0:
468,252,63980,1,0,1:2:0:0:
441,92,64151,2,0,P|377:67|342:79,1,80,10|0,0:0|0:0,0:0:0:0:
251,226,64494,6,0,B|247:112|247:112|240:138|218:156,1,160,0|8,1:2|0:0,0:0:0:0:
32,90,65009,2,0,P|82:56|172:95,1,160,0|0,1:2|1:2,0:0:0:0:
111,222,65523,2,0,L|99:126,1,80,8|0,0:0|0:0,0:0:0:0:
190,260,65866,5,0,1:2:0:0:
120,353,66037,1,0,1:2:0:0:
33,231,66209,2,0,P|112:222|143:238,1,80,10|0,0:0|0:0,0:0:0:0:
285,336,66551,2,0,P|206:345|175:329,1,80,2|0,1:2|1:2,0:0:0:0:
200,146,66894,2,0,L|209:255,1,80,10|0,0:0|0:0,0:0:0:0:
15,347,67237,6,0,P|58:279|154:314,1,160,0|8,1:2|0:0,0:0:0:0:
285,336,67751,2,0,P|290:232|331:184,1,160,0|0,1:2|1:2,0:0:0:0:
412,122,68266,2,0,L|324:104,1,80,10|0,0:0|0:0,0:0:0:0:
493,83,68609,6,0,P|502:126|486:177,1,80,0|0,1:2|0:0,0:0:0:0:
393,229,68951,1,10,0:0:0:0:
492,307,69123,1,0,1:2:0:0:
363,348,69294,2,0,L|276:334,1,80,2|0,0:0|1:2,0:0:0:0:
165,234,69637,2,0,P|167:280|151:328,1,80,10|0,0:0|0:0,0:0:0:0:
44,157,69980,6,0,B|112:165|112:165|133:150|133:150|211:158,1,160,2|8,1:2|0:0,0:0:0:0:
263,69,70494,1,0,1:2:0:0:
108,5,70666,2,0,P|89:48|88:96,1,80,2|0,0:2|1:2,0:0:0:0:
176,232,71009,2,0,P|195:189|196:141,1,80,8|0,0:0|0:0,0:0:0:0:
34,155,71351,5,2,1:2:0:0:
97,278,71523,1,0,1:2:0:0:
197,156,71694,2,0,L|297:175,1,80,6|0,0:0|0:0,0:0:0:0:
375,245,72037,1,2,1:2:0:0:
451,127,72209,1,0,1:2:0:0:
301,99,72380,2,0,P|274:146|282:187,1,80,6|0,0:0|0:0,0:0:0:0:
466,109,72723,6,0,L|461:8,1,80,4|0,0:0|0:0,0:0:0:0:
318,85,73066,1,10,0:0:0:0:
370,208,73237,1,0,1:2:0:0:
197,183,73409,2,0,P|251:170|303:172,1,80,2|0,0:2|1:2,0:0:0:0:
477,262,73751,6,0,P|405:233|351:304,1,160,10|0,0:0|1:2,0:0:0:0:
322,372,74266,1,0,0:0:0:0:
186,262,74437,2,0,L|274:252,1,80,10|0,0:0|1:2,0:0:0:0:
152,364,74780,2,0,L|64:374,1,80,2|0,0:2|1:2,0:0:0:0:
86,185,75123,2,0,P|100:232|88:276,1,80,10|0,0:0|0:0,0:0:0:0:
26,119,75466,6,0,B|73:85|112:98|107:104|151:124|199:79,1,160,0|10,1:2|0:0,0:0:0:0:
239,11,75980,1,0,0:0:0:0:
218,178,76151,1,2,1:2:0:0:
134,20,76323,1,0,1:2:0:0:
324,166,76494,6,0,B|309:280|309:280|309:250|285:223,1,160,10|0,0:0|0:0,0:0:0:0:
279,90,77009,1,0,1:2:0:0:
406,38,77180,2,0,L|395:122,1,80,8|0,0:0|0:0,0:0:0:0:
372,248,77523,2,0,P|317:233|269:251,1,80,2|0,1:2|1:2,0:0:0:0:
460,290,77866,2,0,L|471:206,1,80,10|0,0:0|0:0,0:0:0:0:
372,94,78209,6,0,P|422:127|502:61,1,160,0|8,1:2|0:0,0:0:0:0:
304,38,78723,2,0,B|271:78|281:117|290:108|308:151|280:188,1,160,0|0,1:2|1:2,0:0:0:0:
175,260,79237,1,10,0:0:0:0:
212,143,79409,1,2,0:2:0:0:
47,247,79580,6,0,B|114:256|114:256|144:233|144:233|208:241,1,160,0|8,1:2|0:0,0:0:0:0:
118,73,80094,2,0,P|52:112|90:172,1,160,0|0,1:2|1:2,0:0:0:0:
175,260,80609,1,10,0:0:0:0:
214,141,80780,1,2,0:2:0:0:
309,316,80951,6,0,B|364:340|396:313|383:310|423:292|478:317,1,160,4|8,1:2|0:0,0:0:0:0:
510,202,81466,1,0,0:0:0:0:
374,165,81637,2,0,P|352:203|358:268,1,80,0|0,1:2|1:2,0:0:0:0:
458,122,81980,2,0,L|448:27,1,80,8|0,0:0|0:0,0:0:0:0:
282,88,82323,5,8,0:0:0:0:
374,165,82494,1,0,1:2:0:0:
272,81,82666,1,8,0:0:0:0:
382,0,82837,1,0,1:2:0:0:
382,0,82923,1,0,1:2:0:0:
382,0,83009,1,8,0:0:0:0:
374,165,83180,1,0,1:2:0:0:
443,82,83351,1,8,0:0:0:0:
436,230,83523,1,0,1:2:0:0:
260,189,83694,6,0,P|316:163|386:168,1,120.000004577637,4|0,0:0|0:0,0:0:0:0:
436,230,84209,1,0,1:2:0:0:
260,189,85066,6,0,P|204:215|134:210,1,120.000004577637,0|0,1:2|0:0,0:0:0:0:
84,148,85581,1,0,1:2:0:0:
84,148,85923,1,0,0:0:0:0:
12,283,86094,1,2,0:0:0:0:
12,283,86437,6,0,L|138:309,1,120.000004577637,0|0,1:2|0:0,0:0:0:0:
193,374,86951,1,0,1:2:0:0:
408,369,87809,6,0,L|282:343,1,120.000004577637,0|0,1:2|0:0,0:0:0:0:
242,267,88323,1,0,1:2:0:0:
297,193,88494,2,0,P|325:175|368:167,1,60.0000022888184,2|0,0:0|0:0,0:0:0:0:
382,245,88837,2,0,P|358:262|330:271,1,60.0000022888184,2|0,0:0|0:0,0:0:0:0:
360,92,89180,6,0,P|424:101|501:92,1,120.000004577637,0|0,1:2|0:0,0:0:0:0:
512,18,89694,1,0,1:2:0:0:
301,35,90551,6,0,P|237:26|160:35,1,120.000004577637,0|0,1:2|0:0,0:0:0:0:
149,109,91065,1,0,1:2:0:0:
149,109,91409,2,0,L|158:191,2,60.0000022888184,2|2|2,0:0|0:0|0:0,0:0:0:0:
41,204,91923,6,0,P|34:268|32:344,1,120.000004577637,0|0,1:2|0:0,0:0:0:0:
106,384,92437,1,0,1:2:0:0:
143,224,93294,6,0,P|150:160|152:84,1,120.000004577637,0|0,1:2|0:0,0:0:0:0:
78,44,93808,1,0,1:2:0:0:
163,10,93980,2,0,L|233:19,1,60.0000022888184,2|0,0:0|0:0,0:0:0:0:
269,110,94323,2,0,L|339:119,1,60.0000022888184,2|0,0:0|0:0,0:0:0:0:
499,32,94666,5,4,0:0:0:0:
400,199,95009,2,0,P|405:148|440:75,2,120.000004577637,2|2|2,1:2|0:2|1:2,0:0:0:0:
512,315,96037,6,0,P|469:295|387:288,1,120.000004577637,2|0,1:2|1:2,0:0:0:0:
408,370,96551,2,0,B|366:372|366:372|340:357|340:357|281:361,1,120.000004577637,2|0,1:2|1:2,0:0:0:0:
221,316,97066,1,2,1:2:0:0:
221,316,97237,1,2,0:2:0:0:
59,384,97409,6,0,P|50:321|77:259,1,120.000004577637,0|0,1:2|1:2,0:0:0:0:
156,252,97923,2,0,L|135:130,1,120.000004577637,0|0,1:2|0:0,0:0:0:0:
171,55,98437,1,0,1:2:0:0:
171,55,98780,6,0,P|207:67|231:88,1,60.0000022888184,2|0,1:2|0:0,0:0:0:0:
188,159,99123,2,0,P|151:146|127:125,1,60.0000022888184,2|0,0:2|1:2,0:0:0:0:
288,23,99466,2,0,P|307:55|312:86,1,60.0000022888184,2|0,0:2|1:2,0:0:0:0:
92,67,99809,1,2,1:2:0:0:
92,67,100151,6,0,P|153:60|219:109,1,120.000004577637,4|0,0:0|1:2,0:0:0:0:
256,156,100666,2,0,L|235:295,1,120.000004577637,0|0,1:2|0:0,0:0:0:0:
294,347,101180,1,2,1:2:0:0:
294,347,101523,6,0,P|335:325|421:347,1,120.000004577637,2|2,1:2|1:2,0:0:0:0:
480,383,102037,2,0,P|486:318|501:248,1,120.000004577637,2|0,1:2|1:2,0:0:0:0:
438,194,102551,1,2,1:2:0:0:
438,194,102723,1,2,0:2:0:0:
277,243,102894,6,0,P|256:202|302:144,1,120.000004577637,0|0,1:2|1:2,0:0:0:0:
380,128,103409,2,0,P|394:77|351:8,1,120.000004577637,0|0,1:2|0:0,0:0:0:0:
280,44,103923,1,0,1:2:0:0:
280,44,104266,6,0,L|157:57,1,120.000004577637,0|0,1:2|0:0,0:0:0:0:
59,106,104780,1,0,1:2:0:0:
120,184,104951,1,2,0:2:0:0:
59,106,105123,1,0,1:2:0:0:
43,237,105294,2,0,L|38:313,1,60.0000022888184,2|0,1:2|0:0,0:0:0:0:
124,188,105637,5,4,0:0:0:0:
212,340,105980,2,0,P|212:267|198:194,2,120.000004577637,2|2|2,1:2|0:2|1:2,0:0:0:0:
282,183,107009,6,0,L|402:194,1,120.000004577637,2|2,1:2|1:2,0:0:0:0:
466,250,107523,2,0,P|477:298|427:364,1,120.000004577637,2|0,1:2|1:2,0:0:0:0:
366,325,108037,1,2,1:2:0:0:
366,325,108209,1,2,0:2:0:0:
210,369,108380,6,0,L|82:353,1,120.000004577637,0|0,1:2|1:2,0:0:0:0:
15,307,108894,2,0,P|11:243|68:198,1,120.000004577637,0|0,1:2|0:0,0:0:0:0:
129,226,109409,1,0,1:2:0:0:
198,174,109580,1,0,0:0:0:0:
198,174,109751,6,0,P|224:201|236:230,1,60.0000022888184,2|0,1:2|0:0,0:0:0:0:
165,273,110094,2,0,P|137:244|126:215,1,60.0000022888184,2|0,0:2|1:2,0:0:0:0:
316,198,110437,2,0,P|318:235|308:265,1,60.0000022888184,2|0,0:2|1:2,0:0:0:0:
122,148,110780,1,2,1:2:0:0:
122,148,111123,6,0,P|180:133|239:159,1,120.000004577637,0|0,1:2|1:2,0:0:0:0:
316,198,111637,2,0,L|336:68,1,120.000004577637,0|0,1:2|0:0,0:0:0:0:
421,55,112151,1,2,1:2:0:0:
421,55,112494,6,0,L|442:177,1,120.000004577637,2|2,1:2|1:2,0:0:0:0:
362,204,113009,2,0,P|353:262|391:324,1,120.000004577637,2|0,1:2|1:2,0:0:0:0:
460,355,113523,1,2,1:2:0:0:
460,355,113694,1,2,0:2:0:0:
323,380,113866,6,0,L|192:369,1,120.000004577637,0|0,1:2|1:2,0:0:0:0:
123,352,114380,2,0,P|116:303|120:217,1,120.000004577637,0|0,1:2|0:0,0:0:0:0:
188,184,114894,1,0,1:2:0:0:
188,184,115237,5,4,0:0:0:0:
235,64,115409,2,0,L|248:143,1,60.0000022888184,8|0,2:2|1:2,0:0:0:0:
164,25,115751,1,8,2:2:0:0:
244,123,115923,1,10,2:2:0:0:
164,25,116094,1,8,2:2:0:0:
165,164,116266,2,0,P|126:181|71:150,1,90.0000034332277,2|0,1:2|0:0,0:0:0:0:
65,152,116609,6,0,P|47:217|55:281,1,120.000004577637,4|2,0:0|0:0,0:0:0:0:
51,268,117294,2,0,L|137:285,1,60.0000022888184,2|0,1:2|0:0,0:0:0:0:
177,377,117637,6,0,P|202:326|279:314,1,120.000004577637,2|2,1:2|0:0,0:0:0:0:
259,308,118323,2,0,L|274:226,1,60.0000022888184,2|0,0:0|0:0,0:0:0:0:
370,300,118666,2,0,L|385:382,1,60.0000022888184,2|0,1:2|0:0,0:0:0:0:
455,245,119009,2,0,P|472:205|460:154,1,90.0000034332277,2|0,0:0|0:0,0:0:0:0:
437,146,119351,6,0,L|368:158,1,60.0000022888184,0|0,1:2|0:0,0:0:0:0:
237,79,119694,2,0,L|306:67,1,60.0000022888184,0|0,1:2|0:0,0:0:0:0:
243,206,120037,1,8,2:2:0:0:
163,42,120209,1,4,0:0:0:0:
153,143,120380,1,2,1:2:0:0:
163,42,120551,1,10,2:2:0:0:
61,194,120723,5,4,1:2:0:0:
85,220,120809,1,0,1:2:0:0:
118,233,120895,1,0,1:2:0:0:
153,229,120981,1,0,1:2:0:0:
187,215,121066,5,10,0:2:0:0:
220,201,121152,1,0,1:2:0:0:
255,199,121238,1,0,1:2:0:0:
288,212,121324,1,0,1:2:0:0:
315,236,121409,6,0,L|314:288,1,35.9999989013672,10|0,0:2|1:2,0:0:0:0:
261,116,121580,2,0,L|262:64,1,35.9999989013672,2|0,1:2|1:2,0:0:0:0:
323,256,121751,6,0,L|321:307,1,35.9999989013672,8|0,0:2|1:2,0:0:0:0:
269,136,121923,2,0,L|270:84,1,35.9999989013672,0|0,1:2|1:2,0:0:0:0:
403,301,122094,6,0,P|364:368|268:351,1,160,6|8,1:2|0:0,0:0:0:0:
360,197,122609,2,0,B|424:197|424:197|448:217|448:217|530:218,1,160,0|0,1:2|1:2,0:0:0:0:
296,130,123123,2,0,P|268:182|272:218,1,80,10|0,0:0|0:0,0:0:0:0:
202,383,123466,6,0,L|192:300,1,80,2|0,1:2|0:0,0:0:0:0:
77,152,123809,2,0,L|67:235,1,80,10|0,0:0|1:2,0:0:0:0:
97,324,124151,1,2,0:2:0:0:
215,230,124323,1,0,1:2:0:0:
293,362,124494,2,0,P|328:382|400:373,1,80,10|0,0:0|0:0,0:0:0:0:
284,179,124837,6,0,P|219:143|143:184,1,160,0|8,1:2|0:0,0:0:0:0:
69,325,125351,2,0,L|60:141,1,160,0|0,1:2|1:2,0:0:0:0:
193,111,125866,2,0,L|197:200,1,80,8|0,0:0|0:0,0:0:0:0:
113,68,126209,6,0,P|161:28|210:27,1,80,0|0,1:2|1:2,0:0:0:0:
277,94,126551,1,10,0:0:0:0:
196,190,126723,1,0,1:2:0:0:
307,247,126894,2,0,L|405:228,1,80,2|0,0:2|1:2,0:0:0:0:
477,155,127237,2,0,P|468:200|484:265,1,80,10|0,0:0|0:0,0:0:0:0:
367,384,127580,6,0,P|396:294|372:205,1,160,0|8,1:2|0:0,0:0:0:0:
170,169,128094,2,0,B|223:188|254:162|245:154|283:134|340:168,1,160,0|0,1:2|1:2,0:0:0:0:
205,10,128609,2,0,L|201:93,1,80,10|0,0:0|0:0,0:0:0:0:
405,117,128951,6,0,P|372:80|328:73,1,80,2|0,1:2|0:0,0:0:0:0:
262,168,129294,1,10,0:0:0:0:
213,30,129466,1,0,1:2:0:0:
96,115,129637,2,0,P|137:126|191:114,1,80,2|0,0:2|1:2,0:0:0:0:
10,11,129980,2,0,P|5:52|3:93,1,80,10|0,0:0|0:0,0:0:0:0:
2,317,130323,6,0,P|47:253|142:278,1,160,0|8,1:2|0:0,0:0:0:0:
168,334,130837,1,0,1:2:0:0:
274,181,131009,2,0,L|193:196,1,80,2|0,0:2|1:2,0:0:0:0:
323,342,131351,2,0,L|404:357,1,80,8|0,0:0|0:0,0:0:0:0:
264,270,131694,5,2,1:2:0:0:
168,334,131866,1,0,1:2:0:0:
115,188,132037,2,0,L|210:197,1,80,6|0,0:0|0:0,0:0:0:0:
264,270,132380,1,2,1:2:0:0:
338,174,132551,1,0,1:2:0:0:
405,277,132723,2,0,P|409:321|402:357,1,80,6|0,0:0|0:0,0:0:0:0:
433,149,133066,6,0,L|526:162,1,80,4|0,0:0|0:0,0:0:0:0:
397,64,133409,1,10,0:0:0:0:
338,174,133580,1,0,1:2:0:0:
222,96,133751,2,0,P|272:86|323:104,1,80,2|0,0:2|1:2,0:0:0:0:
146,216,134094,6,0,B|153:151|153:151|136:130|136:130|144:55,1,160,10|0,0:0|1:2,0:0:0:0:
222,96,134609,1,0,0:0:0:0:
61,180,134780,2,0,L|46:285,1,80,10|0,0:0|1:2,0:0:0:0:
176,321,135123,2,0,L|161:216,1,80,2|0,0:2|1:2,0:0:0:0:
10,344,135466,2,0,P|58:354|109:322,1,80,10|0,0:0|0:0,0:0:0:0:
246,199,135809,6,0,B|303:175|334:197|324:207|364:226|409:197,1,160,0|8,1:2|0:0,0:0:0:0:
443,10,136323,2,0,B|387:24|387:24|369:132,1,160,0|0,1:2|1:2,0:0:0:0:
492,186,136837,2,0,P|491:227|448:271,1,80,8|0,0:0|0:0,0:0:0:0:
349,342,137180,6,0,P|388:332|445:351,1,80,0|0,1:2|0:0,0:0:0:0:
256,307,137523,2,0,P|254:261|275:206,1,80,10|0,0:0|1:2,0:0:0:0:
404,128,137866,2,0,P|406:174|385:229,1,80,2|0,0:2|1:2,0:0:0:0:
232,118,138209,2,0,L|323:128,1,80,10|0,0:0|0:0,0:0:0:0:
149,15,138551,6,0,B|79:14|79:14|59:37|59:37|-9:37,1,160,0|10,1:2|0:0,0:0:0:0:
15,160,139066,1,0,1:2:0:0:
123,179,139237,2,0,L|120:85,1,80,2|0,0:2|1:2,0:0:0:0:
3,184,139580,2,0,L|0:278,1,80,10|0,0:0|0:0,0:0:0:0:
125,350,139923,6,0,P|169:361|214:350,1,80,2|0,1:2|0:0,0:0:0:0:
221,189,140266,2,0,P|189:221|176:266,1,80,10|0,0:0|1:2,0:0:0:0:
313,353,140609,2,0,P|300:309|268:275,1,80,2|0,0:2|1:2,0:0:0:0:
125,350,140952,2,0,P|169:361|214:350,1,80,10|0,0:0|0:0,0:0:0:0:
311,191,141294,5,0,1:2:0:0:
429,248,141466,2,0,L|415:343,1,80,4|0,0:0|1:2,0:0:0:0:
292,190,141809,1,0,1:2:0:0:
410,133,141981,2,0,L|396:38,1,80,4|0,0:0|1:2,0:0:0:0:
277,193,142323,1,8,0:0:0:0:
209,326,142494,1,4,0:0:0:0:
277,193,142666,5,8,1:2:0:0:
113,233,142837,1,0,1:2:0:0:
90,199,142923,1,0,1:2:0:0:
90,158,143009,1,10,0:0:0:0:
112,124,143094,1,0,1:2:0:0:
148,106,143180,1,0,1:2:0:0:
185,119,143266,1,0,1:2:0:0:
224,119,143351,1,10,1:2:0:0:
262,106,143437,1,0,1:2:0:0:
294,83,143523,6,0,P|306:103|308:148,1,40,2|0,1:2|1:2,0:0:0:0:
207,250,143694,2,0,P|218:229|256:205,1,40,8|0,1:2|1:2,0:0:0:0:
396,242,143866,2,0,P|372:242|332:221,1,40,0|0,1:2|1:2,0:0:0:0:
415,84,144037,6,0,P|439:155|400:242,1,160,6|8,1:2|0:0,0:0:0:0:
186,249,144551,2,0,B|218:209|218:209|353:204,1,160,0|0,1:2|1:2,0:0:0:0:
173,335,145066,2,0,L|86:325,1,80,10|0,0:0|0:0,0:0:0:0:
73,153,145409,6,0,P|83:204|66:257,1,80,2|0,1:2|0:0,0:0:0:0:
25,55,145751,2,0,L|136:71,1,80,10|0,0:0|1:2,0:0:0:0:
189,154,146094,1,2,0:2:0:0:
258,68,146266,1,0,1:2:0:0:
132,3,146437,2,0,P|117:45|114:87,1,80,10|0,0:0|0:0,0:0:0:0:
215,199,146780,6,0,P|140:183|67:265,1,160,0|8,1:2|0:0,0:0:0:0:
284,250,147294,2,0,B|312:210|295:169|295:169|303:120|359:87,1,160,0|0,1:2|1:2,0:0:0:0:
466,225,147809,2,0,L|384:234,1,80,8|0,0:0|0:0,0:0:0:0:
245,331,148151,6,0,L|327:340,1,80,0|0,1:2|0:0,0:0:0:0:
215,199,148494,1,10,0:0:0:0:
245,331,148666,1,0,1:2:0:0:
386,233,148837,2,0,P|338:228|283:261,1,80,2|0,1:2|1:2,0:0:0:0:
469,357,149180,2,0,L|481:273,1,80,10|0,0:0|0:0,0:0:0:0:
499,103,149523,6,0,P|456:142|364:80,1,160,0|8,1:2|0:0,0:0:0:0:
172,37,150037,2,0,B|243:26|243:26|263:46|263:46|339:34,1,160,0|0,1:2|1:2,0:0:0:0:
209,195,150551,2,0,L|214:91,1,80,10|0,0:0|0:0,0:0:0:0:
41,27,150894,6,0,L|46:131,1,80,0|0,1:2|0:0,0:0:0:0:
113,199,151237,1,10,0:0:0:0:
198,105,151409,1,0,1:2:0:0:
296,201,151580,2,0,P|228:209|196:194,1,80,0|0,0:0|1:2,0:0:0:0:
365,63,151923,2,0,L|371:146,1,80,10|0,0:0|0:0,0:0:0:0:
320,315,152266,6,0,P|370:263|460:321,1,160,2|8,1:2|0:0,0:0:0:0:
447,381,152780,1,0,1:2:0:0:
310,299,152951,2,0,P|268:286|220:298,1,80,2|0,0:2|1:2,0:0:0:0:
91,362,153294,2,0,P|132:374|180:362,1,80,8|0,0:0|0:0,0:0:0:0:
212,181,153637,5,2,1:2:0:0:
138,282,153809,1,0,1:2:0:0:
24,171,153980,2,0,L|126:191,1,80,6|0,0:0|0:0,0:0:0:0:
233,292,154323,1,2,1:2:0:0:
212,181,154494,1,0,1:2:0:0:
333,269,154666,2,0,L|337:357,1,80,6|0,0:0|0:0,0:0:0:0:
474,178,155009,6,0,P|417:165|380:176,1,80,4|0,0:0|0:0,0:0:0:0:
325,259,155351,1,10,0:0:0:0:
281,142,155523,1,0,1:2:0:0:
402,89,155694,2,0,L|395:186,1,80,2|0,0:2|1:2,0:0:0:0:
193,125,156037,6,0,P|234:66|331:71,1,160,10|0,0:0|1:2,0:0:0:0:
396,168,156551,1,0,0:0:0:0:
480,74,156723,2,0,L|374:93,1,80,10|0,0:0|1:2,0:0:0:0:
242,190,157066,2,0,L|348:209,1,80,2|0,0:2|1:2,0:0:0:0:
241,32,157409,2,0,P|213:80|222:122,1,80,10|0,0:0|0:0,0:0:0:0:
145,334,157751,6,0,P|168:263|150:169,1,160,0|10,1:2|0:0,0:0:0:0:
58,66,158266,1,0,1:2:0:0:
156,181,158437,1,2,1:2:0:0:
206,32,158609,1,0,1:2:0:0:
8,203,158780,6,0,L|177:195,1,160,10|0,0:0|0:0,0:0:0:0:
220,283,159294,1,0,1:2:0:0:
316,134,159466,2,0,P|264:125|230:139,1,80,8|0,0:0|0:0,0:0:0:0:
361,289,159809,2,0,L|370:201,1,80,2|0,1:2|1:2,0:0:0:0:
416,353,160151,2,0,P|386:370|319:360,1,80,10|0,0:0|0:0,0:0:0:0:
180,254,160494,6,0,P|107:244|50:323,1,160,0|8,1:2|0:0,0:0:0:0:
215,333,161009,2,0,B|275:321|275:321|303:347|303:347|393:330,1,160,0|0,1:0|1:2,0:0:0:0:
424,213,161523,1,10,0:0:0:0:
370,324,161694,1,2,0:2:0:0:
347,176,161866,6,0,P|401:129|488:161,1,160,0|8,1:2|0:0,0:0:0:0:
277,224,162380,2,0,B|251:181|265:143|275:157|290:104|247:60,1,160,0|0,1:0|1:2,0:0:0:0:
106,202,162894,1,10,0:0:0:0:
191,120,163066,1,2,0:2:0:0:
96,30,163237,6,0,B|87:86|87:86|101:123|101:123|93:197,1,160,4|8,1:2|0:0,0:0:0:0:
79,316,163751,1,0,0:0:0:0:
231,272,163923,2,0,P|180:248|124:264,1,80,0|0,1:2|1:2,0:0:0:0:
313,382,164266,2,0,L|325:294,1,80,8|0,0:0|0:0,0:0:0:0:
374,195,164609,5,0,1:2:0:0:
461,283,164780,1,0,1:2:0:0:
476,99,164951,1,8,0:0:0:0:
382,203,165123,1,0,1:2:0:0:
382,203,165209,1,0,1:2:0:0:
382,203,165294,1,8,0:0:0:0:
270,92,165466,1,0,1:2:0:0:
229,235,165637,1,8,0:0:0:0:
270,92,165809,1,0,1:2:0:0:
295,295,165980,6,0,P|231:328|151:272,1,143.999995605469,4|10,0:0|0:0,0:0:0:0:
141,130,166494,1,0,1:2:0:0:
218,165,166666,2,0,P|231:198|228:234,1,71.9999978027344,2|0,0:0|1:2,0:0:0:0:
141,130,167009,1,10,0:0:0:0:
243,60,167180,6,0,B|210:78|171:60|180:47|145:33|94:61,1,143.999995605469,2|0,0:0|0:0,0:0:0:0:
0,204,167694,2,0,P|32:236|70:246,1,71.9999978027344,10|0,0:0|1:2,0:0:0:0:
141,130,168037,2,0,P|97:141|69:169,1,71.9999978027344,2|0,0:0|1:2,0:0:0:0:
134,289,168380,2,0,P|145:245|135:207,1,71.9999978027344,10|0,0:0|0:0,0:0:0:0:
64,349,168723,6,0,B|94:379|94:379|220:369,1,143.999995605469,2|8,1:2|0:0,0:0:0:0:
248,227,169237,1,0,1:2:0:0:
312,281,169409,2,0,P|284:306|247:312,1,71.9999978027344,0|0,0:0|1:2,0:0:0:0:
297,158,169751,2,0,L|378:166,1,71.9999978027344,10|2,0:0|0:0,0:0:0:0:
426,280,170094,5,0,1:2:0:0:
456,197,170266,1,0,1:2:0:0:
480,340,170437,2,0,P|448:362|403:356,1,71.9999978027344,8|0,0:0|0:0,0:0:0:0:
375,223,170780,1,0,1:2:0:0:
287,270,170951,1,0,1:2:0:0:
398,350,171123,2,0,L|396:233,1,107.999996704102,8|0,0:0|0:0,0:0:0:0:
375,223,171466,6,0,P|324:251|254:213,1,143.999995605469,0|10,1:2|0:0,0:0:0:0:
288,72,171980,1,0,1:2:0:0:
230,134,172151,2,0,L|146:124,1,71.9999978027344,2|0,0:0|1:2,0:0:0:0:
116,15,172494,1,10,0:0:0:0:
81,168,172666,6,0,P|69:246|77:323,1,143.999995605469,2|0,0:0|0:0,0:0:0:0:
183,247,173180,2,0,P|222:229|272:232,1,71.9999978027344,10|0,0:0|1:2,0:0:0:0:
295,363,173523,2,0,P|259:338|237:293,1,71.9999978027344,2|0,0:0|1:2,0:0:0:0:
340,209,173866,2,0,P|336:251|308:293,1,71.9999978027344,10|0,0:0|0:0,0:0:0:0:
235,120,174209,6,0,B|292:132|292:132|316:114|316:114|384:127,1,143.999995605469,2|8,1:2|0:0,0:0:0:0:
340,209,174723,1,0,1:2:0:0:
460,164,174894,2,0,P|468:119|446:71,1,71.9999978027344,2|0,0:0|1:2,0:0:0:0:
348,31,175237,2,0,P|340:76|362:124,1,71.9999978027344,8|0,0:0|0:0,0:0:0:0:
460,164,175580,5,2,1:2:0:0:
421,69,175751,1,0,1:2:0:0:
340,209,175923,2,0,L|252:198,1,71.9999978027344,8|0,0:0|0:0,0:0:0:0:
215,100,176266,1,2,1:2:0:0:
175,184,176437,1,2,1:2:0:0:
279,50,176609,2,0,P|230:18|164:38,1,107.999996704102,8|0,0:0|0:0,0:0:0:0:
165,42,176951,6,0,L|153:192,1,143.999995605469,4|10,0:0|0:0,0:0:0:0:
72,333,177466,1,0,1:2:0:0:
21,265,177637,2,0,P|67:248|98:253,1,71.9999978027344,2|0,0:0|1:2,0:0:0:0:
156,334,177980,1,10,0:0:0:0:
312,257,178151,6,0,B|260:229|260:229|166:250,1,143.999995605469,2|0,0:0|1:2,0:0:0:0:
291,346,178666,2,0,L|369:339,1,71.9999978027344,10|0,0:0|1:2,0:0:0:0:
455,214,179009,2,0,L|377:207,1,71.9999978027344,2|0,0:0|1:2,0:0:0:0:
388,358,179351,1,10,0:0:0:0:
481,300,179523,1,2,0:0:0:0:
307,244,179694,6,0,P|298:196|372:122,1,143.999995605469,0|8,1:2|0:0,0:0:0:0:
375,299,180209,1,0,1:2:0:0:
311,354,180380,2,0,L|233:347,1,71.9999978027344,0|0,0:0|1:2,0:0:0:0:
83,311,180723,2,0,P|64:346|68:384,1,71.9999978027344,10|2,0:0|0:0,0:0:0:0:
152,362,181066,5,0,1:2:0:0:
151,236,181237,1,0,1:2:0:0:
299,283,181409,2,0,L|205:297,1,71.9999978027344,8|0,0:0|0:0,0:0:0:0:
83,311,181751,1,2,1:2:0:0:
151,236,181923,1,0,1:2:0:0:
0,204,182094,2,0,P|-3:148|38:94,1,107.999996704102,10|0,0:0|0:0,0:0:0:0:
40,94,182437,6,0,B|99:92|99:92|115:116|115:116|180:115,1,143.999995605469,0|8,1:2|0:0,0:0:0:0:
278,33,182951,1,0,1:2:0:0:
265,185,183123,2,0,L|249:99,1,71.9999978027344,0|0,1:2|1:2,0:0:0:0:
340,215,183466,2,0,P|317:248|256:256,1,71.9999978027344,8|0,0:0|0:0,0:0:0:0:
134,213,183809,6,0,P|190:177|288:200,2,143.999995605469,0|10|2,1:2|0:0|1:2,0:0:0:0:
142,350,184666,1,0,1:2:0:0:
50,248,184837,2,0,P|46:213|63:168,1,71.9999978027344,10|2,0:0|0:0,0:0:0:0:
155,60,185180,5,4,0:0:0:0:
155,60,185523,1,0,1:2:0:0:
186,173,185694,1,0,1:2:0:0:
266,96,185866,1,0,1:2:0:0:
75,139,186037,1,0,1:2:0:0:
298,202,186209,1,0,1:2:0:0:
234,8,186380,1,0,1:2:0:0:
158,259,186551,5,8,0:0:0:0:
230,351,186723,1,0,1:2:0:0:
249,329,186809,1,0,1:2:0:0:
273,314,186894,1,8,0:0:0:0:
301,312,186980,1,0,1:2:0:0:
327,324,187066,1,0,1:2:0:0:
354,332,187151,1,0,1:2:0:0:
382,325,187237,5,8,0:0:0:0:
406,308,187323,1,0,1:2:0:0:
419,282,187409,1,0,1:2:0:0:
414,253,187494,1,0,1:2:0:0:
395,231,187580,5,10,0:0:0:0:
378,207,187666,1,0,1:2:0:0:
379,178,187751,1,2,1:2:0:0:
394,153,187837,1,0,1:2:0:0:
418,138,187923,6,0,P|370:150|321:137,1,80,6|0,0:0|0:0,0:0:0:0:
239,25,188266,1,8,0:0:0:0:
113,90,188437,2,0,B|157:66|204:88|187:99|236:129|297:87,1,160,2|0,1:2|1:2,0:0:0:0:
150,164,188951,2,0,P|137:213|146:250,1,80,8|0,0:0|0:0,0:0:0:0:
267,318,189294,5,0,1:2:0:0:
225,210,189466,1,0,1:2:0:0:
131,323,189637,2,0,B|20:318|20:318|75:286,1,160,10|2,0:0|0:0,0:0:0:0:
203,384,190151,1,0,1:2:0:0:
215,230,190323,2,0,L|303:235,1,80,8|0,0:0|0:0,0:0:0:0:
380,347,190666,6,0,B|358:298|372:273|386:277|407:238|368:180,1,160,2|10,1:2|0:0,0:0:0:0:
262,100,191180,2,0,P|324:127|384:55,1,160,2|0,1:2|1:2,0:0:0:0:
220,26,191694,2,0,P|185:58|177:102,1,80,10|0,0:0|0:0,0:0:0:0:
227,204,192037,5,2,1:2:0:0:
262,100,192209,1,0,1:2:0:0:
294,265,192380,2,0,L|386:263,1,80,8|0,0:0|1:2,0:0:0:0:
452,189,192723,1,2,0:0:0:0:
432,330,192894,1,0,1:2:0:0:
401,124,193066,2,0,P|442:106|483:115,1,80,8|0,0:0|0:0,0:0:0:0:
373,263,193409,6,0,L|294:265,1,80,6|0,0:0|0:0,0:0:0:0:
152,345,193751,1,8,0:0:0:0:
216,225,193923,2,0,B|214:289|214:289|231:319|231:319|230:381,1,160,2|0,1:2|1:2,0:0:0:0:
49,277,194437,2,0,P|93:258|133:271,1,80,8|0,0:0|0:0,0:0:0:0:
230,380,194780,5,0,1:2:0:0:
138,276,194951,1,0,1:2:0:0:
315,341,195123,1,8,0:0:0:0:
53,356,195294,2,0,L|47:256,1,80,2|0,1:2|0:0,0:0:0:0:
93,199,195637,1,0,1:2:0:0:
28,82,195809,2,0,P|12:135|22:188,1,80,10|0,0:0|0:0,0:0:0:0:
236,37,196151,6,0,B|189:8|152:33|156:41|121:54|80:22,1,160,2|8,1:2|0:0,0:0:0:0:
317,16,196666,2,0,B|331:61|297:98|297:98|288:138|324:171,1,160,2|0,1:2|1:2,0:0:0:0:
469,128,197180,2,0,P|434:109|371:122,1,80,10|0,0:0|0:0,0:0:0:0:
355,257,197523,5,2,1:2:0:0:
413,188,197694,1,0,1:2:0:0:
408,328,197866,2,0,L|319:339,1,80,8|2,0:0|0:0,0:0:0:0:
219,274,198209,1,2,1:2:0:0:
257,383,198380,1,0,1:2:0:0:
302,224,198551,2,0,P|293:174|251:137,1,80,4|0,0:0|0:0,0:0:0:0:
128,126,198894,6,0,L|39:114,2,80,6|0|8,0:0|0:0|0:0,0:0:0:0:
222,234,199409,2,0,L|311:222,2,80,2|0|0,1:2|0:0|1:2,0:0:0:0:
64,293,199923,2,0,P|47:331|57:375,1,80,8|0,0:0|0:0,0:0:0:0:
226,313,200266,5,2,1:2:0:0:
226,313,200437,2,0,L|221:227,1,80,2|8,1:2|0:0,0:0:0:0:
228,103,200780,2,0,P|282:153|354:88,1,160,2|0,1:2|1:2,0:0:0:0:
434,16,201294,2,0,L|428:122,1,80,10|0,0:0|0:0,0:0:0:0:
374,255,201637,6,0,P|331:267|293:261,2,80,6|0|8,0:0|0:0|0:0,0:0:0:0:
429,95,202151,2,0,P|472:83|510:89,2,80,2|0|0,1:2|0:0|1:2,0:0:0:0:
280,185,202666,2,0,L|274:84,1,80,8|0,0:0|0:0,0:0:0:0:
145,47,203009,5,2,1:2:0:0:
180,152,203180,1,2,1:2:0:0:
139,33,203351,1,4,0:0:0:0:
65,227,203523,2,0,B|115:204|152:224|143:234|189:258|243:209,1,160,2|0,0:0|1:2,0:0:0:0:
102,374,204037,2,0,P|92:334|109:283,1,80,6|0,0:0|0:0,0:0:0:0:
180,152,204380,5,6,0:0:0:0:
289,264,204551,1,0,0:0:0:0:
180,152,204723,1,8,0:0:0:0:
173,332,204894,2,0,B|233:322|233:322|261:347|261:347|342:338,1,160,2|0,1:2|1:2,0:0:0:0:
458,359,205409,2,0,P|428:296|475:246,1,120,10|0,0:0|0:0,0:0:0:0:
468,242,205751,6,0,B|428:217|386:233|391:246|352:262|306:228,1,160,4|10,0:0|0:0,0:0:0:0:
224,136,206266,1,0,1:2:0:0:
362,86,206437,2,0,L|354:173,1,80,2|0,0:0|1:2,0:0:0:0:
224,228,206780,2,0,L|216:141,1,80,10|0,0:0|0:0,0:0:0:0:
103,51,207123,5,14,0:0:0:0:
398,157,207466,1,0,1:2:0:0:
73,270,207809,1,0,1:2:0:0:
365,291,208151,2,0,L|362:389,1,80,2|2,1:2|0:0,0:0:0:0:
402,161,208494,5,4,0:0:0:0:
402,161,208837,1,2,1:2:0:0:
299,83,209009,1,0,1:2:0:0:
299,83,209094,1,0,1:2:0:0:
299,83,209180,1,10,0:0:0:0:
276,212,209351,1,2,1:2:0:0:
210,140,209523,1,2,1:2:0:0:
231,285,209694,1,0,1:2:0:0:
117,125,209866,6,8,B|145:46|145:46|182:129|182:129|275:135|275:135|206:196|206:196|230:285|230:285|147:237|147:237|73:291|73:291|92:193|92:193|25:149|25:149|102:141,1,888.000021679688,2|0,0:0|0:0,0:0:0:0:
394,157,215351,6,0,B|352:135|352:135|436:116|436:116|401:240|401:240|495:255|495:255|454:313|454:313|327:293|327:293|306:225|306:225|351:233,1,672.000008203125,2|0,0:0|0:0,0:0:0:0:
278,362,220837,6,0,P|226:366|161:335,1,120.000004577637,4|2,1:2|0:0,0:0:0:0:
173,252,221351,1,0,1:2:0:0:
173,252,221523,2,0,L|98:266,1,60.0000022888184,2|0,1:2|0:0,0:0:0:0:
32,271,221866,2,0,P|24:235|39:197,1,60.0000022888184,2|0,2:2|0:0,0:0:0:0:
83,150,222209,6,0,L|210:154,1,120.000004577637,0|2,1:2|0:0,0:0:0:0:
283,142,222723,1,0,1:2:0:0:
283,142,222894,2,0,P|290:112|282:81,1,60.0000022888184,2|0,1:2|0:0,0:0:0:0:
246,13,223237,2,0,P|281:3|323:18,1,60.0000022888184,2|0,2:2|0:0,0:0:0:0:
377,47,223580,6,0,B|371:98|371:98|383:110|383:110|376:174,1,120.000004577637,0|0,1:2|0:0,0:0:0:0:
346,239,224094,1,0,1:2:0:0:
346,239,224266,2,0,P|380:246|420:234,1,60.0000022888184,0|0,1:2|0:0,0:0:0:0:
488,225,224609,2,0,L|478:295,1,60.0000022888184,0|0,2:2|0:0,0:0:0:0:
394,384,224951,6,0,L|384:314,1,60.0000022888184,0|0,1:2|0:0,0:0:0:0:
333,258,225294,1,2,0:0:0:0:
287,327,225466,1,0,1:2:0:0:
287,327,225637,2,0,P|248:332|216:327,1,60.0000022888184,0|0,2:2|0:0,0:0:0:0:
164,286,225980,2,0,L|167:190,1,90.0000034332277,2|0,2:2|0:0,0:0:0:0:
143,160,226323,6,0,B|169:183|169:183|270:172,1,120.000004577637,4|2,1:2|0:0,0:0:0:0:
309,111,226837,1,0,1:2:0:0:
309,111,227009,2,0,P|310:70|302:41,1,60.0000022888184,2|0,1:2|0:0,0:0:0:0:
223,33,227351,2,0,L|164:41,1,60.0000022888184,2|0,2:2|0:0,0:0:0:0:
85,79,227694,6,0,B|99:107|87:139|72:130|65:162|82:209,1,120.000004577637,2|2,1:2|0:0,0:0:0:0:
163,217,228209,1,0,1:2:0:0:
163,217,228380,2,0,L|148:294,1,60.0000022888184,2|0,1:2|0:0,0:0:0:0:
166,354,228723,2,0,P|209:358|240:341,1,60.0000022888184,2|0,2:2|0:0,0:0:0:0:
284,203,229066,5,12,0:0:0:0:
284,203,229409,1,0,1:2:0:0:
385,260,229580,1,0,1:2:0:0:
387,149,229752,1,0,1:2:0:0:
283,315,229923,1,0,1:2:0:0:
485,202,230095,1,0,1:2:0:0:
303,110,230266,1,0,1:2:0:0:
426,341,230437,5,14,0:0:0:0:
477,254,230609,5,0,1:2:0:0:
444,239,230694,1,0,1:2:0:0:
407,239,230780,1,10,0:0:0:0:
375,257,230866,1,0,1:2:0:0:
345,276,230951,5,0,1:2:0:0:
311,288,231037,1,0,1:2:0:0:
275,279,231123,1,10,0:0:0:0:
248,254,231209,1,0,1:2:0:0:
250,236,231294,5,2,1:2:0:0:
252,218,231380,1,0,1:2:0:0:
254,200,231466,1,8,0:0:0:0:
256,182,231552,1,0,1:2:0:0:
258,164,231637,1,0,1:2:0:0:
260,146,231723,1,0,1:2:0:0:
262,128,231809,6,0,P|196:90|121:158,1,160,6|8,1:2|0:0,0:0:0:0:
64,308,232323,2,0,B|110:287|147:309|129:322|168:337|223:316,1,160,0|0,1:2|1:2,0:0:0:0:
198,171,232837,2,0,P|176:214|181:245,1,80,10|0,0:0|0:0,0:0:0:0:
309,355,233180,6,0,L|305:269,1,80,2|0,1:2|0:0,0:0:0:0:
431,180,233523,2,0,L|427:266,1,80,10|0,0:0|1:2,0:0:0:0:
328,139,233866,1,2,0:2:0:0:
434,77,234037,1,0,1:2:0:0:
272,41,234209,2,0,P|216:42|182:70,1,80,10|0,0:0|0:0,0:0:0:0:
227,271,234551,6,0,B|227:199|227:199|247:182|247:182|246:105,1,160,0|8,1:2|0:0,0:0:0:0:
56,93,235066,2,0,P|123:162|180:123,1,160,0|0,1:2|1:2,0:0:0:0:
99,18,235580,2,0,P|48:7|-1:27,1,80,8|0,0:0|0:0,0:0:0:0:
0,173,235923,5,0,1:2:0:0:
56,93,236094,1,0,1:2:0:0:
136,235,236266,2,0,L|54:244,1,80,10|0,0:0|1:2,0:0:0:0:
165,339,236609,2,0,L|247:348,1,80,2|0,2:2|1:2,0:0:0:0:
248,182,236951,2,0,P|226:232|236:267,1,80,10|0,0:0|0:0,0:0:0:0:
458,323,237294,6,0,B|426:286|426:286|313:287,1,160,0|8,1:2|0:0,0:0:0:0:
161,241,237809,2,0,B|203:254|238:236|238:236|262:189|335:196,1,160,0|0,1:2|1:2,0:0:0:0:
200,80,238323,2,0,L|188:183,1,80,10|0,0:0|0:0,0:0:0:0:
33,70,238666,6,0,P|81:51|132:64,1,80,0|0,1:2|0:0,0:0:0:0:
198,156,239009,1,10,0:0:0:0:
263,32,239180,1,0,1:2:0:0:
368,118,239351,2,0,P|325:134|279:123,1,80,2|0,0:0|1:2,0:0:0:0:
451,14,239694,2,0,L|456:119,1,80,10|0,0:0|0:0,0:0:0:0:
480,326,240037,6,0,P|434:274|324:285,1,160,2|8,1:2|0:0,0:0:0:0:
295,339,240551,1,0,1:2:0:0:
214,198,240723,2,0,L|330:207,1,80,2|0,0:2|1:2,0:0:0:0:
401,83,241066,2,0,L|285:92,1,80,8|0,0:0|0:0,0:0:0:0:
440,165,241409,5,2,1:2:0:0:
473,34,241580,1,0,1:2:0:0:
321,89,241751,2,0,L|306:191,1,80,6|0,0:0|0:0,0:0:0:0:
219,247,242094,1,2,1:2:0:0:
309,168,242266,1,0,1:2:0:0:
149,104,242437,2,0,L|140:190,1,80,6|0,0:0|0:0,0:0:0:0:
33,291,242780,6,0,P|88:275|141:299,1,80,4|0,0:0|0:0,0:0:0:0:
190,358,243123,1,10,0:0:0:0:
219,247,243294,1,0,1:2:0:0:
355,304,243466,2,0,L|270:320,1,80,2|0,0:2|1:2,0:0:0:0:
435,341,243809,6,0,B|456:289|436:250|425:270|402:227|436:172,1,160,10|0,0:0|1:2,0:0:0:0:
466,97,244323,1,0,0:0:0:0:
302,97,244494,2,0,P|345:115|388:111,1,80,10|0,0:0|1:2,0:0:0:0:
218,15,244837,2,0,L|205:99,1,80,2|0,0:2|1:2,0:0:0:0:
100,217,245180,2,0,L|87:133,1,80,6|0,0:0|0:0,0:0:0:0:
176,256,245523,5,8,2:2:0:0:
163,276,245609,1,8,2:2:0:0:
146,293,245694,1,8,2:2:0:0:
125,305,245780,1,8,2:2:0:0:
101,307,245866,1,10,2:2:0:0:
3,207,246037,1,0,1:2:0:0:
87,137,246209,2,0,L|100:217,1,80,2|0,1:2|1:2,0:0:0:0:
20,372,246551,6,0,P|76:316|180:332,1,160,14|0,0:0|0:0,0:0:0:0:
218,380,247066,1,0,1:2:0:0:
300,249,247237,2,0,P|256:243|210:257,1,80,8|0,0:0|0:0,0:0:0:0:
368,379,247580,2,0,L|376:289,1,80,2|0,1:2|1:2,0:0:0:0:
365,177,247923,1,10,0:0:0:0:
455,284,248094,1,0,0:0:0:0:
477,108,248266,6,0,B|442:131|401:111|410:107|371:75|318:111,1,160,4|8,0:0|0:0,0:0:0:0:
356,293,248780,2,0,P|406:237|337:174,1,160,0|0,0:0|1:2,0:0:0:0:
251,253,249294,1,10,0:0:0:0:
324,106,249466,1,2,0:0:0:0:
129,198,249637,6,0,B|191:196|191:196|213:174|213:174|285:172,1,160,4|8,0:0|0:0,0:0:0:0:
83,126,250151,2,0,P|43:184|75:267,1,160,0|0,0:0|1:2,0:0:0:0:
173,338,250666,1,10,0:0:0:0:
251,253,250837,1,2,0:0:0:0:
425,333,251009,6,0,P|336:357|259:339,1,160,4|8,0:0|0:0,0:0:0:0:
251,253,251523,1,0,0:0:0:0:
388,177,251694,2,0,L|384:284,1,80,0|0,1:2|1:2,0:0:0:0:
272,174,252037,2,0,L|268:67,1,80,10|0,0:0|0:0,0:0:0:0:
433,71,252380,6,0,P|397:97|343:92,1,80,2|0,1:2|1:2,0:0:0:0:
286,11,252723,1,10,0:0:0:0:
280,182,252894,1,0,1:2:0:0:
280,182,252980,1,0,1:2:0:0:
280,182,253066,1,2,1:2:0:0:
192,94,253237,1,0,1:2:0:0:
162,202,253409,1,10,0:0:0:0:
192,94,253580,1,0,1:2:0:0:
232,289,253751,6,0,L|152:296,1,80,4|0,0:0|0:0,0:0:0:0:
13,370,254094,2,0,P|-2:327|15:275,1,80,10|0,0:0|0:0,0:0:0:0:
77,239,254437,1,2,1:2:0:0:
134,380,254609,1,0,1:2:0:0:
226,233,254780,6,0,B|171:249|171:249|140:237|140:237|74:257,1,160,10|0,0:0|1:2,0:0:0:0:
0,191,255294,1,0,0:0:0:0:
161,81,255466,2,0,L|177:178,1,80,10|0,0:0|0:0,0:0:0:0:
246,299,255809,1,2,1:2:0:0:
263,155,255980,1,0,1:2:0:0:
391,218,256151,2,0,P|344:232|307:236,1,80,10|0,0:0|0:0,0:0:0:0:
433,71,256494,6,0,L|444:164,1,80,4|0,0:0|0:0,0:0:0:0:
366,330,256837,2,0,L|355:237,1,80,6|0,0:0|0:0,0:0:0:0:
233,83,257180,2,0,L|244:176,1,80,6|0,0:0|0:0,0:0:0:0:
64,333,257523,6,0,P|113:263|189:277,1,160,6|0,0:0|0:0,0:0:0:0:
239,348,258037,1,0,0:0:0:0:
341,163,258209,2,0,L|233:172,1,80,8|0,0:0|0:0,0:0:0:0:
324,321,258551,2,0,P|334:284|318:240,1,80,2|0,1:2|1:2,0:0:0:0:
187,135,258894,2,0,P|177:172|193:216,1,80,10|0,0:0|0:0,0:0:0:0:
392,65,259237,6,0,B|346:46|307:62|316:78|261:94|224:52,1,160,4|8,0:0|0:0,0:0:0:0:
363,256,259751,2,0,P|404:209|351:140,1,160,0|0,0:0|1:2,0:0:0:0:
235,201,260266,1,10,0:0:0:0:
363,256,260437,1,2,0:0:0:0:
194,317,260609,6,0,B|134:315|134:315|112:337|112:337|22:334,1,160,4|8,0:0|0:0,0:0:0:0:
267,366,261123,2,0,P|284:305|220:233,1,160,0|0,0:0|1:2,0:0:0:0:
71,258,261637,1,10,0:0:0:0:
138,147,261809,1,2,0:0:0:0:
307,237,261980,6,0,L|193:233,1,80,4|0,0:0|0:0,0:0:0:0:
236,71,262323,2,0,L|232:185,1,80,0|0,1:2|0:0,0:0:0:0:
70,142,262666,2,0,L|184:146,1,80,0|0,1:2|0:0,0:0:0:0:
141,308,263009,2,0,L|145:194,1,80,0|0,1:2|0:0,0:0:0:0:
236,71,263351,5,0,1:2:0:0:
323,137,263523,1,0,1:0:0:0:
315,0,263694,1,8,2:2:0:0:
229,185,263866,1,0,1:2:0:0:
229,185,263951,1,0,1:2:0:0:
229,185,264037,1,8,0:0:0:0:
236,71,264209,1,0,1:2:0:0:
306,246,264380,1,8,2:2:0:0:
414,106,264551,1,0,1:2:0:0:
461,191,264723,6,0,P|466:227|453:282,1,80,2|0,0:0|0:0,0:0:0:0:
400,330,265237,2,0,L|310:336,1,80,2|0,0:0|0:0,0:0:0:0:
244,293,265751,1,2,0:0:0:0:
104,369,266094,6,0,P|93:328|105:281,1,80,2|0,0:0|0:0,0:0:0:0:
172,242,266609,2,0,L|164:151,1,80,2|0,0:0|0:0,0:0:0:0:
99,107,267123,1,2,0:0:0:0:
233,65,267466,6,0,P|274:53|325:65,1,80,2|0,0:0|0:0,0:0:0:0:
348,133,267980,2,0,L|358:216,1,80,2|0,0:0|0:0,0:0:0:0:
441,247,268494,1,2,0:0:0:0:
295,348,268837,6,0,P|284:299|298:263,1,80,2|0,0:0|0:0,0:0:0:0:
357,212,269351,2,0,P|368:163|354:127,1,80,2|0,0:0|0:0,0:0:0:0:
226,71,269866,5,2,0:0:0:0:
256,192,269951,12,0,271580,0:0:0:0:
