osu file format v14

[General]
AudioFilename: audio.mp3
AudioLeadIn: 0
PreviewTime: 208837
Countdown: 0
SampleSet: Normal
StackLeniency: 0.7
Mode: 1
LetterboxInBreaks: 0
WidescreenStoryboard: 0

[Editor]
DistanceSpacing: 1
BeatDivisor: 4
GridSize: 32
TimelineZoom: 2.6

[Metadata]
Title:Koko kara, Koko kara
TitleUnicode:ここから、ここから
Artist:Hanayori Girls' Dormitory
ArtistUnicode:花寄女子寮
Creator:[Zeth]
Version:I wish you all the best!
Source:宇宙よりも遠い場所
Tags:japanese anime pop jpop j-pop ver. バーチャルyoutuber vtuber virtual v-tuber Sora Yori mo Tooi Basho ed ending full version cover a place further than the universe Jyoshiryou joshiryou 鹿乃 kano 野々宮ののの nonomiya nonono 花丸はれる hanamaru hareru 小東ひとな kohigashi hitona coch Dios シグナルP signalP 玉木マリ 小淵沢報瀬 三宅日向 白石結月 Tamaki Mari Kobuchizawa Shirase Miyake Hinata Shiraishi Yuzuki 水瀬いのり 花澤香菜 井口裕香 早見沙織 Minase Inori Hanazawa Kana Iguchi Yuka Hayami Saori
BeatmapID:2820710
BeatmapSetID:1363424

[Difficulty]
HPDrainRate:5
CircleSize:2
OverallDifficulty:5.5
ApproachRate:10
SliderMultiplier:1.4
SliderTickRate:1

[Events]
//Background and Video events
0,0,"graduated.jpg",0,20
Video,0,"video.mp4"
//Break Periods
2,209893,220386
//Storyboard Layer 0 (Background)
//Storyboard Layer 1 (Fail)
//Storyboard Layer 2 (Pass)
//Storyboard Layer 3 (Foreground)
//Storyboard Layer 4 (Overlay)
//Storyboard Sound Samples

[TimingPoints]
37,342.857142857143,4,1,0,40,1,8
1408,342.857142857143,4,1,0,40,1,0
1408,-125,4,1,0,40,0,0
11003,-121.951219512195,4,1,0,40,0,0
11174,-120.481927710843,4,1,0,40,0,0
11346,-119.047619047619,4,1,0,40,0,0
11517,-117.647058823529,4,1,0,40,0,0
11689,-116.279069767442,4,1,0,40,0,0
11860,-114.942528735632,4,1,0,40,0,0
12032,-113.636363636364,4,1,0,40,0,0
12294,-111.111111111111,4,1,0,50,0,0
32949,-108.695652173913,4,1,0,50,0,0
33120,-107.52688172043,4,1,0,50,0,0
33463,-105.263157894737,4,1,0,50,0,0
33635,-104.166666666667,4,1,0,50,0,0
33806,-103.092783505155,4,1,0,50,0,0
33977,-102.040816326531,4,1,0,50,0,0
34322,-100,4,1,0,50,0,0
36979,-95.2380952380952,4,1,0,55,0,0
37408,-93.4579439252336,4,1,0,55,0,0
37494,-93.0232558139535,4,1,0,55,0,0
37579,-92.5925925925926,4,1,0,55,0,0
37750,-91.743119266055,4,1,0,55,0,0
37837,-91.324200913242,4,1,0,55,0,0
37922,-90.9090909090909,4,1,0,55,0,0
38093,-90.0900900900901,4,1,0,55,0,0
38265,-89.2857142857143,4,1,0,55,0,0
38351,-88.8888888888889,4,1,0,55,0,0
38437,-88.4955752212389,4,1,0,55,0,0
38522,-88.4955752212389,4,1,0,5,0,0
39637,-88.4955752212389,4,1,0,60,0,0
39808,-90.9090909090909,4,1,0,60,0,1
82320,-92.5925925925926,4,1,0,60,0,1
82492,-93.4579439252336,4,1,0,60,0,1
82577,-93.8967136150235,4,1,0,60,0,1
82663,-94.3396226415094,4,1,0,60,0,1
82835,-95.2380952380952,4,1,0,60,0,1
82920,-95.6937799043062,4,1,0,60,0,1
83006,-96.1538461538461,4,1,0,60,0,1
83177,-97.0873786407767,4,1,0,60,0,1
83349,-98.0392156862745,4,1,0,60,0,1
83520,-99.009900990099,4,1,0,60,0,1
83606,-99.502487562189,4,1,0,60,0,1
83693,-100,4,1,0,60,0,0
83865,-111.111111111111,4,1,0,50,0,0
93291,-108.695652173913,4,1,0,50,0,0
93634,-106.382978723404,4,1,0,50,0,0
93805,-105.263157894737,4,1,0,50,0,0
93891,-104.712041884817,4,1,0,50,0,0
93976,-104.166666666667,4,1,0,50,0,0
94148,-103.092783505155,4,1,0,50,0,0
94319,-102.040816326531,4,1,0,50,0,0
94491,-101.010101010101,4,1,0,50,0,0
94662,-100,4,1,0,50,0,0
116522,-100,4,1,0,55,0,0
116950,-102.040816326531,4,1,0,55,0,0
117122,-103.092783505155,4,1,0,55,0,0
117293,-104.166666666667,4,1,0,55,0,0
117636,-106.382978723404,4,1,0,55,0,0
117979,-108.695652173913,4,1,0,55,0,0
118322,-111.111111111111,4,1,0,55,0,0
118665,-113.636363636364,4,1,0,55,0,0
119008,-116.279069767442,4,1,0,55,0,0
119350,-119.047619047619,4,1,0,55,0,0
119693,-113.636363636364,4,1,0,55,0,0
120036,-108.695652173913,4,1,0,55,0,0
120208,-106.382978723404,4,1,0,55,0,0
120550,-102.040816326531,4,1,0,55,0,0
120722,-100,4,1,0,55,0,0
120808,-98.7717730027113,4,1,0,55,0,0
120979,-98.1688563230069,4,1,0,55,0,0
121065,-97.5733507664387,4,1,0,55,0,0
121236,-96.4035684744906,4,1,0,55,0,0
121322,-95.8292246553262,4,1,0,55,0,0
121408,-95.261593097726,4,1,0,55,0,0
121493,-94.7006465213138,4,1,0,55,0,0
121579,-94.1463561594312,4,1,0,55,0,0
121665,-93.5984290439669,4,1,0,55,0,0
121750,-93.0569294377221,4,1,0,55,0,0
121836,-92.5215737179517,4,1,0,55,0,0
121922,-91.9923425574055,4,1,0,55,0,0
122008,-91.4692151209589,4,1,0,55,0,0
122093,-90.9090909090909,4,1,0,60,0,1
164604,-92.5925925925926,4,1,0,60,0,1
164775,-93.4579439252336,4,1,0,60,0,1
164947,-94.3396226415094,4,1,0,60,0,1
165118,-95.2380952380952,4,1,0,60,0,1
165204,-95.6937799043062,4,1,0,60,0,1
165290,-96.1538461538461,4,1,0,60,0,1
165461,-97.0873786407767,4,1,0,60,0,1
165633,-98.0392156862745,4,1,0,60,0,1
165804,-99.009900990099,4,1,0,60,0,1
165979,-100,4,1,0,60,0,0
166151,-100,4,1,0,50,0,0
186807,-98.1688563230069,4,1,0,50,0,0
186892,-97.5733507664387,4,1,0,50,0,0
186978,-96.9849324208991,4,1,0,50,0,0
187064,-96.4035684744906,4,1,0,50,0,0
187235,-95.261593097726,4,1,0,50,0,0
187321,-94.7006465213138,4,1,0,50,0,0
187407,-94.1463561594312,4,1,0,50,0,0
187492,-93.5984290439669,4,1,0,50,0,0
187578,-93.0569294377221,4,1,0,50,0,0
187749,-91.9923425574055,4,1,0,50,0,0
187835,-91.4692151209589,4,1,0,50,0,0
187922,-90.9090909090909,4,1,0,55,0,1
208836,-94.3396226415094,4,1,0,55,0,1
209008,-96.1538461538461,4,1,0,55,0,1
209093,-97.0873786407767,4,1,0,55,0,1
209179,-98.0392156862745,4,1,0,55,0,1
209350,-100,4,1,0,55,0,1
209522,-102.040816326531,4,1,0,55,0,1
209693,-104.166666666667,4,1,0,55,0,1
209865,-111.111111111111,4,1,0,5,0,0
220665,-111.111111111111,4,1,0,40,0,0
228979,-111.111111111111,4,1,0,50,0,0
229408,-108.115705427949,4,1,0,50,0,0
229579,-106.677704253133,4,1,0,50,0,0
229750,-105.277564298272,4,1,0,50,0,0
229922,-103.91359376851,4,1,0,50,0,0
230093,-102.584619488,4,1,0,50,0,0
230265,-101.28910645789,4,1,0,50,0,0
230436,-100.026006761758,4,1,0,50,0,0
230608,-98.7939237785119,4,1,0,50,0,0
230693,-98.1891948682399,4,1,0,50,0,0
230779,-97.5919193890746,4,1,0,50,0,0
230950,-96.4187195015538,4,1,0,50,0,0
231036,-95.8426340622805,4,1,0,50,0,0
231122,-95.273482531607,4,1,0,50,0,0
231208,-94.7109610889488,4,1,0,50,0,0
231293,-94.1550432265803,4,1,0,50,0,0
231465,-93.0626451195622,4,1,0,50,0,0
231550,-92.5258540367642,4,1,0,50,0,0
231636,-91.9952199283725,4,1,0,50,0,0
231722,-91.4706374680196,4,1,0,50,0,0
231808,-90.9520037181179,4,1,0,60,0,1
256836,-86.9565217391304,4,1,0,60,0,1
257179,-83.3333333333333,4,1,0,60,0,1
257522,-80,4,1,0,60,0,1
257865,-90.9090909090909,4,1,0,60,0,1
262322,-92.5925925925926,4,1,0,60,0,1
262494,-93.0232558139535,4,1,0,60,0,1
262665,-93.4579439252336,4,1,0,60,0,1
262837,-93.8967136150235,4,1,0,60,0,1
263008,-94.3396226415094,4,1,0,60,0,1
263350,-96.1538461538461,4,1,0,60,0,1
263693,-100,4,1,0,60,0,1
263865,-102.040816326531,4,1,0,60,0,1
263950,-103.092783505155,4,1,0,60,0,1
264036,-104.166666666667,4,1,0,60,0,1
264208,-106.382978723404,4,1,0,60,0,1
264379,-108.695652173913,4,1,0,60,0,1
264550,-111.111111111111,4,1,0,60,0,0
264637,-113.636363636364,4,1,0,30,0,0
265065,-116.279069767442,4,1,0,30,0,0
265236,-117.647058823529,4,1,0,30,0,0
265579,-120.481927710843,4,1,0,30,0,0
265750,-121.951219512195,4,1,0,30,0,0
266093,-125,4,1,0,30,0,0
266436,-128.205128205128,4,1,0,30,0,0
266608,-129.87012987013,4,1,0,30,0,0
266950,-133.333333333333,4,1,0,30,0,0
267122,-135.135135135135,4,1,0,30,0,0
267465,-138.888888888889,4,1,0,30,0,0
267808,-142.857142857143,4,1,0,30,0,0
267979,-147.058823529412,4,1,0,30,0,0
268322,-151.515151515152,4,1,0,30,0,0
268493,-153.846153846154,4,1,0,30,0,0
268836,-158.730158730159,4,1,0,30,0,0
269008,-161.290322580645,4,1,0,30,0,0
269179,-163.934426229508,4,1,0,30,0,0
269350,-166.666666666667,4,1,0,30,0,0
269693,-172.413793103448,4,1,0,30,0,0
269865,-175.438596491228,4,1,0,30,0,0

[HitObjects]
256,192,1408,5,0,0:0:0:0:
256,192,1750,1,0,0:0:0:0:
256,192,1922,1,2,0:0:0:0:
256,192,2265,1,0,0:0:0:0:
256,192,2436,1,2,0:0:0:0:
256,192,2779,1,2,0:0:0:0:
256,192,3122,1,0,0:0:0:0:
256,192,3293,1,2,0:0:0:0:
256,192,3636,1,0,0:0:0:0:
256,192,3808,1,2,0:0:0:0:
256,192,4150,1,2,0:0:0:0:
256,192,4493,1,0,0:0:0:0:
256,192,4665,1,2,0:0:0:0:
256,192,5008,1,0,0:0:0:0:
256,192,5179,1,2,0:0:0:0:
256,192,5522,1,2,0:0:0:0:
256,192,5693,1,0,0:0:0:0:
256,192,5865,1,0,0:0:0:0:
256,192,6036,1,2,0:0:0:0:
256,192,6379,1,0,0:0:0:0:
256,192,6550,1,2,0:0:0:0:
256,192,6893,1,0,0:0:0:0:
256,192,7236,1,0,0:0:0:0:
256,192,7408,1,2,0:0:0:0:
256,192,7750,1,0,0:0:0:0:
256,192,7922,1,2,0:0:0:0:
256,192,8265,1,2,0:0:0:0:
256,192,8608,1,0,0:0:0:0:
256,192,8779,1,2,0:0:0:0:
256,192,9122,1,0,0:0:0:0:
256,192,9293,1,2,0:0:0:0:
256,192,9636,1,2,0:0:0:0:
256,192,9979,1,0,0:0:0:0:
256,192,10150,1,2,0:0:0:0:
256,192,10493,1,0,0:0:0:0:
256,192,10665,1,2,0:0:0:0:
256,192,11008,1,2,0:0:0:0:
256,192,11179,1,2,0:0:0:0:
256,192,11350,1,0,0:0:0:0:
256,192,11522,1,2,0:0:0:0:
256,192,11693,1,2,0:0:0:0:
256,192,11865,1,0,0:0:0:0:
256,192,12036,1,0,0:0:0:0:
256,192,12379,1,4,0:0:0:0:
256,192,12722,1,2,0:0:0:0:
256,192,12893,1,2,0:0:0:0:
256,192,13065,1,0,0:0:0:0:
256,192,13408,1,2,0:0:0:0:
256,192,13750,1,0,0:0:0:0:
256,192,14093,1,0,0:0:0:0:
256,192,14265,1,2,0:0:0:0:
256,192,14608,1,2,0:0:0:0:
256,192,14779,1,0,0:0:0:0:
256,192,14950,1,2,0:0:0:0:
256,192,15122,1,0,0:0:0:0:
256,192,15465,1,2,0:0:0:0:
256,192,15636,1,0,0:0:0:0:
256,192,15979,1,0,0:0:0:0:
256,192,16150,1,2,0:0:0:0:
256,192,16493,1,0,0:0:0:0:
256,192,16665,1,2,0:0:0:0:
256,192,16836,1,0,0:0:0:0:
256,192,17008,1,0,0:0:0:0:
256,192,17179,1,2,0:0:0:0:
256,192,17350,1,0,0:0:0:0:
256,192,17522,1,2,0:0:0:0:
256,192,17865,1,4,0:0:0:0:
256,192,18208,1,2,0:0:0:0:
256,192,18379,1,0,0:0:0:0:
256,192,18722,1,0,0:0:0:0:
256,192,18893,1,2,0:0:0:0:
256,192,19236,1,0,0:0:0:0:
256,192,19579,1,2,0:0:0:0:
256,192,19750,1,2,0:0:0:0:
256,192,20093,1,0,0:0:0:0:
256,192,20265,1,2,0:0:0:0:
256,192,20436,1,2,0:0:0:0:
256,192,20608,1,0,0:0:0:0:
256,192,20950,1,2,0:0:0:0:
256,192,21122,1,0,0:0:0:0:
256,192,21465,1,0,0:0:0:0:
256,192,21636,1,2,0:0:0:0:
256,192,21979,1,0,0:0:0:0:
256,192,22150,1,2,0:0:0:0:
256,192,22493,1,0,0:0:0:0:
256,192,22836,1,2,0:0:0:0:
256,192,23008,1,0,0:0:0:0:
256,192,23350,1,4,0:0:0:0:
256,192,23693,1,2,0:0:0:0:
256,192,23865,1,2,0:0:0:0:
256,192,24036,1,0,0:0:0:0:
256,192,24379,1,2,0:0:0:0:
256,192,24722,1,0,0:0:0:0:
256,192,25065,1,0,0:0:0:0:
256,192,25236,1,2,0:0:0:0:
256,192,25579,1,2,0:0:0:0:
256,192,25750,1,2,0:0:0:0:
256,192,25922,1,0,0:0:0:0:
256,192,26093,1,0,0:0:0:0:
256,192,26436,1,2,0:0:0:0:
256,192,26608,1,0,0:0:0:0:
256,192,26950,1,0,0:0:0:0:
256,192,27122,1,2,0:0:0:0:
256,192,27465,1,0,0:0:0:0:
256,192,27636,1,2,0:0:0:0:
256,192,27808,1,2,0:0:0:0:
256,192,27979,1,0,0:0:0:0:
256,192,28150,1,2,0:0:0:0:
256,192,28322,1,0,0:0:0:0:
256,192,28493,1,2,0:0:0:0:
256,192,28836,1,4,0:0:0:0:
256,192,29179,1,2,0:0:0:0:
256,192,29350,1,0,0:0:0:0:
256,192,29693,1,0,0:0:0:0:
256,192,29865,1,2,0:0:0:0:
256,192,30208,1,0,0:0:0:0:
256,192,30550,1,2,0:0:0:0:
256,192,30722,1,0,0:0:0:0:
256,192,30893,1,2,0:0:0:0:
256,192,31065,1,2,0:0:0:0:
256,192,31236,1,0,0:0:0:0:
256,192,31408,1,2,0:0:0:0:
256,192,31579,1,0,0:0:0:0:
256,192,31922,1,2,0:0:0:0:
256,192,32093,1,0,0:0:0:0:
256,192,32436,1,0,0:0:0:0:
256,192,32608,1,2,0:0:0:0:
256,192,32950,1,0,0:0:0:0:
256,192,33122,1,2,0:0:0:0:
256,192,33465,1,0,0:0:0:0:
256,192,33636,1,0,0:0:0:0:
256,192,33808,1,2,0:0:0:0:
256,192,33979,1,2,0:0:0:0:
256,192,34322,1,4,0:0:0:0:
256,192,34665,1,0,0:0:0:0:
256,192,34836,1,0,0:0:0:0:
256,192,35008,1,2,0:0:0:0:
256,192,35350,1,0,0:0:0:0:
256,192,35693,1,2,0:0:0:0:
256,192,35865,1,2,0:0:0:0:
256,192,36036,1,0,0:0:0:0:
256,192,36208,1,0,0:0:0:0:
256,192,36379,1,2,0:0:0:0:
256,192,36550,1,0,0:0:0:0:
256,192,36722,1,2,0:0:0:0:
256,192,37065,1,4,0:0:0:0:
256,192,37408,1,2,0:0:0:0:
256,192,37493,1,2,0:0:0:0:
256,192,37579,1,0,0:0:0:0:
256,192,37750,1,2,0:0:0:0:
256,192,37836,1,2,0:0:0:0:
256,192,37922,1,0,0:0:0:0:
256,192,38093,1,2,0:0:0:0:
256,192,38265,1,0,0:0:0:0:
256,192,38350,1,0,0:0:0:0:
256,192,38436,1,2,0:0:0:0:
256,192,39808,1,4,0:0:0:0:
256,192,40150,1,2,0:0:0:0:
256,192,40322,1,0,0:0:0:0:
256,192,40665,1,0,0:0:0:0:
256,192,40836,1,2,0:0:0:0:
256,192,41008,1,0,0:0:0:0:
256,192,41093,1,0,0:0:0:0:
256,192,41179,1,2,0:0:0:0:
256,192,41522,1,2,0:0:0:0:
256,192,41693,1,2,0:0:0:0:
256,192,41779,1,2,0:0:0:0:
256,192,41865,1,0,0:0:0:0:
256,192,42036,1,0,0:0:0:0:
256,192,42208,1,2,0:0:0:0:
256,192,42379,1,2,0:0:0:0:
256,192,42550,1,0,0:0:0:0:
256,192,42893,1,2,0:0:0:0:
256,192,43065,1,0,0:0:0:0:
256,192,43408,1,0,0:0:0:0:
256,192,43579,1,2,0:0:0:0:
256,192,43922,1,0,0:0:0:0:
256,192,44093,1,0,0:0:0:0:
256,192,44179,1,0,0:0:0:0:
256,192,44265,1,2,0:0:0:0:
256,192,44436,1,0,0:0:0:0:
256,192,44608,1,2,0:0:0:0:
256,192,44779,1,0,0:0:0:0:
256,192,44950,1,2,0:0:0:0:
256,192,45293,1,0,0:0:0:0:
256,192,45636,1,2,0:0:0:0:
256,192,45808,1,0,0:0:0:0:
256,192,46150,1,0,0:0:0:0:
256,192,46322,1,2,0:0:0:0:
256,192,46493,1,2,0:0:0:0:
256,192,46665,1,0,0:0:0:0:
256,192,46836,1,0,0:0:0:0:
256,192,46922,1,0,0:0:0:0:
256,192,47008,1,2,0:0:0:0:
256,192,47179,1,0,0:0:0:0:
256,192,47350,1,2,0:0:0:0:
256,192,47436,1,2,0:0:0:0:
256,192,47522,1,0,0:0:0:0:
256,192,47693,1,2,0:0:0:0:
256,192,47865,1,2,0:0:0:0:
256,192,48036,1,0,0:0:0:0:
256,192,48379,1,2,0:0:0:0:
256,192,48550,1,0,0:0:0:0:
256,192,48893,1,0,0:0:0:0:
256,192,49065,1,2,0:0:0:0:
256,192,49236,1,2,0:0:0:0:
224,192,49408,1,0,0:0:0:0:
256,192,49579,1,0,0:0:0:0:
256,192,49750,1,6,0:0:0:0:
256,192,50093,1,2,0:0:0:0:
256,192,50265,1,0,0:0:0:0:
256,192,50350,1,0,0:0:0:0:
256,192,50436,1,2,0:0:0:0:
256,192,50779,1,4,0:0:0:0:
256,192,51122,1,2,0:0:0:0:
256,192,51293,1,0,0:0:0:0:
256,192,51379,1,0,0:0:0:0:
256,192,51465,1,2,0:0:0:0:
256,192,51636,1,0,0:0:0:0:
256,192,51808,1,2,0:0:0:0:
256,192,52150,1,0,0:0:0:0:
256,192,52322,1,0,0:0:0:0:
256,192,52493,1,2,0:0:0:0:
256,192,52665,1,0,0:0:0:0:
256,192,52836,1,2,0:0:0:0:
256,192,52922,1,2,0:0:0:0:
256,192,53008,1,0,0:0:0:0:
256,192,53179,1,2,0:0:0:0:
256,192,53350,1,2,0:0:0:0:
256,192,53522,1,0,0:0:0:0:
256,192,53865,1,2,0:0:0:0:
256,192,54036,1,0,0:0:0:0:
256,192,54379,1,0,0:0:0:0:
256,192,54550,1,2,0:0:0:0:
256,192,54893,1,0,0:0:0:0:
256,192,55065,1,0,0:0:0:0:
256,192,55150,1,0,0:0:0:0:
256,192,55236,1,2,0:0:0:0:
256,192,55408,1,0,0:0:0:0:
256,192,55493,1,2,0:0:0:0:
288,192,55579,1,0,0:0:0:0:
256,192,55750,1,0,0:0:0:0:
256,192,55922,1,2,0:0:0:0:
256,192,56265,1,0,0:0:0:0:
256,192,56608,1,2,0:0:0:0:
256,192,56693,1,2,0:0:0:0:
256,192,56779,1,0,0:0:0:0:
256,192,56950,1,2,0:0:0:0:
256,192,57122,1,0,0:0:0:0:
256,192,57293,1,2,0:0:0:0:
256,192,57465,1,0,0:0:0:0:
256,192,57550,1,0,0:0:0:0:
256,192,57636,1,2,0:0:0:0:
256,192,57808,1,0,0:0:0:0:
256,192,57979,1,2,0:0:0:0:
256,192,58150,1,0,0:0:0:0:
256,192,58236,1,0,0:0:0:0:
256,192,58322,1,0,0:0:0:0:
256,192,58493,1,2,0:0:0:0:
256,192,58665,1,2,0:0:0:0:
256,192,59008,1,0,0:0:0:0:
256,192,59350,1,6,0:0:0:0:
256,192,59693,1,0,0:0:0:0:
256,192,59865,1,0,0:0:0:0:
256,192,60036,1,6,0:0:0:0:
256,192,60379,1,2,0:0:0:0:
256,192,60465,1,2,0:0:0:0:
256,192,60550,1,0,0:0:0:0:
256,192,60636,1,0,0:0:0:0:
256,192,60722,1,2,0:0:0:0:
256,192,60893,1,0,0:0:0:0:
256,192,60979,1,0,0:0:0:0:
256,192,61065,1,2,0:0:0:0:
256,192,61236,1,0,0:0:0:0:
256,192,61408,1,2,0:0:0:0:
256,192,61493,1,0,0:0:0:0:
256,192,61579,1,2,0:0:0:0:
256,192,61750,1,4,0:0:0:0:
256,192,62093,1,2,0:0:0:0:
256,192,62265,1,0,0:0:0:0:
256,192,62608,1,0,0:0:0:0:
256,192,62779,1,2,0:0:0:0:
256,192,62950,1,0,0:0:0:0:
256,192,63036,1,0,0:0:0:0:
256,192,63122,1,2,0:0:0:0:
256,192,63293,1,0,0:0:0:0:
256,192,63465,1,2,0:0:0:0:
256,192,63636,1,2,0:0:0:0:
256,192,63722,1,2,0:0:0:0:
256,192,63808,1,0,0:0:0:0:
256,192,63979,1,0,0:0:0:0:
256,192,64150,1,2,0:0:0:0:
256,192,64236,1,2,0:0:0:0:
256,192,64322,1,2,0:0:0:0:
256,192,64493,1,0,0:0:0:0:
256,192,64836,1,2,0:0:0:0:
256,192,65008,1,0,0:0:0:0:
256,192,65350,1,0,0:0:0:0:
256,192,65522,1,2,0:0:0:0:
256,192,65693,1,2,0:0:0:0:
256,192,65865,1,0,0:0:0:0:
256,192,66036,1,0,0:0:0:0:
256,192,66122,1,0,0:0:0:0:
256,192,66208,1,2,0:0:0:0:
256,192,66379,1,2,0:0:0:0:
256,192,66550,1,0,0:0:0:0:
256,192,66636,1,0,0:0:0:0:
256,192,66722,1,0,0:0:0:0:
256,192,66893,1,2,0:0:0:0:
256,192,67236,1,0,0:0:0:0:
256,192,67579,1,2,0:0:0:0:
256,192,67750,1,0,0:0:0:0:
256,192,68093,1,0,0:0:0:0:
256,192,68265,1,2,0:0:0:0:
256,192,68350,1,2,0:0:0:0:
256,192,68436,1,2,0:0:0:0:
256,192,68608,1,0,0:0:0:0:
256,192,68779,1,2,0:0:0:0:
256,192,68865,1,0,0:0:0:0:
256,192,68950,1,2,0:0:0:0:
256,192,69122,1,0,0:0:0:0:
256,192,69293,1,2,0:0:0:0:
256,192,69379,1,0,0:0:0:0:
256,192,69465,1,0,0:0:0:0:
256,192,69636,1,2,0:0:0:0:
256,192,69808,1,2,0:0:0:0:
256,192,69893,1,2,0:0:0:0:
256,192,69979,1,0,0:0:0:0:
256,192,70322,1,2,0:0:0:0:
256,192,70493,1,0,0:0:0:0:
256,192,70836,1,0,0:0:0:0:
256,192,71008,1,2,0:0:0:0:
256,192,71179,1,2,0:0:0:0:
256,192,71265,1,2,0:0:0:0:
224,192,71350,1,0,0:0:0:0:
256,192,71522,1,0,0:0:0:0:
256,192,71693,1,2,0:0:0:0:
256,192,71865,1,0,0:0:0:0:
256,192,71950,1,0,0:0:0:0:
256,192,72036,1,0,0:0:0:0:
256,192,72208,1,2,0:0:0:0:
256,192,72379,1,6,0:0:0:0:
256,192,72722,1,4,0:0:0:0:
256,192,73065,1,2,0:0:0:0:
256,192,73236,1,0,0:0:0:0:
256,192,73322,1,0,0:0:0:0:
256,192,73408,1,2,0:0:0:0:
256,192,73579,1,0,0:0:0:0:
256,192,73750,1,2,0:0:0:0:
256,192,74093,1,0,0:0:0:0:
256,192,74265,1,0,0:0:0:0:
256,192,74436,1,2,0:0:0:0:
256,192,74608,1,0,0:0:0:0:
256,192,74693,1,0,0:0:0:0:
256,192,74779,1,2,0:0:0:0:
256,192,74865,1,2,0:0:0:0:
256,192,74950,1,0,0:0:0:0:
256,192,75122,1,2,0:0:0:0:
256,192,75465,1,0,0:0:0:0:
256,192,75808,1,2,0:0:0:0:
256,192,75979,1,0,0:0:0:0:
256,192,76065,1,2,0:0:0:0:
256,192,76150,1,0,0:0:0:0:
256,192,76322,1,0,0:0:0:0:
256,192,76493,1,6,0:0:0:0:
256,192,77008,1,0,0:0:0:0:
256,192,77179,1,2,0:0:0:0:
256,192,77350,1,0,0:0:0:0:
256,192,77436,1,0,0:0:0:0:
288,192,77522,1,2,0:0:0:0:
288,192,77693,1,0,0:0:0:0:
288,192,77865,1,2,0:0:0:0:
288,192,78036,1,2,0:0:0:0:
288,192,78122,1,2,0:0:0:0:
256,192,78208,1,0,0:0:0:0:
256,192,78550,1,2,0:0:0:0:
256,192,78722,1,0,0:0:0:0:
256,192,79065,1,0,0:0:0:0:
256,192,79236,1,2,0:0:0:0:
256,192,79408,1,2,0:0:0:0:
256,192,79493,1,0,0:0:0:0:
256,192,79579,1,0,0:0:0:0:
256,192,79750,1,2,0:0:0:0:
256,192,79922,1,2,0:0:0:0:
256,192,80093,1,0,0:0:0:0:
256,192,80179,1,0,0:0:0:0:
256,192,80265,1,2,0:0:0:0:
256,192,80436,1,0,0:0:0:0:
256,192,80608,1,2,0:0:0:0:
256,192,80779,1,2,0:0:0:0:
256,192,80865,1,2,0:0:0:0:
256,192,80950,1,4,0:0:0:0:
256,192,81293,1,2,0:0:0:0:
256,192,81636,1,0,0:0:0:0:
256,192,81808,1,0,0:0:0:0:
256,192,81979,1,2,0:0:0:0:
256,192,82322,1,4,0:0:0:0:
256,192,82493,1,2,0:0:0:0:
256,192,82579,1,2,0:0:0:0:
256,192,82665,1,0,0:0:0:0:
256,192,82836,1,2,0:0:0:0:
256,192,82922,1,2,0:0:0:0:
256,192,83008,1,0,0:0:0:0:
256,192,83179,1,0,0:0:0:0:
256,192,83350,1,2,0:0:0:0:
256,192,83522,1,2,0:0:0:0:
256,192,83608,1,2,0:0:0:0:
256,192,83693,1,4,0:0:0:0:
256,192,84036,1,2,0:0:0:0:
256,192,84208,1,0,0:0:0:0:
256,192,84722,1,2,0:0:0:0:
256,192,85065,1,0,0:0:0:0:
256,192,85408,1,2,0:0:0:0:
256,192,85579,1,0,0:0:0:0:
256,192,85922,1,0,0:0:0:0:
256,192,86093,1,2,0:0:0:0:
256,192,86436,1,0,0:0:0:0:
256,192,86779,1,2,0:0:0:0:
256,192,86950,1,0,0:0:0:0:
256,192,87465,1,2,0:0:0:0:
256,192,87808,1,0,0:0:0:0:
256,192,88150,1,2,0:0:0:0:
256,192,88322,1,0,0:0:0:0:
256,192,88493,1,2,0:0:0:0:
256,192,88579,1,2,0:0:0:0:
256,192,88665,1,0,0:0:0:0:
256,192,88836,1,2,0:0:0:0:
256,192,89008,1,0,0:0:0:0:
256,192,89179,1,0,0:0:0:0:
256,192,89522,1,2,0:0:0:0:
256,192,89693,1,0,0:0:0:0:
256,192,90208,1,2,0:0:0:0:
256,192,90550,1,0,0:0:0:0:
256,192,90893,1,2,0:0:0:0:
256,192,91065,1,0,0:0:0:0:
256,192,91408,1,0,0:0:0:0:
256,192,91579,1,2,0:0:0:0:
256,192,91922,1,0,0:0:0:0:
256,192,92265,1,2,0:0:0:0:
256,192,92436,1,0,0:0:0:0:
256,192,92950,1,2,0:0:0:0:
256,192,93293,1,0,0:0:0:0:
256,192,93636,1,2,0:0:0:0:
256,192,93808,1,0,0:0:0:0:
256,192,93893,1,0,0:0:0:0:
256,192,93979,1,2,0:0:0:0:
256,192,94150,1,2,0:0:0:0:
256,192,94322,1,0,0:0:0:0:
256,192,94493,1,0,0:0:0:0:
256,192,94665,1,6,0:0:0:0:
256,192,95008,1,2,0:0:0:0:
256,192,95179,1,0,0:0:0:0:
256,192,95350,1,2,0:0:0:0:
256,192,95693,1,0,0:0:0:0:
256,192,96036,1,2,0:0:0:0:
256,192,96379,1,0,0:0:0:0:
256,192,96550,1,0,0:0:0:0:
256,192,96722,1,2,0:0:0:0:
256,192,96893,1,0,0:0:0:0:
256,192,97065,1,2,0:0:0:0:
256,192,97236,1,2,0:0:0:0:
256,192,97408,1,0,0:0:0:0:
256,192,97750,1,2,0:0:0:0:
256,192,97922,1,0,0:0:0:0:
256,192,98436,1,2,0:0:0:0:
256,192,98779,1,0,0:0:0:0:
256,192,99122,1,2,0:0:0:0:
256,192,99293,1,0,0:0:0:0:
256,192,99465,1,2,0:0:0:0:
256,192,99550,1,0,0:0:0:0:
256,192,99636,1,0,0:0:0:0:
256,192,99808,1,2,0:0:0:0:
256,192,99979,1,2,0:0:0:0:
256,192,100150,1,0,0:0:0:0:
256,192,100493,1,2,0:0:0:0:
256,192,100665,1,0,0:0:0:0:
256,192,101179,1,2,0:0:0:0:
256,192,101522,1,0,0:0:0:0:
256,192,101865,1,2,0:0:0:0:
256,192,102036,1,0,0:0:0:0:
256,192,102379,1,0,0:0:0:0:
256,192,102550,1,2,0:0:0:0:
256,192,102722,1,2,0:0:0:0:
256,192,102893,1,0,0:0:0:0:
256,192,103236,1,2,0:0:0:0:
256,192,103408,1,0,0:0:0:0:
256,192,103922,1,2,0:0:0:0:
256,192,104265,1,0,0:0:0:0:
256,192,104608,1,2,0:0:0:0:
256,192,104779,1,0,0:0:0:0:
256,192,104865,1,0,0:0:0:0:
256,192,104950,1,2,0:0:0:0:
256,192,105122,1,2,0:0:0:0:
256,192,105293,1,0,0:0:0:0:
256,192,105465,1,2,0:0:0:0:
256,192,105636,1,4,0:0:0:0:
256,192,105979,1,2,0:0:0:0:
256,192,106150,1,0,0:0:0:0:
256,192,106322,1,2,0:0:0:0:
256,192,106665,1,0,0:0:0:0:
256,192,107008,1,0,0:0:0:0:
256,192,107350,1,2,0:0:0:0:
256,192,107522,1,0,0:0:0:0:
256,192,107693,1,2,0:0:0:0:
256,192,107865,1,0,0:0:0:0:
256,192,108036,1,0,0:0:0:0:
256,192,108208,1,2,0:0:0:0:
256,192,108379,1,0,0:0:0:0:
256,192,108722,1,2,0:0:0:0:
256,192,108893,1,0,0:0:0:0:
256,192,109408,1,2,0:0:0:0:
256,192,109579,1,2,0:0:0:0:
256,192,109750,1,0,0:0:0:0:
256,192,110093,1,2,0:0:0:0:
256,192,110265,1,0,0:0:0:0:
256,192,110436,1,2,0:0:0:0:
256,192,110522,1,0,0:0:0:0:
288,192,110608,1,2,0:0:0:0:
256,192,110779,1,0,0:0:0:0:
256,192,110950,1,2,0:0:0:0:
256,192,111122,1,0,0:0:0:0:
256,192,111465,1,2,0:0:0:0:
256,192,111636,1,0,0:0:0:0:
256,192,112150,1,2,0:0:0:0:
256,192,112493,1,0,0:0:0:0:
256,192,112836,1,0,0:0:0:0:
256,192,113008,1,0,0:0:0:0:
256,192,113179,1,2,0:0:0:0:
256,192,113350,1,0,0:0:0:0:
256,192,113522,1,2,0:0:0:0:
256,192,113693,1,2,0:0:0:0:
256,192,113865,1,0,0:0:0:0:
256,192,114208,1,2,0:0:0:0:
256,192,114379,1,0,0:0:0:0:
256,192,114893,1,2,0:0:0:0:
256,192,115236,1,0,0:0:0:0:
256,192,115408,1,2,0:0:0:0:
256,192,115579,1,0,0:0:0:0:
256,192,115750,1,2,0:0:0:0:
256,192,115922,1,2,0:0:0:0:
256,192,116093,1,0,0:0:0:0:
256,192,116265,1,2,0:0:0:0:
256,192,116608,1,4,0:0:0:0:
256,192,116950,1,2,0:0:0:0:
256,192,117122,1,2,0:0:0:0:
256,192,117293,1,0,0:0:0:0:
256,192,117636,1,2,0:0:0:0:
256,192,118322,1,2,0:0:0:0:
256,192,118665,1,0,0:0:0:0:
256,192,119008,1,2,0:0:0:0:
288,192,119350,1,0,0:0:0:0:
288,192,119693,1,0,0:0:0:0:
288,192,120036,1,2,0:0:0:0:
288,192,120208,1,4,0:0:0:0:
288,192,120550,1,2,0:0:0:0:
288,192,120722,1,4,0:0:0:0:
288,192,120893,1,2,0:0:0:0:
288,192,120979,1,2,0:0:0:0:
288,192,121065,1,2,0:0:0:0:
288,192,121236,1,0,0:0:0:0:
288,192,121322,1,2,0:0:0:0:
288,192,121408,1,0,0:0:0:0:
288,192,121493,1,0,0:0:0:0:
288,192,121579,1,2,0:0:0:0:
288,192,121750,1,2,0:0:0:0:
288,192,121836,1,2,0:0:0:0:
288,192,121922,1,0,0:0:0:0:
288,192,122008,1,2,0:0:0:0:
256,192,122093,5,4,0:0:0:0:
256,192,122436,1,2,0:0:0:0:
256,192,122608,1,0,0:0:0:0:
256,192,122950,1,0,0:0:0:0:
256,192,123122,1,2,0:0:0:0:
256,192,123208,1,0,0:0:0:0:
256,192,123293,1,0,0:0:0:0:
256,192,123465,1,2,0:0:0:0:
256,192,123636,1,0,0:0:0:0:
256,192,123808,1,2,0:0:0:0:
256,192,123979,1,2,0:0:0:0:
256,192,124065,1,2,0:0:0:0:
256,192,124150,1,0,0:0:0:0:
256,192,124236,1,2,0:0:0:0:
256,192,124322,1,0,0:0:0:0:
256,192,124493,1,2,0:0:0:0:
256,192,124665,1,2,0:0:0:0:
256,192,124836,1,0,0:0:0:0:
256,192,125179,1,2,0:0:0:0:
256,192,125350,1,0,0:0:0:0:
256,192,125693,1,0,0:0:0:0:
256,192,125865,1,2,0:0:0:0:
256,192,126208,1,0,0:0:0:0:
256,192,126379,1,2,0:0:0:0:
256,192,126465,1,0,0:0:0:0:
256,192,126550,1,2,0:0:0:0:
256,192,126722,1,0,0:0:0:0:
256,192,126808,1,0,0:0:0:0:
256,192,126893,1,2,0:0:0:0:
256,192,126979,1,2,0:0:0:0:
256,192,127065,1,0,0:0:0:0:
256,192,127236,1,2,0:0:0:0:
256,192,127579,1,0,0:0:0:0:
256,192,127922,1,2,0:0:0:0:
256,192,128093,1,0,0:0:0:0:
256,192,128436,1,0,0:0:0:0:
256,192,128608,1,2,0:0:0:0:
256,192,128779,1,2,0:0:0:0:
256,192,128950,1,0,0:0:0:0:
256,192,129122,1,0,0:0:0:0:
256,192,129208,1,0,0:0:0:0:
256,192,129293,1,2,0:0:0:0:
256,192,129465,1,0,0:0:0:0:
256,192,129636,1,2,0:0:0:0:
256,192,129722,1,2,0:0:0:0:
256,192,129808,1,0,0:0:0:0:
256,192,129893,1,0,0:0:0:0:
256,192,129979,1,2,0:0:0:0:
256,192,130150,1,2,0:0:0:0:
256,192,130322,1,0,0:0:0:0:
256,192,130665,1,2,0:0:0:0:
256,192,130836,1,0,0:0:0:0:
256,192,131179,1,0,0:0:0:0:
256,192,131350,1,2,0:0:0:0:
256,192,131522,1,2,0:0:0:0:
256,192,131608,1,2,0:0:0:0:
224,192,131693,1,0,0:0:0:0:
256,192,131865,1,0,0:0:0:0:
256,192,132036,1,6,0:0:0:0:
256,192,132379,1,2,0:0:0:0:
256,192,132550,1,0,0:0:0:0:
256,192,132636,1,0,0:0:0:0:
256,192,132722,1,2,0:0:0:0:
256,192,132893,1,2,0:0:0:0:
256,192,133065,1,4,0:0:0:0:
256,192,133408,1,2,0:0:0:0:
256,192,133579,1,0,0:0:0:0:
256,192,133665,1,0,0:0:0:0:
256,192,133750,1,2,0:0:0:0:
256,192,133922,1,0,0:0:0:0:
256,192,134093,1,2,0:0:0:0:
256,192,134265,1,2,0:0:0:0:
256,192,134350,1,2,0:0:0:0:
256,192,134436,1,0,0:0:0:0:
256,192,134608,1,0,0:0:0:0:
256,192,134779,1,2,0:0:0:0:
256,192,134865,1,0,0:0:0:0:
256,192,134950,1,2,0:0:0:0:
256,192,135036,1,2,0:0:0:0:
256,192,135122,1,0,0:0:0:0:
256,192,135293,1,0,0:0:0:0:
256,192,135465,1,2,0:0:0:0:
256,192,135636,1,2,0:0:0:0:
256,192,135722,1,0,0:0:0:0:
256,192,135808,1,0,0:0:0:0:
256,192,136150,1,2,0:0:0:0:
256,192,136322,1,0,0:0:0:0:
256,192,136665,1,0,0:0:0:0:
256,192,136836,1,2,0:0:0:0:
256,192,137179,1,0,0:0:0:0:
256,192,137350,1,2,0:0:0:0:
256,192,137436,1,0,0:0:0:0:
256,192,137522,1,2,0:0:0:0:
256,192,137693,1,0,0:0:0:0:
256,192,137779,1,0,0:0:0:0:
288,192,137865,1,2,0:0:0:0:
256,192,138036,1,0,0:0:0:0:
256,192,138208,1,2,0:0:0:0:
256,192,138550,1,0,0:0:0:0:
256,192,138893,1,2,0:0:0:0:
256,192,138979,1,2,0:0:0:0:
256,192,139065,1,0,0:0:0:0:
256,192,139236,1,2,0:0:0:0:
256,192,139408,1,0,0:0:0:0:
256,192,139493,1,0,0:0:0:0:
256,192,139579,1,2,0:0:0:0:
256,192,139665,1,2,0:0:0:0:
256,192,139750,1,0,0:0:0:0:
256,192,139922,1,2,0:0:0:0:
256,192,140093,1,0,0:0:0:0:
256,192,140265,1,2,0:0:0:0:
256,192,140436,1,0,0:0:0:0:
256,192,140522,1,2,0:0:0:0:
256,192,140608,1,0,0:0:0:0:
256,192,140779,1,0,0:0:0:0:
256,192,140865,1,0,0:0:0:0:
256,192,140950,1,2,0:0:0:0:
256,192,141293,1,0,0:0:0:0:
256,192,141465,1,6,0:0:0:0:
256,192,141808,1,0,0:0:0:0:
256,192,141979,1,6,0:0:0:0:
256,192,142150,1,0,0:0:0:0:
256,192,142236,1,0,0:0:0:0:
256,192,142322,1,0,0:0:0:0:
256,192,142493,1,6,0:0:0:0:
256,192,142665,1,2,0:0:0:0:
256,192,142750,1,2,0:0:0:0:
256,192,142836,1,2,0:0:0:0:
256,192,142922,1,2,0:0:0:0:
256,192,143008,1,0,0:0:0:0:
256,192,143179,1,0,0:0:0:0:
256,192,143265,1,0,0:0:0:0:
256,192,143350,1,2,0:0:0:0:
256,192,143436,1,2,0:0:0:0:
256,192,143522,1,0,0:0:0:0:
256,192,143693,1,2,0:0:0:0:
256,192,143779,1,0,0:0:0:0:
256,192,143865,1,2,0:0:0:0:
256,192,143950,1,2,0:0:0:0:
256,192,144036,1,4,0:0:0:0:
256,192,144379,1,2,0:0:0:0:
256,192,144550,1,0,0:0:0:0:
256,192,144893,1,0,0:0:0:0:
256,192,145065,1,2,0:0:0:0:
256,192,145236,1,0,0:0:0:0:
256,192,145322,1,0,0:0:0:0:
256,192,145408,1,2,0:0:0:0:
256,192,145579,1,0,0:0:0:0:
256,192,145750,1,2,0:0:0:0:
256,192,145922,1,2,0:0:0:0:
256,192,146008,1,2,0:0:0:0:
256,192,146093,1,0,0:0:0:0:
256,192,146179,1,2,0:0:0:0:
256,192,146265,1,0,0:0:0:0:
256,192,146436,1,2,0:0:0:0:
256,192,146608,1,2,0:0:0:0:
256,192,146693,1,2,0:0:0:0:
256,192,146779,1,0,0:0:0:0:
256,192,147122,1,2,0:0:0:0:
256,192,147293,1,0,0:0:0:0:
256,192,147636,1,0,0:0:0:0:
256,192,147808,1,2,0:0:0:0:
256,192,147979,1,2,0:0:0:0:
256,192,148065,1,2,0:0:0:0:
256,192,148150,1,0,0:0:0:0:
256,192,148322,1,0,0:0:0:0:
256,192,148408,1,0,0:0:0:0:
256,192,148493,1,2,0:0:0:0:
256,192,148665,1,0,0:0:0:0:
256,192,148836,1,2,0:0:0:0:
256,192,148922,1,2,0:0:0:0:
256,192,149008,1,0,0:0:0:0:
256,192,149093,1,0,0:0:0:0:
256,192,149179,1,2,0:0:0:0:
256,192,149522,1,0,0:0:0:0:
256,192,149865,1,2,0:0:0:0:
256,192,150036,1,0,0:0:0:0:
256,192,150379,1,0,0:0:0:0:
256,192,150550,1,2,0:0:0:0:
256,192,150636,1,2,0:0:0:0:
256,192,150722,1,2,0:0:0:0:
256,192,150893,1,0,0:0:0:0:
256,192,151065,1,2,0:0:0:0:
256,192,151150,1,0,0:0:0:0:
256,192,151236,1,2,0:0:0:0:
256,192,151322,1,2,0:0:0:0:
256,192,151408,1,0,0:0:0:0:
256,192,151579,1,2,0:0:0:0:
256,192,151750,1,0,0:0:0:0:
256,192,151836,1,0,0:0:0:0:
256,192,151922,1,2,0:0:0:0:
256,192,152093,1,2,0:0:0:0:
256,192,152179,1,2,0:0:0:0:
256,192,152265,1,0,0:0:0:0:
256,192,152608,1,2,0:0:0:0:
256,192,152779,1,0,0:0:0:0:
256,192,153122,1,0,0:0:0:0:
256,192,153293,1,2,0:0:0:0:
256,192,153465,1,2,0:0:0:0:
256,192,153550,1,2,0:0:0:0:
224,192,153636,1,0,0:0:0:0:
256,192,153808,1,0,0:0:0:0:
256,192,153979,1,2,0:0:0:0:
256,192,154150,1,0,0:0:0:0:
256,192,154236,1,0,0:0:0:0:
256,192,154322,1,0,0:0:0:0:
256,192,154493,1,2,0:0:0:0:
256,192,154665,1,6,0:0:0:0:
256,192,155008,1,4,0:0:0:0:
256,192,155350,1,2,0:0:0:0:
256,192,155522,1,0,0:0:0:0:
256,192,155608,1,0,0:0:0:0:
256,192,155693,1,2,0:0:0:0:
256,192,155865,1,0,0:0:0:0:
256,192,156036,1,2,0:0:0:0:
256,192,156208,1,2,0:0:0:0:
256,192,156293,1,2,0:0:0:0:
256,192,156379,1,0,0:0:0:0:
256,192,156550,1,0,0:0:0:0:
256,192,156636,1,0,0:0:0:0:
256,192,156722,1,2,0:0:0:0:
256,192,156808,1,2,0:0:0:0:
256,192,156893,1,0,0:0:0:0:
256,192,157065,1,2,0:0:0:0:
256,192,157150,1,2,0:0:0:0:
256,192,157236,1,0,0:0:0:0:
256,192,157408,1,2,0:0:0:0:
256,192,157750,1,0,0:0:0:0:
256,192,158093,1,2,0:0:0:0:
256,192,158265,1,0,0:0:0:0:
256,192,158350,1,2,0:0:0:0:
256,192,158436,1,0,0:0:0:0:
256,192,158608,1,0,0:0:0:0:
256,192,158779,1,6,0:0:0:0:
256,192,159293,1,0,0:0:0:0:
256,192,159465,1,2,0:0:0:0:
256,192,159636,1,0,0:0:0:0:
256,192,159722,1,0,0:0:0:0:
288,192,159808,1,2,0:0:0:0:
288,192,159979,1,0,0:0:0:0:
288,192,160150,1,2,0:0:0:0:
288,192,160236,1,0,0:0:0:0:
288,192,160322,1,2,0:0:0:0:
288,192,160408,1,2,0:0:0:0:
256,192,160493,1,0,0:0:0:0:
256,192,160836,1,2,0:0:0:0:
256,192,161008,1,0,0:0:0:0:
256,192,161350,1,0,0:0:0:0:
256,192,161522,1,2,0:0:0:0:
256,192,161693,1,2,0:0:0:0:
256,192,161779,1,0,0:0:0:0:
256,192,161865,1,0,0:0:0:0:
256,192,162036,1,0,0:0:0:0:
256,192,162208,1,2,0:0:0:0:
256,192,162293,1,2,0:0:0:0:
256,192,162379,1,0,0:0:0:0:
256,192,162465,1,0,0:0:0:0:
256,192,162550,1,2,0:0:0:0:
256,192,162722,1,0,0:0:0:0:
256,192,162893,1,2,0:0:0:0:
256,192,163065,1,2,0:0:0:0:
256,192,163150,1,2,0:0:0:0:
256,192,163236,1,4,0:0:0:0:
256,192,163579,1,2,0:0:0:0:
256,192,163922,1,0,0:0:0:0:
256,192,164093,1,0,0:0:0:0:
256,192,164265,1,2,0:0:0:0:
256,192,164608,1,0,0:0:0:0:
256,192,164779,1,0,0:0:0:0:
256,192,164950,1,6,0:0:0:0:
256,192,165122,1,2,0:0:0:0:
256,192,165208,1,2,0:0:0:0:
256,192,165293,1,0,0:0:0:0:
256,192,165465,1,0,0:0:0:0:
256,192,165636,1,2,0:0:0:0:
256,192,165808,1,2,0:0:0:0:
256,192,165979,1,4,0:0:0:0:
256,192,166322,1,2,0:0:0:0:
256,192,166493,1,0,0:0:0:0:
256,192,166579,1,0,0:0:0:0:
256,192,166665,1,2,0:0:0:0:
256,192,166836,1,0,0:0:0:0:
256,192,167008,1,2,0:0:0:0:
256,192,167179,1,2,0:0:0:0:
256,192,167350,1,0,0:0:0:0:
256,192,167693,1,2,0:0:0:0:
256,192,167865,1,2,0:0:0:0:
256,192,168036,1,0,0:0:0:0:
256,192,168208,1,0,0:0:0:0:
256,192,168379,1,2,0:0:0:0:
256,192,168722,1,0,0:0:0:0:
256,192,169065,1,2,0:0:0:0:
256,192,169236,1,0,0:0:0:0:
256,192,169579,1,0,0:0:0:0:
256,192,169750,1,2,0:0:0:0:
256,192,169922,1,2,0:0:0:0:
256,192,170008,1,2,0:0:0:0:
256,192,170093,1,0,0:0:0:0:
256,192,170265,1,0,0:0:0:0:
256,192,170436,1,2,0:0:0:0:
256,192,170779,1,0,0:0:0:0:
256,192,170950,1,0,0:0:0:0:
256,192,171122,1,2,0:0:0:0:
256,192,171465,1,0,0:0:0:0:
256,192,171808,1,2,0:0:0:0:
256,192,171979,1,0,0:0:0:0:
256,192,172065,1,0,0:0:0:0:
256,192,172150,1,2,0:0:0:0:
256,192,172322,1,0,0:0:0:0:
256,192,172493,1,2,0:0:0:0:
256,192,172665,1,2,0:0:0:0:
256,192,172836,1,0,0:0:0:0:
256,192,173179,1,2,0:0:0:0:
256,192,173350,1,0,0:0:0:0:
256,192,173436,1,2,0:0:0:0:
256,192,173522,1,0,0:0:0:0:
256,192,173693,1,2,0:0:0:0:
256,192,173865,1,2,0:0:0:0:
256,192,174208,1,0,0:0:0:0:
256,192,174550,1,2,0:0:0:0:
256,192,174722,1,0,0:0:0:0:
256,192,174893,1,2,0:0:0:0:
256,192,175065,1,0,0:0:0:0:
256,192,175236,1,2,0:0:0:0:
256,192,175579,1,0,0:0:0:0:
256,192,175750,1,0,0:0:0:0:
256,192,175922,1,2,0:0:0:0:
256,192,176265,1,0,0:0:0:0:
256,192,176436,1,0,0:0:0:0:
256,192,176608,1,6,0:0:0:0:
256,192,176950,1,6,0:0:0:0:
256,192,177293,1,2,0:0:0:0:
256,192,177465,1,0,0:0:0:0:
256,192,177550,1,2,0:0:0:0:
256,192,177636,1,0,0:0:0:0:
256,192,177808,1,0,0:0:0:0:
256,192,177979,1,2,0:0:0:0:
256,192,178150,1,2,0:0:0:0:
256,192,178322,1,0,0:0:0:0:
256,192,178665,1,2,0:0:0:0:
256,192,178836,1,0,0:0:0:0:
256,192,178922,1,0,0:0:0:0:
256,192,179008,1,2,0:0:0:0:
256,192,179179,1,0,0:0:0:0:
256,192,179350,1,2,0:0:0:0:
256,192,179522,1,0,0:0:0:0:
256,192,179693,1,2,0:0:0:0:
256,192,180036,1,2,0:0:0:0:
256,192,180208,1,0,0:0:0:0:
256,192,180550,1,0,0:0:0:0:
256,192,180722,1,2,0:0:0:0:
256,192,180893,1,2,0:0:0:0:
256,192,181065,1,0,0:0:0:0:
256,192,181236,1,0,0:0:0:0:
256,192,181408,1,2,0:0:0:0:
256,192,181750,1,0,0:0:0:0:
256,192,181922,1,0,0:0:0:0:
256,192,182093,1,2,0:0:0:0:
256,192,182436,1,0,0:0:0:0:
256,192,182779,1,2,0:0:0:0:
256,192,182950,1,2,0:0:0:0:
256,192,183122,1,0,0:0:0:0:
256,192,183208,1,0,0:0:0:0:
256,192,183293,1,0,0:0:0:0:
256,192,183465,1,2,0:0:0:0:
256,192,183808,1,0,0:0:0:0:
256,192,183979,1,0,0:0:0:0:
256,192,184150,1,2,0:0:0:0:
256,192,184493,1,0,0:0:0:0:
256,192,184665,1,0,0:0:0:0:
256,192,184836,1,2,0:0:0:0:
256,192,185008,1,2,0:0:0:0:
256,192,185093,1,2,0:0:0:0:
256,192,185179,1,4,0:0:0:0:
256,192,185522,1,2,0:0:0:0:
256,192,185693,1,0,0:0:0:0:
256,192,185865,1,2,0:0:0:0:
256,192,186036,1,2,0:0:0:0:
256,192,186208,1,0,0:0:0:0:
256,192,186379,1,2,0:0:0:0:
256,192,186550,1,4,0:0:0:0:
256,192,186808,1,0,0:0:0:0:
256,192,186893,1,2,0:0:0:0:
256,192,186979,1,2,0:0:0:0:
256,192,187065,1,2,0:0:0:0:
256,192,187236,1,0,0:0:0:0:
256,192,187322,1,0,0:0:0:0:
256,192,187408,1,2,0:0:0:0:
256,192,187493,1,0,0:0:0:0:
256,192,187579,1,2,0:0:0:0:
256,192,187750,1,0,0:0:0:0:
256,192,187836,1,2,0:0:0:0:
256,192,187922,1,4,0:0:0:0:
256,192,188093,1,2,0:0:0:0:
256,192,188179,1,0,0:0:0:0:
256,192,188265,1,2,0:0:0:0:
256,192,188436,1,2,0:0:0:0:
256,192,188779,1,0,0:0:0:0:
256,192,188865,1,0,0:0:0:0:
256,192,188950,1,2,0:0:0:0:
256,192,189122,1,2,0:0:0:0:
256,192,189293,1,0,0:0:0:0:
256,192,189636,1,2,0:0:0:0:
256,192,189808,1,0,0:0:0:0:
256,192,190150,1,0,0:0:0:0:
256,192,190322,1,2,0:0:0:0:
256,192,190493,1,0,0:0:0:0:
256,192,190665,1,2,0:0:0:0:
256,192,190750,1,0,0:0:0:0:
256,192,190836,1,2,0:0:0:0:
256,192,191008,1,2,0:0:0:0:
256,192,191179,1,0,0:0:0:0:
256,192,191522,1,0,0:0:0:0:
256,192,191608,1,0,0:0:0:0:
256,192,191693,1,2,0:0:0:0:
256,192,191865,1,0,0:0:0:0:
256,192,192036,1,2,0:0:0:0:
256,192,192379,1,2,0:0:0:0:
256,192,192550,1,0,0:0:0:0:
256,192,192722,1,2,0:0:0:0:
256,192,192808,1,2,0:0:0:0:
256,192,192893,1,0,0:0:0:0:
256,192,193065,1,2,0:0:0:0:
256,192,193236,1,2,0:0:0:0:
256,192,193408,1,0,0:0:0:0:
256,192,193579,1,2,0:0:0:0:
256,192,193665,1,0,0:0:0:0:
256,192,193750,1,2,0:0:0:0:
256,192,193922,1,2,0:0:0:0:
256,192,194265,1,0,0:0:0:0:
256,192,194350,1,0,0:0:0:0:
256,192,194436,1,2,0:0:0:0:
256,192,194608,1,2,0:0:0:0:
256,192,194779,1,0,0:0:0:0:
256,192,195122,1,2,0:0:0:0:
256,192,195293,1,0,0:0:0:0:
256,192,195636,1,0,0:0:0:0:
256,192,195808,1,2,0:0:0:0:
256,192,195979,1,0,0:0:0:0:
256,192,196150,1,2,0:0:0:0:
256,192,196322,1,0,0:0:0:0:
256,192,196408,1,0,0:0:0:0:
256,192,196493,1,2,0:0:0:0:
256,192,196665,1,2,0:0:0:0:
256,192,197008,1,0,0:0:0:0:
256,192,197179,1,2,0:0:0:0:
256,192,197350,1,2,0:0:0:0:
256,192,197436,1,0,0:0:0:0:
256,192,197522,1,2,0:0:0:0:
256,192,197693,1,0,0:0:0:0:
256,192,197865,1,2,0:0:0:0:
256,192,198036,1,2,0:0:0:0:
256,192,198379,1,0,0:0:0:0:
256,192,198550,1,6,0:0:0:0:
256,192,198893,1,4,0:0:0:0:
256,192,199065,1,0,0:0:0:0:
256,192,199236,1,2,0:0:0:0:
256,192,199408,1,0,0:0:0:0:
256,192,199750,1,0,0:0:0:0:
256,192,199922,1,2,0:0:0:0:
256,192,200008,1,2,0:0:0:0:
256,192,200093,1,0,0:0:0:0:
256,192,200265,1,2,0:0:0:0:
256,192,200436,1,2,0:0:0:0:
256,192,200522,1,0,0:0:0:0:
256,192,200608,1,2,0:0:0:0:
256,192,200779,1,0,0:0:0:0:
256,192,201122,1,0,0:0:0:0:
256,192,201293,1,2,0:0:0:0:
256,192,201465,1,2,0:0:0:0:
256,192,201550,1,2,0:0:0:0:
256,192,201636,1,0,0:0:0:0:
256,192,201979,1,2,0:0:0:0:
256,192,202150,1,0,0:0:0:0:
256,192,202493,1,0,0:0:0:0:
256,192,202665,1,2,0:0:0:0:
256,192,202836,1,2,0:0:0:0:
256,192,203008,1,0,0:0:0:0:
256,192,203093,1,0,0:0:0:0:
256,192,203179,1,2,0:0:0:0:
256,192,203350,1,2,0:0:0:0:
256,192,203522,1,0,0:0:0:0:
256,192,203865,1,0,0:0:0:0:
256,192,204036,1,2,0:0:0:0:
256,192,204208,1,0,0:0:0:0:
256,192,204379,1,2,0:0:0:0:
256,192,204550,1,0,0:0:0:0:
256,192,204636,1,0,0:0:0:0:
256,192,204722,1,2,0:0:0:0:
256,192,204893,1,2,0:0:0:0:
256,192,205065,1,0,0:0:0:0:
256,192,205150,1,2,0:0:0:0:
256,192,205236,1,0,0:0:0:0:
256,192,205408,1,2,0:0:0:0:
256,192,205750,1,4,0:0:0:0:
256,192,205922,1,2,0:0:0:0:
256,192,206008,1,0,0:0:0:0:
256,192,206093,1,2,0:0:0:0:
256,192,206265,1,0,0:0:0:0:
256,192,206608,1,0,0:0:0:0:
256,192,206779,1,2,0:0:0:0:
256,192,207122,1,4,0:0:0:0:
256,192,207465,1,2,0:0:0:0:
256,192,207636,1,0,0:0:0:0:
256,192,207808,1,2,0:0:0:0:
256,192,207979,1,0,0:0:0:0:
256,192,208150,1,2,0:0:0:0:
256,192,208322,1,2,0:0:0:0:
256,192,208493,1,0,0:0:0:0:
256,192,208836,1,2,0:0:0:0:
256,192,209008,1,0,0:0:0:0:
256,192,209093,1,0,0:0:0:0:
256,192,209179,1,2,0:0:0:0:
256,192,209350,1,0,0:0:0:0:
256,192,209522,1,2,0:0:0:0:
256,192,209693,1,2,0:0:0:0:
256,192,220836,5,6,0:0:0:0:
256,192,221350,1,0,0:0:0:0:
256,192,221522,1,0,0:0:0:0:
256,192,221865,1,2,0:0:0:0:
256,192,222208,1,0,0:0:0:0:
256,192,222722,1,0,0:0:0:0:
256,192,222893,1,0,0:0:0:0:
256,192,223236,1,2,0:0:0:0:
256,192,223579,1,0,0:0:0:0:
256,192,224093,1,0,0:0:0:0:
256,192,224265,1,2,0:0:0:0:
256,192,224608,1,0,0:0:0:0:
256,192,224950,1,0,0:0:0:0:
256,192,225465,1,0,0:0:0:0:
256,192,225636,1,2,0:0:0:0:
256,192,225979,1,0,0:0:0:0:
256,192,226322,1,4,0:0:0:0:
256,192,226836,1,0,0:0:0:0:
256,192,227008,1,0,0:0:0:0:
256,192,227350,1,2,0:0:0:0:
256,192,227693,1,0,0:0:0:0:
256,192,228036,1,2,0:0:0:0:
256,192,228208,1,0,0:0:0:0:
256,192,228379,1,0,0:0:0:0:
256,192,228722,1,2,0:0:0:0:
256,192,229065,1,4,0:0:0:0:
256,192,229408,1,2,0:0:0:0:
256,192,229579,1,0,0:0:0:0:
256,192,229750,1,2,0:0:0:0:
256,192,229922,1,2,0:0:0:0:
256,192,230093,1,0,0:0:0:0:
256,192,230265,1,2,0:0:0:0:
256,192,230436,1,4,0:0:0:0:
256,192,230608,1,2,0:0:0:0:
256,192,230693,1,2,0:0:0:0:
256,192,230779,1,2,0:0:0:0:
256,192,230950,1,0,0:0:0:0:
256,192,231036,1,0,0:0:0:0:
256,192,231122,1,2,0:0:0:0:
256,192,231208,1,0,0:0:0:0:
256,192,231293,1,2,0:0:0:0:
256,192,231465,1,2,0:0:0:0:
256,192,231550,1,2,0:0:0:0:
256,192,231636,1,0,0:0:0:0:
256,192,231722,1,2,0:0:0:0:
256,192,231808,1,4,0:0:0:0:
256,192,232150,1,2,0:0:0:0:
256,192,232322,1,0,0:0:0:0:
256,192,232665,1,0,0:0:0:0:
256,192,232836,1,2,0:0:0:0:
256,192,232922,1,2,0:0:0:0:
256,192,233008,1,0,0:0:0:0:
256,192,233179,1,2,0:0:0:0:
256,192,233350,1,0,0:0:0:0:
256,192,233436,1,0,0:0:0:0:
256,192,233522,1,2,0:0:0:0:
256,192,233693,1,2,0:0:0:0:
256,192,233779,1,0,0:0:0:0:
256,192,233865,1,0,0:0:0:0:
256,192,233950,1,2,0:0:0:0:
256,192,234036,1,0,0:0:0:0:
256,192,234208,1,2,0:0:0:0:
256,192,234379,1,2,0:0:0:0:
256,192,234465,1,2,0:0:0:0:
256,192,234550,1,0,0:0:0:0:
256,192,234893,1,2,0:0:0:0:
256,192,235065,1,0,0:0:0:0:
256,192,235408,1,0,0:0:0:0:
256,192,235579,1,2,0:0:0:0:
256,192,235750,1,2,0:0:0:0:
256,192,235836,1,2,0:0:0:0:
256,192,235922,1,0,0:0:0:0:
256,192,236093,1,2,0:0:0:0:
256,192,236179,1,0,0:0:0:0:
256,192,236265,1,2,0:0:0:0:
256,192,236436,1,0,0:0:0:0:
256,192,236522,1,0,0:0:0:0:
256,192,236608,1,2,0:0:0:0:
256,192,236693,1,2,0:0:0:0:
256,192,236779,1,0,0:0:0:0:
256,192,236950,1,2,0:0:0:0:
256,192,237293,1,0,0:0:0:0:
256,192,237636,1,2,0:0:0:0:
256,192,237808,1,0,0:0:0:0:
256,192,238150,1,0,0:0:0:0:
256,192,238322,1,2,0:0:0:0:
256,192,238493,1,2,0:0:0:0:
256,192,238665,1,0,0:0:0:0:
256,192,238836,1,2,0:0:0:0:
256,192,238922,1,0,0:0:0:0:
256,192,239008,1,2,0:0:0:0:
256,192,239093,1,0,0:0:0:0:
256,192,239179,1,0,0:0:0:0:
256,192,239350,1,2,0:0:0:0:
256,192,239436,1,2,0:0:0:0:
256,192,239522,1,0,0:0:0:0:
256,192,239693,1,2,0:0:0:0:
256,192,239865,1,0,0:0:0:0:
256,192,239950,1,2,0:0:0:0:
256,192,240036,1,0,0:0:0:0:
256,192,240379,1,2,0:0:0:0:
256,192,240550,1,0,0:0:0:0:
256,192,240893,1,0,0:0:0:0:
256,192,241065,1,2,0:0:0:0:
256,192,241236,1,0,0:0:0:0:
256,192,241322,1,2,0:0:0:0:
224,192,241408,1,0,0:0:0:0:
256,192,241579,1,0,0:0:0:0:
256,192,241665,1,0,0:0:0:0:
256,192,241750,1,2,0:0:0:0:
256,192,241836,1,2,0:0:0:0:
256,192,241922,1,0,0:0:0:0:
256,192,242093,1,2,0:0:0:0:
256,192,242179,1,2,0:0:0:0:
256,192,242265,1,0,0:0:0:0:
256,192,242436,1,6,0:0:0:0:
256,192,242779,1,4,0:0:0:0:
256,192,243122,1,2,0:0:0:0:
256,192,243293,1,0,0:0:0:0:
256,192,243379,1,0,0:0:0:0:
256,192,243465,1,2,0:0:0:0:
256,192,243636,1,0,0:0:0:0:
256,192,243808,1,2,0:0:0:0:
256,192,243979,1,2,0:0:0:0:
256,192,244065,1,2,0:0:0:0:
256,192,244150,1,0,0:0:0:0:
256,192,244236,1,2,0:0:0:0:
256,192,244322,1,0,0:0:0:0:
256,192,244493,1,2,0:0:0:0:
256,192,244665,1,0,0:0:0:0:
256,192,244750,1,0,0:0:0:0:
256,192,244836,1,2,0:0:0:0:
256,192,244922,1,2,0:0:0:0:
256,192,245008,1,0,0:0:0:0:
256,192,245179,1,2,0:0:0:0:
256,192,245350,1,0,0:0:0:0:
256,192,245522,1,2,0:0:0:0:
256,192,245608,1,2,0:0:0:0:
256,192,245693,1,0,0:0:0:0:
256,192,245779,1,0,0:0:0:0:
256,192,245865,1,2,0:0:0:0:
256,192,246036,1,0,0:0:0:0:
256,192,246122,1,2,0:0:0:0:
256,192,246208,1,0,0:0:0:0:
256,192,246379,1,0,0:0:0:0:
256,192,246550,1,6,0:0:0:0:
256,192,247065,1,0,0:0:0:0:
256,192,247236,1,2,0:0:0:0:
256,192,247408,1,0,0:0:0:0:
256,192,247493,1,0,0:0:0:0:
288,192,247579,1,2,0:0:0:0:
288,192,247750,1,0,0:0:0:0:
288,192,247922,1,2,0:0:0:0:
288,192,248008,1,2,0:0:0:0:
288,192,248093,1,0,0:0:0:0:
288,192,248179,1,2,0:0:0:0:
256,192,248265,1,0,0:0:0:0:
256,192,248608,1,2,0:0:0:0:
256,192,248779,1,0,0:0:0:0:
256,192,249122,1,0,0:0:0:0:
256,192,249293,1,2,0:0:0:0:
256,192,249465,1,2,0:0:0:0:
256,192,249550,1,2,0:0:0:0:
256,192,249636,1,0,0:0:0:0:
256,192,249808,1,2,0:0:0:0:
256,192,249893,1,0,0:0:0:0:
256,192,249979,1,2,0:0:0:0:
256,192,250150,1,2,0:0:0:0:
256,192,250322,1,0,0:0:0:0:
256,192,250408,1,2,0:0:0:0:
256,192,250493,1,0,0:0:0:0:
256,192,250579,1,0,0:0:0:0:
256,192,250665,1,2,0:0:0:0:
256,192,250836,1,2,0:0:0:0:
256,192,250922,1,2,0:0:0:0:
256,192,251008,1,4,0:0:0:0:
256,192,251350,1,2,0:0:0:0:
256,192,251522,1,2,0:0:0:0:
256,192,251608,1,2,0:0:0:0:
256,192,251693,1,0,0:0:0:0:
256,192,251865,1,0,0:0:0:0:
256,192,252036,1,2,0:0:0:0:
256,192,252379,1,4,0:0:0:0:
256,192,252550,1,2,0:0:0:0:
256,192,252636,1,0,0:0:0:0:
256,192,252722,1,2,0:0:0:0:
256,192,252893,1,2,0:0:0:0:
256,192,252979,1,2,0:0:0:0:
256,192,253065,1,0,0:0:0:0:
256,192,253236,1,0,0:0:0:0:
256,192,253408,1,2,0:0:0:0:
256,192,253579,1,2,0:0:0:0:
256,192,253750,1,4,0:0:0:0:
256,192,254093,1,2,0:0:0:0:
256,192,254265,1,0,0:0:0:0:
256,192,254350,1,0,0:0:0:0:
256,192,254436,1,2,0:0:0:0:
256,192,254522,1,2,0:0:0:0:
256,192,254608,1,0,0:0:0:0:
256,192,254779,1,2,0:0:0:0:
256,192,254950,1,0,0:0:0:0:
256,192,255036,1,2,0:0:0:0:
256,192,255122,1,0,0:0:0:0:
256,192,255293,1,0,0:0:0:0:
256,192,255465,1,2,0:0:0:0:
256,192,255636,1,2,0:0:0:0:
256,192,255722,1,0,0:0:0:0:
256,192,255808,1,2,0:0:0:0:
256,192,255893,1,2,0:0:0:0:
256,192,255979,1,0,0:0:0:0:
256,192,256150,1,2,0:0:0:0:
256,192,256322,1,0,0:0:0:0:
256,192,256408,1,0,0:0:0:0:
256,192,256493,1,2,0:0:0:0:
256,192,256836,1,2,0:0:0:0:
256,192,257179,1,0,0:0:0:0:
256,192,257522,1,6,0:0:0:0:
256,192,258208,1,2,0:0:0:0:
256,192,258379,1,0,0:0:0:0:
256,192,258465,1,0,0:0:0:0:
288,192,258550,1,2,0:0:0:0:
288,192,258722,1,0,0:0:0:0:
288,192,258893,1,2,0:0:0:0:
288,192,258979,1,0,0:0:0:0:
288,192,259065,1,0,0:0:0:0:
288,192,259150,1,2,0:0:0:0:
256,192,259236,1,0,0:0:0:0:
256,192,259579,1,2,0:0:0:0:
256,192,259750,1,0,0:0:0:0:
256,192,260093,1,0,0:0:0:0:
256,192,260265,1,2,0:0:0:0:
256,192,260436,1,2,0:0:0:0:
256,192,260522,1,0,0:0:0:0:
256,192,260608,1,2,0:0:0:0:
256,192,260779,1,0,0:0:0:0:
256,192,260865,1,0,0:0:0:0:
256,192,260950,1,2,0:0:0:0:
256,192,261122,1,0,0:0:0:0:
256,192,261293,1,2,0:0:0:0:
256,192,261379,1,2,0:0:0:0:
256,192,261465,1,0,0:0:0:0:
256,192,261550,1,0,0:0:0:0:
256,192,261636,1,2,0:0:0:0:
256,192,261808,1,2,0:0:0:0:
256,192,261893,1,2,0:0:0:0:
256,192,261979,1,4,0:0:0:0:
256,192,262322,1,2,0:0:0:0:
256,192,262493,1,0,0:0:0:0:
256,192,262665,1,2,0:0:0:0:
256,192,262836,1,2,0:0:0:0:
256,192,263008,1,0,0:0:0:0:
256,192,263350,1,0,0:0:0:0:
256,192,263693,1,0,0:0:0:0:
256,192,263865,1,2,0:0:0:0:
256,192,263950,1,2,0:0:0:0:
256,192,264036,1,0,0:0:0:0:
256,192,264208,1,0,0:0:0:0:
256,192,264379,1,2,0:0:0:0:
256,192,264550,1,2,0:0:0:0:
256,192,264722,1,0,0:0:0:0:
256,192,265065,1,0,0:0:0:0:
256,192,265236,1,2,0:0:0:0:
256,192,265579,1,0,0:0:0:0:
256,192,265750,1,2,0:0:0:0:
256,192,266093,1,2,0:0:0:0:
256,192,266436,1,0,0:0:0:0:
256,192,266608,1,2,0:0:0:0:
256,192,266950,1,0,0:0:0:0:
256,192,267122,1,2,0:0:0:0:
256,192,267465,1,2,0:0:0:0:
256,192,267808,1,0,0:0:0:0:
256,192,267979,1,2,0:0:0:0:
256,192,268322,1,0,0:0:0:0:
256,192,268493,1,2,0:0:0:0:
256,192,268836,1,2,0:0:0:0:
256,192,269008,1,0,0:0:0:0:
256,192,269179,1,0,0:0:0:0:
256,192,269350,1,2,0:0:0:0:
256,192,269693,1,0,0:0:0:0:
256,192,269865,1,2,0:0:0:0:
