osu file format v14

[General]
AudioFilename: audio.mp3
AudioLeadIn: 0
PreviewTime: 83456
Countdown: 0
SampleSet: Soft
StackLeniency: 0.7
Mode: 0
LetterboxInBreaks: 0
WidescreenStoryboard: 1

[Editor]
Bookmarks: 3074,14368,36956,59545,76486,84956,107545,127355,146767,155238,183780,209192,220309,220398,220486,231780,251545,270956,279427
DistanceSpacing: 0.9
BeatDivisor: 8
GridSize: 32
TimelineZoom: 1.7

[Metadata]
Title:glow
TitleUnicode:glow
Artist:Hanatan
ArtistUnicode:花たん
Creator:Milan-
Version:Normal
Source:
Tags:utaite yurica
BeatmapID:1311478
BeatmapSetID:617721

[Difficulty]
HPDrainRate:2
CircleSize:3
OverallDifficulty:3
ApproachRate:4
SliderMultiplier:2
SliderTickRate:1

[Events]
//Background and Video events
0,0,"a.jpg",0,0
//Break Periods
//Storyboard Layer 0 (Background)
//Storyboard Layer 1 (Fail)
//Storyboard Layer 2 (Pass)
//Storyboard Layer 3 (Foreground)
//Storyboard Sound Samples

[TimingPoints]
297,705.882352941176,4,2,1,60,1,0
14414,-100,4,2,1,60,0,0
37002,-133.333333333333,4,2,1,45,0,0
59591,-133.333333333333,4,2,1,50,0,0
76532,-133.333333333333,4,2,1,55,0,0
78296,-133.333333333333,4,2,1,55,0,0
85002,-100,4,2,1,65,0,1
85355,-100,4,2,1,60,0,1
85708,-100,4,2,1,50,0,1
85796,-100,4,2,1,60,0,1
86414,-100,4,2,1,50,0,1
86514,-100,4,2,1,60,0,1
87826,-100,4,2,1,50,0,1
87926,-100,4,2,1,60,0,1
88532,-100,4,2,1,50,0,1
88632,-100,4,2,1,60,0,1
90649,-100,4,2,1,50,0,1
90749,-100,4,2,1,60,0,1
91355,-100,4,2,1,50,0,1
91455,-100,4,2,1,60,0,1
92061,-100,4,2,1,50,0,1
92161,-100,4,2,1,60,0,1
93473,-100,4,2,1,50,0,1
93573,-100,4,2,1,60,0,1
94179,-100,4,2,1,50,0,1
94279,-100,4,2,1,60,0,1
96120,-100,4,2,1,60,0,0
96296,-100,4,2,1,65,0,1
96385,-100,4,2,1,60,0,1
97002,-100,4,2,1,50,0,1
97091,-100,4,2,1,60,0,1
97708,-100,4,2,1,50,0,1
97808,-100,4,2,1,60,0,1
99120,-100,4,2,1,50,0,1
99220,-100,4,2,1,60,0,1
99826,-100,4,2,1,50,0,1
99926,-100,4,2,1,60,0,1
101944,-100,4,2,1,50,0,1
102044,-100,4,2,1,60,0,1
102649,-100,4,2,1,50,0,1
102749,-100,4,2,1,60,0,1
103355,-100,4,2,1,50,0,1
103455,-100,4,2,1,60,0,1
104767,-100,4,2,1,50,0,1
104867,-100,4,2,1,60,0,1
105120,-100,4,2,1,65,0,1
105220,-100,4,2,1,60,0,1
107591,-100,4,2,1,60,0,0
147120,-100,4,2,1,25,0,0

[Colours]
Combo1 : 168,196,159
Combo2 : 187,198,208
Combo3 : 226,215,173
Combo4 : 208,187,198

[HitObjects]
469,133,14414,6,0,P|420:119|371:112,1,100,4|0,0:0|0:0,0:0:0:0:
306,50,15120,2,0,P|256:49|206:55,1,100,0|0,1:2|0:0,0:0:0:0:
124,17,15826,2,0,B|116:67|116:67|139:132,1,100,0|0,0:0|0:0,0:0:0:0:
216,146,16532,2,0,B|224:196|224:196|201:261,1,100,0|0,1:2|0:0,0:0:0:0:
247,322,17238,6,0,P|296:320|342:340,1,100,2|0,0:0|0:0,0:0:0:0:
392,265,17944,2,0,P|441:266|487:246,1,100,0|0,1:0|0:0,0:0:0:0:
486,200,18473,2,0,B|475:150|475:150|491:109|491:109|477:45,1,150,0|0,1:0|0:0,0:0:0:0:
389,53,19355,1,0,1:0:0:0:
303,82,19708,1,0,0:0:0:0:
214,64,20061,6,0,P|168:102|150:141,1,100,2|0,0:0|0:0,0:0:0:0:
69,98,20767,2,0,P|63:157|78:197,1,100,0|0,1:0|0:0,0:0:0:0:
47,281,21473,2,0,L|152:266,1,100,0|0,0:0|0:0,0:0:0:0:
209,202,22179,2,0,L|307:216,1,100,0|0,1:0|0:0,0:0:0:0:
388,176,22885,5,2,0:0:0:0:
380,354,23591,2,0,L|281:339,1,100,2|0,1:2|0:0,0:0:0:0:
263,298,24120,2,0,L|164:312,1,100,0|0,1:0|1:0,0:0:0:0:
79,280,24826,2,0,P|74:253|74:217,1,50,0|0,1:0|1:0,0:0:0:0:
106,199,25179,2,0,P|112:153|100:93,1,100,0|0,1:0|1:0,0:0:0:0:
76,64,25708,6,0,P|137:52|184:19,1,100,4|0,0:0|0:0,0:0:0:0:
238,89,26414,2,0,P|299:101|346:134,1,100,0|0,1:0|0:0,0:0:0:0:
414,72,27120,2,0,B|422:122|422:122|406:169,1,100,0|0,0:0|0:0,0:0:0:0:
323,205,27826,2,0,B|306:251|306:251|314:301,1,100,0|0,1:0|0:0,0:0:0:0:
235,345,28532,6,0,P|186:343|140:363,1,100,2|0,0:0|0:0,0:0:0:0:
54,333,29238,1,0,1:0:0:0:
17,250,29591,2,0,P|25:176|124:98,1,200,0|0,0:0|0:0,0:0:0:0:
203,125,30649,1,0,1:0:0:0:
278,76,31002,1,0,0:0:0:0:
358,116,31355,6,0,P|383:169|386:212,1,100,2|0,0:0|0:0,0:0:0:0:
476,212,32061,2,0,P|456:267|427:299,1,100,0|0,1:0|0:0,0:0:0:0:
339,292,32767,2,0,L|222:305,1,100,0|0,0:0|0:0,0:0:0:0:
161,347,33473,2,0,L|44:334,1,100,0|0,1:0|0:0,0:0:0:0:
20,255,34179,5,2,0:0:0:0:
107,97,34885,2,0,L|212:81,1,100,2|0,1:2|0:0,0:0:0:0:
229,43,35414,2,0,L|327:58,1,100,0|0,1:0|1:0,0:0:0:0:
423,69,36120,1,0,1:0:0:0:
423,69,36296,2,0,B|419:104|398:129|398:129|423:163|427:207,1,150,0|4,1:0|0:3,0:0:0:0:
453,242,37002,6,0,P|389:241|303:224,1,150.000005722046,4|0,0:0|1:0,0:0:0:0:
140,169,38414,2,0,P|88:178|59:179,2,75.0000028610231,0|0|0,0:0|0:0|1:0,0:0:0:0:
211,11,39826,2,0,P|227:67|237:159,1,150.000005722046,2|0,0:0|1:0,0:0:0:0:
219,242,40885,1,0,0:0:0:0:
162,307,41238,2,0,B|216:329|216:329|260:320|309:299,1,150.000005722046,0|0,0:0|1:0,0:0:0:0:
451,213,42649,6,0,P|424:208|351:112,1,150.000005722046,2|0,0:0|1:0,0:0:0:0:
183,76,44061,2,0,P|202:24|218:1,2,75.0000028610231,0|0|0,0:0|0:0|1:0,0:0:0:0:
62,199,45473,2,0,P|155:167|211:185,1,150.000005722046,2|0,0:0|1:0,0:0:0:0:
286,197,46532,1,0,0:0:0:0:
230,262,46885,2,0,P|223:316|228:352,2,75.0000028610231,0|0|0,0:0|0:0|1:0,0:0:0:0:
351,140,48296,6,0,P|350:57|313:2,1,150.000005722046,2|0,0:0|1:0,0:0:0:0:
172,102,49708,2,0,P|209:103|246:98,2,75.0000028610231,0|0|0,0:0|0:0|1:0,0:0:0:0:
50,225,51120,2,0,P|11:288|13:362,1,150.000005722046,2|0,0:0|1:0,0:0:0:0:
91,324,52179,1,0,0:0:0:0:
167,364,52532,2,0,B|211:353|234:338|234:338|259:354|316:362,1,150.000005722046,0|0,0:0|1:0,0:0:0:0:
442,252,53944,6,0,P|391:202|308:201,1,150.000005722046,2|0,0:0|1:0,0:0:0:0:
306,25,55355,2,0,P|340:9|377:4,2,75.0000028610231,0|0|0,0:0|0:0|1:0,0:0:0:0:
186,149,56767,2,0,P|112:145|59:95,1,150.000005722046,2|0,0:0|1:0,0:0:0:0:
6,162,57826,1,0,0:0:0:0:
6,162,58002,2,0,B|23:192|53:209|53:209|0:253|17:322,1,187.500007152558,0|0,1:0|1:0,0:0:0:0:
97,287,59238,1,0,1:0:0:0:
164,341,59591,5,4,0:0:0:0:
230,181,60296,1,2,1:0:0:0:
399,214,61002,1,2,0:1:0:0:
332,373,61708,1,2,1:1:0:0:
247,222,62414,5,2,0:1:0:0:
351,84,63120,2,0,P|396:85|469:91,1,112.500004291535,2|0,1:0|1:0,0:0:0:0:
492,122,63826,2,0,P|496:156|499:212,1,75.0000028610231,2|0,0:1|0:0,0:0:0:0:
422,238,64532,2,0,P|418:272|415:328,1,75.0000028610231,2|0,1:0|0:0,0:0:0:0:
345,363,65238,5,2,0:1:0:0:
233,231,65944,1,2,1:0:0:0:
121,362,66649,1,2,0:1:0:0:
10,230,67355,1,2,1:0:0:0:
122,99,68061,5,6,0:1:0:0:
233,231,68767,1,2,1:0:0:0:
383,146,69473,1,2,0:1:0:0:
259,25,70179,2,0,P|224:41|152:78,1,112.500004291535,2|0,1:0|1:0,0:0:0:0:
122,99,70885,5,6,0:1:0:0:
286,151,71591,1,2,1:0:0:0:
446,89,72296,1,2,0:1:0:0:
421,259,73002,1,2,1:0:0:0:
286,151,73708,5,2,0:1:0:0:
266,322,74414,2,0,P|311:323|384:329,1,112.500004291535,2|0,1:0|1:0,0:0:0:0:
420,333,75120,2,0,P|420:295|420:258,1,75.0000028610231,2|0,1:0|0:0,0:0:0:0:
479,194,75826,2,0,P|479:156|479:119,1,75.0000028610231,2|0,1:0|0:0,0:0:0:0:
428,48,76532,5,6,0:1:0:0:
428,48,78296,6,0,P|370:58|305:66,1,112.500004291535,8|4,0:3|0:3,0:0:0:0:
233,89,79179,2,0,P|210:86|191:81,1,37.5000014305115,0|6,1:0|0:1,0:0:0:0:
144,304,80767,6,0,B|135:274|141:253|141:253|133:238|116:236|116:236|122:210|112:167,2,150.000005722046,0|0|4,0:0|1:0|0:1,0:0:0:0:
512,220,85002,6,0,P|466:203|430:159,1,100,4|0,0:0|0:0,0:0:0:0:
367,227,85708,2,0,P|346:182|352:125,1,100,4|0,1:0|0:0,0:0:0:0:
259,127,86414,2,0,P|276:81|320:45,2,100,4|0|0,0:0|0:0|1:0,0:0:0:0:
177,165,87473,1,0,0:0:0:0:
250,217,87826,6,0,P|168:188|65:232,1,200,4|4,0:0|1:0,0:0:0:0:
28,310,88885,1,0,0:0:0:0:
28,310,89061,2,0,P|105:325|186:334,1,150,0|0,1:0|0:0,0:0:0:0:
258,369,89944,2,0,P|332:360|406:345,1,150,0|0,1:0|1:0,0:0:0:0:
450,351,90649,6,0,P|436:307|450:235,1,100,4|0,0:0|0:0,0:0:0:0:
352,243,91355,2,0,P|373:201|434:160,1,100,4|0,1:0|0:0,0:0:0:0:
363,94,92061,2,0,P|407:79|479:93,2,100,4|0|0,0:0|0:0|1:0,0:0:0:0:
278,62,93120,1,0,0:0:0:0:
233,140,93473,6,0,P|186:156|59:71,1,200,4|4,0:0|1:0,0:0:0:0:
4,154,94532,1,0,0:0:0:0:
4,154,94708,2,0,L|9:273,1,100,0|0,1:0|1:0,0:0:0:0:
93,282,95414,2,0,L|88:401,2,100,0|0|0,1:0|1:0|1:0,0:0:0:0:
132,259,96296,6,0,P|174:272|235:263,1,100,4|0,0:0|0:0,0:0:0:0:
247,353,97002,2,0,P|285:332|322:282,1,100,4|0,1:0|0:0,0:0:0:0:
392,342,97708,2,0,P|405:300|396:239,2,100,4|0|0,0:0|0:0|1:0,0:0:0:0:
320,289,98767,1,0,0:0:0:0:
320,198,99120,6,0,P|363:151|511:147,1,200,4|4,0:0|1:0,0:0:0:0:
498,47,100179,1,0,0:0:0:0:
498,47,100355,2,0,P|444:43|336:31,1,150,0|0,1:0|0:0,0:0:0:0:
260,13,101238,1,0,1:0:0:0:
260,13,101944,6,0,P|242:74|238:116,1,100,4|0,0:0|0:0,0:0:0:0:
156,146,102649,2,0,P|162:195|177:243,1,100,4|0,1:0|0:0,0:0:0:0:
144,327,103355,2,0,P|193:335|243:340,1,100,4|0,0:0|0:0,0:0:0:0:
268,253,104061,2,0,P|317:247|367:239,1,100,0|0,1:0|0:0,0:0:0:0:
423,168,104767,5,4,0:0:0:0:
334,154,105120,2,0,P|361:106|464:68,1,150,4|0,0:0|1:0,0:0:0:0:
508,131,106002,2,0,P|501:202|496:298,1,150,0|0,1:0|1:0,0:0:0:0:
410,306,106885,2,0,P|406:281|401:245,2,50,0|0|0,1:0|1:0|1:0,0:0:0:0:
337,359,107591,6,0,P|297:364|165:277,1,200,4|0,0:0|1:0,0:0:0:0:
160,193,108649,1,0,0:0:0:0:
239,150,109002,2,0,P|199:145|67:232,1,200,0|0,0:0|1:0,0:0:0:0:
10,55,110414,6,0,P|68:71|111:67,1,100,2|0,0:0|0:0,0:0:0:0:
191,98,111120,2,0,P|243:68|270:35,1,100,0|0,1:0|0:0,0:0:0:0:
358,28,111826,2,0,P|383:83|391:142,2,100,0|0|0,0:0|0:0|1:0,0:0:0:0:
257,177,113238,6,0,P|351:172|438:249,1,200,2|0,0:0|1:0,0:0:0:0:
454,321,114296,1,0,0:0:0:0:
366,298,114649,2,0,P|272:293|185:370,1,200,0|0,0:0|1:0,0:0:0:0:
52,241,116061,6,0,P|98:257|148:257,2,100,2|0|0,0:0|0:0|1:0,0:0:0:0:
41,151,117120,2,0,P|46:123|55:96,1,50,0|0,0:0|1:0,0:0:0:0:
131,147,117649,2,0,P|185:133|277:91,1,150,0|0,1:0|1:0,0:0:0:0:
444,143,118885,6,0,P|399:150|300:277,2,200,4|0|0,0:0|1:0|0:0,0:0:0:0:
428,231,120649,1,0,0:0:0:0:
508,271,121002,2,0,P|496:318|493:369,1,100,0|0,1:0|0:0,0:0:0:0:
403,374,121708,6,0,P|317:325|221:343,1,200,2|0,0:0|1:0,0:0:0:0:
185,260,122767,1,0,0:0:0:0:
134,334,123120,2,0,P|98:343|22:328,1,100,0|0,0:0|0:0,0:0:0:0:
10,248,123826,2,0,P|50:216|65:166,1,100,0|0,1:0|0:0,0:0:0:0:
9,99,124532,6,0,P|106:115|192:57,1,200,2|0,0:0|1:0,0:0:0:0:
274,37,125591,1,0,0:0:0:0:
274,37,125767,2,0,P|326:42|392:44,1,100,0|0,1:0|1:0,0:0:0:0:
457,77,126473,2,0,P|461:104|461:135,1,50,0|0,1:0|1:0,0:0:0:0:
465,306,127355,6,0,P|382:253|285:269,1,200,4|0,0:0|1:0,0:0:0:0:
224,336,128414,1,0,0:0:0:0:
141,373,128767,2,0,B|133:323|133:323|156:258,1,100,0|0,0:0|0:0,0:0:0:0:
213,212,129473,2,0,B|221:162|221:162|198:97,1,100,0|0,1:0|0:0,0:0:0:0:
269,53,130179,6,0,P|220:55|174:35,1,100,2|0,0:0|0:0,0:0:0:0:
112,101,130885,2,0,P|63:100|17:120,1,100,0|0,1:0|0:0,0:0:0:0:
26,164,131414,2,0,B|37:214|37:214|21:255|21:255|35:319,1,150,0|0,1:0|0:0,0:0:0:0:
120,326,132296,1,0,1:0:0:0:
206,301,132649,1,0,0:0:0:0:
293,323,133002,6,0,P|339:285|357:246,1,100,2|0,0:0|0:0,0:0:0:0:
435,292,133708,2,0,P|441:233|426:193,1,100,0|0,1:0|0:0,0:0:0:0:
459,111,134414,2,0,L|354:126,1,100
291,183,135120,2,0,L|193:169,1,100,0|0,1:0|0:0,0:0:0:0:
110,206,135826,5,2,0:0:0:0:
132,30,136532,2,0,L|231:45,1,100,2|0,1:2|0:0,0:0:0:0:
249,86,137061,2,0,L|348:72,1,100,0|0,1:0|1:0,0:0:0:0:
433,104,137767,2,0,P|438:131|438:167,1,50,0|0,1:0|1:0,0:0:0:0:
406,185,138120,2,0,P|400:231|412:291,1,100,0|0,1:0|1:0,0:0:0:0:
436,320,138649,6,0,P|375:332|328:365,1,100,4|0,0:0|0:0,0:0:0:0:
274,295,139355,2,0,P|213:283|166:250,1,100,0|0,1:0|0:0,0:0:0:0:
98,312,140061,2,0,B|90:262|90:262|106:215,1,100,0|0,0:0|0:0,0:0:0:0:
189,179,140767,2,0,B|206:133|206:133|198:83,1,100,0|0,1:0|0:0,0:0:0:0:
277,39,141473,6,0,P|326:41|372:21,1,100,2|0,0:0|0:0,0:0:0:0:
458,51,142179,1,0,1:0:0:0:
495,134,142532,2,0,P|487:208|388:286,1,200,0|0,0:0|0:0,0:0:0:0:
309,259,143591,1,0,1:0:0:0:
234,308,143944,1,0,0:0:0:0:
154,268,144296,6,0,P|129:215|126:172,1,100,2|0,0:0|0:0,0:0:0:0:
36,172,145002,2,0,P|56:117|85:85,1,100,0|0,1:0|0:0,0:0:0:0:
127,75,145532,2,0,P|180:79|281:55,1,150,0|0,1:0|1:0,0:0:0:0:
359,85,146414,2,0,P|363:112|367:145,2,50,8|4|4,0:3|0:3|0:1,0:0:0:0:
256,192,146944,12,2,155238,0:0:0:0:
