osu file format v14

[General]
AudioFilename: Flower of Sorrow -Hanatan-.mp3
AudioLeadIn: 0
PreviewTime: 94210
Countdown: 0
SampleSet: Soft
StackLeniency: 0.7
Mode: 0
LetterboxInBreaks: 0
WidescreenStoryboard: 1

[Editor]
DistanceSpacing: 0.6
BeatDivisor: 4
GridSize: 4
TimelineZoom: 2.3

[Metadata]
Title:flower of sorrow
TitleUnicode:flower of sorrow
Artist:Hanatan
ArtistUnicode:花たん
Creator:Natsu
Version:Skystar's Extreme
Source:
Tags:amamiya yuko p_a_n scanter xinely ritsu-tanaika
BeatmapID:498507
BeatmapSetID:210566

[Difficulty]
HPDrainRate:7
CircleSize:4
OverallDifficulty:8.5
ApproachRate:9.2
SliderMultiplier:2
SliderTickRate:1

[Events]
//Background and Video events
0,0,"BG.jpg",0,0
Video,0,"video.avi"
//Break Periods
2,82836,87956
2,117297,122242
2,128726,132242
2,212836,217956
//Storyboard Layer 0 (Background)
//Storyboard Layer 1 (Fail)
//Storyboard Layer 2 (Pass)
//Storyboard Layer 3 (Foreground)
//Storyboard Sound Samples

[TimingPoints]
-45,357.142857142857,4,2,10,50,1,0
7097,-111.111111111111,4,2,10,50,0,0
9954,-125,4,2,10,50,0,0
10312,-142.857142857143,4,2,10,50,0,0
10669,-166.666666666667,4,2,10,50,0,0
11383,-166.666666666667,4,1,10,30,0,0
12097,-166.666666666667,4,1,10,40,0,0
12812,-111.111111111111,4,2,10,50,0,0
14240,-200,4,2,10,50,0,0
15669,-111.111111111111,4,1,10,50,0,0
21383,-66.6666666666666,4,2,10,50,0,0
24240,-76.9230769230769,4,1,10,50,0,0
25669,-100,4,1,10,50,0,0
27097,-125,4,1,10,40,0,0
47097,-100,4,1,10,40,0,0
49419,-166.666666666667,4,1,10,40,0,0
50490,-100,4,1,10,40,0,0
50847,-83.3333333333333,4,1,10,40,0,0
51383,-100,4,1,10,40,0,0
52276,-166.666666666667,4,1,10,40,0,0
52812,-83.3333333333333,4,1,10,50,0,0
53526,-100,4,1,10,40,0,0
55133,-166.666666666667,4,1,10,40,0,0
56204,-100,4,1,10,40,0,0
56383,-83.3333333333333,4,1,10,40,0,0
57097,-100,4,1,10,45,0,0
59240,-111.111111111111,4,1,10,50,0,0
59954,-100,4,1,10,50,0,1
68526,-90.9090909090909,4,1,10,50,0,1
69954,-83.3333333333333,4,1,10,50,0,1
71294,-100,4,1,10,50,0,0
71383,-111.111111111111,4,1,10,50,0,1
77097,-100,4,1,10,40,0,1
79062,-100,4,1,10,50,0,1
79954,-90.9090909090909,4,1,10,40,0,1
81026,-90.9090909090909,4,1,10,50,0,1
81383,-100,4,1,10,50,0,0
88526,-125,4,2,10,50,0,0
89954,-83.3333333333333,4,2,10,50,0,0
90193,-125,4,2,10,50,0,0
90669,-83.3333333333333,4,2,10,50,0,0
90907,-125,4,2,10,50,0,0
91383,-83.3333333333333,4,2,10,50,0,0
92812,-125,4,2,10,35,0,0
93169,-125,4,2,10,40,0,0
93526,-125,4,2,10,45,0,0
93883,-125,4,2,10,50,0,0
94240,-125,4,2,10,40,0,0
111383,-200,4,2,10,40,0,0
111740,-166.666666666667,4,2,10,45,0,0
112097,-142.857142857143,4,2,10,50,0,0
112454,-125,4,2,10,55,0,0
112812,-111.111111111111,4,2,10,60,0,0
113169,-100,4,2,10,65,0,0
113526,-90.9090909090909,4,2,10,70,0,0
113883,-83.3333333333333,4,2,10,75,0,0
114240,-83.3333333333333,4,2,10,80,0,0
122812,-125,4,1,10,40,0,0
127097,-200,4,1,10,40,0,0
127812,-125,4,1,10,40,0,0
160847,-111.111111111111,4,1,10,40,0,0
161383,-100,4,1,10,50,0,1
169954,-90.9090909090909,4,1,10,50,0,1
171383,-83.3333333333333,4,1,10,50,0,1
172722,-83.3333333333333,4,1,10,50,0,0
172812,-100,4,1,10,50,0,1
178347,-100,4,1,10,40,0,1
180490,-100,4,1,10,50,0,1
184419,-125,4,2,10,20,0,0
185669,-111.111111111111,4,2,10,40,0,0
186383,-100,4,2,10,60,0,0
186740,-100,4,1,10,50,0,0
187276,-100,4,2,10,30,0,0
188526,-100,4,1,10,50,0,0
190847,-125,4,1,10,50,0,0
191383,-100,4,1,10,50,0,0
192812,-83.3333333333333,4,1,10,50,0,0
193704,-100,4,1,10,50,0,0
198526,-83.3333333333333,4,1,10,50,0,0
199419,-100,4,1,10,50,0,0
204240,-83.3333333333333,4,1,10,50,0,0
204954,-100,4,1,10,50,0,0
218526,-125,4,1,10,50,0,0
221383,-125,4,1,10,20,0,0
221740,-125,4,1,10,25,0,0
222097,-125,4,1,10,30,0,0
222454,-125,4,1,10,35,0,0
222812,-125,4,1,10,50,0,0
224954,-90.9090909090909,4,1,10,50,0,0
225669,-90.9090909090909,4,1,10,50,0,1
234240,-83.3333333333333,4,1,10,50,0,1
237008,-83.3333333333333,4,1,10,50,0,0
237097,-83.3333333333333,4,1,10,50,0,1
247097,-83.3333333333333,4,1,10,50,0,0

[HitObjects]
352,248,7097,5,4,0:0:0:0:
176,172,7276,1,0,1:0:0:0:
280,96,7454,1,2,0:0:0:0:
252,296,7633,6,0,L|260:206,1,89.9999972534181,4|0,0:0|0:0,0:0:0:0:
392,88,7990,1,2,0:0:0:0:
200,48,8169,1,2,0:0:0:0:
376,184,8347,6,0,L|393:402,1,179.999994506836,4|0,0:0|1:0,0:0:0:0:
136,264,8883,1,2,0:0:0:0:
252,296,9062,6,0,L|241:168,1,89.9999972534181,4|0,0:0|0:0,0:0:0:0:
276,24,9419,1,2,0:0:0:0:
194,104,9597,2,0,L|328:124,1,134.999995880127,0|0,3:0|0:0,0:0:0:0:
328,124,9954,6,0,P|344:88|396:64,1,80,4|0,0:0|0:0,0:0:0:0:
360,208,10312,2,0,P|400:204|444:224,1,69.9999978637696,4|0,0:0|0:0,0:0:0:0:
332,288,10669,6,0,L|376:304,2,39.9999987792969,0|0|0,0:0|0:0|0:0,0:0:0:0:
256,288,11026,2,0,L|300:304,2,39.9999987792969,0|0|0,0:0|0:0|0:0,0:0:0:0:
180,288,11383,5,0,0:0:0:0:
256,288,11562,1,0,0:0:0:0:
332,288,11740,1,0,0:0:0:0:
256,288,11919,1,0,0:0:0:0:
64,292,12097,5,0,0:0:0:0:
180,208,12276,1,0,0:0:0:0:
56,216,12454,1,0,0:0:0:0:
180,288,12633,1,0,0:0:0:0:
116,160,12812,5,0,0:0:0:0:
64,148,14240,6,0,B|95:174|89:213|89:213|128:197|160:208|160:208|153:170|177:141|177:141|140:136|120:104|120:104|108:132|77:143,1,350,0|0,0:0|0:0,0:0:0:0:
64,148,15669,6,0,P|56:220|76:296,1,134.999995880127,4|0,0:0|0:0,0:0:0:0:
84,304,16026,1,8,0:0:0:0:
188,156,16204,2,0,P|192:112|176:56,1,89.9999972534181,0|0,0:0|2:0,0:0:0:0:
300,288,16562,1,0,0:0:0:0:
360,344,16740,2,0,P|408:352|452:320,1,89.9999972534181,8|0,0:0|0:0,0:0:0:0:
468,260,17008,1,0,0:0:0:0:
468,260,17097,5,0,0:0:0:0:
388,152,17276,2,0,L|312:160,1,44.999998626709,2|2,2:0|2:0,0:0:0:0:
300,288,17454,5,8,0:0:0:0:
224,296,17574,2,0,L|148:304,1,59.9999981689454,2|2,2:0|2:0,0:0:0:0:
96,112,17812,6,0,B|124:104|124:104|156:116,1,59.9999981689454,0|2,0:0|2:0,0:0:0:0:
252,224,18050,1,2,2:0:0:0:
300,288,18169,6,0,B|328:296|328:296|360:284,1,59.9999981689454,0|2,0:0|2:0,0:0:0:0:
488,168,18407,1,2,2:0:0:0:
468,92,18526,6,0,P|384:72|300:88,1,134.999995880127
328,88,18883,1,8,0:0:0:0:
236,256,19062,6,0,P|218:215|227:172,1,89.9999972534181,0|0,0:0|2:0,0:0:0:0:
412,244,19419,1,0,0:0:0:0:
328,88,19597,2,0,P|346:129|338:173,1,89.9999972534181,8|0,0:0|2:0,0:0:0:0:
236,256,19954,5,0,0:0:0:0:
236,256,20074,2,0,P|204:268|148:244,1,59.9999981689454,2|2,2:0|2:0,0:0:0:0:
32,212,20312,5,0,0:0:0:0:
32,212,20432,2,0,P|64:200|120:224,1,59.9999981689454,2|2,2:0|2:0,0:0:0:0:
236,256,20669,5,0,0:0:0:0:
396,176,20847,1,0,0:0:0:0:
252,72,21026,1,8,0:0:0:0:
168,192,21204,1,0,0:0:0:0:
168,192,21294,1,8,0:0:0:0:
168,192,21383,6,0,L|256:184,1,75.0000028610231,4|0,0:0|2:0,0:0:0:0:
396,176,21562,1,2,0:0:0:0:
392,196,21651,1,2,0:0:0:0:
388,216,21740,1,0,0:0:0:0:
320,268,21919,1,2,0:0:0:0:
312,184,22097,6,0,P|380:212|356:348,1,225.000008583069,4|0,0:0|0:0,0:0:0:0:
328,352,22454,2,0,P|260:324|284:188,1,225.000008583069,4|0,0:0|0:0,0:0:0:0:
344,192,22812,6,0,L|256:184,1,75.0000028610231,4|0,0:0|2:0,0:0:0:0:
116,176,22991,1,2,0:0:0:0:
120,196,23080,1,2,0:0:0:0:
124,216,23169,1,0,0:0:0:0:
192,268,23348,1,2,0:0:0:0:
200,184,23526,6,0,P|132:212|156:348,1,225.000008583069,4|0,0:0|0:0,0:0:0:0:
184,352,23883,2,0,P|252:324|228:188,1,225.000008583069,4|0,0:0|0:0,0:0:0:0:
192,268,24240,5,8,0:0:0:0:
212,368,24419,1,8,0:0:0:0:
336,92,24954,5,8,0:0:0:0:
316,192,25133,1,8,0:0:0:0:
316,192,25669,6,0,L|416:199,1,100
440,324,26026,2,0,L|341:331,1,100
260,340,26294,1,0,0:0:0:0:
260,340,26383,6,0,L|264:280,1,50,8|8,0:0|0:0,0:0:0:0:
268,184,26562,2,0,L|264:124,1,50,8|8,0:0|0:0,0:0:0:0:
132,316,26740,2,0,L|128:376,1,50,8|8,0:0|0:0,0:0:0:0:
132,184,26919,2,0,L|135:233,1,50,8|8,0:0|0:0,0:0:0:0:
24,80,27097,6,0,P|0:151|52:232,1,160,0|8,0:0|0:0,0:0:0:0:
160,104,27633,1,0,0:0:0:0:
132,184,27812,2,0,B|164:192|164:192|220:172,1,80,0|0,2:0|0:0,0:0:0:0:
336,96,28169,2,0,L|240:100,1,80,8|2,0:0|2:0,0:0:0:0:
224,168,28437,1,2,2:0:0:0:
224,168,28526,6,0,P|216:208|248:272,1,80
340,284,28883,1,8,0:0:0:0:
352,192,29062,1,0,0:0:0:0:
260,293,29240,6,0,L|340:284,1,80,0|0,2:0|0:0,0:0:0:0:
432,141,29597,2,0,L|512:132,1,80,8|0,0:0|0:0,0:0:0:0:
376,324,29954,6,0,B|320:328|320:328|276:352|276:352|204:360,1,160,0|8,0:0|0:0,0:0:0:0:
132,280,30490,2,0,L|116:224,2,40,2|2|2,2:0|2:0|2:0,2:0:0:0:
222,357,30847,1,0,0:0:0:0:
132,280,31026,6,0,B|126:226|126:226|102:182|102:182|98:126,1,160,8|2,0:0|2:0,0:0:0:0:
279,90,31562,1,0,0:0:0:0:
340,152,31740,6,0,P|266:175|203:130,1,160,8|2,0:0|2:0,0:0:0:0:
220,40,32276,1,0,0:0:0:0:
256,136,32454,2,0,P|288:140|320:120,1,40,8|0,0:0|2:0,0:0:0:0:
368,72,32633,1,2,2:0:0:0:
456,136,32812,6,0,B|464:200|464:200|452:228|452:228|460:300,1,160,0|8,0:0|0:0,0:0:0:0:
292,360,33347,2,0,P|272:300|320:252,1,120,0|0,0:0|2:0,0:0:0:0:
304,276,33704,2,0,L|200:288,1,80,0|8,0:0|0:0,0:0:0:0:
77,336,34062,1,2,2:0:0:0:
77,336,34151,1,2,2:0:0:0:
77,336,34240,5,0,0:0:0:0:
144,168,34419,2,0,L|148:264,1,80,0|8,0:0|0:0,0:0:0:0:
212,324,34776,1,0,0:0:0:0:
64,244,34954,6,0,P|38:219|46:147,1,80,0|0,2:0|0:0,0:0:0:0:
128,92,35312,2,0,P|154:117|146:189,1,80,8|0,0:0|0:0,0:0:0:0:
36,88,35579,1,8,0:0:0:0:
40,76,35669,6,0,B|104:56|104:56|232:72,1,160,0|8,0:0|0:0,0:0:0:0:
316,88,36204,2,0,L|308:144,2,40,2|2|2,2:0|2:0|2:0,0:0:0:0:
392,20,36562,1,0,0:0:0:0:
316,88,36740,6,0,B|336:148|336:148|332:192|332:192|352:260,1,160,8|0,0:0|3:0,0:0:0:0:
428,300,37276,1,0,0:0:0:0:
456,208,37454,5,8,0:0:0:0:
346,242,37633,1,8,0:0:0:0:
292,344,37812,1,2,2:0:0:0:
216,216,37990,5,0,0:0:0:0:
119,223,38169,2,0,L|48:232,1,40,8|0,0:0|2:0,0:0:0:0:
88,352,38347,1,0,0:0:0:0:
100,356,38437,1,8,0:0:0:0:
112,360,38526,6,0,P|148:312|108:216,1,160,0|8,0:0|0:0,0:0:0:0:
40,144,39062,1,0,0:0:0:0:
119,223,39240,2,0,L|198:231,1,80,0|0,2:0|0:0,0:0:0:0:
228,52,39597,2,0,L|149:61,1,80,8|0,0:0|2:0,0:0:0:0:
400,100,39954,6,0,B|452:112|452:112|476:160|460:200|400:200,1,160,0|8,0:0|0:0,0:0:0:0:
328,196,40490,1,0,0:0:0:0:
252,247,40669,2,0,L|240:168,1,80,2|0,2:0|0:0,0:0:0:0:
424,248,41026,1,8,0:0:0:0:
364,332,41205,1,2,2:0:0:0:
356,340,41294,1,2,2:0:0:0:
348,348,41383,6,0,B|304:344|304:344|260:356,1,80,0|0,0:0|2:0,0:0:0:0:
192,280,41740,2,0,B|236:284|236:284|280:272,1,80,8|0,0:0|2:0,0:0:0:0:
148,348,42097,1,2,2:0:0:0:
148,188,42275,5,0,1:0:0:0:
239,242,42454,2,0,L|80:232,1,160,8|0,0:0|2:0,0:0:0:0:
216,145,42990,5,0,0:0:0:0:
308,200,43169,2,0,L|148:189,1,160,8|2,1:0|2:0,0:0:0:0:
284,101,43704,5,0,0:0:0:0:
376,156,43883,1,8,0:0:0:0:
276,84,44062,2,0,L|352:104,1,40,0|8,0:0|0:0,0:0:0:0:
352,164,44240,6,0,P|428:164|464:100,1,120,0|0,0:0|2:0,0:0:0:0:
480,60,44597,2,0,L|380:48,1,80,8|0,0:0|2:0,0:0:0:0:
284,101,44954,1,2,2:0:0:0:
392,228,45133,5,0,0:0:0:0:
352,164,45312,2,0,P|314:229|381:305,1,160,8|0,0:0|2:0,0:0:0:0:
360,98,45847,1,0,0:0:0:0:
284,100,46026,6,0,P|322:166|421:146,1,160,8|2,0:0|2:0,0:0:0:0:
219,56,46562,1,0,0:0:0:0:
360,98,46740,2,0,L|468:80,1,80,8|0,0:0|2:0,0:0:0:0:
108,140,47097,5,0,0:0:0:0:
320,172,47276,1,8,0:0:0:0:
140,224,47454,1,0,0:0:0:0:
131,212,47544,1,8,0:0:0:0:
280,240,47722,1,8,0:0:0:0:
290,251,47812,1,0,0:0:0:0:
220,136,47990,1,8,0:0:0:0:
424,228,48169,2,0,L|416:116,1,100,8|0,0:0|0:0,0:0:0:0:
416,113,48437,1,8,0:0:0:0:
415,98,48526,6,0,L|345:88,1,50,0|0,0:0|2:0,0:0:0:0:
292,88,48704,2,0,L|243:81,1,50,0|0,0:0|2:0,0:0:0:0:
168,72,48883,1,0,0:0:0:0:
256,344,49240,1,8,0:0:0:0:
352,372,49419,6,0,P|339:330|347:290,1,59.9999981689454,0|0,0:0|2:0,0:0:0:0:
256,194,49776,2,0,L|256:116,1,59.9999981689454,0|0,0:0|2:0,0:0:0:0:
172,314,50133,2,0,P|171:344|160:372,1,59.9999981689454,0|0,0:0|2:0,0:0:0:0:
256,244,50490,6,0,L|256:195,1,50,0|0,0:0|2:0,0:0:0:0:
296,112,50669,1,8,0:0:0:0:
384,52,50847,2,0,P|476:108|384:128,1,239.999992675781,12|0,2:0|2:0,0:0:0:0:
296,112,51383,5,0,0:0:0:0:
250,91,51472,1,0,0:0:0:0:
201,87,51561,1,0,0:0:0:0:
153,100,51650,1,0,0:0:0:0:
112,129,51740,1,0,0:0:0:0:
112,129,52097,1,8,0:0:0:0:
172,24,52276,6,0,P|193:63|192:94,1,59.9999981689454,0|0,0:0|2:0,0:0:0:0:
136,288,52633,1,0,0:0:0:0:
62,251,52812,6,0,B|40:268|40:268|44:176,1,119.999996337891,12|0,2:0|2:0,0:0:0:0:
38,106,53079,2,0,B|35:79|35:79|113:129,1,119.999996337891,12|0,2:0|2:0,0:0:0:0:
174,157,53347,2,0,B|200:169|200:169|119:212,1,119.999996337891,12|0,2:0|3:0,0:0:0:0:
44,176,53704,6,0,B|64:244|64:244|52:300|52:300|72:372,1,200,12|0,2:0|2:0,0:0:0:0:
224,360,54240,5,0,0:0:0:0:
269,340,54329,1,0,0:0:0:0:
293,298,54418,1,0,0:0:0:0:
288,249,54507,1,0,0:0:0:0:
254,213,54597,2,0,L|132:204,1,100,0|0,0:0|2:0,0:0:0:0:
99,332,54954,1,8,0:0:0:0:
224,360,55133,6,0,B|257:354|257:354|296:368,1,59.9999981689454,0|0,0:0|2:0,0:0:0:0:
424,224,55490,2,0,B|418:191|418:191|432:152,1,59.9999981689454,0|0,0:0|2:0,0:0:0:0:
288,24,55847,2,0,B|255:30|255:30|216:16,1,59.9999981689454,0|0,0:0|2:0,0:0:0:0:
88,160,56204,6,0,B|94:193|94:193|80:232,1,50,0|0,0:0|2:0,0:0:0:0:
120,296,56383,1,8,0:0:0:0:
198,145,56562,2,0,B|257:183|242:251|242:251|196:297|223:358,1,239.999992675781,12|0,2:0|2:0,0:0:0:0:
160,220,57097,5,0,3:0:0:0:
296,316,57276,2,0,P|340:304|400:328,1,100,8|0,0:0|3:0,0:0:0:0:
144,372,57633,1,0,3:0:0:0:
208,304,57812,6,0,B|244:296|244:296|232:352,1,66.6666666666667,0|0,3:0|3:0,3:0:0:0:
40,256,58050,2,0,B|28:291|28:291|-13:252,1,66.6666666666667,0|0,3:0|3:0,3:0:0:0:
165,134,58288,2,0,B|140:106|140:106|194:89,1,66.6666666666667,0|0,3:0|3:0,3:0:0:0:
144,372,58526,5,0,0:0:0:0:
248,12,59240,2,0,L|252:72,1,44.999998626709,0|0,0:0|2:0,0:0:0:0:
344,144,59419,5,8,0:0:0:0:
377,172,59508,1,8,0:0:0:0:
420,168,59597,1,8,0:0:0:0:
448,134,59686,1,0,0:0:0:0:
443,91,59776,1,0,0:0:0:0:
409,64,59865,1,0,0:0:0:0:
365,70,59954,5,4,0:0:0:0:
284,204,60133,2,0,B|276:252|276:252|292:336,1,100,0|8,0:0|0:0,0:0:0:0:
432,264,60490,1,0,0:0:0:0:
285,302,60669,1,0,0:0:0:0:
180,148,60847,1,0,0:0:0:0:
284,204,61026,1,8,0:0:0:0:
116,204,61204,5,0,0:0:0:0:
100,180,61294,1,0,0:0:0:0:
100,152,61383,1,0,0:0:0:0:
236,72,61562,1,0,0:0:0:0:
200,236,61740,2,0,L|184:348,1,100,8|0,0:0|0:0,0:0:0:0:
208,368,62008,1,0,0:0:0:0:
204,352,62097,5,0,0:0:0:0:
284,204,62276,1,0,0:0:0:0:
280,344,62454,1,8,0:0:0:0:
348,244,62633,1,0,0:0:0:0:
353,365,62812,6,0,L|204:352,1,150
204,352,63169,1,8,0:0:0:0:
285,106,63347,1,0,0:0:0:0:
136,120,63526,6,0,L|285:106,1,150
285,106,63883,1,8,0:0:0:0:
104,340,64062,1,0,0:0:0:0:
204,352,64240,6,0,L|104:340,1,100
304,192,64597,2,0,L|404:180,1,100,8|0,0:0|0:0,0:0:0:0:
428,244,64865,1,8,0:0:0:0:
416,252,64954,2,0,P|364:244|332:168,1,100
328,40,65312,1,0,0:0:0:0:
334,209,65490,2,0,P|328:236|280:252,1,50,0|8,0:0|0:0,0:0:0:0:
176,256,65669,6,0,L|8:240,1,150,0|0,0:0|2:0,0:0:0:0:
40,320,66026,2,0,P|96:276|76:180,1,150,8|0,0:0|2:0,0:0:0:0:
34,148,66383,2,0,P|15:193|26:241,1,100
94,202,66651,2,0,L|84:124,1,50,0|8,0:0|0:0,0:0:0:0:
128,372,66919,1,0,0:0:0:0:
87,152,67097,5,0,0:0:0:0:
184,296,67276,1,0,0:0:0:0:
244,92,67454,1,0,0:0:0:0:
416,136,67633,1,0,0:0:0:0:
444,296,67812,2,0,L|328:288,1,100
316,129,68079,1,8,0:0:0:0:
316,129,68169,2,0,L|416:136,1,100,8|0,0:0|0:0,0:0:0:0:
444,296,68437,1,8,0:0:0:0:
444,296,68526,6,0,P|472:276|448:192,1,110.000003356934,4|2,0:0|2:0,0:0:0:0:
339,39,68883,2,0,P|352:90|316:129,1,110.000003356934,8|0,0:0|3:0,0:0:0:0:
252,332,69240,2,0,P|248:297|163:276,1,110.000003356934,8|2,0:0|2:0,0:0:0:0:
152,68,69597,2,0,P|132:96|48:72,1,110.000003356934,8|0,0:0|3:0,0:0:0:0:
48,284,69954,6,0,P|112:276|52:204,1,179.999994506836,8|0,0:0|0:0,0:0:0:0:
52,196,70312,1,0,0:0:0:0:
68,368,70490,2,0,B|116:372|160:336|160:336|232:312|320:364,1,239.999992675781,8|0,0:0|0:0,0:0:0:0:
472,352,71026,1,8,0:0:0:0:
472,352,71204,2,0,P|476:324|460:280,1,59.9999981689454,8|8,0:0|0:0,0:0:0:0:
384,128,71383,5,0,0:0:0:0:
296,192,71562,2,0,B|284:236|284:236|296:304,1,89.9999972534181,0|8,0:0|0:0,0:0:0:0:
396,328,71919,5,0,0:0:0:0:
404,304,72008,1,8,0:0:0:0:
424,288,72097,1,0,0:0:0:0:
484,160,72276,1,0,0:0:0:0:
296,104,72454,1,8,0:0:0:0:
488,240,72633,1,0,0:0:0:0:
296,104,72812,5,0,0:0:0:0:
484,160,72990,1,0,0:0:0:0:
296,192,73169,1,8,0:0:0:0:
135,98,73347,5,0,0:0:0:0:
128,72,73437,1,8,0:0:0:0:
108,56,73526,1,0,0:0:0:0:
64,252,73704,1,0,0:0:0:0:
236,236,73883,1,8,0:0:0:0:
135,98,74062,1,0,0:0:0:0:
124,320,74240,6,0,L|288:328,1,134.999995880127
258,326,74597,1,8,0:0:0:0:
320,92,74776,1,0,0:0:0:0:
326,226,74954,6,0,L|320:92,1,134.999995880127
320,92,75312,1,8,0:0:0:0:
346,308,75490,1,0,0:0:0:0:
144,188,75669,5,0,0:0:0:0:
320,92,75847,1,0,0:0:0:0:
108,72,76026,1,8,0:0:0:0:
224,136,76204,5,0,0:0:0:0:
224,136,76294,1,8,0:0:0:0:
224,136,76383,1,0,0:0:0:0:
80,244,76562,1,0,0:0:0:0:
256,308,76740,2,0,L|356:308,1,89.9999972534181,8|0,0:0|0:0,0:0:0:0:
346,308,77008,1,8,0:0:0:0:
346,308,77097,5,4,0:0:0:0:
204,236,77276,1,0,0:0:0:0:
328,144,77454,1,8,0:0:0:0:
256,8,77633,1,0,0:0:0:0:
291,223,77812,1,8,0:0:0:0:
298,235,77901,1,0,0:0:0:0:
185,75,78079,1,0,0:0:0:0:
191,62,78168,1,8,0:0:0:0:
120,208,78347,1,0,0:0:0:0:
0,116,78526,6,0,L|112:120,1,100,8|0,0:0|0:0,0:0:0:0:
200,260,78883,1,0,2:2:0:0:
72,356,79062,1,12,0:2:0:0:
106,204,79240,1,0,0:0:0:0:
120,208,79329,1,8,0:0:0:0:
233,351,79508,1,0,0:0:0:0:
248,348,79597,1,8,0:0:0:0:
292,168,79776,1,8,0:0:0:0:
288,152,79865,1,8,0:0:0:0:
284,136,79954,6,0,L|296:68,1,55.0000016784668,0|0,0:0|0:0,0:0:0:0:
384,180,80133,2,0,L|396:112,1,55.0000016784668,0|0,0:0|0:0,0:0:0:0:
152,172,80312,6,0,L|140:104,1,55.0000016784668,0|0,0:0|0:0,0:0:0:0:
52,216,80491,2,0,L|40:148,1,55.0000016784668,0|0,0:0|0:0,0:0:0:0:
384,264,80669,6,0,L|320:248,1,55.0000016784668,0|0,0:0|0:0,0:0:0:0:
128,304,80847,2,0,L|196:288,1,55.0000016784668,0|0,0:0|0:0,0:0:0:0:
478,290,81026,5,8,0:0:0:0:
452,332,81115,1,8,0:0:0:0:
410,357,81204,1,8,0:0:0:0:
361,360,81293,1,8,0:0:0:0:
316,340,81383,1,0,0:0:0:0:
376,64,88526,6,0,L|304:72,1,53.3333333333333,4|0,0:0|0:0,0:0:0:0:
156,88,88764,1,0,0:0:0:0:
156,88,88883,6,0,B|148:116|124:128|124:128|80:112|68:68|108:32,1,160,2|0,0:0|1:0,0:0:0:0:
248,144,89478,1,0,0:0:0:0:
284,208,89597,5,2,0:0:0:0:
276,284,89716,1,0,0:0:0:0:
224,336,89835,1,2,0:0:0:0:
224,336,89954,6,0,B|196:340|196:340|180:340|180:340|168:344|168:344|116:352,1,79.9999975585938,4|0,0:0|0:0,0:0:0:0:
12,152,90193,1,0,0:0:0:0:
72,196,90312,5,2,0:0:0:0:
132,148,90431,1,0,0:0:0:0:
192,196,90550,1,2,0:0:0:0:
248,144,90669,6,0,B|284:136|284:136|352:152,1,79.9999975585938,4|0,0:0|0:0,0:0:0:0:
404,272,90907,1,0,0:0:0:0:
372,340,91026,5,2,0:0:0:0:
328,276,91145,1,0,0:0:0:0:
360,208,91264,1,2,0:0:0:0:
416,152,91383,6,0,B|436:136|436:136|448:52,1,79.9999975585938,4|0,0:0|0:0,0:0:0:0:
348,24,91621,1,0,0:0:0:0:
300,88,91740,5,2,0:0:0:0:
256,24,91859,1,0,0:0:0:0:
220,88,91978,1,2,0:0:0:0:
148,44,92097,6,0,B|112:36|112:36|84:40|84:40|56:84,1,79.9999975585938,4|0,0:0|0:0,0:0:0:0:
72,184,92335,1,0,0:0:0:0:
152,208,92454,5,2,0:0:0:0:
140,280,92574,1,0,0:0:0:0:
128,352,92693,1,2,0:0:0:0:
220,332,92812,5,4,0:0:0:0:
308,384,92931,1,0,0:0:0:0:
304,292,93050,1,0,0:0:0:0:
212,312,93169,5,0,0:0:0:0:
216,220,93288,1,0,0:0:0:0:
304,272,93407,1,0,0:0:0:0:
300,180,93526,5,2,0:0:0:0:
208,200,93645,1,0,0:0:0:0:
212,108,93764,1,0,0:0:0:0:
300,160,93883,5,2,0:0:0:0:
300,64,94002,1,0,0:0:0:0:
208,84,94121,1,0,0:0:0:0:
244,8,94240,5,4,0:0:0:0:
372,84,94954,1,0,0:0:0:0:
324,332,95669,5,0,0:0:0:0:
296,64,96383,1,0,0:0:0:0:
176,356,97097,5,0,0:0:0:0:
220,44,97812,1,0,0:0:0:0:
296,64,98169,1,0,0:0:0:0:
76,68,98526,5,0,0:0:0:0:
120,196,99954,5,0,0:0:0:0:
336,56,100669,1,0,0:0:0:0:
256,72,101026,1,0,0:0:0:0:
176,256,101383,5,0,0:0:0:0:
416,40,102097,1,0,0:0:0:0:
232,316,102812,5,0,0:0:0:0:
303,349,103169,1,0,0:0:0:0:
382,344,103526,1,0,0:0:0:0:
450,303,103883,1,0,0:0:0:0:
240,172,104240,5,0,0:0:0:0:
488,24,105669,5,4,0:0:0:0:
468,100,106919,2,8,L|408:96,1,40,8|8,1:0|1:0,0:0:0:0:
348,88,107097,5,4,0:0:0:0:
348,88,107812,2,0,L|356:184,1,80,0|0,0:0|1:0,0:0:0:0:
280,311,108169,2,0,L|284:232,1,80,0|0,0:0|1:0,0:0:0:0:
204,180,108526,5,4,0:0:0:0:
128,204,109240,1,8,0:0:0:0:
52,180,109597,2,0,P|40:152|52:100,1,80,0|8,3:0|0:0,0:0:0:0:
280,148,109954,6,0,P|288:188|256:248,1,80,0|0,0:0|3:0,0:0:0:0:
180,308,110312,2,0,L|76:300,1,80,8|0,0:0|3:0,0:0:0:0:
25,123,110669,1,8,0:0:0:0:
103,109,110788,1,8,0:0:0:0:
76,184,110907,1,8,0:0:0:0:
25,123,111026,2,0,L|13:51,2,53.3333333333333,0|0|0,3:0|3:0|3:0,0:0:0:0:
49,259,111383,6,0,L|40:328,1,50,0|0,3:0|0:0,0:0:0:0:
132,232,111740,6,0,P|134:269|129:301,1,59.9999981689454,0|0,3:0|0:0,0:0:0:0:
196,172,112097,6,0,P|212:204|216:268,1,69.9999978637696,0|0,3:0|0:0,0:0:0:0:
232,92,112454,6,0,P|264:120|280:188,1,80,0|0,3:0|0:0,0:0:0:0:
152,44,112812,6,0,L|24:32,1,89.9999972534181,0|0,3:0|0:0,0:0:0:0:
196,172,113169,6,0,L|64:160,1,100,0|0,3:0|0:0,0:0:0:0:
364,88,113526,6,0,L|236:76,1,110.000003356934,0|0,3:0|0:0,0:0:0:0:
420,248,113883,6,0,L|292:236,1,119.999996337891,0|0,3:0|0:0,0:0:0:0:
468,60,114240,5,4,3:2:0:0:
468,60,115669,1,0,0:0:0:0:
408,352,117097,5,0,0:0:0:0:
79,56,122812,6,0,L|84:128,1,40
76,164,122990,2,0,L|73:124,1,40,0|0,0:0|0:0,0:0:0:0:
80,56,123169,1,0,0:0:0:0:
256,336,123526,1,8,0:0:0:0:
328,216,123704,6,0,L|424:207,1,80,0|0,0:0|2:0,0:0:0:0:
428,312,124062,2,0,L|348:304,1,80,0|0,0:0|2:0,0:0:0:0:
160,264,124419,2,0,L|256:255,1,80,0|0,0:0|2:0,0:0:0:0:
428,312,124776,1,0,0:0:0:0:
344,352,124954,6,0,L|272:340,1,53.3333333333333,2|2,2:0|2:0,0:0:0:0:
160,264,125193,1,2,2:0:0:0:
176,188,125312,6,0,L|248:176,1,53.3333333333333,2|0,2:0|2:0,0:0:0:0:
356,68,125551,1,0,2:0:0:0:
433,56,125669,6,0,L|428:128,1,40
436,164,125847,2,0,L|438:124,1,40,0|0,0:0|0:0,0:0:0:0:
432,56,126026,1,0,0:0:0:0:
256,336,126383,1,8,0:0:0:0:
184,216,126561,6,0,L|88:207,1,80,0|0,0:0|2:0,0:0:0:0:
84,312,126919,1,0,0:0:0:0:
256,336,127097,6,0,B|300:328|300:328|320:348|320:348|352:332|352:332|396:356,1,150,0|0,0:0|2:0,0:0:0:0:
256,336,127812,6,0,L|256:272,1,40,0|0,0:0|2:0,0:0:0:0:
168,332,127990,5,8,0:0:0:0:
164,312,128079,1,8,0:0:0:0:
128,316,128169,5,8,0:0:0:0:
124,336,128258,1,8,0:0:0:0:
88,332,128347,5,8,0:0:0:0:
84,312,128436,1,8,0:0:0:0:
48,316,128526,5,4,0:0:0:0:
64,280,132812,6,0,B|140:268|140:268|180:281,1,120
180,281,133169,1,8,0:0:0:0:
348,160,133347,1,8,0:0:0:0:
271,335,133526,6,0,L|280:230,1,80
264,217,133794,1,0,0:0:0:0:
287,238,133883,1,8,0:0:0:0:
315,253,133972,1,8,0:0:0:0:
347,258,134061,1,0,0:0:0:0:
378,255,134151,1,0,0:0:0:0:
408,242,134240,6,0,B|456:228|456:228|492:260|492:304|444:320,1,160,0|8,0:0|0:0,0:0:0:0:
348,160,134776,2,0,L|164:176,1,160
244,352,135312,2,0,L|323:345,1,80,8|0,0:0|0:0,0:0:0:0:
335,344,135579,1,8,0:0:0:0:
347,343,135669,6,0,P|313:317|256:332,1,80
120,332,136026,1,8,0:0:0:0:
236,212,136204,5,0,0:0:0:0:
160,256,136383,2,0,L|152:144,1,80
300,60,136740,2,0,L|305:139,1,80,8|0,0:0|0:0,0:0:0:0:
132,352,137097,6,0,B|196:368|196:368|236:356|236:356|288:372,1,160,0|8,0:0|0:0,0:0:0:0:
424,284,137633,1,0,0:0:0:0:
356,116,137812,2,0,L|348:208,1,80,0|0,0:0|0:0,0:0:0:0:
285,371,138169,1,8,0:0:0:0:
285,371,138347,1,8,0:0:0:0:
176,208,138526,5,0,0:0:0:0:
240,272,138704,2,0,P|272:244|268:188,1,80,0|8,0:0|0:0,0:0:0:0:
160,112,139062,2,0,P|96:84|8:132,1,160,8|0,0:0|0:0,0:0:0:0:
72,324,139597,1,8,0:0:0:0:
92,168,139776,1,0,0:0:0:0:
79,206,139865,1,8,0:0:0:0:
65,244,139955,6,0,L|72:324,1,80,0|0,0:0|2:0,0:0:0:0:
200,360,140312,1,8,0:0:0:0:
228,196,140490,1,2,2:0:0:0:
264,288,140669,1,0,0:0:0:0:
200,360,140847,1,0,0:0:0:0:
343,281,141026,2,0,L|264:288,1,80,8|0,0:0|0:0,0:0:0:0:
400,368,141383,6,0,P|448:340|424:232,1,160,0|8,0:0|0:0,0:0:0:0:
320,152,141919,1,0,0:0:0:0:
380,72,142097,2,0,B|420:92|420:92|432:32,1,80,0|2,0:0|2:0,0:0:0:0:
228,196,142454,2,0,L|148:180,1,80,8|0,0:0|0:0,0:0:0:0:
137,179,142722,1,0,0:0:0:0:
124,177,142812,5,0,0:0:0:0:
140,348,142990,1,2,2:0:0:0:
240,292,143169,1,8,0:0:0:0:
228,196,143347,1,2,2:0:0:0:
228,184,143437,1,2,2:0:0:0:
228,172,143526,5,0,0:0:0:0:
304,144,143704,1,0,0:0:0:0:
140,348,143883,1,8,0:0:0:0:
240,268,144062,5,2,2:0:0:0:
318,283,144240,2,0,L|240:268,1,80
72,252,144597,2,0,L|164:232,1,80,0|0,0:0|2:0,0:0:0:0:
304,144,144954,5,0,0:0:0:0:
108,128,145133,1,0,0:0:0:0:
208,48,145312,2,0,L|200:164,1,80,8|0,0:0|0:0,0:0:0:0:
202,139,145579,1,8,0:0:0:0:
201,151,145669,5,0,0:0:0:0:
424,312,146026,1,8,0:0:0:0:
72,320,146383,1,0,0:0:0:0:
148,368,146562,1,0,0:0:0:0:
152,276,146740,2,0,L|144:172,1,80,8|0,0:0|0:0,0:0:0:0:
160,52,147097,5,0,0:0:0:0:
280,92,147276,1,2,2:0:0:0:
276,104,147365,1,2,2:0:0:0:
272,116,147454,1,8,0:0:0:0:
416,60,147633,1,0,0:0:0:0:
420,324,147812,5,0,0:0:0:0:
380,204,147991,1,2,2:0:0:0:
368,208,148080,1,2,2:0:0:0:
356,212,148169,1,8,0:0:0:0:
412,68,148348,1,0,0:0:0:0:
416,312,148526,5,0,0:0:0:0:
408,76,148704,1,8,0:0:0:0:
336,328,148883,5,0,0:0:0:0:
332,316,148972,1,8,0:0:0:0:
336,56,149151,1,8,0:0:0:0:
340,44,149240,1,0,0:0:0:0:
252,284,149419,5,0,0:0:0:0:
296,120,149597,2,0,P|264:84|276:24,1,80,8|0,0:0|0:0,0:0:0:0:
324,12,149865,1,0,0:0:0:0:
336,56,149954,5,0,0:0:0:0:
168,244,150133,1,0,0:0:0:0:
96,56,150312,2,0,B|192:40|192:40|148:120,1,160
40,120,150847,5,0,0:0:0:0:
416,312,151204,1,0,0:0:0:0:
96,312,151562,1,0,0:0:0:0:
472,120,151919,1,0,0:0:0:0:
256,152,152097,5,0,0:0:0:0:
292,220,152276,2,0,P|228:224|184:132,1,160,0|0,0:0|2:0,0:0:0:0:
316,48,152812,5,0,0:0:0:0:
472,120,152990,1,0,0:0:0:0:
292,220,153169,2,0,L|124:236,1,160
60,112,153704,5,0,0:0:0:0:
168,348,154062,1,0,0:0:0:0:
132,235,154240,5,0,0:0:0:0:
256,56,154508,1,0,0:0:0:0:
379,235,154776,1,0,0:0:0:0:
208,296,154954,5,0,2:0:0:0:
304,303,155133,2,0,P|252:351|208:296,1,160,0|0,0:0|2:0,0:0:0:0:
292,156,155669,6,0,L|276:220,1,40
252,228,155847,2,0,L|261:189,1,40
304,76,156026,1,0,0:0:0:0:
256,364,156383,1,0,0:0:0:0:
184,332,156562,6,0,B|256:364|256:364|160:372,3,160,0|0|0|0,0:0|0:0|0:0|0:0,0:0:0:0:
340,364,157812,5,0,0:0:0:0:
184,332,157990,2,0,B|104:336|104:336|172:288,1,160
336,172,158526,5,0,3:0:0:0:
188,80,158705,2,0,P|144:92|92:72,1,80,8|0,0:0|3:0,0:0:0:0:
360,28,159062,1,0,3:0:0:0:
272,96,159240,6,0,B|304:88|304:88|288:116,1,53.3333333333333,0|0,3:0|3:0,0:0:0:0:
408,120,159478,2,0,B|430:143|430:143|398:143,1,53.3333333333333,0|0,3:0|3:0,0:0:0:0:
455,249,159716,2,0,B|445:280|445:280|429:252,1,53.3333333333333,0|0,3:0|3:0,0:0:0:0:
367,353,159954,5,0,0:0:0:0:
236,384,160669,2,0,L|164:372,1,40,0|0,0:0|2:0,0:0:0:0:
76,288,160847,5,0,0:0:0:0:
43,259,160936,1,0,0:0:0:0:
32,216,161025,1,0,0:0:0:0:
47,174,161114,1,0,0:0:0:0:
82,148,161204,1,0,0:0:0:0:
126,146,161293,1,0,0:0:0:0:
164,168,161382,5,4,0:0:0:0:
272,344,161562,2,0,B|216:352|216:352|136:332,1,100,0|8,0:0|0:0,0:0:0:0:
108,220,161919,5,0,0:0:0:0:
173,342,162097,1,0,0:0:0:0:
164,168,162276,1,0,0:0:0:0:
252,36,162454,1,8,0:0:0:0:
236,204,162633,1,0,0:0:0:0:
348,300,162812,6,0,B|368:256|368:256|344:164,1,100
472,108,163169,2,0,B|452:152|452:152|476:244,1,100,8|0,0:0|0:0,0:0:0:0:
470,216,163437,1,8,0:0:0:0:
475,230,163526,1,0,0:0:0:0:
408,48,163704,1,0,0:0:0:0:
354,207,163883,1,8,0:0:0:0:
472,108,164062,1,0,0:0:0:0:
288,60,164240,6,0,B|196:72|196:72|116:40,1,150
142,51,164597,1,8,0:0:0:0:
102,250,164776,1,0,0:0:0:0:
248,240,164954,6,0,B|156:228|156:228|76:260,1,150
102,250,165311,1,8,0:0:0:0:
42,56,165490,1,0,0:0:0:0:
142,51,165669,6,0,L|28:56,1,100
102,250,166026,2,0,L|201:255,1,100,8|0,0:0|0:0,0:0:0:0:
256,68,166383,1,0,0:0:0:0:
332,200,166562,1,0,0:0:0:0:
424,92,166740,1,8,0:0:0:0:
332,200,166919,2,0,L|320:268,1,50,0|8,0:0|0:0,0:0:0:0:
348,360,167097,6,0,P|416:324|400:224,1,150,0|0,0:0|2:0,0:0:0:0:
332,200,167454,2,0,L|152:188,1,150,8|0,0:0|2:0,0:0:0:0:
148,256,167812,2,0,P|200:264|248:216,1,100
182,191,168079,2,0,L|92:180,1,50,0|8,0:0|0:0,0:0:0:0:
248,332,168347,1,0,0:0:0:0:
132,185,168526,5,0,0:0:0:0:
164,28,168704,1,0,0:0:0:0:
276,155,168883,1,0,0:0:0:0:
244,312,169061,1,0,0:0:0:0:
364,204,169240,6,0,B|396:168|396:168|376:80,1,100
296,70,169508,1,8,0:0:0:0:
296,70,169597,2,0,B|264:106|264:106|276:156,1,100,8|0,0:0|0:0,0:0:0:0:
364,204,169865,1,8,0:0:0:0:
364,204,169954,6,0,L|480:192,1,110.000003356934,0|0,0:0|2:0,0:0:0:0:
220,36,170312,2,0,L|336:24,1,110.000003356934,8|0,0:0|2:0,0:0:0:0:
172,332,170669,2,0,L|288:320,1,110.000003356934,8|0,0:0|2:0,0:0:0:0:
56,100,171026,2,0,L|172:88,1,110.000003356934,8|0,0:0|2:0,0:0:0:0:
281,320,171383,6,0,P|204:292|80:320,1,179.999994506836
88,320,171740,1,8,0:0:0:0:
232,208,171919,2,0,P|272:164|184:196,1,239.999992675781
176,288,172454,1,8,0:0:0:0:
176,288,172633,2,0,P|208:304|276:288,1,59.9999981689454,0|8,0:0|0:0,0:0:0:0:
368,224,172812,5,0,0:0:0:0:
312,64,172990,2,0,B|292:92|292:92|304:176,1,100,0|8,0:0|0:0,0:0:0:0:
304,332,173347,1,0,0:0:0:0:
512,304,173526,6,0,L|392:292,1,100
200,188,173883,2,0,L|299:178,1,100,8|0,0:0|0:0,0:0:0:0:
309,166,174151,1,0,0:0:0:0:
318,154,174240,1,0,0:0:0:0:
380,296,174419,5,0,0:0:0:0:
220,348,174597,1,8,0:0:0:0:
272,236,174776,2,0,L|336:248,1,50,0|8,0:0|0:0,0:0:0:0:
460,308,174954,5,0,0:0:0:0:
321,245,175133,1,0,0:0:0:0:
492,180,175312,1,8,0:0:0:0:
360,176,175490,1,0,0:0:0:0:
460,64,175669,6,0,B|476:36|476:36|336:72,1,150,0|0,0:0|0:0,0:0:0:0:
361,65,176026,1,8,0:0:0:0:
512,260,176204,1,0,0:0:0:0:
413,258,176383,6,0,B|397:230|397:230|537:266,1,150,0|0,0:0|0:0,0:0:0:0:
511,259,176740,1,8,0:0:0:0:
312,360,176918,1,0,0:0:0:0:
484,356,177097,6,0,L|356:328,1,100
196,152,177454,2,0,L|224:280,1,100,8|0,0:0|0:0,0:0:0:0:
196,304,177722,1,8,0:0:0:0:
192,288,177812,5,0,0:0:0:0:
312,256,177990,1,8,0:0:0:0:
224,384,178169,1,8,0:0:0:0:
112,272,178347,1,8,0:0:0:0:
116,256,178437,1,8,0:0:0:0:
120,240,178526,5,4,2:0:0:0:
160,80,178704,1,0,0:0:0:0:
196,96,178794,1,0,0:0:0:0:
232,80,178883,1,8,0:0:0:0:
336,32,179062,1,0,0:0:0:0:
452,108,179240,5,8,0:0:0:0:
444,120,179329,1,0,0:0:0:0:
476,248,179507,1,0,0:0:0:0:
468,260,179596,1,8,0:0:0:0:
344,332,179776,1,0,0:0:0:0:
480,288,179954,5,8,0:0:0:0:
312,256,180133,1,0,0:0:0:0:
172,356,180312,1,2,2:0:0:0:
56,152,180490,5,4,0:2:0:0:
68,320,180669,1,0,0:0:0:0:
92,336,180758,2,0,B|112:296|112:296|92:224,1,100,8|0,0:0|0:0,0:0:0:0:
56,152,181026,2,0,L|68:44,1,100,8|0,0:0|0:0,0:0:0:0:
96,45,181294,1,0,0:0:0:0:
125,38,181383,5,0,0:0:0:0:
164,42,181472,1,0,0:0:0:0:
194,68,181562,1,0,0:0:0:0:
188,107,181651,1,0,0:0:0:0:
160,136,181740,1,0,0:0:0:0:
155,175,181829,1,0,0:0:0:0:
181,205,181919,1,0,0:0:0:0:
220,209,182008,1,0,0:0:0:0:
275,186,182097,5,0,0:0:0:0:
303,195,182187,1,0,0:0:0:0:
348,175,182276,1,0,0:0:0:0:
374,189,182366,1,0,0:0:0:0:
416,163,182454,5,8,0:0:0:0:
453,194,182545,1,8,0:0:0:0:
434,239,182633,1,8,0:0:0:0:
386,236,182723,1,8,0:0:0:0:
374,189,182812,1,0,0:0:0:0:
423,37,183169,5,2,2:0:0:0:
386,236,183526,1,2,2:0:0:0:
126,236,183883,1,2,2:0:0:0:
89,37,184240,1,2,2:0:0:0:
156,79,184419,6,0,B|129:131|52:114|52:114|80:141|81:170|81:170|38:201|51:262|51:262|43:305|17:326|17:326|78:299|78:299|118:331|170:303|170:303,1,520
166,304,185669,6,0,P|194:196|46:221,1,314.999990386963,4|0,0:0|0:0,0:0:0:0:
126,236,186383,6,0,B|184:230|184:230|216:251|216:251|274:243,1,150,4|0,0:2|0:0,0:0:0:0:
353,236,186740,5,8,0:0:0:0:
353,236,186829,1,8,0:0:0:0:
353,236,186919,2,0,L|346:152,1,50,8|0,0:0|2:0,0:0:0:0:
329,39,187097,1,4,2:0:0:0:
267,139,187276,5,0,0:0:0:0:
269,153,187365,1,0,0:0:0:0:
271,167,187454,1,0,0:0:0:0:
181,127,187633,1,0,0:0:0:0:
183,141,187722,1,0,0:0:0:0:
185,155,187811,1,0,0:0:0:0:
95,115,187990,1,0,0:0:0:0:
97,129,188079,1,0,0:0:0:0:
99,143,188168,1,0,0:0:0:0:
9,103,188347,1,0,0:0:0:0:
119,278,188526,5,8,0:0:0:0:
129,305,188615,1,8,0:0:0:0:
118,331,188704,1,8,0:0:0:0:
90,342,188793,1,8,0:0:0:0:
64,329,188883,1,0,0:0:0:0:
60,221,189062,1,2,2:0:0:0:
212,244,189240,6,0,B|249:263|249:263|361:249,1,150,8|0,0:0|0:0,0:0:0:0:
356,249,189597,1,0,0:0:0:0:
212,244,189776,1,8,0:0:0:0:
347,166,189954,1,0,0:0:0:0:
322,337,190133,1,8,0:0:0:0:
356,249,190312,5,0,0:0:0:0:
347,166,190490,1,2,2:0:0:0:
348,151,190579,1,2,2:0:0:0:
349,135,190669,1,6,2:0:0:0:
283,78,190847,2,2,B|228:97|228:97|107:57,1,160,10|8,0:0|0:0,2:0:0:0:
8,184,191383,6,0,L|116:218,1,100,2|0,0:0|2:0,0:0:0:0:
180,196,191651,2,2,L|288:230,1,100,0|0,0:0|2:0,0:0:0:0:
352,212,191919,1,2,0:0:0:0:
476,288,192097,6,0,L|367:322,1,100,2|0,0:0|2:0,0:0:0:0:
304,300,192365,2,2,L|195:334,1,100,0|0,0:0|2:0,0:0:0:0:
132,316,192633,1,2,0:0:0:0:
361,235,192812,6,2,L|497:256,1,119.999996337891,10|0,0:0|2:0,0:0:0:0:
304,300,193079,2,2,L|185:281,1,119.999996337891,10|0,0:0|2:0,0:0:0:0:
116,220,193347,1,10,0:0:0:0:
207,62,193526,5,2,2:0:0:0:
204,200,193704,2,2,B|232:165|232:165|200:34,1,150,4|0,2:0|2:0,0:0:0:0:
112,56,194062,2,0,L|127:126,1,50
204,200,194240,5,0,0:0:0:0:
248,223,194329,1,0,0:0:0:0:
298,220,194419,1,0,0:0:0:0:
331,182,194508,1,0,0:0:0:0:
337,132,194597,1,0,0:0:0:0:
360,87,194687,1,0,0:0:0:0:
404,64,194776,1,0,0:0:0:0:
453,67,194865,1,0,0:0:0:0:
490,99,194954,6,0,B|499:128|499:128|481:180,1,50,8|0,0:0|0:0,0:0:0:0:
360,316,195133,2,0,B|351:287|351:287|369:235,1,50
260,142,195312,2,0,L|255:92,1,50
417,147,195490,2,0,L|425:232,1,50,8|0,0:0|0:0,0:0:0:0:
360,316,195669,5,0,0:0:0:0:
314,336,195758,1,0,0:0:0:0:
265,326,195847,1,8,0:0:0:0:
229,290,195937,1,0,0:0:0:0:
216,241,196026,1,0,0:0:0:0:
179,206,196115,1,0,0:0:0:0:
129,202,196204,1,0,0:0:0:0:
88,232,196294,1,0,0:0:0:0:
72,279,196383,6,0,L|11:272,1,50,8|0,0:0|0:0,0:0:0:0:
304,250,196562,2,0,B|312:228|312:228|295:170,1,50,4|0,0:2|0:0,0:0:0:0:
151,282,196740,2,0,B|142:303|142:303|159:361,1,50
360,316,196919,2,0,L|449:321,1,50
296,121,197097,5,0,0:0:0:0:
285,71,197187,1,0,0:0:0:0:
249,36,197276,1,0,0:0:0:0:
199,27,197365,1,0,0:0:0:0:
152,44,197454,1,0,0:0:0:0:
126,87,197544,1,0,0:0:0:0:
127,136,197633,1,0,0:0:0:0:
160,171,197722,1,0,0:0:0:0:
164,220,197811,1,8,0:0:0:0:
136,261,197900,1,0,0:0:0:0:
90,276,197990,1,0,0:0:0:0:
44,258,198079,1,0,0:0:0:0:
19,216,198168,5,0,0:0:0:0:
93,201,198258,1,0,0:0:0:0:
164,220,198347,1,0,0:0:0:0:
225,267,198437,1,0,0:0:0:0:
247,340,198526,6,0,B|292:337|292:337|327:316|327:316|389:313,1,119.999996337891,8|0,0:0|2:0,0:0:0:0:
457,252,198794,2,0,B|422:250|422:250|387:229|387:229|342:226,1,119.999996337891,8|0,0:0|2:0,0:0:0:0:
241,188,199062,2,0,B|260:167|260:167|252:101,1,59.9999981689454,8|0,0:0|2:0,0:0:0:0:
238,44,199240,5,2,2:0:0:0:
310,247,199419,2,0,B|365:264|365:264|457:252,1,150,4|0,0:2|2:0,0:0:0:0:
442,167,199776,2,0,L|360:178,1,50
273,322,199954,5,0,0:0:0:0:
224,307,200044,1,0,0:0:0:0:
179,330,200133,1,0,0:0:0:0:
130,315,200223,1,0,0:0:0:0:
85,338,200312,2,0,L|28:328,2,50,0|0|0,0:0|0:0|0:0,0:0:0:0:
359,316,200669,5,8,0:0:0:0:
389,277,200758,1,0,0:0:0:0:
393,227,200847,1,0,0:0:0:0:
370,184,200936,1,0,0:0:0:0:
326,160,201026,5,0,0:0:0:0:
287,166,201115,1,0,0:0:0:0:
250,152,201204,1,0,0:0:0:0:
225,121,201293,1,0,0:0:0:0:
217,83,201383,5,0,0:0:0:0:
159,66,201472,1,0,0:0:0:0:
101,83,201562,1,8,0:0:0:0:
59,126,201651,1,0,0:0:0:0:
46,184,201740,5,0,0:0:0:0:
63,219,201829,1,0,0:0:0:0:
81,254,201919,1,0,0:0:0:0:
99,289,202008,1,0,0:0:0:0:
117,324,202097,5,8,0:0:0:0:
162,342,202186,1,0,0:0:0:0:
212,336,202275,1,4,0:2:0:0:
252,308,202364,1,0,0:0:0:0:
275,264,202454,5,0,0:0:0:0:
312,232,202543,1,0,0:0:0:0:
361,224,202632,1,0,0:0:0:0:
406,243,202721,1,0,0:0:0:0:
433,284,202811,5,0,0:0:0:0:
382,304,202901,1,0,0:0:0:0:
330,284,202990,1,0,0:0:0:0:
312,232,203079,1,0,0:0:0:0:
324,177,203169,5,0,0:0:0:0:
312,118,203258,1,0,0:0:0:0:
274,71,203347,1,0,0:0:0:0:
216,51,203437,1,0,0:0:0:0:
156,60,203526,5,8,0:0:0:0:
102,97,203615,1,0,0:0:0:0:
84,159,203704,1,0,0:0:0:0:
96,223,203794,1,0,0:0:0:0:
146,264,203883,5,0,0:0:0:0:
213,244,203972,1,0,0:0:0:0:
283,245,204062,1,0,0:0:0:0:
346,274,204151,1,0,0:0:0:0:
385,331,204240,6,2,B|350:321|350:321|251:338,1,119.999996337891,8|0,0:0|2:0,0:0:0:0:
174,172,204508,2,2,B|209:162|209:162|308:179,1,119.999996337891,8|0,0:0|2:0,0:0:0:0:
183,340,204776,2,2,B|148:350|148:350|49:333,1,119.999996337891,8|0,0:0|2:0,0:0:0:0:
378,99,205133,5,4,0:2:0:0:
385,86,205222,1,0,0:0:0:0:
392,73,205312,1,0,0:0:0:0:
406,72,205401,1,0,0:0:0:0:
420,71,205490,1,0,0:0:0:0:
431,80,205579,1,0,0:0:0:0:
442,90,205669,6,0,B|427:113|427:113|379:125,1,50,8|8,0:0|0:0,0:0:0:0:
269,129,205847,2,0,L|199:122,1,50,8|8,0:0|0:0,0:0:0:0:
102,118,206026,6,0,B|117:141|117:141|165:153,1,50,8|8,0:0|0:0,0:0:0:0:
275,157,206204,2,0,L|345:150,1,50,8|8,0:0|0:0,0:0:0:0:
71,382,206562,6,0,B|45:331|45:331|90:208,1,150,4|0,0:2|2:0,0:0:0:0:
76,244,206919,1,0,0:0:0:0:
433,292,207276,5,8,0:0:0:0:
433,292,207365,1,8,0:0:0:0:
433,292,207454,2,0,L|442:355,1,50,8|0,0:0|0:0,0:0:0:0:
251,312,207633,1,8,0:0:0:0:
251,312,207722,1,8,0:0:0:0:
251,312,207811,6,0,L|260:249,1,50,8|0,0:0|2:0,0:0:0:0:
348,70,207990,2,0,B|374:121|374:121|329:244,1,150,4|0,0:2|2:0,0:0:0:0:
342,208,208347,1,0,0:0:0:0:
180,101,208526,5,8,0:0:0:0:
170,113,208615,1,8,0:0:0:0:
122,126,208704,5,8,0:0:0:0:
130,140,208793,1,8,0:0:0:0:
127,189,208883,5,8,0:0:0:0:
143,186,208972,1,8,0:0:0:0:
189,203,209062,5,8,0:0:0:0:
191,187,209151,1,8,0:0:0:0:
222,149,209240,6,0,L|161:128,1,50,0|0,0:0|2:0,0:0:0:0:
31,105,209419,2,0,B|17:154|17:154|46:224,1,100,0|0,0:0|2:0,0:0:0:0:
298,194,209776,2,0,B|312:145|312:145|283:75,1,100,0|0,0:0|2:0,0:0:0:0:
200,248,218526,5,4,0:2:0:0:
200,248,219240,1,4,0:2:0:0:
200,248,219597,2,0,L|208:348,1,80,0|0,2:0|2:0,0:0:0:0:
336,272,219954,6,0,B|356:236|356:236|320:204,1,80,4|0,0:2|2:0,0:0:0:0:
72,264,220312,2,0,B|52:300|52:300|88:332,1,80,4|0,0:2|2:0,0:0:0:0:
336,272,220669,1,4,0:2:0:0:
64,36,221204,1,0,2:0:0:0:
68,48,221294,1,0,2:0:0:0:
72,60,221383,5,0,0:0:0:0:
92,76,221562,1,0,0:0:0:0:
140,80,221740,5,0,0:0:0:0:
180,56,221919,1,0,0:0:0:0:
252,40,222097,5,0,0:0:0:0:
316,72,222276,1,0,0:0:0:0:
352,160,222454,5,0,0:0:0:0:
292,236,222633,1,0,0:0:0:0:
176,204,222812,5,0,0:0:0:0:
112,344,222990,2,0,L|8:352,1,80,0|0,0:0|0:0,0:0:0:0:
116,136,223347,2,0,P|180:116|264:180,1,160,4|0,0:2|0:0,0:0:0:0:
256,356,223883,1,8,0:0:0:0:
176,204,224062,1,0,0:0:0:0:
444,76,224240,5,0,0:0:0:0:
408,368,224954,6,0,B|392:360|392:360|376:368|336:360,1,55.0000016784668,0|0,0:0|2:0,0:0:0:0:
256,356,225133,1,8,0:0:0:0:
234,318,225222,1,8,0:0:0:0:
235,274,225311,1,8,0:0:0:0:
257,237,225400,1,8,0:0:0:0:
295,216,225490,1,8,0:0:0:0:
338,216,225579,1,8,0:0:0:0:
376,238,225668,5,4,0:0:0:0:
152,336,225847,2,0,B|114:345|114:345|28:335,1,110.000003356934,0|8,0:0|0:0,0:0:0:0:
136,184,226204,1,0,0:0:0:0:
315,296,226383,1,0,0:0:0:0:
264,120,226562,1,0,0:0:0:0:
234,318,226740,1,8,0:0:0:0:
376,238,226919,5,0,0:0:0:0:
384,224,227008,2,0,L|455:213,1,55.0000016784668,8|0,0:0|0:0,0:0:0:0:
184,108,227276,2,0,B|132:96|132:96|64:116,1,110.000003356934,0|8,0:0|0:0,0:0:0:0:
116,324,227633,2,0,L|104:380,2,55.0000016784668,0|0|0,0:0|0:0|0:0,0:0:0:0:
176,24,227990,1,0,0:0:0:0:
136,184,228169,1,8,0:0:0:0:
324,108,228347,1,0,0:0:0:0:
184,108,228526,6,0,B|164:156|164:156|200:276,1,165.000005035401
196,264,228883,1,8,0:0:0:0:
392,172,229062,1,0,0:0:0:0:
379,328,229240,6,0,B|359:280|359:280|395:160,1,165.000005035401
391,171,229597,1,8,0:0:0:0:
248,364,229776,1,0,0:0:0:0:
436,268,229954,5,0,0:0:0:0:
407,251,230043,1,0,0:0:0:0:
375,246,230132,1,0,0:0:0:0:
343,254,230221,1,0,0:0:0:0:
317,274,230312,2,0,L|190:255,1,110.000003356934,8|0,0:0|0:0,0:0:0:0:
121,250,230579,1,0,0:0:0:0:
127,282,230669,2,0,B|100:295|100:295|9:272,1,110.000003356934
168,120,231026,1,8,0:0:0:0:
208,257,231204,2,0,B|216:288|216:288|200:348,1,55.0000016784668,0|8,0:0|0:0,0:0:0:0:
54,306,231383,6,0,B|44:252|44:252|48:192|108:172,1,165.000005035401,0|0,0:0|2:0,0:0:0:0:
220,180,231740,2,0,B|268:132|228:64|228:64|264:84,1,165.000005035401,8|0,0:0|2:0,0:0:0:0:
328,132,232097,2,0,P|368:136|420:80,1,110.000003356934
372,40,232365,1,0,0:0:0:0:
352,68,232454,1,8,0:0:0:0:
308,272,232633,2,0,P|304:304|336:352,1,55.0000016784668,0|8,0:0|0:0,0:0:0:0:
460,360,232812,5,0,0:0:0:0:
376,220,232990,1,0,0:0:0:0:
220,360,233169,1,8,0:0:0:0:
400,300,233347,1,0,0:0:0:0:
232,236,233526,2,0,B|176:240|176:240|152:272|152:272|68:280,1,165.000005035401,0|8,0:0|0:0,0:0:0:0:
83,278,233883,1,0,0:0:0:0:
28,136,234062,1,0,0:0:0:0:
60,144,234151,1,8,0:0:0:0:
92,152,234240,6,0,L|215:134,1,119.999996337891,0|0,0:0|2:0,0:0:0:0:
464,344,234597,2,0,L|340:326,1,119.999996337891,8|0,0:0|2:0,0:0:0:0:
20,336,234954,2,0,L|141:318,1,119.999996337891,8|0,0:0|2:0,0:0:0:0:
416,60,235312,2,0,L|292:42,1,119.999996337891,8|0,0:0|2:0,0:0:0:0:
124,252,235669,6,0,L|192:242,1,59.9999981689454,0|0,0:0|2:0,0:0:0:0:
332,296,235847,2,0,L|263:286,1,59.9999981689454,8|0,0:0|2:0,0:0:0:0:
120,336,236026,2,0,L|188:326,1,59.9999981689454,0|0,0:0|2:0,0:0:0:0:
320,220,236204,6,0,P|312:128|252:208,1,239.999992675781,8|0,0:0|0:0,0:0:0:0:
264,352,236740,1,8,0:0:0:0:
264,352,236919,2,0,B|288:372|288:372|336:384,1,59.9999981689454,8|8,0:0|0:0,0:0:0:0:
448,292,237097,5,0,0:0:0:0:
252,272,237276,1,0,2:0:0:0:
392,152,237454,5,8,0:0:0:0:
236,260,237633,1,0,2:0:0:0:
256,88,237812,5,8,0:0:0:0:
218,256,237990,1,0,2:0:0:0:
108,104,238169,5,8,0:0:0:0:
201,262,238347,1,0,2:0:0:0:
8,216,238526,5,8,0:0:0:0:
172,168,238704,1,0,2:0:0:0:
112,344,238883,5,8,0:0:0:0:
189,174,239061,1,0,2:0:0:0:
276,360,239240,5,8,0:0:0:0:
207,170,239418,1,0,2:0:0:0:
424,288,239597,5,8,0:0:0:0:
223,158,239775,1,0,2:0:0:0:
424,120,239954,5,8,0:0:0:0:
344,312,240133,1,0,2:0:0:0:
288,80,240312,5,8,0:0:0:0:
276,284,240490,1,0,2:0:0:0:
148,80,240669,5,8,0:0:0:0:
204,296,240847,1,0,2:0:0:0:
28,152,241026,5,8,0:0:0:0:
148,344,241204,1,0,2:0:0:0:
28,152,241383,5,8,0:0:0:0:
164,268,241562,1,8,0:0:0:0:
204,296,241651,1,8,0:0:0:0:
251,300,241740,1,8,0:0:0:0:
292,276,241829,1,8,0:0:0:0:
313,232,241919,1,8,0:0:0:0:
354,208,242008,1,8,0:0:0:0:
401,212,242097,6,0,P|432:225|453:271,1,59.9999981689454,8|8,0:0|0:0,0:0:0:0:
232,220,242276,1,8,0:0:0:0:
197,188,242365,1,8,0:0:0:0:
187,142,242454,1,8,0:0:0:0:
206,99,242543,1,8,0:0:0:0:
248,75,242633,1,8,0:0:0:0:
294,81,242722,1,8,0:0:0:0:
329,113,242811,5,0,0:0:0:0:
374,289,242990,1,0,0:0:0:0:
374,293,243079,1,0,0:0:0:0:
374,297,243169,1,8,0:0:0:0:
264,152,243347,1,0,0:0:0:0:
388,60,243526,1,8,0:0:0:0:
404,56,243615,1,0,0:0:0:0:
312,236,243794,1,0,0:0:0:0:
296,232,243883,1,8,0:0:0:0:
206,99,244062,1,0,0:0:0:0:
428,184,244240,5,8,0:0:0:0:
280,80,244419,1,0,0:0:0:0:
152,208,244597,1,2,2:0:0:0:
68,44,244776,5,4,0:2:0:0:
136,192,244954,1,0,0:0:0:0:
152,208,245044,2,0,B|100:236|100:236|24:208,1,119.999996337891,8|0,0:0|0:0,0:0:0:0:
76,136,245312,2,0,B|128:108|128:108|204:136,1,119.999996337891,8|0,0:0|0:0,0:0:0:0:
216,146,245579,1,0,0:0:0:0:
247,163,245669,6,0,L|240:243,1,59.9999981689454,8|8,0:0|0:0,0:0:0:0:
76,368,245847,2,0,L|81:308,1,59.9999981689454,8|8,0:0|0:0,0:0:0:0:
236,92,246026,6,0,L|243:172,1,59.9999981689454,8|8,0:0|0:0,0:0:0:0:
407,297,246204,2,0,L|401:237,1,59.9999981689454,8|8,0:0|0:0,0:0:0:0:
252,20,246383,6,0,L|245:100,1,59.9999981689454,8|8,0:0|0:0,0:0:0:0:
81,225,246561,2,0,L|86:165,1,59.9999981689454,8|8,0:0|0:0,0:0:0:0:
328,168,246740,5,8,0:0:0:0:
312,212,246829,1,8,0:0:0:0:
274,240,246918,1,8,0:0:0:0:
227,242,247007,1,8,0:0:0:0:
187,217,247097,1,0,0:0:0:0:
76,64,248526,5,8,0:0:0:0:
97,92,248615,1,8,0:0:0:0:
127,128,248704,1,8,0:0:0:0:
107,172,248794,1,8,0:0:0:0:
73,214,248883,5,8,0:0:0:0:
126,220,248972,1,8,0:0:0:0:
149,268,249062,1,8,0:0:0:0:
120,313,249151,1,8,0:0:0:0:
402,219,249419,6,0,B|440:195|440:195|418:153|418:153|446:126|446:126|413:82,1,179.999994506836,4|0,0:2|2:0,0:0:0:0:
416,87,249776,1,0,0:0:0:0:
179,365,250133,6,0,L|268:373,1,59.9999981689454,8|0,0:0|2:0,0:0:0:0:
59,258,250312,2,0,L|0:252,1,59.9999981689454,8|0,0:0|2:0,0:0:0:0:
167,128,250490,1,8,0:0:0:0:
176,143,250579,1,8,0:0:0:0:
184,159,250669,6,0,P|219:155|218:81,1,119.999996337891,4|0,0:2|2:0,0:0:0:0:
129,59,250937,2,0,P|77:80|90:133,1,119.999996337891,4|0,0:2|2:0,0:0:0:0:
184,159,251204,1,4,0:2:0:0:
340,63,251383,6,0,L|431:49,1,59.9999981689454,8|0,0:0|0:0,0:0:0:0:
471,120,251562,1,8,0:0:0:0:
483,166,251651,1,8,0:0:0:0:
453,203,251740,5,8,0:0:0:0:
393,207,251829,1,8,0:0:0:0:
382,266,251919,1,8,0:0:0:0:
433,297,252008,1,8,0:0:0:0:
471,120,252276,6,0,B|441:85|441:85|352:86|352:86|323:132,1,179.999994506836,4|0,0:2|2:0,0:0:0:0:
328,123,252633,1,0,0:0:0:0:
41,371,252990,5,8,0:0:0:0:
19,360,253079,1,0,0:0:0:0:
7,338,253169,1,0,0:0:0:0:
23,305,253258,5,8,0:0:0:0:
368,373,253526,6,0,B|472:383|472:383|420:321,2,179.999994506836,4|8|4,0:2|0:0|0:2,0:0:0:0:
245,213,254240,5,8,0:0:0:0:
277,177,254329,1,8,0:0:0:0:
271,128,254419,1,8,0:0:0:0:
218,99,254508,1,8,0:0:0:0:
288,87,254597,5,8,0:0:0:0:
336,32,254687,1,8,0:0:0:0:
388,80,254776,1,8,0:0:0:0:
459,81,254865,1,8,0:0:0:0:
258,294,255133,6,0,B|215:298|215:298|184:274|184:274|153:317|153:317|80:326,1,179.999994506836,4|0,0:2|2:2,0:0:0:0:
108,322,255490,1,0,0:0:0:0:
116,36,255847,6,0,L|128:128,1,59.9999981689454,8|0,0:0|0:0,0:0:0:0:
256,76,256026,2,0,L|268:168,1,59.9999981689454,8|0,0:0|0:0,0:0:0:0:
48,184,256204,2,0,L|60:276,1,59.9999981689454,8|0,0:0|0:0,0:0:0:0:
320,232,256383,6,0,L|192:216,1,119.999996337891,8|0,0:0|2:0,0:0:0:0:
96,336,256651,2,0,L|215:321,1,119.999996337891,8|0,0:0|2:0,0:0:0:0:
200,217,256919,1,8,0:0:0:0:
48,184,257097,5,8,0:0:0:0:
13,120,257187,1,8,0:0:0:0:
39,59,257276,1,8,0:0:0:0:
96,43,257365,1,8,0:0:0:0:
145,62,257454,1,0,3:0:0:0:
156,108,257544,1,0,3:0:0:0:
143,148,257633,1,0,3:0:0:0:
107,147,257722,1,0,3:0:0:0:
91,121,257812,1,0,3:0:0:0:
256,36,257990,5,8,0:0:0:0:
464,184,258258,1,8,0:0:0:0:
68,340,258526,5,8,0:0:0:0:
444,340,258794,1,8,0:0:0:0:
48,184,259062,1,8,0:0:0:0:
440,88,259508,5,8,0:0:0:0:
256,360,259776,1,8,0:0:0:0:
72,88,260044,1,8,0:0:0:0:
