osu file format v14

[General]
AudioFilename: Flower of Sorrow -Hanatan-.mp3
AudioLeadIn: 0
PreviewTime: 94210
Countdown: 0
SampleSet: Soft
StackLeniency: 0.7
Mode: 0
LetterboxInBreaks: 0
WidescreenStoryboard: 1

[Editor]
Bookmarks: 27121,48550,59978,94264,105693,117121,122836,128550,134264,149978,159264,159978,209978,212836,259978
DistanceSpacing: 1.2
BeatDivisor: 2
GridSize: 4
TimelineZoom: 2.1

[Metadata]
Title:flower of sorrow
TitleUnicode:flower of sorrow
Artist:Hanatan
ArtistUnicode:花たん
Creator:Natsu
Version:RT's Easy
Source:
Tags:amamiya yuko p_a_n scanter xinely ritsu-tanaika
BeatmapID:495266
BeatmapSetID:210566

[Difficulty]
HPDrainRate:2
CircleSize:3
OverallDifficulty:2
ApproachRate:3
SliderMultiplier:0.8
SliderTickRate:1

[Events]
//Background and Video events
0,0,"BG.jpg",0,0
//Break Periods
2,85869,92800
2,117297,121372
2,187297,198514
2,213012,217086
//Storyboard Layer 0 (Background)
//Storyboard Layer 1 (Fail)
//Storyboard Layer 2 (Pass)
//Storyboard Layer 3 (Foreground)
//Storyboard Sound Samples

[TimingPoints]
-45,357.142857142857,4,2,1,25,1,0
847,-100,4,2,1,25,0,0
6562,-100,4,2,0,40,0,0
7097,-100,4,2,0,40,0,0
15669,-100,4,1,0,45,0,0
16740,-100,4,1,0,40,0,0
27097,-100,4,2,0,60,0,0
38526,-100,4,2,0,70,0,0
48526,-100,4,1,0,60,0,0
59954,-100,4,1,0,70,0,1
71294,-100,4,1,0,70,0,0
71383,-100,4,1,0,70,0,1
82812,-100,4,1,0,70,0,0
94240,-100,4,2,0,80,0,0
122812,-100,4,1,0,60,0,0
128526,-100,4,2,0,60,0,0
134240,-100,4,2,0,70,0,0
161383,-100,4,1,0,70,0,1
172722,-100,4,1,0,70,0,0
172812,-100,4,1,0,70,0,1
184240,-100,4,1,0,70,0,0
225669,-100,4,1,0,70,0,1
237008,-100,4,1,0,70,0,0
237097,-100,4,1,0,70,0,1
248526,-100,4,1,0,70,0,0

[Colours]
Combo1 : 64,94,149
Combo2 : 209,46,136
Combo3 : 113,0,0

[HitObjects]
0,104,847,6,0,P|96:52|211:122,1,240
256,188,2276,1,0,0:0:0:0:
292,276,2633,2,0,P|392:332|495:280,1,240
480,136,4240,6,0,P|416:96|344:144,1,160
296,212,5312,1,0,0:0:0:0:
228,280,5669,2,0,P|176:320|48:268,1,200
48,140,7097,6,0,P|144:100|264:152,1,240
276,196,8347,2,0,P|352:216|440:188,1,160
388,64,9954,6,0,L|292:64,1,80
220,104,10669,1,0,0:0:0:0:
128,84,11026,1,0,0:0:0:0:
76,164,11383,6,0,P|44:224|88:296,1,160
172,248,12454,1,0,0:0:0:0:
256,296,12812,1,0,0:0:0:0:
256,192,12990,12,0,15669,0:0:0:0:
88,344,17097,6,0,P|44:272|84:204,1,160
172,208,18169,1,0,0:0:0:0:
252,260,18526,2,0,P|320:294|386:255,1,160
472,208,19597,1,0,0:0:0:0:
444,116,19954,6,0,L|320:116,1,120
288,148,20669,2,0,L|208:148,1,80
172,236,21383,6,0,P|144:309|173:382,1,160
256,332,22454,1,0,0:0:0:0:
338,382,22812,2,0,P|367:309|340:236,1,160
256,188,23883,1,0,0:0:0:0:
252,92,24240,6,0,P|328:93|358:171,2,160,0|0|0,0:0|0:0|0:0,0:0:0:0:
168,136,26026,1,0,0:0:0:0:
116,216,26383,2,0,P|104:256|128:300,1,80
212,316,27097,6,0,B|272:316|272:316|304:288|304:288|364:288,1,160
408,204,28169,1,0,0:0:0:0:
456,120,28526,2,0,P|464:80|448:36,1,80
356,44,29240,2,0,P|348:84|364:128,1,80
328,212,29954,6,0,P|256:240|180:208,1,160
148,120,31026,1,0,0:0:0:0:
216,52,31383,2,0,P|256:44|304:60,1,80
344,136,32097,2,0,P|382:145|421:137,1,80
452,228,32812,6,0,P|496:280|444:344,2,160,0|0|0,0:0|0:0|0:0,0:0:0:0:
376,284,34597,1,0,0:0:0:0:
288,320,34954,2,0,P|248:328|196:312,1,80
116,308,35669,6,0,B|56:264|56:264|48:156,1,160
124,116,36740,1,0,0:0:0:0:
220,128,37097,2,0,L|244:268,1,120
280,276,37812,2,0,P|320:280|360:264,1,80
412,188,38526,6,0,P|460:128|396:60,1,160
340,120,39597,1,0,0:0:0:0:
256,164,39954,2,0,P|194:206|133:162,1,160,0|0,0:0|0:0,0:0:0:0:
64,96,41026,1,0,0:0:0:0:
36,188,41383,6,0,L|44:280,1,80
140,268,42097,2,0,L|148:360,1,80,0|0,0:0|0:0,0:0:0:0:
240,332,42812,2,0,P|312:356|368:288,1,160
448,252,43883,1,0,0:0:0:0:
460,160,44240,5,0,0:0:0:0:
388,96,44597,2,0,L|387:11,2,80,0|0|0,0:0|0:0|0:0,0:0:0:0:
324,168,45669,2,0,P|352:236|304:304,1,160
212,304,46740,1,0,0:0:0:0:
116,292,47097,6,0,P|88:224|136:156,2,160,0|0|0,0:0|0:0|0:0,0:0:0:0:
200,244,48883,1,0,0:0:0:0:
256,324,49240,1,0,0:0:0:0:
312,244,49597,1,0,0:0:0:0:
396,292,49954,6,0,P|436:296|484:288,1,80
440,200,50669,2,0,B|484:140|484:140|412:116|388:68,1,160
320,64,51740,1,0,0:0:0:0:
264,144,52097,2,0,P|224:152|176:136,1,80
96,168,52812,6,0,B|96:228|96:228|120:276|120:276|118:349,2,160,0|0|0,0:0|0:0|0:0,0:0:0:0:
164,104,54597,1,0,0:0:0:0:
240,164,54954,2,0,P|284:172|328:156,1,80
384,92,55669,2,0,P|416:128|396:212,1,120
372,228,56383,2,0,P|356:276|448:344,2,160,0|0|0,0:0|0:0|0:0,0:0:0:0:
464,256,58169,2,0,P|492:220|488:172,1,80
348,64,59240,2,0,P|336:104|360:144,1,80
328,228,59954,6,0,P|312:288|196:316,1,160
140,288,61026,1,0,0:0:0:0:
72,220,61383,2,0,P|88:160|204:132,1,160
264,152,62454,1,0,0:0:0:0:
332,220,62812,6,0,P|372:228|420:212,2,80,0|0|0,0:0|0:0|0:0,0:0:0:0:
264,152,63883,1,0,0:0:0:0:
184,100,64240,2,0,P|112:68|40:104,1,160
104,176,65312,1,0,0:0:0:0:
52,256,65669,6,0,P|44:296|68:348,1,80
152,332,66383,2,0,L|244:332,1,80
304,268,67097,2,0,L|396:268,2,80,0|0|0,0:0|0:0|0:0,0:0:0:0:
256,184,68169,1,0,0:0:0:0:
168,148,68526,6,0,P|136:80|180:12,1,160,0|0,0:0|0:0,0:0:0:0:
256,68,69597,1,0,0:0:0:0:
348,96,69954,2,0,P|360:136|340:192,1,80
316,204,70490,2,0,P|296:260|324:316,1,120
416,332,71383,5,0,0:0:0:0:
472,248,71740,1,0,0:0:0:0:
408,176,72097,2,0,L|412:80,1,80
328,28,72812,6,0,P|256:56|180:28,1,160
100,76,73883,1,0,0:0:0:0:
44,156,74240,2,0,P|32:196|56:240,1,80
140,232,74954,2,0,P|153:268|141:306,1,80
216,368,75669,5,0,0:0:0:0:
260,280,76026,1,0,0:0:0:0:
344,324,76383,2,0,P|384:332|428:320,1,80
416,228,77097,6,0,L|328:80,1,160
256,36,78169,1,0,0:0:0:0:
177,90,78526,2,0,L|96:228,1,160
84,324,79597,1,0,0:0:0:0:
188,332,79954,6,0,P|256:368|332:320,1,160
404,276,81026,1,0,0:0:0:0:
324,224,81383,2,0,P|255:188|187:224,2,160,0|0|0,0:0|0:0|0:0,0:0:0:0:
256,192,82990,12,0,85669,0:0:0:0:
80,336,94240,6,0,B|56:297|76:260|76:260|101:222|75:169,1,160
144,112,95312,1,0,0:0:0:0:
240,96,95669,2,0,B|278:76|316:101|316:101|353:121|392:97,1,160
432,284,97097,6,0,B|364:236|364:236|352:292|308:296,1,160
256,224,98169,1,0,0:0:0:0:
197,150,98526,2,0,P|123:114|61:154,1,160
64,344,99954,6,0,P|137:380|200:340,1,160,0|0,0:0|0:0,0:0:0:0:
256,268,101026,1,0,0:0:0:0:
320,196,101383,2,0,P|387:158|454:195,2,160,0|0|0,0:0|0:0|0:0,0:0:0:0:
256,268,103169,5,0,0:0:0:0:
188,204,103526,2,0,P|168:168|172:116,1,80
240,68,104240,2,0,B|320:68|320:68|392:128,1,160
428,304,105669,6,0,B|348:304|348:304|276:244,1,160
336,172,106740,1,0,0:0:0:0:
328,76,107097,2,0,P|256:44|184:80,1,160
120,144,108169,1,0,0:0:0:0:
92,236,108526,6,0,B|120:300|120:300|180:272|208:312,1,160
256,224,109597,1,0,0:0:0:0:
308,305,109954,2,0,B|332:272|392:300|392:300|419:237,1,160
380,48,111383,6,0,P|340:36|292:52,1,80
228,104,112097,2,0,P|189:112|151:100,1,80,0|0,0:0|0:0,0:0:0:0:
80,164,112812,2,0,P|48:232|104:316,1,160
168,256,113883,1,0,0:0:0:0:
248,308,114240,6,0,P|328:336|416:296,1,160,0|0,0:0|0:0,0:0:0:0:
404,120,115669,2,0,P|324:92|236:132,1,160,0|0,0:0|0:0,0:0:0:0:
188,180,116740,2,0,P|144:188|104:176,1,80
80,328,122812,6,0,B|44:256|44:256|48:172,1,160
176,32,124240,2,0,B|212:104|212:104|208:188,1,160
256,268,125312,1,0,0:0:0:0:
324,336,125669,6,0,P|396:368|472:328,1,160,0|0,0:0|0:0,0:0:0:0:
460,144,127097,2,0,P|388:112|312:152,1,160,0|0,0:0|0:0,0:0:0:0:
256,216,128169,1,0,0:0:0:0:
184,280,128526,6,0,P|84:296|68:168,1,240
120,112,129954,2,0,P|112:72|132:20,1,80
216,60,130669,2,0,P|254:49|293:57,1,80
388,72,131383,6,0,B|365:135|395:188|395:188|426:240|380:299,1,240
284,304,132812,2,0,P|260:272|256:224,1,80
292,144,133526,2,0,P|286:104|262:73,1,80
168,60,134240,6,0,B|88:68|88:68|112:112|100:148,1,160
100,240,135312,1,0,0:0:0:0:
160,316,135669,2,0,P|204:324|248:312,1,80
288,236,136383,2,0,P|327:228|365:236,1,80
360,332,137097,6,0,P|432:344|472:264,1,160
448,184,138169,1,0,0:0:0:0:
360,144,138526,2,0,P|288:132|248:212,1,160
256,292,139597,1,0,0:0:0:0:
160,300,139954,6,0,B|120:304|88:336|88:336|64:304|16:304,1,160
36,208,141026,1,0,0:0:0:0:
96,132,141383,2,0,B|139:132|163:100|163:100|195:132|235:136,1,160
312,80,142454,1,0,0:0:0:0:
404,108,142812,6,0,L|424:200,1,80
340,236,143526,2,0,L|360:328,1,80,0|0,0:0|0:0,0:0:0:0:
260,316,144240,2,0,P|188:348|112:312,1,160
56,244,145312,1,0,0:0:0:0:
80,152,145669,6,0,P|140:100|216:128,2,160,0|0|0,0:0|0:0|0:0,0:0:0:0:
56,244,147454,1,0,0:0:0:0:
132,300,147812,2,0,P|164:312|220:292,1,80
300,276,148526,2,0,B|372:352|372:352|440:320|456:252,1,240
440,156,149954,5,0,0:0:0:0:
364,96,150312,2,0,P|328:88|284:96,2,80,0|0|0,0:0|0:0|0:0,0:0:0:0:
440,156,151383,1,0,0:0:0:0:
444,252,151740,2,0,P|456:288|440:344,1,80
400,328,152276,6,0,P|352:312|280:336,1,120
200,288,153169,1,0,0:0:0:0:
108,316,153526,2,0,P|68:324|28:312,1,80
32,216,154240,6,0,B|30:169|30:169|54:121|54:121|54:61,2,160,0|0|0,0:0|0:0|0:0,0:0:0:0:
128,220,156026,1,0,0:0:0:0:
184,300,156383,2,0,B|224:308|224:308|268:296,1,80
288,204,157097,2,0,B|345:188|345:188|410:204,1,120
452,204,157812,2,0,P|492:139|454:74,2,160,0|0|0,0:0|0:0|0:0,0:0:0:0:
368,160,159597,2,0,P|332:144|294:156,1,80
140,272,160668,2,0,P|179:268|209:242,1,80
144,172,161383,6,0,P|128:100|204:48,1,160
256,116,162454,1,0,0:0:0:0:
328,52,162812,2,0,P|386:100|371:175,1,160,0|0,0:0|0:0,0:0:0:0:
384,272,163883,1,0,0:0:0:0:
292,324,164240,6,0,P|256:336|216:324,1,80
120,332,164954,2,0,P|107:294|119:256,1,80,0|0,0:0|0:0,0:0:0:0:
188,188,165669,2,0,P|256:152|324:192,1,160
392,256,166740,1,0,0:0:0:0:
448,180,167097,6,0,P|460:140|448:96,1,80
360,76,167812,2,0,L|276:76,1,80
224,152,168526,2,0,L|140:152,2,80,0|0|0,0:0|0:0|0:0,0:0:0:0:
308,196,169597,1,0,0:0:0:0:
328,288,169954,6,0,B|256:316|256:316|176:288,1,160
98,235,171026,1,0,0:0:0:0:
87,139,171383,2,0,P|124:127|176:148,1,80
203,162,171919,2,0,P|262:177|322:157,1,120
346,68,172812,5,0,0:0:0:0:
435,103,173169,1,0,0:0:0:0:
406,194,173526,2,0,P|394:233|408:272,1,80
329,326,174240,6,0,P|257:356|181:318,1,160
111,263,175312,1,0,0:0:0:0:
57,183,175669,2,0,P|46:132|55:99,1,80
147,99,176383,2,0,P|158:150|149:183,1,80
233,226,177097,6,0,B|292:224|292:224|336:248|336:248|396:248,1,160
412,155,178169,1,0,0:0:0:0:
329,104,178526,6,0,B|284:104|256:73|256:73|229:104|178:104,1,160
137,186,179597,1,0,0:0:0:0:
187,267,179954,2,0,B|229:266|256:297|256:297|284:266|329:266,1,160
380,185,181026,1,0,0:0:0:0:
286,162,181383,6,0,P|240:97|280:22,2,160,0|0|0,0:0|0:0|0:0,0:0:0:0:
380,185,183169,1,0,0:0:0:0:
437,261,183526,2,0,P|448:299|434:344,1,80,0|0,0:0|0:0,0:0:0:0:
351,378,184240,1,0,0:0:0:0:
256,192,184419,12,0,187097,0:0:0:0:
55,336,199954,6,0,B|103:329|120:276|120:276|195:311,1,160
256,245,201026,1,0,0:0:0:0:
340,291,201383,2,0,B|388:298|405:351|405:351|464:323,1,160
443,229,202454,1,0,0:0:0:0:
389,149,202812,6,0,P|332:132|275:152,1,120
244,186,203526,2,0,P|204:195|162:187,1,80
90,129,204240,6,0,B|61:197|61:197|87:284,1,160
133,284,205133,2,0,P|198:253|297:372,1,240
392,335,206562,2,0,L|398:206,1,120
352,198,207276,2,0,L|358:69,1,120
312,60,207990,6,0,P|256:41|197:66,1,120
202,158,208883,2,0,P|146:177|87:152,1,120
81,60,209776,1,0,0:0:0:0:
256,192,209954,12,0,212812,0:0:0:0:
199,299,218526,6,0,P|128:334|56:297,2,160,0|0|0,0:0|0:0|0:0,0:0:0:0:
255,221,220312,1,0,0:0:0:0:
312,297,220669,2,0,P|354:306|393:295,1,80
429,209,221383,6,0,P|461:116|334:80,1,240
337,164,222812,2,0,P|265:183|205:115,2,160,0|0|0,0:0|0:0|0:0,0:0:0:0:
225,319,224954,2,0,P|208:278|222:241,1,80
184,156,225669,6,0,P|200:96|316:68,1,160
372,96,226741,1,0,0:0:0:0:
440,164,227098,2,0,P|424:224|308:252,1,160
248,232,228169,1,0,0:0:0:0:
180,164,228527,6,0,P|140:156|92:172,2,80,0|0|0,0:0|0:0|0:0,0:0:0:0:
248,232,229598,1,0,0:0:0:0:
328,284,229955,2,0,P|400:316|472:280,1,160
408,208,231027,1,0,0:0:0:0:
460,128,231384,6,0,P|468:88|444:36,1,80
360,52,232098,2,0,L|268:52,1,80
208,116,232812,2,0,L|116:116,2,80,0|0|0,0:0|0:0|0:0,0:0:0:0:
256,200,233884,1,0,0:0:0:0:
344,236,234241,6,0,P|376:304|332:372,1,160,0|0,0:0|0:0,0:0:0:0:
256,316,235312,1,0,0:0:0:0:
164,288,235669,2,0,P|152:248|172:192,1,80
196,180,236205,2,0,P|216:124|188:68,1,120
96,52,237098,5,0,0:0:0:0:
40,136,237455,1,0,0:0:0:0:
104,208,237812,2,0,L|100:304,1,80
184,356,238527,6,0,P|256:328|332:356,1,160
412,308,239598,1,0,0:0:0:0:
468,228,239955,2,0,P|480:188|456:144,1,80
372,152,240669,2,0,P|359:116|371:78,1,80
296,16,241384,5,0,0:0:0:0:
252,104,241741,1,0,0:0:0:0:
168,60,242098,2,0,P|128:52|84:64,1,80
124,150,242812,6,0,P|99:224|144:311,1,160
205,239,243883,1,0,0:0:0:0:
282,294,244240,2,0,P|311:221|286:147,1,160,0|0,0:0|0:0,0:0:0:0:
293,51,245312,1,0,0:0:0:0:
388,61,245669,6,0,P|443:85|451:156,1,120
434,182,246383,2,0,P|426:226|454:277,1,80
342,269,247097,6,0,P|353:306|345:345,1,80,0|0,0:0|0:0,0:0:0:0:
252,320,247812,2,0,P|212:256|256:194,1,160
