osu file format v14

[General]
AudioFilename: Flower of Sorrow -Hanatan-.mp3
AudioLeadIn: 0
PreviewTime: 94210
Countdown: 0
SampleSet: Soft
StackLeniency: 0.3
Mode: 0
LetterboxInBreaks: 0
WidescreenStoryboard: 1

[Editor]
DistanceSpacing: 0.6
BeatDivisor: 4
GridSize: 32
TimelineZoom: 1.8

[Metadata]
Title:flower of sorrow
TitleUnicode:flower of sorrow
Artist:Hanatan
ArtistUnicode:花たん
Creator:Natsu
Version:P A N's Light Insane
Source:
Tags:amamiya yuko p_a_n scanter xinely ritsu-tanaika
BeatmapID:669399
BeatmapSetID:210566

[Difficulty]
HPDrainRate:6.5
CircleSize:3.7
OverallDifficulty:6.5
ApproachRate:8.7
SliderMultiplier:1.66
SliderTickRate:2

[Events]
//Background and Video events
0,0,"BG.jpg",0,0
Video,0,"video.avi"
//Break Periods
2,83012,93595
2,120154,122167
2,128726,132167
2,212812,217881
//Storyboard Layer 0 (Background)
//Storyboard Layer 1 (Fail)
//Storyboard Layer 2 (Pass)
//Storyboard Layer 3 (Foreground)
//Storyboard Sound Samples

[TimingPoints]
-45,357.142857142857,4,2,11,40,1,0
847,-133.333333333333,4,2,11,40,0,0
6562,-133.333333333333,4,2,11,60,0,0
6919,-100,4,2,11,40,0,0
7097,-100,4,2,11,60,0,0
12812,-200,4,2,11,40,0,0
14597,-133.333333333333,4,2,11,45,0,0
14954,-133.333333333333,4,2,11,50,0,0
15312,-133.333333333333,4,2,11,55,0,0
15669,-100,4,2,11,60,0,0
48526,-133.333333333333,4,2,11,50,0,0
57454,-133.333333333333,4,2,11,50,0,0
57812,-100,4,2,11,50,0,0
59954,-83.3333333333333,4,2,11,70,0,1
70758,-83.3333333333333,4,2,11,70,0,0
70847,-83.3333333333333,4,2,11,70,0,1
81382,-83.3333333333333,4,2,11,40,0,1
82812,-100,4,2,11,60,0,0
94240,-200,4,2,12,40,0,0
105669,-133.333333333333,4,2,11,50,0,0
110669,-100,4,2,11,60,0,0
110907,-100,4,2,11,50,0,0
111145,-100,4,2,11,40,0,0
114240,-200,4,2,11,40,0,0
114954,-100,4,2,11,40,0,0
115669,-133.333333333333,4,2,11,40,0,0
122812,-100,4,2,11,60,0,0
127097,-200,4,2,11,60,0,0
127990,-100,4,2,11,60,0,0
149954,-133.333333333333,4,2,11,50,0,0
159240,-100,4,2,11,50,0,0
161383,-83.3333333333333,4,2,11,70,0,1
172722,-83.3333333333333,4,2,11,70,0,0
172812,-83.3333333333333,4,2,11,70,0,1
182812,-200,4,2,11,40,0,1
184240,-133.333333333333,4,2,11,70,0,0
185669,-133.333333333333,4,2,11,50,0,0
188526,-133.333333333333,4,2,11,60,0,0
190847,-200,4,2,11,60,0,0
191383,-133.333333333333,4,2,11,60,0,0
192812,-100,4,2,11,60,0,0
194240,-133.333333333333,4,2,11,60,0,0
196562,-200,4,2,11,60,0,0
197276,-133.333333333333,4,2,11,60,0,0
198526,-100,4,2,11,60,0,0
199954,-133.333333333333,4,2,11,60,0,0
202276,-200,4,2,11,60,0,0
202990,-133.333333333333,4,2,11,60,0,0
204240,-100,4,2,11,60,0,0
221383,-200,4,2,11,60,0,0
221740,-153.846153846154,4,2,11,60,0,0
222097,-125,4,2,11,60,0,0
222454,-105.263157894737,4,2,11,60,0,0
222812,-100,4,2,11,60,0,0
224240,-200,4,2,11,40,0,0
225133,-100,4,2,11,60,0,0
225669,-83.3333333333333,4,2,11,70,0,1
237008,-83.3333333333333,4,2,11,70,0,0
237097,-83.3333333333333,4,2,11,80,0,1
247097,-200,4,2,11,80,0,1
248526,-100,4,2,11,60,0,0

[Colours]
Combo1 : 128,255,128
Combo2 : 255,128,128
Combo3 : 128,255,255
Combo4 : 255,255,128

[HitObjects]
152,147,847,5,0,0:0:0:0:
234,190,1026,1,0,0:0:0:0:
230,102,1204,2,0,P|193:64|112:69,1,124.500004749298,0|0,0:0|0:0,0:0:0:0:
124,62,1919,5,0,0:0:0:0:
58,118,2097,1,0,0:0:0:0:
42,203,2276,1,0,0:0:0:0:
56,288,2454,1,0,0:0:0:0:
122,344,2633,2,0,L|262:337,1,124.500004749298,0|0,0:0|0:0,0:0:0:0:
246,337,3347,5,0,0:0:0:0:
332,348,3526,2,0,P|363:354|406:342,1,62.2500023746491,0|0,0:0|0:0,0:0:0:0:
390,261,3883,2,0,P|359:255|316:267,1,62.2500023746491,0|0,0:0|0:0,0:0:0:0:
246,337,4240,5,0,0:0:0:0:
109,228,4597,1,0,0:0:0:0:
167,63,4954,1,0,0:0:0:0:
341,61,5312,1,0,0:0:0:0:
413,219,5669,2,0,P|342:253|246:198,1,186.750007123947,0|0,0:0|0:0,0:0:0:0:
334,153,6383,1,0,0:0:0:0:
413,218,6562,2,0,B|429:264|429:264|420:381,1,166,8|2,0:0|0:0,0:0:0:0:
274,316,7097,6,0,P|234:307|186:317,1,83,6|0,0:0|0:0,0:0:0:0:
92,372,7454,1,8,0:0:0:0:
31,272,7633,6,0,P|5:207|36:107,1,166,6|2,0:0|0:0,0:0:0:0:
103,29,8169,1,8,0:0:0:0:
179,116,8347,6,0,P|117:145|22:111,1,166,6|2,0:0|0:0,0:0:0:0:
103,29,8883,1,8,0:0:0:0:
179,116,9062,6,0,P|201:171|174:283,1,166,6|2,0:0|0:0,0:0:0:0:
73,275,9597,2,0,L|18:271,2,41.5,8|0|2,0:0|0:0|0:0,0:0:0:0:
179,116,9954,6,0,L|266:119,1,83,8|2,0:0|0:0,0:0:0:0:
411,51,10312,2,0,L|408:138,1,83,8|2,0:0|0:0,0:0:0:0:
471,286,10669,2,0,L|384:283,1,83,8|2,0:0|0:0,0:0:0:0:
246,344,11026,2,0,L|249:257,1,83,8|2,0:0|0:0,0:0:0:0:
209,94,11383,6,0,L|290:126,1,83,8|2,0:0|0:0,0:0:0:0:
449,112,11741,2,0,L|417:193,1,83,8|2,0:0|0:0,0:0:0:0:
425,353,12098,2,0,L|345:321,1,83,8|2,0:0|0:0,0:0:0:0:
194,331,12455,2,0,L|227:250,1,83,8|2,0:0|0:0,0:0:0:0:
450,112,12812,6,0,B|379:47|270:103|270:103|183:170|83:102,1,394.25,8|0,0:0|0:0,0:0:0:0:
57,97,14597,6,0,P|159:217|58:338,1,342.37501306057,0|0,0:0|0:0,0:0:0:0:
34,342,15669,5,6,0:0:0:0:
54,220,15847,1,0,0:0:0:0:
54,220,15937,1,0,0:0:0:0:
54,220,16026,1,2,0:0:0:0:
152,295,16204,2,0,P|191:304|243:289,1,83,8|0,0:0|0:0,0:0:0:0:
307,204,16562,1,2,0:0:0:0:
231,117,16740,2,0,P|192:108|140:123,1,83,8|0,0:0|0:0,0:0:0:0:
224,199,17097,5,8,0:0:0:0:
313,120,17276,1,2,0:0:0:0:
313,120,17365,1,0,0:0:0:0:
313,120,17454,1,2,0:0:0:0:
230,32,17633,1,8,0:0:0:0:
347,34,17812,6,0,L|408:35,2,55.3333333333333,2|0|0,0:0|0:0|0:0,0:0:0:0:
408,118,18169,2,0,L|464:139,2,55.3333333333333,8|0|0,0:0|0:0|0:0,0:0:0:0:
408,217,18526,6,0,P|419:260|406:306,1,83,6|2,0:0|0:0,0:0:0:0:
314,362,18883,1,2,0:0:0:0:
217,296,19062,1,8,0:0:0:0:
217,296,19151,1,0,0:0:0:0:
217,296,19240,1,0,0:0:0:0:
327,260,19419,1,2,0:0:0:0:
217,296,19597,2,0,P|176:307|131:294,1,83,8|2,0:0|0:0,0:0:0:0:
72,200,19954,5,8,0:0:0:0:
133,101,20133,2,0,P|155:98|183:103,2,41.5,0|0|8,0:0|0:0|0:0,0:0:0:0:
249,157,20490,2,0,P|267:97|240:32,1,124.5,0|0,0:0|0:0,0:0:0:0:
225,22,20847,1,0,0:0:0:0:
34,63,21026,2,0,P|25:123|54:177,1,124.5,8|0,0:0|0:0,0:0:0:0:
72,200,21383,5,6,0:0:0:0:
179,247,21562,1,2,0:0:0:0:
179,247,21651,1,2,0:0:0:0:
179,247,21740,1,8,0:0:0:0:
249,157,21919,1,2,0:0:0:0:
179,247,22097,2,0,P|172:291|183:331,1,83,6|2,0:0|0:0,0:0:0:0:
333,345,22454,2,0,P|350:287|329:221,1,124.5,6|0,0:0|0:0,0:0:0:0:
315,204,22812,5,6,0:0:0:0:
428,239,22990,1,2,0:0:0:0:
428,239,23079,1,2,0:0:0:0:
428,239,23169,1,8,0:0:0:0:
400,127,23347,1,2,0:0:0:0:
315,204,23526,2,0,P|259:226|201:203,1,124.5,6|0,0:0|0:0,0:0:0:0:
202,169,23883,2,0,P|258:147|316:170,1,124.5,6|0,0:0|0:0,0:0:0:0:
315,204,24240,6,0,L|312:257,1,41.5,8|0,0:0|0:0,0:0:0:0:
332,323,24419,1,8,0:0:0:0:
203,169,24954,6,0,L|206:116,1,41.5,8|0,0:0|0:0,0:0:0:0:
172,59,25133,2,0,L|176:18,1,41.5,8|0,0:0|0:0,0:0:0:0:
172,59,25669,5,8,0:0:0:0:
91,138,25847,1,2,0:0:0:0:
91,138,25937,1,0,0:0:0:0:
91,138,26026,1,2,0:0:0:0:
203,169,26204,2,0,P|228:173|246:166,2,41.5,2|0|8,0:0|0:0|0:0,0:0:0:0:
172,59,26562,1,2,0:0:0:0:
91,138,26740,1,8,0:0:0:0:
94,170,26829,1,0,0:0:0:0:
97,203,26919,2,0,L|102:256,1,41.5,2|0,0:0|0:0,0:0:0:0:
84,273,27097,6,0,P|156:300|243:267,1,166,6|8,0:0|0:0,0:0:0:0:
303,176,27633,1,2,0:0:0:0:
363,275,27812,2,0,P|373:317|362:360,1,83,0|2,0:0|0:0,0:0:0:0:
238,352,28169,2,0,P|228:310|239:267,1,83,8|2,0:0|0:0,0:0:0:0:
303,176,28526,5,2,0:0:0:0:
303,176,28704,1,0,0:0:0:0:
419,173,28883,1,8,0:0:0:0:
419,173,29062,1,0,0:0:0:0:
479,273,29240,2,0,P|477:312|443:357,1,83,2|0,0:0|0:0,0:0:0:0:
419,173,29597,2,0,P|457:153|503:160,1,83,8|2,0:0|0:0,0:0:0:0:
364,275,29954,6,0,P|303:303|199:269,1,166,2|8,0:0|0:0,0:0:0:0:
132,193,30490,1,2,0:0:0:0:
208,104,30669,1,2,0:0:0:0:
285,189,30847,1,0,0:0:0:0:
208,104,31026,2,0,P|198:62|212:13,1,83,8|2,0:0|0:0,0:0:0:0:
316,62,31383,5,0,0:0:0:0:
316,62,31562,1,2,0:0:0:0:
208,104,31740,2,0,B|161:120|161:120|32:108,1,166,8|0,0:0|0:0,0:0:0:0:
132,193,32276,1,2,0:0:0:0:
45,109,32454,2,0,P|36:66|46:22,1,83,8|2,0:0|0:0,0:0:0:0:
132,193,32812,6,0,P|141:236|131:280,1,83,6|0,0:0|0:0,0:0:0:0:
45,109,33169,1,8,0:0:0:0:
208,104,33347,2,0,L|260:104,2,41.5,2|0|0,0:0|0:0|0:0,0:0:0:0:
289,22,33704,1,2,0:0:0:0:
377,98,33883,1,8,0:0:0:0:
293,179,34062,1,2,0:0:0:0:
293,179,34151,1,0,0:0:0:0:
293,179,34240,5,2,0:0:0:0:
376,262,34419,1,0,0:0:0:0:
463,186,34597,2,0,P|470:143|456:98,1,83,8|0,0:0|0:0,0:0:0:0:
378,180,34954,1,2,0:0:0:0:
453,266,35133,1,0,0:0:0:0:
378,343,35312,2,0,P|333:354|292:344,1,83,8|2,0:0|0:0,0:0:0:0:
196,258,35669,6,0,P|174:212|203:93,1,166,6|8,0:0|0:0,0:0:0:0:
293,179,36204,1,2,0:0:0:0:
293,179,36294,1,0,0:0:0:0:
293,179,36383,1,0,0:0:0:0:
196,258,36562,1,2,0:0:0:0:
100,184,36740,2,0,P|59:175|15:187,1,83,8|0,0:0|0:0,0:0:0:0:
23,327,37097,6,0,P|64:336|108:324,1,83,2|0,0:0|0:0,0:0:0:0:
196,258,37454,1,8,0:0:0:0:
100,184,37633,1,2,0:0:0:0:
196,258,37812,2,0,L|286:253,1,83,8|2,0:0|0:0,0:0:0:0:
355,340,38169,1,8,0:0:0:0:
431,255,38347,1,8,0:0:0:0:
431,255,38437,1,0,0:0:0:0:
431,255,38526,6,0,P|439:214|429:169,1,83,6|0,0:0|0:0,0:0:0:0:
438,337,38883,1,8,0:0:0:0:
512,221,39062,1,0,0:0:0:0:
359,214,39240,2,0,L|276:209,1,83,2|2,0:0|0:0,0:0:0:0:
197,119,39597,1,8,0:0:0:0:
100,184,39776,1,0,0:0:0:0:
100,184,39865,1,0,0:0:0:0:
100,184,39954,6,0,P|91:222|106:273,1,83,2|0,0:0|0:0,0:0:0:0:
195,220,40312,1,8,0:0:0:0:
197,119,40490,2,0,P|141:71|46:82,1,166,2|2,0:0|0:0,0:0:0:0:
1,196,41026,2,0,L|4:284,1,83,8|2,0:0|0:0,0:0:0:0:
119,353,41383,6,0,P|160:361|203:347,1,83,6|2,0:0|0:0,0:0:0:0:
195,220,41740,2,0,P|154:212|111:226,1,83,8|0,0:0|0:0,0:0:0:0:
269,259,42097,2,0,P|277:218|263:170,1,83,6|2,0:0|0:0,0:0:0:0:
157,285,42454,1,8,0:0:0:0:
272,337,42633,1,0,0:0:0:0:
272,337,42722,1,0,0:0:0:0:
272,337,42812,6,0,P|312:346|361:330,1,83,6|0,0:0|0:0,0:0:0:0:
437,245,43169,1,8,0:0:0:0:
347,154,43347,1,2,0:0:0:0:
347,154,43436,1,2,0:0:0:0:
347,154,43526,2,0,P|307:145|258:161,1,83,8|2,0:0|0:0,0:0:0:0:
148,193,43883,2,0,P|101:204|62:194,1,83,8|2,0:0|0:0,0:0:0:0:
43,174,44151,1,0,0:0:0:0:
30,144,44240,6,0,L|35:59,1,83,6|0,0:0|0:0,0:0:0:0:
148,193,44597,2,0,P|176:248|142:358,1,166,8|2,0:0|0:0,0:0:0:0:
64,272,45133,1,0,0:0:0:0:
147,193,45312,2,0,P|190:184|237:197,1,83,8|0,0:0|0:0,0:0:0:0:
327,270,45669,6,0,L|320:360,1,83,6|0,0:0|0:0,0:0:0:0:
423,208,46026,2,0,P|445:150|416:51,1,166,8|2,0:0|0:0,0:0:0:0:
333,134,46562,1,0,0:0:0:0:
423,208,46740,2,0,P|472:218|508:203,1,83,8|0,0:0|0:0,0:0:0:0:
333,134,47097,6,0,P|284:124|248:139,1,83,2|8,0:0|0:0,0:0:0:0:
229,157,47365,1,0,0:0:0:0:
153,255,47544,1,8,0:0:0:0:
78,158,47722,1,8,0:0:0:0:
78,158,47812,2,0,P|70:116|85:64,1,83,2|8,0:0|0:0,0:0:0:0:
155,173,48169,1,8,0:0:0:0:
66,254,48347,1,2,0:0:0:0:
66,254,48437,1,8,0:0:0:0:
66,254,48526,6,0,L|81:347,1,93.3750035619737,6|0,0:0|0:0,0:0:0:0:
86,367,48883,6,0,L|95:297,1,62.2500023746491,8|2,0:0|0:0,0:0:0:0:
155,173,49240,2,0,L|167:241,1,62.2500023746491,8|0,0:0|0:0,0:0:0:0:
223,369,49597,2,0,L|232:299,1,62.2500023746491,8|0,0:0|0:0,0:0:0:0:
292,175,49954,2,0,L|304:243,1,62.2500023746491,8|0,0:0|0:0,0:0:0:0:
394,336,50312,2,0,P|441:356|520:326,1,124.500004749298,8|8,0:0|0:0,0:0:0:0:
468,207,50847,2,0,B|459:171|459:171|472:20,1,186.750007123947,6|6,0:0|0:0,0:0:0:0:
454,39,51472,1,0,0:0:0:0:
428,39,51562,1,2,0:0:0:0:
403,39,51651,1,0,0:0:0:0:
378,40,51740,6,0,L|385:122,1,62.2500023746491,8|0,0:0|0:0,0:0:0:0:
292,175,52097,2,0,L|299:107,1,62.2500023746491,8|0,0:0|0:0,0:0:0:0:
202,40,52454,2,0,L|209:122,1,62.2500023746491,8|0,0:0|0:0,0:0:0:0:
116,175,52811,2,0,L|123:107,1,62.2500023746491,8|0,0:0|0:0,0:0:0:0:
108,113,53079,6,0,L|122:214,1,93.3750035619737,0|0,0:0|0:0,0:0:0:0:
135,315,53526,1,8,0:0:0:0:
135,315,53704,2,0,B|197:306|197:306|247:320|247:320|328:309,1,186.750007123947,6|6,0:0|0:0,0:0:0:0:
339,324,54329,1,0,0:0:0:0:
363,327,54419,1,2,0:0:0:0:
387,329,54508,1,0,0:0:0:0:
411,332,54597,6,0,L|477:322,1,62.2500023746491,8|0,0:0|0:0,0:0:0:0:
512,229,54954,2,0,L|445:219,1,62.2500023746491,8|0,0:0|0:0,0:0:0:0:
411,131,55312,2,0,L|477:121,1,62.2500023746491,8|0,0:0|0:0,0:0:0:0:
512,28,55669,2,0,L|445:18,1,62.2500023746491,8|0,0:0|0:0,0:0:0:0:
335,74,56026,2,0,P|317:138|346:197,1,124.500004749298,8|8,0:0|0:0,0:0:0:0:
239,153,56562,2,0,P|171:128|86:162,1,155.625005936623,6|0,0:0|0:0,0:0:0:0:
80,173,57097,6,0,L|82:104,1,62.2500023746491,8|2,0:0|0:0,0:0:0:0:
167,219,57454,2,0,L|163:284,1,62.2500023746491,8|2,0:0|0:0,0:0:0:0:
144,297,57722,1,0,0:0:0:0:
118,318,57812,2,0,B|249:311|249:311|226:340,1,166,8|8,0:0|0:0,0:0:0:0:
212,355,58258,2,0,B|261:335|261:335|343:346,1,124.5,0|8,0:0|0:0,0:0:0:0:
331,344,59240,5,8,0:0:0:0:
410,297,59419,1,2,0:0:0:0:
493,344,59597,1,8,0:0:0:0:
493,344,59687,1,2,0:0:0:0:
493,344,59776,1,8,0:0:0:0:
493,344,59865,1,8,0:0:0:0:
493,344,59954,5,6,0:0:0:0:
485,206,60133,2,0,P|440:191|386:205,1,99.5999969604493,2|8,0:0|0:0,0:0:0:0:
265,279,60490,1,2,0:0:0:0:
410,297,60669,1,2,0:0:0:0:
302,198,60847,1,2,0:0:0:0:
331,344,61026,1,8,0:0:0:0:
392,202,61204,1,2,0:0:0:0:
265,279,61383,6,0,L|162:278,1,99.5999969604493,2|2,0:0|0:0,0:0:0:0:
86,164,61740,1,8,0:0:0:0:
100,333,61919,1,2,0:0:0:0:
159,200,62097,1,0,0:0:0:0:
38,280,62276,1,2,0:0:0:0:
159,200,62454,1,8,0:0:0:0:
100,333,62633,1,2,0:0:0:0:
14,204,62812,6,0,P|3:154|28:99,1,99.5999969604493,6|2,0:0|0:0,0:0:0:0:
215,137,63169,2,0,P|241:184|199:277,1,149.399995440674,8|0,0:0|0:0,0:0:0:0:
185,290,63526,6,0,L|83:286,1,99.5999969604493,6|2,0:0|0:0,0:0:0:0:
215,137,63883,2,0,P|283:113|357:141,1,149.399995440674,8|0,0:0|0:0,0:0:0:0:
376,170,64240,6,0,L|371:241,2,66.3999979736329,6|0|0,0:0|0:0|0:0,0:0:0:0:
410,129,64597,6,0,L|401:24,1,99.5999969604493,8|2,0:0|0:0,0:0:0:0:
506,133,64954,2,0,L|492:342,1,199.199993920899,8|8,0:0|0:0,0:0:0:0:
347,347,65490,1,8,0:0:0:0:
347,347,65579,1,8,0:0:0:0:
347,347,65669,6,0,P|296:356|219:297,1,149.399995440674,6|0,0:0|0:0,0:0:0:0:
216,264,66026,6,0,P|222:304|154:317,1,99.5999969604493,8|0,0:0|0:0,0:0:0:0:
143,213,66383,2,0,P|188:180|282:213,1,149.399995440674,6|0,0:0|0:0,0:0:0:0:
297,238,66740,2,0,P|272:202|310:162,1,99.5999969604493,8|2,0:0|0:0,0:0:0:0:
216,264,67097,5,6,0:0:0:0:
208,120,67276,1,2,0:0:0:0:
143,213,67454,1,8,0:0:0:0:
63,133,67633,1,2,0:0:0:0:
90,278,67812,2,0,P|104:324|93:377,1,99.5999969604493,6|0,0:0|0:0,0:0:0:0:
2,263,68169,1,8,0:0:0:0:
63,133,68347,1,2,0:0:0:0:
63,133,68437,1,0,0:0:0:0:
63,133,68526,6,0,L|162:137,1,99.5999969604493,6|0,0:0|0:0,0:0:0:0:
214,17,68883,1,8,0:0:0:0:
257,140,69062,1,2,0:0:0:0:
264,163,69151,1,0,0:0:0:0:
271,186,69240,1,0,0:0:0:0:
309,21,69419,1,2,0:0:0:0:
350,144,69597,1,8,0:0:0:0:
399,25,69776,1,2,0:0:0:0:
440,148,69954,5,6,0:0:0:0:
486,28,70133,1,2,0:0:0:0:
486,28,70312,1,6,0:0:0:0:
440,148,70490,2,0,B|431:254|431:254|452:309,1,149.399995440674,6|0,0:0|0:0,0:0:0:0:
471,295,70847,2,0,L|367:297,1,99.5999969604493,2|8,0:0|0:0,0:0:0:0:
296,346,71204,1,2,0:0:0:0:
296,346,71294,1,0,0:0:0:0:
296,346,71383,5,0,0:0:0:0:
200,209,71562,2,0,P|186:162|204:109,1,99.5999969604493,2|8,0:0|0:0,0:0:0:0:
311,35,71919,1,2,0:0:0:0:
265,164,72097,1,2,0:0:0:0:
223,36,72276,1,2,0:0:0:0:
337,118,72454,1,8,0:0:0:0:
273,243,72633,1,2,0:0:0:0:
200,115,72812,6,0,P|153:101|97:119,1,99.5999969604493,0|2,0:0|0:0,0:0:0:0:
59,265,73169,1,8,0:0:0:0:
150,180,73347,1,2,0:0:0:0:
59,265,73526,1,0,0:0:0:0:
32,152,73704,1,2,0:0:0:0:
138,260,73883,1,8,0:0:0:0:
105,114,74062,1,2,0:0:0:0:
59,265,74240,6,0,P|46:317|65:366,1,99.5999969604493,6|0,0:0|0:0,0:0:0:0:
232,362,74597,2,0,P|252:306|228:216,1,149.399995440674,8|0,0:0|0:0,0:0:0:0:
204,190,74954,6,0,L|103:196,1,99.5999969604493,6|0,0:0|0:0,0:0:0:0:
219,93,75312,2,0,P|281:71|366:97,1,149.399995440674,8|0,0:0|0:0,0:0:0:0:
385,120,75669,5,6,0:0:0:0:
500,14,75847,1,0,0:0:0:0:
456,151,76026,1,8,0:0:0:0:
385,19,76204,1,2,0:0:0:0:
297,143,76383,1,8,0:0:0:0:
401,256,76562,1,2,0:0:0:0:
385,120,76740,1,8,0:0:0:0:
310,244,76919,1,8,0:0:0:0:
310,244,77008,1,8,0:0:0:0:
310,244,77097,5,6,0:0:0:0:
214,132,77276,1,2,0:0:0:0:
296,14,77454,1,8,0:0:0:0:
385,120,77633,2,0,L|391:174,2,49.7999984802247,2|0|6,0:0|0:0|0:0,0:0:0:0:
231,57,77990,1,2,0:0:0:0:
239,210,78169,1,8,0:0:0:0:
138,97,78347,1,2,0:0:0:0:
297,143,78526,5,6,0:0:0:0:
142,179,78704,1,2,0:0:0:0:
156,18,78883,1,8,0:0:0:0:
56,137,79062,2,0,P|44:192|64:238,1,99.5999969604493,6|0,0:0|0:0,0:0:0:0:
77,247,79329,2,0,L|246:238,1,149.399995440674,0|8,0:0|0:0,0:0:0:0:
362,205,79776,1,2,0:0:0:0:
362,205,79865,1,0,0:0:0:0:
362,205,79954,6,0,L|423:208,3,49.7999984802247,6|0|2|0,0:0|0:0|0:0|0:0,0:0:0:0:
448,210,80312,1,8,0:0:0:0:
323,302,80490,1,2,0:0:0:0:
297,144,80669,2,0,P|284:96|303:37,1,99.5999969604493,2|2,0:0|0:0,0:0:0:0:
177,124,81026,1,8,0:0:0:0:
153,132,81115,1,2,0:0:0:0:
128,135,81204,1,8,0:0:0:0:
102,133,81294,1,8,0:0:0:0:
77,126,81383,5,8,0:0:0:0:
127,277,81740,1,0,0:0:0:0:
286,269,82097,1,0,0:0:0:0:
330,116,82454,1,0,0:0:0:0:
197,29,82812,1,6,0:0:0:0:
197,120,94240,6,0,P|125:105|104:247,1,249,6|2,0:0|0:0,0:0:0:0:
148,181,95669,2,0,L|16:75,1,166,2|0,0:0|0:0,0:0:0:0:
364,181,97097,2,0,L|496:75,1,166,2|2,0:0|0:0,0:0:0:0:
357,59,98169,1,2,0:0:0:0:
365,181,98526,6,0,L|369:240,1,41.5,2|0,0:0|0:0,0:0:0:0:
263,227,98883,2,0,L|248:267,1,41.5,0|0,0:0|0:0,0:0:0:0:
167,176,99240,1,0,0:0:0:0:
267,34,99597,5,2,0:0:0:0:
265,139,99776,1,2,0:0:0:0:
167,176,99954,6,0,P|110:146|127:55,1,166,2|2,0:0|0:0,0:0:0:0:
22,121,101026,1,2,0:0:0:0:
22,121,101383,6,0,P|35:176|124:249,1,166,2|2,0:0|0:0,0:0:0:0:
398,246,102812,5,2,0:0:0:0:
398,246,103169,1,2,0:0:0:0:
398,246,103526,1,2,0:0:0:0:
398,246,103883,1,2,0:0:0:0:
477,297,104240,6,0,P|414:332|328:300,1,166,2|0,0:0|0:0,0:0:0:0:
209,47,105669,6,0,P|105:26|160:197,1,373.500014247895,6|2,0:0|0:0,0:0:0:0:
145,108,107097,2,0,P|74:159|143:288,1,249.000009498597,6|0,0:0|0:0,0:0:0:0:
157,197,108169,1,2,0:0:0:0:
186,356,108526,6,0,P|40:300|157:197,1,373.500014247895,6|2,0:0|0:0,0:0:0:0:
303,267,109954,2,0,L|370:260,2,62.2500023746491,6|0|2,0:0|0:0|0:0,0:0:0:0:
343,155,110669,6,0,L|408:149,2,55.3333333333333,8|8|8,0:0|0:0|0:0,0:0:0:0:
281,99,111026,2,0,L|225:96,2,55.3333333333333,8|8|8,0:0|0:0|0:0,0:0:0:0:
339,38,111383,5,6,0:0:0:0:
352,247,111740,1,2,0:0:0:0:
498,98,112097,1,2,0:0:0:0:
341,233,112454,1,2,0:0:0:0:
323,28,112812,1,2,0:0:0:0:
360,237,113169,1,2,0:0:0:0:
512,106,113526,1,2,0:0:0:0:
350,252,113883,1,2,0:0:0:0:
312,43,114240,6,0,P|262:63|172:40,1,145.25,6|0,0:0|0:0,0:0:0:0:
158,32,114954,6,0,B|177:46|204:58|204:58|228:65|251:64|251:64|225:109|245:155|245:155|263:195|238:260,1,290.5,8|0,0:0|0:0,0:0:0:0:
242,247,115669,6,0,P|173:205|334:157,1,373.500014247895,6|8,0:0|0:0,0:0:0:0:
246,161,117097,5,6,0:0:0:0:
256,192,117187,12,0,119954,0:0:0:0:
428,190,122812,5,8,0:0:0:0:
428,190,122901,1,2,0:0:0:0:
428,190,122990,1,8,0:0:0:0:
428,190,123079,1,8,0:0:0:0:
428,190,123169,2,0,B|326:188|326:188|300:176,1,124.5,8|0,0:0|0:0,0:0:0:0:
274,153,123526,1,2,0:0:0:0:
196,257,123704,2,0,P|188:298|202:347,1,83,8|2,0:0|0:0,0:0:0:0:
272,245,124062,1,8,0:0:0:0:
190,160,124240,5,2,0:0:0:0:
116,257,124419,2,0,P|153:267|203:253,1,83,8|2,0:0|0:0,0:0:0:0:
110,152,124776,1,8,0:0:0:0:
12,240,124954,6,0,P|8:270|18:303,2,55.3333333333333,8|0|0,0:0|0:0|0:0,0:0:0:0:
28,159,125312,2,0,P|32:129|22:96,2,55.3333333333333,0|0|0,0:0|0:0|0:0,0:0:0:0:
12,240,125669,5,8,0:0:0:0:
80,350,125847,1,8,0:0:0:0:
80,350,125937,1,8,0:0:0:0:
80,350,126026,2,0,P|130:366|214:340,1,124.5,8|0,0:0|0:0,0:0:0:0:
227,333,126383,1,2,0:0:0:0:
357,267,126562,2,0,P|397:260|444:271,1,83,8|2,0:0|0:0,0:0:0:0:
347,357,126919,1,8,0:0:0:0:
266,249,127097,6,0,P|244:196|261:109,1,145.25,6|0,0:0|0:0,0:0:0:0:
286,89,127812,1,8,0:0:0:0:
410,163,127990,6,0,P|432:166|457:159,1,41.5,8|2,0:0|0:0,0:0:0:0:
504,267,128169,2,0,P|490:284|483:309,1,41.5,8|2,0:0|0:0,0:0:0:0:
379,302,128347,2,0,P|370:281|352:263,1,41.5,8|2,0:0|0:0,0:0:0:0:
430,240,128526,5,6,0:0:0:0:
92,107,132812,6,0,L|236:110,1,124.5,2|2,0:0|0:0,0:0:0:0:
249,109,133169,1,8,0:0:0:0:
333,32,133347,1,8,0:0:0:0:
424,106,133526,1,2,0:0:0:0:
338,186,133704,1,8,0:0:0:0:
338,186,133794,2,0,P|329:228|343:269,1,83,2|2,0:0|0:0,0:0:0:0:
362,290,134062,2,0,L|408:285,1,41.5,8|8,0:0|0:0,0:0:0:0:
436,282,134240,6,0,B|405:305|405:305|360:311|360:311|325:293|325:293|285:310,1,166,6|8,0:0|0:0,0:0:0:0:
154,235,134776,2,0,P|144:197|156:149,1,83,2|0,0:0|0:0,0:0:0:0:
262,196,135133,1,2,0:0:0:0:
204,298,135312,1,8,0:0:0:0:
85,280,135490,1,2,0:0:0:0:
85,280,135579,1,0,0:0:0:0:
85,280,135669,5,2,0:0:0:0:
204,298,135847,1,0,0:0:0:0:
85,363,136026,2,0,P|41:352|11:314,1,83,8|0,0:0|0:0,0:0:0:0:
85,198,136383,2,0,P|129:209|159:247,1,83,2|0,0:0|0:0,0:0:0:0:
12,240,136740,1,8,0:0:0:0:
77,108,136919,1,0,0:0:0:0:
77,108,137008,1,0,0:0:0:0:
77,108,137097,6,0,L|160:112,1,83,6|0,0:0|0:0,0:0:0:0:
203,221,137454,1,8,0:0:0:0:
275,131,137633,1,2,0:0:0:0:
275,131,137722,1,0,0:0:0:0:
275,131,137812,1,0,0:0:0:0:
160,112,137990,1,2,0:0:0:0:
203,221,138169,2,0,P|248:231|292:215,1,83,8|0,0:0|0:0,0:0:0:0:
86,199,138526,6,0,P|83:250|106:287,1,83,8|2,0:0|0:0,0:0:0:0:
203,221,138883,1,2,0:0:0:0:
160,112,139062,1,8,0:0:0:0:
45,120,139240,2,0,P|11:145|1:191,1,83,2|2,0:0|0:0,0:0:0:0:
120,40,139597,2,0,P|162:29|206:45,1,83,8|8,0:0|0:0,0:0:0:0:
230,55,139865,1,8,0:0:0:0:
230,55,139954,6,0,P|184:30|164:116,1,166,6|8,0:0|0:0,0:0:0:0:
304,101,140490,2,0,P|317:62|308:16,1,83,2|0,0:0|0:0,0:0:0:0:
160,112,140847,1,2,0:0:0:0:
305,186,141026,2,0,P|345:180|383:138,1,83,8|2,0:0|0:0,0:0:0:0:
232,147,141383,6,0,P|221:187|238:237,1,83,2|0,0:0|0:0,0:0:0:0:
304,101,141740,1,8,0:0:0:0:
198,40,141919,2,0,P|159:28|120:40,1,83,2|0,0:0|0:0,0:0:0:0:
34,121,142276,1,2,0:0:0:0:
45,237,142454,2,0,P|57:280|88:306,1,83,8|2,0:0|0:0,0:0:0:0:
199,340,142812,6,0,P|236:349|292:336,1,83,6|2,0:0|0:0,0:0:0:0:
305,186,143169,2,0,P|251:171|183:189,1,124.5,8|0,0:0|0:0,0:0:0:0:
167,204,143526,2,0,P|194:180|183:128,1,83,6|2,0:0|0:0,0:0:0:0:
85,214,143883,2,0,P|97:254|135:277,1,83,8|0,0:0|0:0,0:0:0:0:
114,141,144240,6,0,P|71:134|27:156,1,83,6|0,0:0|0:0,0:0:0:0:
167,204,144597,1,8,0:0:0:0:
120,58,144776,1,2,0:0:0:0:
120,58,144865,1,2,0:0:0:0:
120,58,144954,2,0,L|35:60,2,83,2|0|8,0:0|0:0|0:0,0:0:0:0:
233,22,145490,1,2,0:0:0:0:
296,122,145669,6,0,P|307:163|296:209,1,83,6|0,0:0|0:0,0:0:0:0:
167,203,146026,2,0,P|156:162|167:116,1,83,8|2,0:0|0:0,0:0:0:0:
235,255,146383,2,0,P|199:282|154:281,1,83,2|0,0:0|0:0,0:0:0:0:
95,159,146740,2,0,P|123:129|163:122,1,83,8|0,0:0|0:0,0:0:0:0:
86,242,147097,6,0,P|44:228|17:178,1,83,2|0,0:0|0:0,0:0:0:0:
167,204,147454,2,0,P|174:246|156:294,1,83,8|0,0:0|0:0,0:0:0:0:
16,277,147812,2,0,P|8:237|22:199,1,83,2|0,0:0|0:0,0:0:0:0:
170,126,148169,2,0,B|274:132|274:132|309:118,1,124.5,8|0,0:0|0:0,0:0:0:0:
302,89,148526,6,0,B|291:126|291:126|306:184,1,83,2|8,0:0|0:0,0:0:0:0:
317,200,148794,2,0,B|357:207|357:207|412:196,2,83,0|8|8,0:0|0:0|0:0,0:0:0:0:
303,169,149240,2,0,P|314:200|299:254,1,83,2|8,0:0|0:0,0:0:0:0:
301,89,149597,2,0,P|249:108|306:167,1,166,8|6,0:0|0:0,0:0:0:0:
316,199,150044,1,0,0:0:0:0:
309,222,150133,1,0,0:0:0:0:
302,245,150222,1,0,0:0:0:0:
295,269,150312,6,0,L|304:336,1,62.2500023746491,8|0,0:0|0:0,0:0:0:0:
396,359,150669,2,0,L|408:292,1,62.2500023746491,8|0,0:0|0:0,0:0:0:0:
403,202,151026,2,0,L|395:141,1,62.2500023746491,8|0,0:0|0:0,0:0:0:0:
506,169,151383,2,0,L|496:231,1,62.2500023746491,8|0,0:0|0:0,0:0:0:0:
460,65,151740,2,0,B|414:44|414:44|316:51,1,124.500004749298,8|8,0:0|0:0,0:0:0:0:
217,115,152276,2,0,B|223:168|223:168|206:233|206:233|224:315,1,186.750007123947,6|6,0:0|0:0,0:0:0:0:
202,279,152901,1,0,0:0:0:0:
177,280,152990,1,2,0:0:0:0:
152,282,153079,1,0,0:0:0:0:
126,284,153169,6,0,L|60:270,1,62.2500023746491,8|0,0:0|0:0,0:0:0:0:
0,175,153526,2,0,L|14:109,1,62.2500023746491,8|0,0:0|0:0,0:0:0:0:
79,21,153883,2,0,L|145:35,1,62.2500023746491,8|0,0:0|0:0,0:0:0:0:
217,116,154240,2,0,L|203:182,1,62.2500023746491,8|0,0:0|0:0,0:0:0:0:
207,197,154508,6,0,L|198:94,1,93.3750035619737,0|0,0:0|0:0,0:0:0:0:
324,69,154954,1,8,0:0:0:0:
324,69,155133,2,0,B|310:198|310:198|328:258,1,186.750007123947,6|6,0:0|0:0,0:0:0:0:
343,234,155758,1,0,0:0:0:0:
367,236,155847,1,2,0:0:0:0:
391,238,155937,1,0,0:0:0:0:
415,240,156026,6,0,L|482:233,1,62.2500023746491,8|0,0:0|0:0,0:0:0:0:
463,334,156383,2,0,L|396:341,1,62.2500023746491,8|0,0:0|0:0,0:0:0:0:
306,367,156740,2,0,L|244:360,1,62.2500023746491,8|0,0:0|0:0,0:0:0:0:
215,263,157097,2,0,L|276:269,1,62.2500023746491,8|0,0:0|0:0,0:0:0:0:
117,304,157454,2,0,P|102:253|143:181,1,124.500004749298,8|8,0:0|0:0,0:0:0:0:
261,108,157990,2,0,B|386:114|386:114|322:132,1,186.750007123947,6|6,0:0|0:0,0:0:0:0:
361,26,158704,1,2,0:0:0:0:
466,81,158883,2,0,P|473:111|463:149,1,62.2500023746491,8|0,0:0|0:0,0:0:0:0:
389,235,159240,6,0,B|293:228|293:228|332:209,1,124.5,8|2,0:0|0:0,0:0:0:0:
357,204,159597,1,8,0:0:0:0:
389,235,159687,2,0,B|356:204|356:204|367:118,1,124.5,0|8,0:0|0:0,0:0:0:0:
366,125,160669,5,8,0:0:0:0:
300,53,160847,1,2,0:0:0:0:
218,108,161026,1,8,0:0:0:0:
218,108,161115,1,2,0:0:0:0:
218,108,161204,1,8,0:0:0:0:
218,108,161294,1,8,0:0:0:0:
218,108,161383,5,6,0:0:0:0:
258,254,161562,2,0,P|299:263|354:245,1,99.5999969604493,2|8,0:0|0:0,0:0:0:0:
201,191,161919,1,2,0:0:0:0:
255,336,162097,1,0,0:0:0:0:
295,181,162276,1,2,0:0:0:0:
180,278,162454,1,8,0:0:0:0:
295,181,162633,1,2,0:0:0:0:
120,189,162812,6,0,L|15:192,1,99.5999969604493,0|2,0:0|0:0,0:0:0:0:
201,191,163169,1,8,0:0:0:0:
68,110,163347,1,2,0:0:0:0:
72,269,163526,1,0,0:0:0:0:
161,116,163704,1,2,0:0:0:0:
21,192,163883,1,8,0:0:0:0:
161,116,164062,1,2,0:0:0:0:
180,278,164240,6,0,P|194:321|183:378,1,99.5999969604493,6|0,0:0|0:0,0:0:0:0:
3,354,164597,2,0,P|-17:296|5:211,1,149.399995440674,8|0,0:0|0:0,0:0:0:0:
22,192,164954,6,0,L|126:197,1,99.5999969604493,6|0,0:0|0:0,0:0:0:0:
263,171,165312,2,0,P|283:102|253:23,1,149.399995440674,8|0,0:0|0:0,0:0:0:0:
241,15,165669,6,0,B|273:39|278:73|278:73|333:41|408:76,1,199.199993920899,6|8,0:0|0:0,0:0:0:0:
444,213,166204,1,2,0:0:0:0:
512,81,166383,6,0,P|516:50|498:-4,2,66.3999979736329,8|0|0,0:0|0:0|0:0,0:0:0:0:
487,115,166740,2,0,P|477:159|496:219,1,99.5999969604493,8|8,0:0|0:0,0:0:0:0:
510,226,167008,1,0,0:0:0:0:
510,226,167097,6,0,B|481:210|480:186|480:186|439:211|377:182,1,149.399995440674,6|0,0:0|0:0,0:0:0:0:
366,149,167454,2,0,P|410:150|391:237,1,149.399995440674,8|0,0:0|0:0,0:0:0:0:
382,243,167812,2,0,P|309:230|271:150,1,149.399995440674,6|0,0:0|0:0,0:0:0:0:
266,143,168169,1,8,0:0:0:0:
297,303,168347,1,2,0:0:0:0:
366,149,168526,6,0,P|376:100|359:49,1,99.5999969604493,6|2,0:0|0:0,0:0:0:0:
204,227,168883,2,0,P|194:276|211:327,1,99.5999969604493,8|2,0:0|0:0,0:0:0:0:
266,143,169240,2,0,P|219:122|163:133,1,99.5999969604493,6|0,0:0|0:0,0:0:0:0:
80,262,169597,1,8,0:0:0:0:
22,112,169776,1,2,0:0:0:0:
22,112,169865,1,0,0:0:0:0:
22,112,169954,6,0,P|27:52|140:78,1,199.199993920899,6|8,0:0|0:0,0:0:0:0:
58,185,170490,1,2,0:0:0:0:
29,201,170579,1,0,0:0:0:0:
0,218,170669,1,0,0:0:0:0:
147,149,170847,1,2,0:0:0:0:
210,290,171026,1,8,0:0:0:0:
266,143,171204,1,2,0:0:0:0:
127,69,171383,5,6,0:0:0:0:
209,206,171562,1,2,0:0:0:0:
280,64,171740,1,8,0:0:0:0:
147,149,171919,1,6,0:0:0:0:
147,149,172276,5,2,0:0:0:0:
210,290,172454,1,8,0:0:0:0:
266,143,172633,1,8,0:0:0:0:
131,231,172812,6,0,P|88:214|65:164,1,99.5999969604493,6|2,0:0|0:0,0:0:0:0:
130,311,173169,1,8,0:0:0:0:
147,149,173347,1,2,0:0:0:0:
286,237,173526,1,0,0:0:0:0:
188,368,173704,1,2,0:0:0:0:
210,205,173883,1,8,0:0:0:0:
130,311,174062,1,2,0:0:0:0:
269,347,174240,6,0,P|318:352|363:321,1,99.5999969604493,0|2,0:0|0:0,0:0:0:0:
427,174,174597,1,8,0:0:0:0:
286,237,174776,1,2,0:0:0:0:
449,276,174954,1,0,0:0:0:0:
334,160,175133,1,2,0:0:0:0:
358,326,175312,1,8,0:0:0:0:
427,174,175490,1,2,0:0:0:0:
286,237,175669,6,0,P|241:252|189:237,1,99.5999969604493,6|0,0:0|0:0,0:0:0:0:
179,124,176026,2,0,P|234:103|323:128,1,149.399995440674,8|0,0:0|0:0,0:0:0:0:
334,160,176383,6,0,P|319:125|354:77,1,99.5999969604493,6|0,0:0|0:0,0:0:0:0:
486,116,176740,2,0,P|508:170|465:249,1,149.399995440674,8|0,0:0|0:0,0:0:0:0:
449,276,177097,6,0,P|468:246|530:268,1,99.5999969604493,6|0,0:0|0:0,0:0:0:0:
442,366,177454,2,0,P|395:353|364:309,1,99.5999969604493,8|2,0:0|0:0,0:0:0:0:
334,160,177812,1,8,0:0:0:0:
334,160,177990,1,2,0:0:0:0:
449,276,178169,1,8,0:0:0:0:
286,238,178347,1,8,0:0:0:0:
286,238,178437,1,8,0:0:0:0:
286,238,178526,5,6,0:0:0:0:
438,182,178704,1,2,0:0:0:0:
366,314,178883,1,8,0:0:0:0:
334,160,179062,2,0,L|324:108,2,49.7999984802247,2|0|6,0:0|0:0|0:0,0:0:0:0:
208,263,179419,1,2,0:0:0:0:
372,233,179597,1,8,0:0:0:0:
213,183,179776,1,2,0:0:0:0:
205,342,179954,5,6,0:0:0:0:
286,238,180133,1,2,0:0:0:0:
136,301,180312,1,8,0:0:0:0:
137,141,180490,2,0,L|138:41,1,99.5999969604493,6|2,0:0|0:0,0:0:0:0:
165,23,180758,2,0,P|172:58|103:32,1,149.399995440674,0|8,0:0|0:0,0:0:0:0:
245,94,181204,1,8,0:0:0:0:
245,94,181294,1,8,0:0:0:0:
245,94,181383,6,0,P|294:105|346:91,1,99.5999969604493,6|2,0:0|0:0,0:0:0:0:
366,62,181651,1,0,0:0:0:0:
366,62,181740,2,0,P|345:93|393:133,1,99.5999969604493,8|2,0:0|0:0,0:0:0:0:
420,132,182008,1,0,0:0:0:0:
420,132,182097,2,0,P|380:133|379:197,1,99.5999969604493,8|2,0:0|0:0,0:0:0:0:
397,210,182365,1,0,0:0:0:0:
436,212,182454,1,8,0:0:0:0:
472,195,182544,1,0,0:0:0:0:
494,162,182633,2,0,P|499:137|495:105,1,49.7999984802247,8|8,0:0|0:0,0:0:0:0:
420,132,182812,6,0,P|382:190|378:66,2,332,8|6|6,0:0|0:0|0:0,0:0:0:0:
420,132,186383,1,6,0:0:0:0:
488,316,186740,1,8,0:0:0:0:
488,316,186919,2,0,L|482:371,2,31.1250011873246,8|8|6,0:0|0:0|0:0,0:0:0:0:
388,292,187276,2,0,L|395:339,2,31.1250011873246,0|0|0,0:0|0:0|0:0,0:0:0:0:
296,325,187633,2,0,L|290:380,2,31.1250011873246,0|0|0,0:0|0:0|0:0,0:0:0:0:
196,301,187990,2,0,L|203:348,2,31.1250011873246,0|0|0,0:0|0:0|0:0,0:0:0:0:
95,311,188347,1,0,0:0:0:0:
39,222,188526,6,0,B|25:178|37:138|37:138|63:90|30:31|30:31|93:47|93:47|158:32|158:32|234:49|234:49|177:129|228:210|228:210|285:195|285:195|338:207|338:207|399:195,1,747.00002849579,8|8,0:0|0:0,0:0:0:0:
491,195,190847,6,0,B|459:202|459:202|435:196|435:196|413:208|384:194,1,103.75,6|0,0:0|0:0,0:0:0:0:
390,196,191383,6,0,P|432:232|475:134,1,186.750007123947,6|8,0:0|0:0,0:0:0:0:
390,196,192097,2,0,P|379:243|400:293,2,93.3750035619737,6|2|8,0:0|0:0|0:0,0:0:0:0:
487,147,192812,6,0,P|505:86|472:17,2,124.5,6|8|8,0:0|0:0|0:0,0:0:0:0:
390,196,193526,1,2,0:0:0:0:
301,147,193704,2,0,B|251:120|202:143|202:143|157:171|87:143,1,207.5,6|0,0:0|0:0,0:0:0:0:
69,149,194240,6,0,P|99:183|161:85,1,186.750007123947,8|2,0:0|0:0,0:0:0:0:
59,71,194954,2,0,P|22:83|-7:167,1,124.500004749298,2|2,0:0|0:0,0:0:0:0:
63,290,195669,1,8,0:0:0:0:
63,290,195847,2,0,L|252:279,1,186.750007123947,2|2,0:0|0:0,0:0:0:0:
366,291,196562,6,0,B|348:295|348:295|335:292|335:292|291:313|258:292|242:270,1,124.5,6|8,0:0|0:0,0:0:0:0:
249,278,197276,6,0,B|280:310|313:300|356:306|334:249|334:249|350:193,2,186.750007123947,2|2|8,0:0|0:0|0:0,0:0:0:0:
190,187,198526,6,0,B|180:150|180:150|194:58,2,124.500004749298,6|8|2,0:0|0:0|0:0,0:0:0:0:
249,279,199240,1,0,0:0:0:0:
122,231,199419,2,0,P|109:183|238:124,1,207.5,6|0,0:0|0:0,0:0:0:0:
250,113,199954,6,0,B|191:125|191:125|88:100|88:100|3:120,1,249.000009498597,6|2,0:0|0:0,0:0:0:0:
28,235,200847,2,0,L|23:302,1,62.2500023746491,8|0,0:0|0:0,0:0:0:0:
122,231,201204,2,0,L|126:297,1,62.2500023746491,8|0,0:0|0:0,0:0:0:0:
219,238,201562,2,0,L|214:305,1,62.2500023746491,8|0,0:0|0:0,0:0:0:0:
313,234,201919,2,0,L|317:300,1,62.2500023746491,8|8,0:0|0:0,0:0:0:0:
417,218,202276,6,0,P|376:198|312:235,1,124.5,6|6,0:0|0:0,0:0:0:0:
416,299,202990,6,0,B|398:258|419:217|419:217|408:187|408:187|420:149|420:149|412:107,1,186.750007123947,2|2,0:0|0:0,0:0:0:0:
330,35,203704,2,0,L|259:39,1,62.2500023746491,8|0,0:0|0:0,0:0:0:0:
152,106,204062,1,8,0:0:0:0:
215,218,204240,6,0,B|277:233|277:233|340:214,2,124.5,6|8|8,0:0|0:0|0:0,0:0:0:0:
276,123,204954,1,2,0:0:0:0:
335,216,205133,2,0,P|298:257|227:152,1,207.5,6|0,0:0|0:0,0:0:0:0:
212,174,205669,6,0,B|222:229|222:229|206:277|206:277|213:338,1,166,8|2,0:0|0:0,0:0:0:0:
234,329,206115,2,0,B|208:339|208:339|137:333,1,83,8|8,0:0|0:0,0:0:0:0:
39,208,206562,2,0,B|26:158|26:158|40:43,1,166,6|2,0:0|0:0,0:0:0:0:
134,101,207097,6,0,L|139:144,2,41.5,0|0|8,0:0|0:0|0:0,0:0:0:0:
232,50,207454,1,8,0:0:0:0:
326,105,207633,2,0,L|321:148,2,41.5,0|0|8,0:0|0:0|0:0,0:0:0:0:
422,50,207990,1,6,0:0:0:0:
512,109,208169,2,0,L|509:153,3,41.5,0|0|2|0,0:0|0:0|0:0|0:0,0:0:0:0:
493,184,208526,6,0,L|499:272,1,83,8|8,0:0|0:0,0:0:0:0:
502,300,208794,2,0,P|463:289|414:304,1,83,8|8,0:0|0:0,0:0:0:0:
334,355,209151,2,0,B|297:369|297:369|207:361,1,124.5,8|8,0:0|0:0,0:0:0:0:
168,254,209597,1,0,0:0:0:0:
102,348,209776,1,8,0:0:0:0:
61,239,209954,1,0,0:0:0:0:
105,94,218526,5,6,0:0:0:0:
66,255,218883,1,0,0:0:0:0:
209,338,219240,1,6,0:0:0:0:
345,244,219597,2,0,P|352:203|339:158,1,83,0|0,0:0|0:0,0:0:0:0:
251,89,219954,5,6,0:0:0:0:
251,89,220133,1,0,0:0:0:0:
228,203,220312,1,6,0:0:0:0:
228,203,220490,1,0,0:0:0:0:
345,244,220669,2,0,P|390:264|512:231,1,166,6|0,0:0|0:0,0:0:0:0:
417,110,221204,1,8,0:0:0:0:
417,110,221294,1,2,0:0:0:0:
417,110,221383,6,0,L|424:67,1,41.5,6|2,0:0|0:0,0:0:0:0:
332,93,221740,6,0,L|324:27,1,53.9499975303651,2|2,0:0|0:0,0:0:0:0:
251,122,222097,6,0,L|211:63,1,66.4,2|2,0:0|0:0,0:0:0:0:
228,204,222454,6,0,L|153:168,1,78.8499978944779,2|2,0:0|0:0,0:0:0:0:
238,291,222812,5,6,0:0:0:0:
139,364,222990,1,2,0:0:0:0:
37,292,223169,1,8,0:0:0:0:
37,292,223258,1,0,0:0:0:0:
37,292,223347,2,0,P|15:243|42:134,1,166,6|2,0:0|0:0,0:0:0:0:
137,282,223883,2,0,P|145:322|139:363,1,83,8|0,0:0|0:0,0:0:0:0:
228,205,224240,6,0,B|267:209|293:193|293:193|316:215|348:212|348:212|353:239|390:260,1,186.75,2|2,0:0|0:0,0:0:0:0:
384,256,225133,6,0,P|357:235|348:178,1,83,8|8,0:0|0:0,0:0:0:0:
386,77,225490,1,8,0:0:0:0:
386,77,225579,1,8,0:0:0:0:
386,77,225669,5,6,0:0:0:0:
239,118,225847,2,0,P|193:130|130:114,1,99.5999969604493,2|8,0:0|0:0,0:0:0:0:
234,16,226204,1,2,0:0:0:0:
318,129,226383,1,0,0:0:0:0:
204,232,226562,1,2,0:0:0:0:
239,118,226740,1,8,0:0:0:0:
107,190,226919,1,2,0:0:0:0:
163,326,227097,6,0,P|210:337|264:316,1,99.5999969604493,0|2,0:0|0:0,0:0:0:0:
271,189,227454,1,8,0:0:0:0:
356,285,227633,1,2,0:0:0:0:
318,129,227812,1,0,0:0:0:0:
204,232,227990,1,2,0:0:0:0:
348,202,228169,1,8,0:0:0:0:
239,118,228347,1,2,0:0:0:0:
348,202,228526,6,0,P|396:213|447:197,1,99.5999969604493,6|2,0:0|0:0,0:0:0:0:
464,48,228883,2,0,P|412:29|321:51,1,149.399995440674,8|0,0:0|0:0,0:0:0:0:
306,71,229240,6,0,L|203:59,1,99.5999969604493,6|2,0:0|0:0,0:0:0:0:
105,153,229597,2,0,P|81:221|108:293,1,149.399995440674,8|0,0:0|0:0,0:0:0:0:
134,314,229954,6,0,L|215:311,2,66.3999979736329,6|0|0,0:0|0:0|0:0,0:0:0:0:
101,347,230312,6,0,L|-17:339,1,99.5999969604493,8|2,0:0|0:0,0:0:0:0:
105,153,230669,2,0,P|184:117|295:167,1,199.199993920899,2|8,0:0|0:0,0:0:0:0:
368,264,231204,1,8,0:0:0:0:
368,264,231294,1,8,0:0:0:0:
368,264,231383,6,0,L|364:368,1,99.5999969604493,6|2,0:0|0:0,0:0:0:0:
485,269,231740,2,0,L|474:165,1,99.5999969604493,8|0,0:0|0:0,0:0:0:0:
325,174,232097,2,0,L|331:69,1,99.5999969604493,6|2,0:0|0:0,0:0:0:0:
476,64,232454,1,8,0:0:0:0:
401,188,232633,1,2,0:0:0:0:
254,101,232812,5,6,0:0:0:0:
406,108,232990,1,2,0:0:0:0:
368,264,233169,1,8,0:0:0:0:
476,150,233347,1,2,0:0:0:0:
325,174,233526,2,0,P|279:187|220:171,1,99.5999969604493,6|2,0:0|0:0,0:0:0:0:
176,47,233883,1,8,0:0:0:0:
125,177,234062,1,2,0:0:0:0:
125,177,234151,1,0,0:0:0:0:
125,177,234240,6,0,P|112:224|127:275,1,99.5999969604493,6|2,0:0|0:0,0:0:0:0:
171,371,234597,1,8,0:0:0:0:
220,273,234776,2,0,P|173:260|123:273,1,99.5999969604493,2|8,0:0|0:0,0:0:0:0:
7,354,235133,1,2,0:0:0:0:
43,204,235312,1,8,0:0:0:0:
94,347,235490,1,2,0:0:0:0:
125,177,235669,5,6,0:0:0:0:
46,283,235847,1,2,0:0:0:0:
60,127,236026,1,8,0:0:0:0:
125,272,236204,1,6,0:0:0:0:
125,272,236562,5,2,0:0:0:0:
60,127,236740,1,8,0:0:0:0:
212,163,236919,1,2,0:0:0:0:
212,163,237008,1,0,0:0:0:0:
212,163,237097,5,6,0:0:0:0:
107,52,237276,2,0,P|64:39|10:52,1,99.5999969604493,2|8,0:0|0:0,0:0:0:0:
43,204,237633,1,2,0:0:0:0:
161,104,237812,1,8,0:0:0:0:
125,272,237990,1,2,0:0:0:0:
60,127,238169,1,8,0:0:0:0:
125,272,238347,1,2,0:0:0:0:
212,163,238526,6,0,P|264:149|316:167,1,99.5999969604493,8|2,0:0|0:0,0:0:0:0:
237,305,238883,1,8,0:0:0:0:
131,177,239062,1,2,0:0:0:0:
260,228,239240,1,8,0:0:0:0:
125,272,239419,1,2,0:0:0:0:
161,104,239597,1,8,0:0:0:0:
260,228,239776,1,2,0:0:0:0:
165,342,239954,6,0,P|115:352|61:323,1,99.5999969604493,6|2,0:0|0:0,0:0:0:0:
260,228,240312,2,0,P|310:218|364:247,1,99.5999969604493,8|2,0:0|0:0,0:0:0:0:
125,272,240669,2,0,P|115:221|131:178,1,99.5999969604493,6|2,0:0|0:0,0:0:0:0:
289,112,241026,2,0,L|392:117,1,99.5999969604493,8|2,0:0|0:0,0:0:0:0:
161,104,241383,6,0,L|52:108,1,99.5999969604493,6|2,0:0|0:0,0:0:0:0:
36,138,241651,1,0,0:0:0:0:
26,176,241740,1,8,0:0:0:0:
30,215,241829,1,8,0:0:0:0:
42,253,241919,1,2,0:0:0:0:
165,343,242097,1,2,0:0:0:0:
165,343,242187,1,8,0:0:0:0:
166,185,242365,1,0,0:0:0:0:
166,185,242454,1,8,0:0:0:0:
166,185,242544,1,0,0:0:0:0:
166,185,242633,1,2,0:0:0:0:
78,340,242812,5,6,0:0:0:0:
202,265,242990,1,2,0:0:0:0:
340,342,243169,1,8,0:0:0:0:
266,215,243347,2,0,P|252:167|266:117,1,99.5999969604493,2|6,0:0|0:0,0:0:0:0:
274,296,243704,1,2,0:0:0:0:
166,185,243883,1,8,0:0:0:0:
165,343,244062,1,2,0:0:0:0:
341,249,244240,5,6,0:0:0:0:
202,265,244419,1,2,0:0:0:0:
264,121,244597,1,8,0:0:0:0:
274,296,244776,2,0,P|233:336|138:309,1,149.399995440674,6|8,0:0|0:0,0:0:0:0:
125,287,245133,1,2,0:0:0:0:
46,171,245312,1,8,0:0:0:0:
119,58,245490,1,8,0:0:0:0:
119,58,245579,1,8,0:0:0:0:
119,58,245669,6,0,P|168:45|222:64,1,99.5999969604493,6|2,0:0|0:0,0:0:0:0:
243,85,245937,1,0,0:0:0:0:
243,85,246026,2,0,L|353:80,1,99.5999969604493,8|2,0:0|0:0,0:0:0:0:
458,165,246383,1,8,0:0:0:0:
433,26,246562,1,2,0:0:0:0:
458,165,246740,1,8,0:0:0:0:
456,194,246829,1,0,0:0:0:0:
454,224,246919,1,8,0:0:0:0:
452,253,247008,1,8,0:0:0:0:
451,282,247097,6,0,P|426:333|319:211,1,311.25,8|0,0:0|0:0,0:0:0:0:
335,204,248526,6,0,L|385:206,8,41.5,8|8|2|2|8|8|2|2|2,0:0|0:0|0:0|0:0|0:0|0:0|0:0|0:0|0:0,0:0:0:0:
254,116,249419,2,0,B|125:113|125:113|172:142,1,166,6|2,0:0|0:0,0:0:0:0:
227,309,250133,2,0,P|231:331|226:363,4,41.5,8|0|8|0|0,0:0|0:0|0:0|0:0|0:0,0:0:0:0:
147,243,250669,2,0,L|10:248,2,124.5,6|2|8,0:0|0:0|0:0,0:0:0:0:
241,204,251383,6,0,L|286:207,8,41.5,6|8|2|2|8|2|8|8|2,0:0|0:0|0:0|0:0|0:0|0:0|0:0|0:0|0:0,0:0:0:0:
163,127,252276,2,0,P|142:73|237:55,1,166,6|2,0:0|0:0,0:0:0:0:
436,104,252990,2,0,L|487:100,2,41.5,8|0|8,0:0|0:0|0:0,0:0:0:0:
339,298,253526,2,0,B|306:320|306:320|217:313,2,124.5,6|8|8,0:0|0:0|0:0,0:0:0:0:
435,247,254240,6,0,L|486:243,8,41.5,6|8|2|2|8|2|8|8|2,0:0|0:0|0:0|0:0|0:0|0:0|0:0|0:0|0:0,0:0:0:0:
341,191,255133,2,0,L|172:186,1,166,6|2,0:0|0:0,0:0:0:0:
175,186,255847,1,8,0:0:0:0:
97,109,256026,1,8,0:0:0:0:
97,109,256383,2,0,B|91:192|91:192|103:240,2,124.5,6|8|8,0:0|0:0|0:0,0:0:0:0:
194,63,257097,6,0,L|190:19,8,41.5,8|0|2|0|8|0|8|0|2,0:0|0:0|0:0|0:0|0:0|0:0|0:0|0:0|0:0,0:0:0:0:
271,139,257990,2,0,B|316:147|316:147|356:138|356:138|408:142,2,124.5,8|2|6,0:0|0:0|0:0,0:0:0:0:
161,225,258794,2,0,B|158:262|158:262|167:302|167:302|159:347,1,124.5,8|2,0:0|0:0,0:0:0:0:
117,350,259508,6,0,B|125:305|125:305|116:265|116:265|118:227,2,124.5,6|8|2,0:0|0:0|0:0,0:0:0:0:
