osu file format v14

[General]
AudioFilename: Flower of Sorrow -Hanatan-.mp3
AudioLeadIn: 0
PreviewTime: 94210
Countdown: 0
SampleSet: Soft
StackLeniency: 0.7
Mode: 0
LetterboxInBreaks: 0
WidescreenStoryboard: 1

[Editor]
Bookmarks: 240669
DistanceSpacing: 0.9
BeatDivisor: 4
GridSize: 4
TimelineZoom: 1.7

[Metadata]
Title:flower of sorrow
TitleUnicode:flower of sorrow
Artist:Hanatan
ArtistUnicode:花たん
Creator:Natsu
Version:Extra
Source:
Tags:amamiya yuko p_a_n scanter xinely ritsu-tanaika
BeatmapID:500620
BeatmapSetID:210566

[Difficulty]
HPDrainRate:7
CircleSize:4
OverallDifficulty:7.5
ApproachRate:9
SliderMultiplier:1.8
SliderTickRate:2

[Events]
//Background and Video events
0,0,"BG.jpg",0,0
Video,0,"video.avi"
//Break Periods
//Storyboard Layer 0 (Background)
//Storyboard Layer 1 (Fail)
//Storyboard Layer 2 (Pass)
//Storyboard Layer 3 (Foreground)
//Storyboard Sound Samples

[TimingPoints]
-45,357.142857142857,4,2,1,25,1,0
847,-133.333333333333,4,2,1,25,0,0
1740,-133.333333333333,4,2,1,20,0,0
1919,-133.333333333333,4,2,1,25,0,0
4419,-133.333333333333,4,2,1,20,0,0
4597,-133.333333333333,4,2,1,25,0,0
4776,-133.333333333333,4,2,1,20,0,0
4954,-133.333333333333,4,2,1,25,0,0
5133,-133.333333333333,4,2,1,20,0,0
5312,-133.333333333333,4,2,1,25,0,0
5490,-133.333333333333,4,2,1,20,0,0
5669,-133.333333333333,4,2,1,25,0,0
6562,-83.3333333333333,4,1,2,45,0,0
6919,-83.3333333333333,4,1,1,45,0,0
7097,-100,4,1,1,35,0,0
7812,-100,4,2,1,20,0,0
7990,-100,4,1,1,30,0,0
8526,-100,4,1,1,20,0,0
8704,-100,4,1,1,30,0,0
9062,-100,4,1,1,35,0,0
11204,-100,4,1,1,30,0,0
11383,-90.9090909090909,4,2,1,40,0,0
11562,-90.9090909090909,4,2,1,25,0,0
11740,-90.9090909090909,4,2,1,40,0,0
11919,-90.9090909090909,4,2,1,25,0,0
12097,-90.9090909090909,4,2,1,40,0,0
12276,-90.9090909090909,4,2,1,25,0,0
12454,-90.9090909090909,4,2,1,40,0,0
12633,-90.9090909090909,4,2,1,25,0,0
12812,-153.846153846153,4,2,1,35,0,0
12901,-153.846153846153,4,2,1,25,0,0
14062,-153.846153846153,4,2,1,35,0,0
14240,-200,4,2,1,35,0,0
14329,-200,4,2,1,25,0,0
15669,-90.9090909090909,4,2,1,45,0,0
17097,-90.9090909090909,4,2,3,45,0,0
18526,-90.9090909090909,4,2,1,45,0,0
18704,-90.9090909090909,4,2,1,30,0,0
18883,-90.9090909090909,4,2,1,45,0,0
19062,-90.9090909090909,4,2,1,30,0,0
19240,-90.9090909090909,4,2,1,45,0,0
19419,-90.9090909090909,4,2,1,30,0,0
19596,-90.9090909090909,4,2,1,45,0,0
19776,-90.9090909090909,4,2,1,30,0,0
19954,-90.9090909090909,4,2,1,45,0,0
21294,-90.9090909090909,4,2,1,25,0,0
21383,-90.9090909090909,4,2,1,40,0,0
22722,-90.9090909090909,4,2,1,25,0,0
22812,-90.9090909090909,4,2,1,40,0,0
23883,-90.9090909090909,4,2,1,40,0,0
24240,-125,4,2,1,60,0,0
25669,-125,4,2,1,50,0,0
27097,-100,4,2,1,45,0,0
47812,-200,4,2,1,50,0,0
47901,-200,4,2,1,40,0,0
48526,-117.647058823529,4,1,1,35,0,0
51294,-117.647058823529,4,2,1,25,0,0
51383,-117.647058823529,4,1,1,40,0,0
57812,-117.647058823529,4,2,1,40,0,0
58079,-117.647058823529,4,2,1,25,0,0
58169,-117.647058823529,4,2,1,40,0,0
58437,-117.647058823529,4,2,1,25,0,0
58526,-83.3333333333333,4,2,1,40,0,0
58883,-83.3333333333333,4,2,1,15,0,0
59240,-83.3333333333333,4,2,1,40,0,0
59954,-90.9090909090909,4,2,1,50,0,1
70758,-90.9090909090909,4,2,1,25,0,0
70847,-90.9090909090909,4,2,1,50,0,1
81382,-111.111111111111,4,2,1,40,0,1
81651,-111.111111111111,4,2,1,20,0,1
81740,-142.857142857143,4,2,1,40,0,1
82008,-142.857142857143,4,2,1,20,0,1
82097,-166.666666666667,4,2,1,40,0,1
82365,-166.666666666667,4,2,1,20,0,1
82454,-200,4,2,1,40,0,1
82722,-200,4,2,1,20,0,1
82812,-125,4,1,1,35,0,0
88526,-100,4,1,1,32,0,0
94240,-166.666666666667,4,2,1,70,0,0
94329,-166.666666666667,4,2,1,35,0,0
95133,-166.666666666667,4,2,1,20,0,0
95312,-166.666666666667,4,2,1,35,0,0
95490,-166.666666666667,4,2,1,20,0,0
95669,-166.666666666667,4,2,1,35,0,0
96204,-166.666666666667,4,2,1,20,0,0
96383,-166.666666666667,4,2,1,35,0,0
96919,-166.666666666667,4,2,1,20,0,0
97097,-166.666666666667,4,2,1,35,0,0
97633,-166.666666666667,4,2,1,20,0,0
97812,-166.666666666667,4,2,1,35,0,0
97990,-166.666666666667,4,2,1,20,0,0
98169,-166.666666666667,4,2,1,35,0,0
98347,-166.666666666667,4,2,1,20,0,0
98526,-166.666666666667,4,2,1,35,0,0
98883,-166.666666666667,4,2,1,20,0,0
99062,-166.666666666667,4,2,1,35,0,0
100490,-166.666666666667,4,2,1,20,0,0
100669,-166.666666666667,4,2,1,35,0,0
100847,-166.666666666667,4,2,1,20,0,0
101026,-166.666666666667,4,2,1,35,0,0
101204,-166.666666666667,4,2,1,20,0,0
101383,-166.666666666667,4,2,1,35,0,0
101919,-166.666666666667,4,2,1,20,0,0
102097,-166.666666666667,4,2,1,35,0,0
102633,-166.666666666667,4,2,1,20,0,0
102812,-166.666666666667,4,2,1,35,0,0
102990,-166.666666666667,4,2,1,20,0,0
103169,-166.666666666667,4,2,1,35,0,0
103347,-166.666666666667,4,2,1,20,0,0
103526,-166.666666666667,4,2,1,35,0,0
103704,-166.666666666667,4,2,1,20,0,0
103883,-166.666666666667,4,2,1,35,0,0
104062,-166.666666666667,4,2,1,20,0,0
104240,-166.666666666667,4,2,1,45,0,0
104329,-166.666666666667,4,2,1,35,0,0
104954,-166.666666666667,4,2,1,20,0,0
105669,-133.333333333333,4,2,1,40,0,0
106562,-133.333333333333,4,2,1,20,0,0
106740,-133.333333333333,4,2,1,35,0,0
107097,-125,4,2,1,40,0,0
108526,-117.647058823529,4,2,1,40,0,0
109240,-117.647058823529,4,2,1,25,0,0
109597,-117.647058823529,4,2,1,35,0,0
109954,-111.111111111111,4,2,1,40,0,0
111383,-105.263157894737,4,2,1,40,0,0
114240,-125,4,2,1,40,0,0
114776,-125,4,2,1,20,0,0
114954,-125,4,2,1,40,0,0
115490,-125,4,2,1,20,0,0
115669,-142.857142857143,4,2,1,40,0,0
116562,-142.857142857143,4,2,1,20,0,0
116740,-142.857142857143,4,2,1,40,0,0
116919,-142.857142857143,4,2,1,20,0,0
117097,-166.666666666667,4,2,1,40,0,0
117187,-166.666666666667,4,2,1,30,0,0
119776,-166.666666666667,4,2,1,20,0,0
119954,-100,4,2,1,40,0,0
122097,-83.3333333333333,4,2,1,50,0,0
122633,-83.3333333333333,4,2,1,30,0,0
122812,-100,4,1,1,35,0,0
127633,-100,4,2,1,25,0,0
127812,-100,4,2,1,35,0,0
128526,-133.333333333333,4,2,1,40,0,0
128883,-133.333333333333,4,2,1,20,0,0
129062,-133.333333333333,4,2,1,35,0,0
133526,-133.333333333333,4,2,1,40,0,0
134240,-100,4,2,1,40,0,0
149240,-200,4,2,1,40,0,0
149865,-200,4,2,1,30,0,0
149954,-117.647058823529,4,1,1,35,0,0
159241,-117.647058823529,4,2,1,40,0,0
159508,-117.647058823529,4,2,1,20,0,0
159597,-117.647058823529,4,2,1,40,0,0
159865,-117.647058823529,4,2,1,20,0,0
159954,-83.3333333333333,4,2,1,50,0,0
160312,-83.3333333333333,4,2,1,20,0,0
160669,-83.3333333333333,4,1,1,40,0,0
161383,-90.9090909090909,4,2,1,50,0,1
172187,-90.9090909090909,4,2,1,20,0,0
172276,-90.9090909090909,4,2,1,50,0,1
182812,-111.111111111111,4,2,1,50,0,1
183079,-111.111111111111,4,2,1,20,0,1
183169,-142.857142857143,4,2,1,40,0,1
183437,-142.857142857143,4,2,1,20,0,1
183526,-166.666666666667,4,2,1,40,0,1
183794,-166.666666666667,4,2,1,20,0,1
183883,-200,4,2,1,40,0,1
184151,-200,4,2,1,20,0,1
184240,-100,4,2,1,40,0,0
184508,-100,4,2,1,30,0,0
185579,-100,4,2,1,20,0,0
185669,-100,4,2,1,40,0,0
186026,-100,4,2,1,30,0,0
186383,-100,4,2,1,40,0,0
188526,-100,4,1,1,40,0,0
192812,-100,4,1,1,50,0,0
192990,-100,4,1,1,30,0,0
193079,-100,4,1,1,50,0,0
193526,-100,4,1,1,30,0,0
193704,-100,4,1,1,50,0,0
194062,-100,4,1,1,30,0,0
194240,-100,4,1,1,40,0,0
198526,-100,4,1,1,50,0,0
198704,-100,4,1,1,30,0,0
198794,-100,4,1,1,50,0,0
199240,-100,4,1,1,30,0,0
199419,-100,4,1,1,50,0,0
199776,-100,4,1,1,30,0,0
199954,-100,4,1,1,40,0,0
204240,-100,4,1,1,50,0,0
204419,-100,4,1,1,30,0,0
204508,-100,4,1,1,50,0,0
205133,-100,4,1,1,30,0,0
205222,-100,4,1,1,40,0,0
206562,-100,4,1,1,50,0,0
206740,-100,4,1,1,30,0,0
206919,-100,4,1,1,40,0,0
211026,-133.333333333333,4,2,1,45,0,0
211383,-133.333333333333,4,2,1,55,0,0
211472,-133.333333333333,4,2,1,35,0,0
212097,-133.333333333333,4,2,1,20,0,0
212276,-133.333333333333,4,2,1,35,0,0
212812,-133.333333333333,4,2,1,50,0,0
212990,-133.333333333333,4,2,1,40,0,0
213169,-133.333333333333,4,2,1,20,0,0
213347,-133.333333333333,4,2,1,40,0,0
215847,-133.333333333333,4,2,1,20,0,0
216026,-133.333333333333,4,2,1,40,0,0
216204,-133.333333333333,4,2,1,20,0,0
216383,-133.333333333333,4,2,1,40,0,0
216562,-133.333333333333,4,2,1,20,0,0
216740,-133.333333333333,4,2,1,40,0,0
216919,-133.333333333333,4,2,1,20,0,0
217097,-133.333333333333,4,2,1,40,0,0
218526,-100,4,2,1,45,0,0
224240,-83.3333333333333,4,2,1,50,0,0
224329,-83.3333333333333,4,2,1,30,0,0
224597,-83.3333333333333,4,2,1,20,0,0
224954,-83.3333333333333,4,1,1,40,0,0
225669,-90.9090909090909,4,2,1,50,0,1
236472,-90.9090909090909,4,2,1,20,0,0
236562,-90.9090909090909,4,2,1,50,0,1
247097,-111.111111111111,4,2,1,50,0,1
247365,-111.111111111111,4,2,1,20,0,1
247454,-142.857142857143,4,2,1,40,0,1
247722,-142.857142857143,4,2,1,20,0,1
247812,-166.666666666667,4,2,1,40,0,1
248079,-166.666666666667,4,2,1,20,0,1
248169,-200,4,2,1,40,0,1
248437,-200,4,2,1,20,0,1
248526,-100,4,1,1,35,0,0

[Colours]
Combo1 : 64,94,149
Combo2 : 209,46,136
Combo3 : 113,0,0

[HitObjects]
76,155,847,5,0,0:0:0:0:
67,242,1026,1,0,0:0:0:0:
144,204,1204,2,0,P|156:172|152:128,1,67.5000025749207,0|2,0:0|0:0,0:0:0:0:
228,228,1561,2,0,P|227:261|239:292,1,67.5000025749207
380,348,1919,5,2,0:0:0:0:
404,272,2097,1,0,0:0:0:0:
324,288,2276,1,0,0:0:0:0:
380,348,2455,1,0,0:0:0:0:
404,272,2633,2,0,L|416:204,1,67.5000025749208,0|2,0:0|0:0,0:0:0:0:
420,120,2990,1,2,0:0:0:0:
387,121,3079,1,0,0:0:0:0:
360,140,3168,1,0,0:0:0:0:
256,324,3347,5,2,0:0:0:0:
184,274,3526,1,0,0:0:0:0:
210,190,3704,1,0,0:0:0:0:
298,189,3883,1,0,0:0:0:0:
326,271,4062,1,0,0:0:0:0:
326,271,4240,6,0,P|360:272|400:264,1,67.5000025749207,2|0,0:0|0:0,0:0:0:0:
328,129,4597,2,0,P|310:157|298:189,1,67.5000025749207
210,190,4954,2,0,P|197:158|179:130,1,67.5000025749207,2|0,0:0|0:0,0:0:0:0:
117,268,5312,2,0,P|150:273|183:272,1,67.5000025749207
326,271,5669,6,0,B|372:248|413:271|413:271|428:212,1,135.000005149842,2|0,0:0|0:0,0:0:0:0:
440,144,6204,1,0,0:0:0:0:
456,56,6383,1,0,0:0:0:0:
440,144,6562,6,0,B|360:172|296:132|312:40|408:44|364:120,1,215.999993408203,2|2,1:0|1:0,0:0:0:0:
292,220,7097,5,4,0:0:0:0:
120,192,7276,1,0,0:0:0:0:
260,88,7454,1,8,0:0:0:0:
192,240,7633,2,0,P|156:272|104:280,1,90,4|0,0:0|0:0,0:0:0:0:
88,60,7990,5,2,0:0:0:0:
260,88,8169,1,8,0:0:0:0:
120,192,8347,2,0,P|72:200|23:180,1,90,4|0,0:0|0:0,0:0:0:0:
168,104,8704,5,2,0:0:0:0:
337,73,8883,1,8,0:0:0:0:
400,216,9062,2,0,B|392:248|376:264|336:264|312:240|312:240|288:264|248:264|224:248|216:224|217:190|240:168|280:192,1,270,4|8,3:0|3:0,0:0:0:0:
400,216,9776,5,0,0:0:0:0:
279,326,9954,2,0,P|192:300|152:224,1,180,4|8,0:0|0:0,0:0:0:0:
156,44,10490,1,0,0:0:0:0:
232,220,10669,2,0,P|324:232|260:128,1,270
112,192,11383,6,0,P|96:240|112:292,1,99.0000030212403,4|0,0:0|0:0,0:0:0:0:
400,192,11740,2,0,P|416:144|400:92,1,99.0000030212403,2|0,0:0|0:0,0:0:0:0:
256,336,12097,2,0,P|304:352|356:336,1,99.0000030212403,2|0,0:0|0:0,0:0:0:0:
256,48,12454,2,0,P|208:32|156:48,1,99.0000030212403,2|0,0:0|0:0,0:0:0:0:
256,236,12812,6,0,B|290:277|426:270|443:180|419:138|384:121|356:117|315:128|297:156|308:183|360:187,1,350.999983932496,4|0,0:0|0:0,0:0:0:0:
480,204,14062,1,2,0:0:0:0:
400,72,14240,6,0,B|328:48|276:76|256:108|244:144|244:144|232:192|140:192|136:128,1,337.5,2|0,0:0|0:0,0:0:0:0:
64,92,15669,6,0,L|44:200,1,99.0000030212403
184,192,16026,2,0,L|164:300,1,99.0000030212403
328,192,16383,2,0,L|348:300,1,99.0000030212403
448,92,16740,2,0,L|468:200,1,99.0000030212403
256,300,17097,6,0,P|216:296|188:304,2,66.0000020141602,2|0|0,0:0|0:0|0:0,0:0:0:0:
324,344,17454,2,0,P|364:348|392:340,2,66.0000020141602,2|0|0,0:0|0:0|0:0,0:0:0:0:
256,300,17812,1,0,0:0:0:0:
227,249,17931,1,0,0:0:0:0:
228,190,18050,1,0,0:0:0:0:
260,141,18169,1,0,0:0:0:0:
274,84,18288,1,0,0:0:0:0:
249,31,18407,1,0,0:0:0:0:
192,20,18526,6,0,B|140:8|108:36|108:36|144:48,1,99.0000030212403,4|0,0:0|1:0,0:0:0:0:
228,190,18883,2,0,B|280:202|312:174|312:174|302:170,1,99.0000030212403,4|0,0:0|1:0,0:0:0:0:
117,39,19240,2,0,P|104:96|116:136,1,99.0000030212403,2|0,0:0|1:0,0:0:0:0:
302,170,19597,2,0,P|315:113|303:73,1,99.0000030212403,2|0,0:0|1:0,0:0:0:0:
220,204,19954,5,0,0:0:0:0:
257,248,20073,1,0,0:0:0:0:
314,258,20192,1,0,0:0:0:0:
366,231,20312,1,0,0:0:0:0:
419,207,20431,1,0,0:0:0:0:
474,225,20550,1,0,0:0:0:0:
503,276,20669,2,0,B|504:356|504:356|488:336,1,99.0000030212403
408,132,21026,2,0,B|384:72|432:16|432:16|456:52,1,148.50000453186
444,35,21383,5,4,0:0:0:0:
474,225,21562,1,0,0:0:0:0:
448,255,21651,1,0,0:0:0:0:
411,264,21740,1,0,0:0:0:0:
256,192,21919,1,2,0:0:0:0:
395,89,22097,2,0,P|412:135|408:184,1,99.0000030212403,4|0,0:0|0:0,0:0:0:0:
260,304,22454,2,0,L|212:320,3,49.5000015106202
144,344,22812,5,4,0:0:0:0:
96,192,22990,1,0,0:0:0:0:
80,145,23079,1,0,0:0:0:0:
87,97,23168,1,0,0:0:0:0:
200,12,23347,1,2,0:0:0:0:
256,144,23526,2,0,P|208:156|162:140,1,99.0000030212403,4|0,0:0|0:0,0:0:0:0:
308,68,23883,1,0,0:0:0:0:
335,96,23972,1,0,0:0:0:0:
347,133,24061,1,0,0:0:0:0:
344,172,24150,1,0,0:0:0:0:
325,206,24240,5,0,0:0:0:0:
192,300,24419,2,0,L|176:352,1,36,8|0,3:0|0:0,0:0:0:0:
325,206,24954,5,0,0:0:0:0:
458,112,25133,2,0,L|474:60,1,36,8|0,3:0|0:0,0:0:0:0:
179,200,25669,5,4,0:0:0:0:
285,120,25847,1,0,0:0:0:0:
301,252,26026,1,8,0:0:0:0:
188,106,26204,5,0,0:0:0:0:
358,175,26383,1,2,0:0:0:0:
215,289,26562,1,0,1:0:0:0:
285,120,26740,1,8,0:0:0:0:
311,95,26829,1,0,0:0:0:0:
345,83,26918,1,0,0:0:0:0:
380,85,27007,1,0,0:0:0:0:
412,101,27097,6,0,P|452:156|396:256,1,180,4|8,0:0|0:0,0:0:0:0:
216,288,27633,1,0,0:0:0:0:
410,250,27812,1,0,0:0:0:0:
198,215,27990,1,0,1:0:0:0:
360,176,28169,1,8,0:0:0:0:
292,60,28347,1,0,0:0:0:0:
256,280,28526,6,0,L|232:376,1,90,2|0,0:0|0:0,0:0:0:0:
168,192,28883,2,0,L|72:168,1,90,8|0,0:0|0:0,0:0:0:0:
256,104,29240,2,0,L|280:8,1,90,2|0,0:0|0:0,0:0:0:0:
344,192,29597,2,0,L|440:216,1,90,8|0,0:0|0:0,0:0:0:0:
256,280,29954,6,0,B|232:368|232:368|180:368|176:308,1,180,2|8,0:0|0:0,0:0:0:0:
256,104,30490,1,0,0:0:0:0:
344,192,30669,1,2,0:0:0:0:
355,234,30758,1,0,0:0:0:0:
345,278,30847,1,0,0:0:0:0:
256,380,31026,1,8,0:0:0:0:
166,278,31204,1,0,0:0:0:0:
156,234,31293,1,0,0:0:0:0:
168,192,31383,2,0,P|180:152|168:100,1,90,2|0,0:0|0:0,0:0:0:0:
341,105,31740,2,0,P|331:149|344:192,1,90,8|0,0:0|0:0,0:0:0:0:
456,304,32097,5,2,0:0:0:0:
420,148,32276,1,0,0:0:0:0:
304,256,32454,1,8,0:0:0:0:
456,304,32633,1,0,0:0:0:0:
456,304,32722,1,0,0:0:0:0:
456,304,32812,6,0,P|474:258|465:203,1,90,2|0,0:0|0:0,0:0:0:0:
320,124,33169,1,8,0:0:0:0:
315,276,33347,1,0,0:0:0:0:
359,273,33436,1,0,0:0:0:0:
396,248,33525,1,2,0:0:0:0:
456,128,33704,2,0,L|414:48,1,90,0|8,0:0|0:0,0:0:0:0:
260,76,34062,5,0,0:0:0:0:
260,76,34151,1,0,0:0:0:0:
260,76,34240,2,0,L|304:160,1,90,2|0,0:0|0:0,0:0:0:0:
256,272,34597,2,0,L|212:188,1,90,8|0,0:0|0:0,0:0:0:0:
340,296,34954,2,0,P|312:344|268:356,1,90,2|0,0:0|0:0,0:0:0:0:
160,356,35312,1,8,0:0:0:0:
96,256,35490,1,0,0:0:0:0:
96,256,35579,1,0,0:0:0:0:
96,256,35669,6,0,L|52:172,1,90,2|0,0:0|0:0,0:0:0:0:
0,56,36026,1,8,0:0:0:0:
54,177,36204,1,0,0:0:0:0:
97,187,36293,1,0,0:0:0:0:
140,175,36382,1,2,0:0:0:0:
171,144,36471,1,0,0:0:0:0:
183,101,36561,1,0,0:0:0:0:
86,18,36740,2,0,P|78:62|96:103,1,90,8|0,0:0|0:0,0:0:0:0:
208,288,37097,6,0,B|232:360|304:352|304:352|300:280,1,180,2|8,0:0|0:0,0:0:0:0:
256,60,37633,1,0,0:0:0:0:
256,200,37812,1,2,0:0:0:0:
298,212,37901,1,0,0:0:0:0:
342,205,37990,2,0,P|364:163|361:109,1,90
256,60,38347,1,0,0:0:0:0:
256,60,38437,1,8,0:0:0:0:
256,60,38526,6,0,P|169:54|110:118,1,180,4|8,0:0|0:0,0:0:0:0:
136,328,39062,1,0,0:0:0:0:
92,335,39151,1,0,0:0:0:0:
51,319,39240,1,2,0:0:0:0:
111,118,39419,1,0,1:0:0:0:
100,256,39597,1,8,0:0:0:0:
76,44,39776,1,0,0:0:0:0:
119,36,39865,1,0,0:0:0:0:
160,52,39954,5,2,0:0:0:0:
256,192,40133,1,0,0:0:0:0:
213,200,40222,1,0,0:0:0:0:
172,184,40311,1,2,0:0:0:0:
312,124,40490,2,0,P|339:159|337:210,1,90,0|2,0:0|0:0,0:0:0:0:
220,112,40847,1,0,1:0:0:0:
360,44,41026,1,8,0:0:0:0:
341,202,41204,1,0,0:0:0:0:
204,252,41383,6,0,B|128:252|128:252|104:224,1,90,2|0,0:0|0:0,0:0:0:0:
308,132,41740,2,0,B|384:132|384:132|408:160,1,90,8|0,0:0|0:0,0:0:0:0:
205,339,42097,2,0,P|195:295|204:252,1,90,2|0,0:0|0:0,0:0:0:0:
306,44,42454,2,0,P|316:88|308:132,1,90,8|0,0:0|0:0,0:0:0:0:
205,339,42812,6,0,P|153:351|177:263,1,180,2|8,0:0|0:0,0:0:0:0:
336,264,43347,1,0,0:0:0:0:
167,262,43526,1,2,0:0:0:0:
146,222,43615,1,0,0:0:0:0:
142,177,43704,1,0,0:0:0:0:
154,134,43793,1,0,0:0:0:0:
181,98,43883,1,8,0:0:0:0:
360,96,44062,5,0,0:0:0:0:
360,96,44151,1,0,0:0:0:0:
360,96,44240,2,0,B|429:103|458:173|458:173|400:188,1,180,2|8,0:0|0:0,0:0:0:0:
86,316,44954,6,0,L|176:324,1,90,2|0,0:0|0:0,0:0:0:0:
425,316,45312,2,0,L|336:324,1,90,8|0,0:0|0:0,0:0:0:0:
104,192,45669,2,0,L|185:229,1,90,2|0,0:0|0:0,0:0:0:0:
408,192,46026,2,0,L|326:229,1,90,8|0,0:0|0:0,0:0:0:0:
152,88,46383,2,0,L|215:151,1,90,2|0,0:0|0:0,0:0:0:0:
360,88,46740,2,0,L|296:151,1,90,8|0,0:0|0:0,0:0:0:0:
18,319,47097,6,0,P|58:339|106:335,1,90,4|0,0:0|0:0,0:0:0:0:
138,307,47365,1,0,0:0:0:0:
173,279,47454,1,8,0:0:0:0:
216,269,47543,1,0,0:0:0:0:
260,280,47632,1,0,0:0:0:0:
294,308,47722,1,0,0:0:0:0:
336,328,47812,6,0,B|344:296|344:296|336:280|336:280|344:264|344:264|336:248|336:248|344:232|344:232|336:216|336:216|344:200|344:200|336:168,1,157.5,4|0,0:0|1:0,0:0:0:0:
316,112,48526,5,4,0:0:0:0:
277,108,48615,1,0,0:0:0:0:
239,105,48704,1,0,0:0:0:0:
201,102,48793,1,0,0:0:0:0:
163,99,48883,2,0,P|144:128|144:180,1,76.5000014591217,8|0,0:0|0:0,0:0:0:0:
348,284,49240,2,0,P|368:256|368:204,1,76.5000014591217,2|0,0:0|0:0,0:0:0:0:
208,240,49597,2,0,L|120:264,1,76.5000014591217,8|0,0:0|0:0,0:0:0:0:
304,144,49954,6,0,L|392:120,1,76.5000014591217,2|0,0:0|0:0,0:0:0:0:
424,264,50312,2,0,L|336:288,1,76.5000014591217,8|0,0:0|0:0,0:0:0:0:
208,240,50669,1,0,0:0:0:0:
280,64,50847,2,0,P|370:96|376:184,1,191.250003647804,2|0,0:0|0:0,0:0:0:0:
377,181,51383,5,4,0:0:0:0:
208,240,51562,1,0,0:0:0:0:
280,64,51740,2,0,L|348:16,1,76.5000014591217,8|0,0:0|0:0,0:0:0:0:
208,240,52097,2,0,L|276:192,1,76.5000014591217,2|0,0:0|0:0,0:0:0:0:
20,216,52454,2,0,L|88:168,1,76.5000014591217,8|0,0:0|0:0,0:0:0:0:
272,124,52812,6,0,P|324:144|344:200,1,114.750002188683,2|8,0:0|0:0,0:0:0:0:
344,268,53169,2,0,P|380:260|412:220,1,76.5000014591217,8|0,0:0|0:0,0:0:0:0:
400,60,53526,1,2,0:0:0:0:
212,52,53704,1,0,0:0:0:0:
188,82,53793,1,0,0:0:0:0:
179,118,53882,1,8,0:0:0:0:
185,156,53971,1,0,0:0:0:0:
206,188,54061,1,0,0:0:0:0:
237,209,54150,1,0,0:0:0:0:
276,216,54240,2,0,L|368:207,1,76.5000014591217,4|0,0:0|0:0,0:0:0:0:
400,60,54597,6,0,L|307:68,1,76.5000014591217,8|0,0:0|0:0,0:0:0:0:
276,216,54955,2,0,L|260:300,1,76.5000014591217,2|0,0:0|0:0,0:0:0:0:
404,216,55312,2,0,L|420:132,1,76.5000014591217,8|0,0:0|0:0,0:0:0:0:
276,216,55669,6,0,L|192:224,1,76.5000014591217,4|0,0:0|0:0,0:0:0:0:
24,132,56026,2,0,L|108:124,1,76.5000014591217,8|0,0:0|0:0,0:0:0:0:
200,224,56383,1,2,0:0:0:0:
336,112,56562,1,0,0:0:0:0:
373,109,56651,1,0,0:0:0:0:
409,122,56740,1,8,0:0:0:0:
438,147,56829,1,0,0:0:0:0:
455,181,56919,1,0,0:0:0:0:
457,219,57008,1,0,0:0:0:0:
445,255,57097,5,4,0:0:0:0:
368,364,57276,1,0,0:0:0:0:
300,248,57454,2,0,P|328:216|364:208,1,76.5000014591217,8|0,0:0|0:0,0:0:0:0:
256,320,57812,2,0,P|224:280|228:208,1,114.750002188683,2|0,0:0|0:0,0:0:0:0:
268,164,58169,2,0,P|217:173|160:128,1,114.750002188683,2|0,0:0|0:0,0:0:0:0:
172,68,58526,6,0,B|144:136|60:136|60:136|48:80|104:72,1,215.999993408203,4|0,0:0|0:0,0:0:0:0:
268,164,59240,5,8,0:0:0:0:
188,236,59419,1,0,0:0:0:0:
80,236,59597,1,8,0:0:0:0:
50,213,59686,1,0,0:0:0:0:
30,180,59775,1,0,0:0:0:0:
25,143,59864,1,0,0:0:0:0:
34,107,59954,5,4,0:0:0:0:
204,108,60133,2,0,P|175:142|120:148,1,99.0000030212403,0|8,0:0|0:0,0:0:0:0:
120,40,60490,5,0,0:0:0:0:
268,164,60669,1,2,0:0:0:0:
80,236,60847,1,0,0:0:0:0:
120,40,61026,1,8,0:0:0:0:
268,164,61204,1,0,0:0:0:0:
313,146,61293,1,0,0:0:0:0:
335,104,61382,1,4,0:0:0:0:
184,156,61562,1,0,0:0:0:0:
186,203,61651,1,0,0:0:0:0:
221,236,61740,1,8,0:0:0:0:
408,188,61919,5,0,0:0:0:0:
501,37,62097,1,2,0:0:0:0:
336,104,62276,1,0,0:0:0:0:
507,146,62454,1,8,0:0:0:0:
394,10,62633,1,0,0:0:0:0:
408,188,62812,6,0,L|397:288,1,99.0000030212403,4|0,0:0|0:0,0:0:0:0:
104,196,63169,2,0,L|115:96,1,99.0000030212403,8|0,0:0|0:0,0:0:0:0:
415,187,63526,2,0,L|403:292,1,99.0000030212403,2|0,0:0|0:0,0:0:0:0:
96,196,63883,2,0,L|108:91,1,99.0000030212403,8|0,0:0|0:0,0:0:0:0:
176,240,64240,6,0,P|96:288|12:224,1,198.000006042481,4|8,0:0|0:0,0:0:0:0:
107,97,64776,1,0,0:0:0:0:
275,115,64954,1,2,0:0:0:0:
283,163,65043,1,0,0:0:0:0:
264,208,65132,1,0,0:0:0:0:
224,237,65221,1,0,0:0:0:0:
175,239,65312,1,8,0:0:0:0:
208,60,65490,5,0,0:0:0:0:
208,60,65579,1,0,0:0:0:0:
208,60,65669,2,0,P|252:32|308:36,1,99.0000030212403,4|0,0:0|0:0,0:0:0:0:
303,204,66026,2,0,P|275:160|279:104,1,99.0000030212403,8|0,0:0|0:0,0:0:0:0:
368,256,66383,2,0,P|324:284|268:280,1,99.0000030212403,8|0,0:0|0:0,0:0:0:0:
208,60,66740,5,8,0:0:0:0:
366,151,66919,1,0,0:0:0:0:
209,242,67097,1,4,0:0:0:0:
321,60,67276,1,0,0:0:0:0:
479,151,67455,1,8,0:0:0:0:
322,242,67633,1,0,0:0:0:0:
208,60,67812,1,2,0:0:0:0:
159,57,67901,1,0,0:0:0:0:
115,80,67990,1,0,0:0:0:0:
89,121,68079,1,0,0:0:0:0:
87,170,68169,1,8,0:0:0:0:
260,356,68347,5,0,0:0:0:0:
260,356,68437,1,0,0:0:0:0:
260,356,68526,2,0,P|310:271|266:189,1,198.000006042481,4|8,0:0|0:0,0:0:0:0:
65,165,69062,1,0,0:0:0:0:
79,208,69151,1,0,0:0:0:0:
109,241,69240,1,2,0:0:0:0:
149,262,69329,1,0,0:0:0:0:
193,265,69419,5,0,0:0:0:0:
319,119,69597,1,8,0:0:0:0:
134,216,69776,1,0,0:0:0:0:
377,167,69954,1,4,0:0:0:0:
100,145,70133,1,0,0:0:0:0:
411,238,70311,1,4,0:0:0:0:
136,72,70490,2,0,P|64:72|16:136,1,148.50000453186,4|0,0:0|0:0,0:0:0:0:
18,127,70847,5,4,0:0:0:0:
48,280,71026,1,8,0:0:0:0:
100,144,71204,1,0,0:0:0:0:
100,144,71294,1,0,0:0:0:0:
100,144,71383,1,4,0:0:0:0:
91,350,71562,2,0,P|43:361|0:340,1,99.0000030212403,0|8,0:0|0:0,0:0:0:0:
100,144,71919,5,0,0:0:0:0:
208,76,72097,1,2,0:0:0:0:
276,188,72276,1,0,0:0:0:0:
166,254,72454,1,8,0:0:0:0:
100,144,72633,1,0,0:0:0:0:
89,101,72722,1,0,0:0:0:0:
99,58,72811,1,4,0:0:0:0:
276,188,72990,1,0,0:0:0:0:
287,231,73079,1,0,0:0:0:0:
277,274,73168,1,8,0:0:0:0:
36,268,73347,5,0,0:0:0:0:
100,144,73526,1,2,0:0:0:0:
176,260,73704,1,0,0:0:0:0:
20,276,73883,1,8,0:0:0:0:
84,152,74062,1,0,0:0:0:0:
160,268,74240,6,0,L|176:372,1,99.0000030212403,4|0,0:0|0:0,0:0:0:0:
352,116,74597,2,0,L|336:12,1,99.0000030212403,8|0,0:0|0:0,0:0:0:0:
160,268,74954,2,0,P|204:284|256:264,1,99.0000030212403,2|0,0:0|0:0,0:0:0:0:
352,116,75312,2,0,P|308:100|256:120,1,99.0000030212403,8|0,0:0|0:0,0:0:0:0:
160,268,75669,6,0,B|120:312|120:312|104:168,1,198.000006042481,4|8,0:0|0:0,0:0:0:0:
136,32,76204,1,0,0:0:0:0:
261,143,76383,1,2,0:0:0:0:
257,187,76472,1,0,0:0:0:0:
238,226,76561,1,0,0:0:0:0:
204,256,76650,1,0,0:0:0:0:
162,268,76740,1,8,0:0:0:0:
86,109,76919,5,0,0:0:0:0:
98,62,77008,1,0,0:0:0:0:
136,32,77097,1,4,0:0:0:0:
102,189,77276,1,0,0:0:0:0:
54,184,77365,1,0,0:0:0:0:
19,150,77454,1,8,0:0:0:0:
186,181,77633,1,0,0:0:0:0:
175,229,77722,1,0,0:0:0:0:
137,259,77811,1,2,0:0:0:0:
186,94,77990,1,0,0:0:0:0:
234,105,78079,1,0,0:0:0:0:
264,144,78168,1,8,0:0:0:0:
272,336,78347,6,0,L|384:320,1,99.0000030212403,0|2,0:0|0:0,0:0:0:0:
500,244,78704,1,0,0:0:0:0:
428,364,78883,1,8,0:0:0:0:
420,210,79062,1,0,0:0:0:0:
420,160,79151,1,0,0:0:0:0:
420,110,79240,1,0,0:0:0:0:
421,60,79329,1,0,0:0:0:0:
408,12,79419,2,0,L|407:129,1,99.0000030212403
416,292,79776,1,0,0:0:0:0:
256,352,79954,5,0,0:0:0:0:
208,363,80043,1,0,0:0:0:0:
162,346,80132,1,0,0:0:0:0:
134,307,80221,1,0,0:0:0:0:
132,258,80311,1,0,0:0:0:0:
256,72,80490,5,0,0:0:0:0:
298,48,80579,1,0,0:0:0:0:
345,57,80668,1,0,0:0:0:0:
376,94,80757,1,0,0:0:0:0:
376,142,80847,1,0,0:0:0:0:
345,180,80936,1,0,0:0:0:0:
298,188,81026,1,0,0:0:0:0:
251,202,81115,1,0,0:0:0:0:
202,194,81204,1,0,0:0:0:0:
163,164,81293,1,0,0:0:0:0:
132,104,81383,6,0,L|128:236,1,121.499996292114,4|0,0:0|0:0,0:0:0:0:
84,284,81740,6,0,P|127:299|176:280,1,94.499997116089,2|0,0:0|0:0,0:0:0:0:
224,232,82097,6,0,P|260:220|308:232,1,80.9999975280763,2|0,0:0|0:0,0:0:0:0:
368,272,82454,6,0,L|376:200,1,67.5,2|0,0:0|0:0,0:0:0:0:
384,132,82812,5,4,0:0:0:0:
256,32,82990,1,0,0:0:0:0:
256,32,83079,1,0,0:0:0:0:
256,32,83169,2,0,L|176:44,1,72,8|0,0:0|0:0,0:0:0:0:
80,144,83526,1,2,0:0:0:0:
112,16,83704,1,0,0:0:0:0:
112,16,83794,1,0,0:0:0:0:
112,16,83883,1,8,0:0:0:0:
152,180,84062,6,0,L|160:260,1,72,0|4,0:0|0:0,0:0:0:0:
256,364,84419,1,0,0:0:0:0:
256,364,84508,1,0,0:0:0:0:
256,364,84597,1,8,0:0:0:0:
352,252,84776,1,0,0:0:0:0:
352,252,84954,2,0,L|359:180,1,72,2|0,0:0|0:0,0:0:0:0:
256,84,85312,2,0,L|256:156,1,72,8|0,0:0|0:0,0:0:0:0:
256,364,85669,5,4,0:0:0:0:
352,252,85847,1,0,0:0:0:0:
352,252,85937,1,0,0:0:0:0:
352,252,86026,2,0,L|444:236,1,72,8|0,0:0|0:0,0:0:0:0:
488,324,86383,1,2,0:0:0:0:
352,252,86562,2,0,L|340:164,1,72,0|8,0:0|0:0,0:0:0:0:
160,132,86919,6,0,L|172:220,1,72,0|4,0:0|0:0,0:0:0:0:
344,180,87276,2,0,L|432:164,1,72,0|8,0:0|0:0,0:0:0:0:
428,28,87633,2,0,L|340:44,1,72,0|2,0:0|0:0,0:0:0:0:
416,168,87990,1,0,0:0:0:0:
416,168,88169,2,0,L|496:156,1,72,8|2,0:0|0:0,0:0:0:0:
356,328,88526,6,0,P|332:348|296:356,1,60,6|0,0:0|0:0,0:0:0:0:
246,364,88764,1,0,0:0:0:0:
192,340,88883,1,8,0:0:0:0:
156,293,89002,1,0,0:0:0:0:
146,235,89121,1,0,0:0:0:0:
232,220,89240,6,0,P|260:228|304:220,1,60,6|0,0:0|0:0,0:0:0:0:
348,208,89478,1,0,0:0:0:0:
401,183,89597,1,8,0:0:0:0:
427,130,89716,1,0,0:0:0:0:
412,73,89835,1,0,0:0:0:0:
340,28,89954,6,0,L|280:24,1,60,6|0,0:0|0:0,0:0:0:0:
220,24,90193,1,0,0:0:0:0:
166,48,90312,1,8,0:0:0:0:
141,101,90431,1,0,0:0:0:0:
155,158,90550,1,0,0:0:0:0:
240,192,90669,6,0,L|298:206,1,60,6|0,0:0|0:0,0:0:0:0:
355,225,90908,1,0,0:0:0:0:
398,264,91027,1,8,0:0:0:0:
405,322,91146,1,0,0:0:0:0:
374,372,91265,1,0,0:0:0:0:
272,372,91383,6,0,P|240:372|204:352,1,60,12|0,0:0|0:0,0:0:0:0:
172,320,91621,1,0,0:0:0:0:
150,264,91740,1,8,0:0:0:0:
128,208,91859,1,0,0:0:0:0:
107,152,91978,1,0,0:0:0:0:
136,60,92097,6,0,P|168:60|204:80,1,60,6|0,0:0|0:0,0:0:0:0:
236,112,92335,1,0,0:0:0:0:
258,168,92454,1,8,0:0:0:0:
280,224,92573,1,0,0:0:0:0:
301,280,92692,1,0,0:0:0:0:
464,360,92812,6,0,P|492:328|500:280,1,90,4|0,0:0|0:0,0:0:0:0:
436,80,93169,2,0,P|408:112|400:160,1,90,8|0,0:0|0:0,0:0:0:0:
464,360,93526,2,0,P|424:376|376:369,1,90,2|0,0:0|0:0,0:0:0:0:
256,284,93883,5,2,0:0:0:0:
199,264,94002,1,2,0:0:0:0:
142,283,94121,1,2,0:0:0:0:
88,304,94240,6,0,B|28:257|51:180|82:101|6:56,1,269.999991760254,4|0,0:0|0:0,0:0:0:0:
88,128,95312,2,0,L|144:116,1,53.9999983520508,2|0,0:0|0:0,0:0:0:0:
232,96,95669,6,0,P|216:176|148:212,1,161.999995056153,2|0,0:0|0:0,0:0:0:0:
72,252,96383,2,0,P|148:300|216:268,1,161.999995056153,2|0,0:0|0:0,0:0:0:0:
276,208,97097,6,0,P|350:184|412:236,1,161.999995056153,2|0,0:0|0:0,0:0:0:0:
332,316,97812,2,0,L|336:256,1,53.9999983520508,2|0,0:0|0:0,0:0:0:0:
279,154,98169,2,0,L|276:208,1,53.9999983520508,2|0,0:0|0:0,0:0:0:0:
336,88,98526,2,0,P|288:64|228:84,1,107.999996704102,2|0,0:0|0:0,0:0:0:0:
184,144,99062,1,0,0:0:0:0:
184,144,99240,1,2,0:0:0:0:
252,328,99597,5,2,0:0:0:0:
252,328,99775,1,0,0:0:0:0:
156,344,99954,2,0,B|100:344|80:304|80:304|80:232,1,161.999995056153,2|0,0:0|0:0,0:0:0:0:
80,140,100669,2,0,L|20:152,1,53.9999983520508,2|0,0:0|0:0,0:0:0:0:
80,140,101026,2,0,L|132:129,1,53.9999983520508,2|0,0:0|0:0,0:0:0:0:
256,108,101383,6,0,B|292:108|320:64|320:64|316:116|352:136,1,161.999995056153,2|0,0:0|0:0,0:0:0:0:
440,152,102097,2,0,P|384:220|316:220,1,161.999995056153,2|0,0:0|0:0,0:0:0:0:
216,176,102812,6,0,L|156:148,1,53.9999983520508,2|0,0:0|0:0,0:0:0:0:
184,252,103169,2,0,L|156:304,1,53.9999983520508,2|0,0:0|0:0,0:0:0:0:
256,276,103526,2,0,L|316:304,1,53.9999983520508,2|0,0:0|0:0,0:0:0:0:
288,204,103883,2,0,L|316:152,1,53.9999983520508,2|0,0:0|0:0,0:0:0:0:
395,102,104240,6,0,P|403:177|281:199,1,215.999993408203,2|0,0:0|0:0,0:0:0:0:
76,43,105669,6,0,B|58:82|64:110|64:110|133:143|129:235|52:246|52:246|21:197|68:170,1,337.500012874604,4|0,0:0|0:0,0:0:0:0:
164,108,106740,1,2,0:0:0:0:
256,192,106919,1,0,1:0:0:0:
256,192,107008,1,0,1:0:0:0:
256,192,107097,6,0,B|292:208|312:196|312:196|300:132|404:104|416:168|352:192,1,216,4|0,0:0|1:0,0:0:0:0:
256,192,107812,2,0,P|216:196|184:184,1,72,2|0,0:0|0:0,0:0:0:0:
108,96,108169,2,0,L|96:184,1,72,8|0,0:0|0:0,0:0:0:0:
40,308,108526,6,0,B|64:376|160:376|180:292|180:292|204:240|264:312|196:336,1,306.000005836487,4|0,0:0|0:0,0:0:0:0:
60,192,109597,1,8,0:0:0:0:
176,184,109776,1,0,1:0:0:0:
176,184,109865,1,0,1:0:0:0:
176,184,109954,6,0,P|216:180|252:152,1,80.9999975280763,4|0,0:0|0:0,0:0:0:0:
320,16,110312,2,0,P|280:20|244:48,1,80.9999975280763,8|0,0:0|0:0,0:0:0:0:
176,184,110669,1,2,0:0:0:0:
164,236,110788,1,0,1:0:0:0:
180,287,110907,1,0,1:0:0:0:
219,323,111026,1,8,0:0:0:0:
271,336,111145,1,0,1:0:0:0:
322,321,111264,1,0,1:0:0:0:
356,280,111383,6,0,P|409:245|509:293,2,170.999995433807,4|8|2,0:0|0:0|0:0,0:0:0:0:
188,76,112454,6,0,P|152:104|136:152,1,85.4999977169037,8|0,0:0|0:0,0:0:0:0:
324,315,112812,2,0,P|357:290|375:252,1,85.4999977169037,2|0,0:0|0:0,0:0:0:0:
137,252,113169,2,0,P|154:290|187:315,1,85.4999977169037,8|0,0:0|0:0,0:0:0:0:
374,139,113527,2,0,P|357:101|324:76,1,85.4999977169037,2|0,0:0|0:0,0:0:0:0:
256,192,113883,2,0,L|256:296,1,85.4999977169037,8|0,0:0|0:0,0:0:0:0:
105,276,114240,6,0,P|177:212|257:284,1,216,4|0,0:0|0:0,0:0:0:0:
105,276,114954,2,0,B|34:226|66:151|66:151|99:148|148:130,1,216,2|0,0:0|0:0,0:0:0:0:
260,124,115669,6,0,B|308:128|332:76|332:76|360:128|408:124|408:124|452:152|424:180|412:200|348:188,1,314.999990386963,4|0,0:0|0:0,0:0:0:0:
260,124,116740,2,0,P|224:128|200:144,1,62.9999980773926,2|0,0:0|0:0,0:0:0:0:
55,225,117097,6,0,B|8:225|-16:262|0:313|52:381|154:262|154:262|257:416|359:262|359:262|462:381|513:313|530:262|506:225|459:225,1,809.999975280762,4|0,0:0|0:0,0:0:0:0:
368,160,119954,6,0,L|316:120,2,60,2|0|0,0:0|0:0|0:0,0:0:0:0:
300,220,120312,2,0,L|256:268,2,60,2|0|0,0:0|0:0|0:0,0:0:0:0:
188,212,120669,2,0,L|136:172,2,60,2|0|0,0:0|0:0|0:0,0:0:0:0:
120,272,121027,2,0,L|76:320,2,60,2|0|0,0:0|0:0|0:0,0:0:0:0:
188,212,121383,1,2,0:0:0:0:
188,212,122097,6,0,B|260:236|320:208|320:152|320:152|312:96|260:84|216:96|228:168|288:152,1,323.999990112305,4|0,0:0|0:0,0:0:0:0:
392,264,122812,5,4,0:0:0:0:
312,336,122990,1,0,0:0:0:0:
312,336,123079,1,0,0:0:0:0:
312,336,123169,2,0,P|268:352|220:340,1,90,8|0,0:0|0:0,0:0:0:0:
196,324,123437,1,0,0:0:0:0:
180,292,123526,1,2,0:0:0:0:
156,144,123704,1,0,0:0:0:0:
264,248,123883,1,8,0:0:0:0:
264,248,123972,1,0,0:0:0:0:
264,248,124062,1,0,0:0:0:0:
112,228,124240,5,4,0:0:0:0:
16,120,124419,1,0,0:0:0:0:
156,144,124597,1,8,0:0:0:0:
20,208,124776,1,0,0:0:0:0:
20,208,124865,1,0,0:0:0:0:
20,208,124954,1,2,0:0:0:0:
192,216,125133,1,0,0:0:0:0:
88,104,125312,2,0,L|76:8,1,90,8|0,0:0|0:0,0:0:0:0:
156,144,125669,5,2,0:0:0:0:
148,288,125847,1,0,0:0:0:0:
148,288,125937,1,0,0:0:0:0:
148,288,126026,1,8,0:0:0:0:
272,212,126204,1,2,0:0:0:0:
310,189,126293,1,0,0:0:0:0:
355,186,126382,1,0,0:0:0:0:
396,204,126471,1,0,0:0:0:0:
424,236,126562,2,0,L|438:334,1,90,0|8,0:0|0:0,0:0:0:0:
260,352,126919,1,4,0:0:0:0:
424,236,127097,6,0,P|468:156|428:80,1,180,4|0,0:0|0:0,0:0:0:0:
256,40,127633,1,0,0:0:0:0:
224,196,127812,1,4,0:0:0:0:
209,237,127901,1,0,0:0:0:0:
175,266,127990,1,0,0:0:0:0:
131,272,128079,1,0,0:0:0:0:
90,255,128169,1,8,0:0:0:0:
63,219,128258,1,0,0:0:0:0:
60,174,128347,1,0,0:0:0:0:
56,130,128436,1,0,0:0:0:0:
52,85,128526,6,0,P|104:64|180:104,1,135.000005149842,4|0,0:0|0:0,0:0:0:0:
296,200,129062,1,0,0:0:0:0:
296,294,129240,1,2,0:0:0:0:
214,247,129419,1,0,0:0:0:0:
216,340,129597,1,8,0:0:0:0:
296,294,129776,1,0,0:0:0:0:
296,200,129954,6,0,P|324:172|332:132,1,67.5000025749208,2|0,0:0|0:0,0:0:0:0:
256,28,130312,2,0,P|228:56|220:96,1,67.5000025749208,0|0,0:0|0:0,0:0:0:0:
296,200,130669,2,0,L|372:232,1,67.5000025749208,2|0,0:0|0:0,0:0:0:0:
416,344,131026,2,0,L|353:317,1,67.5000025749208,8|0,0:0|0:0,0:0:0:0:
296,200,131383,6,0,L|324:128,2,67.5000025749208,2|0|0,0:0|0:0|0:0,0:0:0:0:
256,336,131919,1,0,0:0:0:0:
120,292,132097,2,0,L|36:304,1,67.5000025749208,8|0,0:0|0:0,0:0:0:0:
144,192,132454,2,0,L|228:180,1,67.5000025749208,8|0,0:0|0:0,0:0:0:0:
308,272,132812,1,0,1:0:0:0:
408,356,132990,2,0,L|492:344,2,67.5000025749208,0|2|0,0:0|0:0|0:0,0:0:0:0:
308,272,133526,5,2,0:0:0:0:
180,344,133704,1,0,0:0:0:0:
256,216,133883,1,0,0:0:0:0:
267,184,133972,1,0,0:0:0:0:
267,150,134061,1,0,0:0:0:0:
256,119,134150,1,0,0:0:0:0:
235,93,134240,6,0,L|144:84,1,90,4|0,0:0|0:0,0:0:0:0:
40,192,134597,1,8,0:0:0:0:
145,299,134776,1,0,0:0:0:0:
188,311,134865,1,0,0:0:0:0:
232,303,134954,1,0,0:0:0:0:
267,275,135043,1,0,0:0:0:0:
288,232,135133,2,0,L|298:129,1,90,0|8,0:0|0:0,0:0:0:0:
416,36,135490,5,0,0:0:0:0:
416,36,135579,1,0,0:0:0:0:
416,36,135669,2,0,L|406:139,1,90,4|0,0:0|0:0,0:0:0:0:
288,232,136026,2,0,B|212:244|212:244|200:232,1,90,8|0,0:0|0:0,0:0:0:0:
120,108,136383,2,0,B|196:96|196:96|208:108,1,90,2|0,0:0|0:0,0:0:0:0:
288,232,136740,1,8,0:0:0:0:
52,140,136919,5,0,0:0:0:0:
52,140,137008,1,0,0:0:0:0:
52,140,137097,2,0,P|44:99|71:46,1,90,2|0,0:0|0:0,0:0:0:0:
192,40,137454,1,8,0:0:0:0:
216,208,137633,1,0,0:0:0:0:
255,228,137722,1,0,0:0:0:0:
299,228,137812,1,2,0:0:0:0:
338,206,137900,1,0,0:0:0:0:
361,168,137990,1,0,0:0:0:0:
468,12,138169,2,0,P|492:48|492:100,1,90,8|0,0:0|0:0,0:0:0:0:
476,228,138526,5,2,0:0:0:0:
441,237,138615,1,0,0:0:0:0:
406,230,138704,1,0,0:0:0:0:
377,209,138793,1,0,0:0:0:0:
359,178,138883,1,8,0:0:0:0:
360,16,139062,1,0,1:0:0:0:
360,180,139240,1,2,0:0:0:0:
342,211,139330,1,0,0:0:0:0:
313,231,139419,1,0,0:0:0:0:
278,238,139508,1,0,0:0:0:0:
243,229,139597,1,8,0:0:0:0:
140,68,139776,5,0,0:0:0:0:
140,68,139865,1,0,0:0:0:0:
140,68,139954,2,0,P|224:96|288:172,1,180,4|8,0:0|0:0,0:0:0:0:
320,308,140490,2,0,P|276:320|224:300,1,90,2|0,0:0|0:0,0:0:0:0:
132,192,140847,5,0,0:0:0:0:
284,164,141026,1,8,0:0:0:0:
236,308,141204,1,0,0:0:0:0:
132,192,141383,1,2,0:0:0:0:
122,157,141472,1,0,0:0:0:0:
124,121,141561,1,0,0:0:0:0:
138,88,141650,1,0,0:0:0:0:
162,61,141740,1,8,0:0:0:0:
284,164,141919,5,0,0:0:0:0:
332,346,142097,1,2,0:0:0:0:
400,170,142276,1,0,0:0:0:0:
242,273,142454,1,8,0:0:0:0:
431,283,142633,1,0,0:0:0:0:
284,164,142812,2,0,P|209:202|252:277,1,180,2|8,0:0|0:0,0:0:0:0:
400,168,143347,5,0,0:0:0:0:
400,168,143437,1,0,0:0:0:0:
400,168,143526,2,0,L|412:64,1,90,2|0,0:0|0:0,0:0:0:0:
112,216,143883,2,0,L|100:320,1,90,8|0,0:0|0:0,0:0:0:0:
400,168,144240,6,0,P|312:160|260:232,1,180,2|8,0:0|0:0,0:0:0:0:
472,224,144776,1,0,0:0:0:0:
484,190,144865,1,0,0:0:0:0:
483,154,144954,1,8,0:0:0:0:
470,121,145043,1,0,0:0:0:0:
446,94,145133,1,0,0:0:0:0:
414,78,145222,1,0,0:0:0:0:
378,75,145311,1,8,0:0:0:0:
346,228,145490,1,0,0:0:0:0:
256,356,145669,5,2,0:0:0:0:
220,360,145758,1,0,0:0:0:0:
185,353,145847,1,0,0:0:0:0:
154,335,145936,1,0,0:0:0:0:
130,308,146026,2,0,P|108:272|104:224,1,90,8|0,0:0|0:0,0:0:0:0:
156,60,146383,6,0,P|164:104|204:140,1,90,2|0,0:0|0:0,0:0:0:0:
356,324,146740,2,0,P|348:280|308:244,1,90,8|0,0:0|0:0,0:0:0:0:
124,292,147097,2,0,P|167:284|199:253,1,90,2|0,0:0|0:0,0:0:0:0:
387,91,147454,2,0,P|344:99|312:130,1,90,8|0,0:0|0:0,0:0:0:0:
356,324,147812,2,0,L|364:224,1,90,2|0,0:0|0:0,0:0:0:0:
316,40,148169,2,0,L|312:140,1,90,8|0,0:0|0:0,0:0:0:0:
356,324,148526,6,0,P|316:344|268:340,1,90,4|0,0:0|0:0,0:0:0:0:
240,320,148794,1,0,0:0:0:0:
217,291,148883,1,8,0:0:0:0:
195,263,148972,1,0,0:0:0:0:
173,235,149061,1,0,0:0:0:0:
150,206,149151,1,0,0:0:0:0:
128,178,149240,5,4,0:0:0:0:
260,40,149419,1,0,0:0:0:0:
260,40,149508,1,0,0:0:0:0:
260,40,149597,2,0,L|276:120,1,67.5,8|0,0:0|0:0,0:0:0:0:
284,152,149954,5,0,0:0:0:0:
288,189,150043,1,0,0:0:0:0:
274,224,150132,1,0,0:0:0:0:
243,246,150221,1,0,0:0:0:0:
206,250,150312,2,0,L|104:252,1,76.5000014591217,8|0,0:0|0:0,0:0:0:0:
305,133,150669,2,0,L|408:132,1,76.5000014591217,2|0,0:0|0:0,0:0:0:0:
197,142,151026,2,0,L|196:40,1,76.5000014591217,8|0,0:0|0:0,0:0:0:0:
314,241,151383,6,0,L|316:344,1,76.5000014591217,4|0,0:0|0:0,0:0:0:0:
424,192,151740,2,0,L|422:89,1,76.5000014591217,8|0,0:0|0:0,0:0:0:0:
256,40,152097,1,2,0:0:0:0:
286,198,152276,2,0,P|356:223|424:192,1,153.000002918243,4|0,0:0|0:0,0:0:0:0:
472,36,152812,5,2,0:0:0:0:
380,32,152991,1,0,0:0:0:0:
412,116,153169,2,0,L|428:212,1,76.5000014591217,8|0,0:0|0:0,0:0:0:0:
356,340,153526,2,0,L|340:244,1,76.5000014591217,2|0,0:0|0:0,0:0:0:0:
224,152,153883,2,0,L|240:248,1,76.5000014591217,8|0,0:0|0:0,0:0:0:0:
312,112,154240,6,0,L|296:16,1,76.5000014591217,4|0,0:0|0:0,0:0:0:0:
228,64,154508,1,0,0:0:0:0:
228,64,154598,2,0,P|188:76|148:64,1,76.5000014591217,8|0,0:0|0:0,0:0:0:0:
20,20,154954,1,2,0:0:0:0:
76,144,155133,1,0,0:0:0:0:
95,177,155222,1,0,0:0:0:0:
105,213,155311,1,8,0:0:0:0:
107,251,155400,1,0,0:0:0:0:
99,289,155490,1,0,0:0:0:0:
83,323,155579,1,0,0:0:0:0:
59,353,155669,2,0,L|156:356,1,76.5000014591217,4|0,0:0|0:0,0:0:0:0:
344,340,156026,6,0,P|352:296|340:256,1,76.5000014591217,8|0,0:0|0:0,0:0:0:0:
292,208,156294,1,0,0:0:0:0:
292,208,156383,2,0,L|368:168,1,76.5000014591217,2|0,0:0|0:0,0:0:0:0:
480,116,156740,1,8,0:0:0:0:
480,116,156829,1,0,0:0:0:0:
480,116,156919,1,0,0:0:0:0:
324,48,157097,5,4,0:0:0:0:
332,52,157186,1,0,0:0:0:0:
332,52,157276,1,0,0:0:0:0:
192,204,157454,1,0,0:0:0:0:
195,241,157543,1,0,0:0:0:0:
214,274,157632,1,0,0:0:0:0:
244,298,157721,1,0,0:0:0:0:
281,307,157811,5,0,0:0:0:0:
318,301,157900,1,0,0:0:0:0:
352,272,157990,1,0,0:0:0:0:
369,238,158079,1,0,0:0:0:0:
403,221,158168,5,0,0:0:0:0:
440,226,158257,1,0,0:0:0:0:
468,251,158347,1,0,0:0:0:0:
477,287,158436,1,0,0:0:0:0:
463,323,158525,5,0,0:0:0:0:
276,228,158705,1,0,0:0:0:0:
324,100,158883,2,0,P|325:62|305:30,1,76.5000014591217,8|0,0:0|0:0,0:0:0:0:
172,113,159241,2,0,P|170:169|208:213,1,114.750002188683,2|0,0:0|0:0,0:0:0:0:
276,229,159597,2,0,L|400:213,1,114.750002188683,8|0,0:0|0:0,0:0:0:0:
408,285,159954,6,0,P|332:253|396:141,1,215.999993408203,4|0,0:0|0:0,0:0:0:0:
192,356,160669,5,8,0:0:0:0:
96,284,160848,1,0,0:0:0:0:
256,296,161026,1,8,0:0:0:0:
290,281,161115,1,0,0:0:0:0:
314,252,161204,1,0,0:0:0:0:
323,216,161293,1,0,0:0:0:0:
315,180,161383,5,4,0:0:0:0:
256,296,161562,2,0,P|288:328|344:332,1,99.0000030212403,0|8,0:0|0:0,0:0:0:0:
488,192,161919,5,0,0:0:0:0:
320,84,162097,1,2,0:0:0:0:
252,244,162275,1,0,0:0:0:0:
404,140,162454,1,8,0:0:0:0:
212,84,162632,1,0,0:0:0:0:
168,88,162722,1,0,0:0:0:0:
132,116,162812,1,2,0:0:0:0:
172,276,162990,1,0,0:0:0:0:
216,272,163080,1,0,0:0:0:0:
252,244,163168,1,8,0:0:0:0:
212,84,163347,5,0,0:0:0:0:
100,212,163525,1,2,0:0:0:0:
284,152,163704,1,0,0:0:0:0:
136,48,163882,1,8,0:0:0:0:
188,200,164061,1,0,0:0:0:0:
300,64,164240,6,0,P|348:56|400:68,1,99.0000030212403,4|0,0:0|0:0,0:0:0:0:
212,320,164597,2,0,P|164:328|112:316,1,99.0000030212403,8|0,0:0|0:0,0:0:0:0:
300,64,164954,2,0,P|311:112|303:160,1,99.0000030212403,2|0,0:0|0:0,0:0:0:0:
212,320,165312,2,0,P|202:271|210:223,1,99.0000030212403,8|0,0:0|0:0,0:0:0:0:
212,320,165669,6,0,P|139:346|69:255,1,198.000006042481,4|8,0:0|0:0,0:0:0:0:
160,120,166204,1,0,0:0:0:0:
268,248,166383,1,2,0:0:0:0:
302,248,166472,1,0,0:0:0:0:
334,236,166561,1,0,0:0:0:0:
361,214,166650,1,0,0:0:0:0:
378,185,166740,1,8,0:0:0:0:
252,84,166918,5,0,0:0:0:0:
252,84,167007,1,0,0:0:0:0:
252,84,167097,2,0,P|263:134|305:171,1,99.0000030212403,4|0,0:0|0:0,0:0:0:0:
444,132,167454,2,0,P|400:104|344:108,1,99.0000030212403,8|0,0:0|0:0,0:0:0:0:
188,172,167812,2,0,P|150:207|140:263,1,99.0000030212403,2|0,0:0|0:0,0:0:0:0:
256,352,168168,1,8,0:0:0:0:
384,200,168347,1,0,0:0:0:0:
188,172,168526,5,4,0:0:0:0:
375,311,168704,1,0,0:0:0:0:
511,149,168883,1,8,0:0:0:0:
302,119,169061,1,0,0:0:0:0:
160,280,169240,1,2,0:0:0:0:
125,284,169329,1,0,0:0:0:0:
94,276,169418,1,0,0:0:0:0:
63,258,169507,1,0,0:0:0:0:
43,230,169597,1,8,0:0:0:0:
0,68,169775,5,0,0:0:0:0:
0,68,169865,1,0,0:0:0:0:
0,68,169954,2,0,P|84:8|164:44,1,198.000006042481,4|8,0:0|0:0,0:0:0:0:
287,188,170490,1,0,0:0:0:0:
324,203,170579,1,0,0:0:0:0:
363,203,170668,1,2,0:0:0:0:
400,188,170757,1,0,0:0:0:0:
427,160,170847,1,0,0:0:0:0:
256,20,171025,1,8,0:0:0:0:
204,224,171204,1,0,0:0:0:0:
340,68,171382,5,4,0:0:0:0:
120,40,171561,1,0,0:0:0:0:
288,188,171739,1,8,0:0:0:0:
256,20,171919,2,0,P|212:64|228:152,1,148.50000453186,4|0,0:0|0:0,0:0:0:0:
221,144,172276,5,4,0:0:0:0:
288,264,172454,1,8,0:0:0:0:
388,316,172632,1,0,0:0:0:0:
432,324,172722,1,0,0:0:0:0:
472,304,172811,1,4,0:0:0:0:
380,192,172990,1,0,0:0:0:0:
272,260,173169,1,8,0:0:0:0:
400,305,173347,5,0,0:0:0:0:
364,186,173525,1,2,0:0:0:0:
274,276,173704,1,0,0:0:0:0:
440,236,173882,1,8,0:0:0:0:
480,112,174062,1,0,0:0:0:0:
491,69,174151,1,0,0:0:0:0:
486,25,174240,1,2,0:0:0:0:
370,99,174419,1,0,0:0:0:0:
359,142,174508,1,0,0:0:0:0:
364,186,174597,1,8,0:0:0:0:
488,252,174776,5,0,0:0:0:0:
480,112,174955,1,2,0:0:0:0:
364,186,175133,1,0,0:0:0:0:
264,280,175312,1,8,0:0:0:0:
395,321,175491,1,0,0:0:0:0:
365,186,175669,6,0,P|332:156|276:144,1,99.0000030212403,2|0,0:0|0:0,0:0:0:0:
183,329,176026,2,0,P|225:316|265:275,1,99.0000030212403,8|0,0:0|0:0,0:0:0:0:
136,124,176383,2,0,P|136:168|165:217,1,99.0000030212403,2|0,0:0|0:0,0:0:0:0:
224,56,176740,2,0,P|191:26|135:14,1,99.0000030212403,8|0,0:0|0:0,0:0:0:0:
224,148,177097,6,0,P|292:120|296:0,1,198.000006042481,4|8,0:0|0:0,0:0:0:0:
224,148,177633,1,0,0:0:0:0:
256,304,177812,1,2,0:0:0:0:
295,306,177901,1,0,0:0:0:0:
332,293,177990,1,0,0:0:0:0:
362,268,178079,1,0,0:0:0:0:
381,233,178169,1,8,0:0:0:0:
364,104,178347,5,0,0:0:0:0:
332,66,178436,1,0,0:0:0:0:
286,48,178525,1,4,0:0:0:0:
147,93,178704,1,0,0:0:0:0:
178,130,178793,1,0,0:0:0:0:
224,148,178882,1,8,0:0:0:0:
364,104,179062,1,0,0:0:0:0:
401,136,179151,1,0,0:0:0:0:
419,181,179240,1,2,0:0:0:0:
375,321,179419,1,0,0:0:0:0:
338,290,179508,1,0,0:0:0:0:
320,244,179597,1,8,0:0:0:0:
364,104,179776,6,0,P|320:84|260:96,1,99.0000030212403,0|2,0:0|0:0,0:0:0:0:
164,208,180133,1,0,0:0:0:0:
320,244,180312,1,8,0:0:0:0:
224,148,180490,1,0,0:0:0:0:
190,127,180579,1,0,0:0:0:0:
151,124,180668,1,2,0:0:0:0:
114,139,180757,1,0,0:0:0:0:
88,168,180847,2,0,P|76:216|100:268,1,99.0000030212403,0|8,0:0|0:0,0:0:0:0:
244,292,181204,1,0,0:0:0:0:
320,160,181383,5,4,0:0:0:0:
358,166,181472,1,0,0:0:0:0:
390,189,181561,1,0,0:0:0:0:
406,225,181650,1,0,0:0:0:0:
405,264,181740,1,8,0:0:0:0:
244,292,181919,1,0,0:0:0:0:
207,276,182008,1,0,0:0:0:0:
168,277,182097,1,8,0:0:0:0:
132,293,182186,1,0,0:0:0:0:
99,314,182276,1,0,0:0:0:0:
61,326,182365,1,0,0:0:0:0:
23,318,182454,1,8,0:0:0:0:
0,290,182543,1,0,0:0:0:0:
0,253,182633,1,0,0:0:0:0:
0,214,182722,1,0,0:0:0:0:
16,185,182812,6,0,P|52:136|52:68,1,121.499996292114,4|0,0:0|0:0,0:0:0:0:
0,36,183169,6,0,P|43:47|108:20,1,94.499997116089,2|0,0:0|0:0,0:0:0:0:
160,16,183526,6,0,P|200:16|236:36,1,80.9999975280763,2|0,0:0|0:0,0:0:0:0:
284,88,183883,6,0,P|315:94|356:88,1,67.5,2|0,0:0|0:0,0:0:0:0:
350,89,184241,5,4,0:0:0:0:
377,237,184419,2,0,B|322:341|189:341|164:192|180:161|256:116|331:161|347:192|322:341|189:341|134:237,1,585,2|0,0:0|0:0,0:0:0:0:
148,164,185669,6,0,P|212:104|312:116,1,180,4|2,0:0|0:0,0:0:0:0:
256,360,186383,2,0,P|212:372|160:356,1,90,4|0,0:0|0:0,0:0:0:0:
112,228,186740,1,8,0:0:0:0:
256,252,186919,1,0,0:0:0:0:
256,252,187008,1,0,0:0:0:0:
256,252,187097,2,0,P|300:264|352:248,1,90,4|2,0:0|0:0,0:0:0:0:
342,253,187365,5,2,0:0:0:0:
342,253,187454,1,2,0:0:0:0:
480,188,187633,1,2,0:0:0:0:
480,188,187722,1,2,0:0:0:0:
480,188,187811,1,2,0:0:0:0:
408,52,187990,1,2,0:0:0:0:
408,52,188079,1,2,0:0:0:0:
408,52,188168,1,2,0:0:0:0:
269,118,188347,1,2,0:0:0:0:
343,253,188526,6,0,L|392:344,1,90,6|0,0:0|0:0,0:0:0:0:
372,158,188883,1,8,0:0:0:0:
232,216,189062,1,0,0:0:0:0:
363,142,189240,1,2,0:0:0:0:
240,231,189419,1,0,0:0:0:0:
349,127,189597,1,8,0:0:0:0:
254,246,189776,1,0,0:0:0:0:
330,116,189954,1,2,0:0:0:0:
273,257,190133,1,0,0:0:0:0:
306,110,190312,1,8,0:0:0:0:
296,264,190491,5,0,0:0:0:0:
296,264,190579,1,0,0:0:0:0:
296,264,190669,1,2,0:0:0:0:
280,112,190847,2,0,P|192:132|148:212,1,180,4|2,0:0|0:0,0:0:0:0:
280,112,191383,6,0,L|280:8,1,90,2|0,0:0|0:0,0:0:0:0:
280,22,191651,1,0,0:0:0:0:
280,22,191740,1,8,0:0:0:0:
176,188,191919,1,0,0:0:0:0:
292,236,192097,1,2,0:0:0:0:
280,112,192276,1,0,0:0:0:0:
280,112,192365,1,0,0:0:0:0:
280,112,192454,1,8,0:0:0:0:
176,188,192633,1,0,0:0:0:0:
260,340,192812,6,0,L|356:324,1,90,4|0,0:0|0:0,0:0:0:0:
416,212,193079,2,0,L|312:228,1,90,4|0,0:0|0:0,0:0:0:0:
280,112,193347,2,0,L|184:124,1,90,4|0,0:0|0:0,0:0:0:0:
144,356,193704,2,0,P|216:316|232:212,1,180,4|0,0:0|0:0,0:0:0:0:
92,112,194240,5,4,0:0:0:0:
93,156,194329,1,0,0:0:0:0:
109,198,194418,1,0,0:0:0:0:
138,233,194507,1,0,0:0:0:0:
176,256,194597,1,8,0:0:0:0:
219,267,194686,1,0,0:0:0:0:
264,263,194775,1,0,0:0:0:0:
305,245,194864,1,0,0:0:0:0:
338,215,194954,5,2,0:0:0:0:
365,180,195043,1,0,0:0:0:0:
406,162,195132,1,0,0:0:0:0:
450,167,195221,1,0,0:0:0:0:
486,193,195311,1,8,0:0:0:0:
505,233,195400,1,0,0:0:0:0:
501,278,195489,1,0,0:0:0:0:
476,314,195579,1,0,0:0:0:0:
438,339,195669,5,4,0:0:0:0:
394,342,195757,1,0,0:0:0:0:
349,335,195846,1,0,0:0:0:0:
306,324,195936,1,0,0:0:0:0:
261,316,196025,1,8,0:0:0:0:
217,315,196114,1,0,0:0:0:0:
173,325,196203,1,0,0:0:0:0:
135,349,196294,1,0,0:0:0:0:
93,364,196383,5,2,0:0:0:0:
48,361,196472,1,0,0:0:0:0:
10,339,196561,1,0,0:0:0:0:
0,302,196651,1,0,0:0:0:0:
0,258,196740,1,8,0:0:0:0:
0,215,196829,1,0,0:0:0:0:
20,182,196918,1,0,0:0:0:0:
61,165,197008,1,0,0:0:0:0:
105,164,197097,5,4,0:0:0:0:
142,140,197186,1,0,0:0:0:0:
160,99,197275,1,0,0:0:0:0:
153,55,197365,1,0,0:0:0:0:
123,22,197454,1,8,0:0:0:0:
81,10,197543,1,0,0:0:0:0:
38,24,197632,1,0,0:0:0:0:
10,58,197722,1,0,0:0:0:0:
0,98,197811,5,2,0:0:0:0:
0,143,197900,1,0,0:0:0:0:
3,185,197989,1,0,0:0:0:0:
32,219,198079,1,0,0:0:0:0:
72,239,198168,1,8,0:0:0:0:
117,243,198257,1,0,0:0:0:0:
159,230,198346,1,0,0:0:0:0:
194,201,198436,1,0,0:0:0:0:
220,164,198526,6,0,P|252:132|300:124,1,90,4|0,0:0|0:0,0:0:0:0:
392,176,198794,2,0,P|406:134|395:91,1,90,4|0,0:0|0:0,0:0:0:0:
288,200,199062,2,0,P|273:241|284:284,1,90,4|0,0:0|0:0,0:0:0:0:
496,368,199419,2,0,P|520:280|488:196,1,180,4|0,0:0|0:0,0:0:0:0:
252,28,199954,5,4,0:0:0:0:
207,25,200043,1,0,0:0:0:0:
164,39,200132,1,0,0:0:0:0:
128,66,200221,1,0,0:0:0:0:
104,103,200312,1,8,0:0:0:0:
94,147,200400,1,0,0:0:0:0:
100,191,200489,1,0,0:0:0:0:
120,231,200579,1,0,0:0:0:0:
161,249,200668,5,8,0:0:0:0:
205,256,200757,1,0,0:0:0:0:
250,251,200846,1,0,0:0:0:0:
292,234,200936,1,0,0:0:0:0:
328,207,201026,2,0,L|352:160,1,45,8|0,0:0|0:0,0:0:0:0:
220,104,201204,2,0,L|199:144,1,45
295,112,201383,2,0,L|316:72,1,45,4|0,0:0|0:0,0:0:0:0:
184,16,201561,2,0,L|163:56,1,45
156,214,201740,6,0,L|136:255,1,45,8|0,0:0|0:0,0:0:0:0:
200,148,201919,2,0,L|252:168,1,45
120,124,202097,2,0,L|96:171,1,45,8|0,0:0|0:0,0:0:0:0:
236,68,202276,2,0,L|193:51,1,45
80,52,202454,2,0,L|60:104,1,45,8|0,0:0|0:0,0:0:0:0:
112,161,202633,2,0,L|96:204,1,45
76,288,202812,5,4,0:0:0:0:
96,327,202901,1,0,0:0:0:0:
131,356,202990,1,0,0:0:0:0:
173,369,203079,1,0,0:0:0:0:
218,366,203169,1,8,0:0:0:0:
258,346,203258,1,0,0:0:0:0:
287,313,203347,1,0,0:0:0:0:
302,271,203437,1,0,0:0:0:0:
317,229,203526,5,8,0:0:0:0:
349,197,203615,1,0,0:0:0:0:
392,184,203704,1,0,0:0:0:0:
436,190,203794,1,0,0:0:0:0:
473,214,203883,1,8,0:0:0:0:
495,253,203972,1,0,0:0:0:0:
499,297,204061,1,0,0:0:0:0:
482,339,204151,1,0,0:0:0:0:
444,360,204240,6,0,P|408:344|388:296,1,90,4|0,0:0|0:0,0:0:0:0:
472,236,204508,2,0,L|480:136,1,90,4|0,0:0|0:0,0:0:0:0:
452,53,204776,2,0,P|366:55|320:129,1,180,4|0,0:0|0:0,0:0:0:0:
292,164,205222,1,0,0:0:0:0:
255,189,205311,1,8,0:0:0:0:
211,200,205400,1,0,0:0:0:0:
167,194,205489,1,0,0:0:0:0:
127,173,205579,1,0,0:0:0:0:
98,139,205668,5,12,0:0:0:0:
100,96,205758,1,8,0:0:0:0:
103,51,205847,1,8,0:0:0:0:
107,6,205936,1,8,0:0:0:0:
204,120,206115,1,8,0:0:0:0:
136,280,206294,1,8,0:0:0:0:
256,16,206562,2,0,L|368:4,1,90,4|0,0:0|0:0,0:0:0:0:
476,88,206919,2,0,L|386:97,1,90,8|0,0:0|0:0,0:0:0:0:
204,120,207276,5,4,0:0:0:0:
184,160,207365,1,0,0:0:0:0:
179,204,207454,1,8,0:0:0:0:
191,247,207543,1,0,0:0:0:0:
224,280,207633,1,0,0:0:0:0:
264,296,207722,1,0,0:0:0:0:
308,288,207812,1,8,0:0:0:0:
328,164,207990,1,0,0:0:0:0:
191,247,208169,1,8,0:0:0:0:
152,269,208258,1,0,0:0:0:0:
108,272,208347,1,0,0:0:0:0:
66,256,208436,1,0,0:0:0:0:
36,224,208526,5,4,0:0:0:0:
17,183,208615,1,0,0:0:0:0:
12,138,208704,1,0,0:0:0:0:
22,94,208793,1,0,0:0:0:0:
44,55,208883,1,8,0:0:0:0:
77,25,208972,1,0,0:0:0:0:
256,44,209151,1,8,0:0:0:0:
308,288,209419,2,0,P|352:296|404:280,1,90,4|0,0:0|0:0,0:0:0:0:
204,96,209776,2,0,P|160:88|108:104,1,90,4|0,0:0|0:0,0:0:0:0:
352,76,211026,6,2,L|328:156,1,67.5000025749208,2|0,0:0|0:0,0:0:0:0:
304,224,211383,2,0,P|242:169|357:78,1,270.000010299683,4|0,0:0|0:0,0:0:0:0:
408,144,212276,1,0,0:0:0:0:
396,232,212454,1,0,0:0:0:0:
304,224,212633,1,0,0:0:0:0:
296,312,212812,5,4,0:0:0:0:
296,312,212990,2,0,L|228:328,1,67.5000025749208
144,344,213347,1,0,0:0:0:0:
56,328,213526,1,2,0:0:0:0:
4,256,213704,1,0,0:0:0:0:
12,168,213883,1,2,0:0:0:0:
72,104,214062,2,0,L|164:88,1,67.5000025749208,0|2,0:0|0:0,0:0:0:0:
192,164,214419,2,0,L|125:175,1,67.5000025749208,0|2,0:0|0:0,0:0:0:0:
12,168,214776,5,0,0:0:0:0:
4,256,214954,1,2,0:0:0:0:
56,328,215133,1,0,0:0:0:0:
144,344,215312,1,2,0:0:0:0:
228,316,215490,1,0,0:0:0:0:
276,244,215669,6,0,L|264:168,1,67.5000025749208,2|0,0:0|0:0,0:0:0:0:
332,92,216026,2,0,L|342:158,1,67.5000025749208,0|0,0:0|0:0,0:0:0:0:
252,100,216383,2,0,L|240:24,1,67.5000025749208,2|0,0:0|0:0,0:0:0:0:
400,40,216740,2,0,L|410:106,1,67.5000025749208,0|0,0:0|0:0,0:0:0:0:
432,232,217097,6,0,P|384:272|308:264,1,135.000005149842,2|2,0:0|0:0,0:0:0:0:
256,192,217633,1,0,0:0:0:0:
197,116,217812,1,2,0:0:0:0:
164,107,217901,1,0,0:0:0:0:
131,110,217990,1,0,0:0:0:0:
101,126,218079,1,0,0:0:0:0:
79,152,218169,1,2,0:0:0:0:
160,272,218347,5,0,0:0:0:0:
160,272,218437,1,0,0:0:0:0:
160,272,218526,2,0,P|168:224|152:180,1,90,4|0,0:0|0:0,0:0:0:0:
180,352,218883,2,0,P|219:323|239:281,1,90,2|0,0:0|0:0,0:0:0:0:
132,108,219240,2,0,P|92:136|72:178,1,90,8|0,0:0|0:0,0:0:0:0:
76,308,219597,5,8,0:0:0:0:
260,276,219776,1,0,0:0:0:0:
72,172,219954,1,4,0:0:0:0:
256,60,220133,1,0,0:0:0:0:
440,172,220312,1,2,0:0:0:0:
260,276,220490,1,0,0:0:0:0:
72,172,220669,1,8,0:0:0:0:
47,135,220758,1,0,0:0:0:0:
40,90,220847,1,0,0:0:0:0:
53,48,220936,1,0,0:0:0:0:
83,15,221026,1,2,0:0:0:0:
272,44,221204,5,0,0:0:0:0:
272,44,221294,1,0,0:0:0:0:
272,44,221383,2,0,P|212:104|112:88,1,180,4|0,0:0|0:0,0:0:0:0:
272,44,221919,2,0,P|316:36|364:48,1,90,2|0,0:0|0:0,0:0:0:0:
432,140,222276,1,0,0:0:0:0:
312,132,222454,1,2,0:0:0:0:
492,92,222633,2,0,P|508:140|496:184,1,90,0|2,0:0|0:0,0:0:0:0:
380,280,222990,5,0,0:0:0:0:
272,324,223169,1,2,0:0:0:0:
176,260,223347,1,0,0:0:0:0:
131,255,223436,1,0,0:0:0:0:
91,275,223525,1,2,0:0:0:0:
53,298,223614,1,0,0:0:0:0:
9,295,223704,1,0,0:0:0:0:
0,252,223793,1,0,0:0:0:0:
0,207,223882,1,8,0:0:0:0:
23,170,223971,1,0,0:0:0:0:
61,145,224061,1,0,0:0:0:0:
105,151,224150,1,0,0:0:0:0:
151,160,224240,6,0,B|231:145|239:93|227:48|175:32|139:64|123:96|191:96,1,215.999993408203,4|0,0:0|0:0,0:0:0:0:
488,12,224954,5,0,0:0:0:0:
464,116,225133,1,0,0:0:0:0:
388,192,225312,1,8,0:0:0:0:
349,210,225401,1,0,0:0:0:0:
306,209,225490,1,0,0:0:0:0:
267,190,225579,1,0,0:0:0:0:
241,157,225669,5,4,0:0:0:0:
348,40,225847,2,0,P|356:88|328:128,1,99.0000030212403,0|8,0:0|0:0,0:0:0:0:
172,176,226204,5,0,0:0:0:0:
47,144,226383,1,8,0:0:0:0:
78,19,226562,1,0,0:0:0:0:
203,51,226740,1,2,0:0:0:0:
172,176,226919,1,0,0:0:0:0:
190,216,227007,1,0,0:0:0:0:
228,241,227097,1,4,0:0:0:0:
400,269,227276,1,0,0:0:0:0:
382,229,227366,1,0,0:0:0:0:
344,204,227454,1,8,0:0:0:0:
96,264,227632,5,0,0:0:0:0:
272,152,227812,1,2,0:0:0:0:
157,308,227990,1,0,0:0:0:0:
210,107,228169,1,8,0:0:0:0:
233,299,228347,1,0,0:0:0:0:
134,116,228526,6,0,B|80:176|80:176|100:192,1,99.0000030212403,4|0,0:0|0:0,0:0:0:0:
332,70,228883,2,0,B|272:16|272:16|256:36,1,99.0000030212403,8|0,0:0|0:0,0:0:0:0:
378,268,229240,2,0,B|432:208|432:208|412:192,1,99.0000030212403,2|0,0:0|0:0,0:0:0:0:
180,314,229597,2,0,B|240:368|240:368|256:348,1,99.0000030212403,8|0,0:0|0:0,0:0:0:0:
332,124,229954,6,0,P|252:83|211:162,1,198.000006042481,4|8,0:0|0:0,0:0:0:0:
380,268,230489,1,0,0:0:0:0:
446,71,230668,1,2,0:0:0:0:
412,68,230757,1,0,0:0:0:0:
380,75,230846,1,0,0:0:0:0:
350,95,230937,1,0,0:0:0:0:
332,122,231025,1,8,0:0:0:0:
252,312,231203,5,0,0:0:0:0:
252,312,231294,1,0,0:0:0:0:
252,312,231383,2,0,P|200:316|152:292,1,99.0000030212403,4|0,0:0|0:0,0:0:0:0:
260,72,231740,2,0,P|312:68|360:92,1,99.0000030212403,8|0,0:0|0:0,0:0:0:0:
200,132,232097,2,0,P|175:87|177:33,1,99.0000030212403,2|0,0:0|0:0,0:0:0:0:
344,200,232453,1,8,0:0:0:0:
160,264,232632,1,0,0:0:0:0:
356,296,232812,5,4,0:0:0:0:
284,140,232990,1,0,0:0:0:0:
160,264,233168,1,8,0:0:0:0:
356,296,233346,1,0,0:0:0:0:
284,140,233526,1,2,0:0:0:0:
243,122,233615,1,0,0:0:0:0:
198,121,233704,1,0,0:0:0:0:
157,136,233793,1,0,0:0:0:0:
123,165,233883,1,8,0:0:0:0:
88,304,234062,5,0,0:0:0:0:
88,304,234150,1,0,0:0:0:0:
88,304,234239,2,0,B|92:348|132:376|132:376|156:312|200:288,1,198.000006042481,4|8,0:0|0:0,0:0:0:0:
340,296,234776,1,0,0:0:0:0:
383,291,234865,1,0,0:0:0:0:
421,268,234954,1,2,0:0:0:0:
445,231,235043,1,0,0:0:0:0:
452,187,235133,1,0,0:0:0:0:
356,60,235312,1,8,0:0:0:0:
360,204,235489,1,0,0:0:0:0:
444,84,235669,5,4,0:0:0:0:
256,140,235846,1,0,0:0:0:0:
452,188,236026,1,4,0:0:0:0:
272,60,236204,2,0,P|192:88|176:156,1,148.50000453186,4|0,0:0|0:0,0:0:0:0:
174,143,236562,5,4,0:0:0:0:
256,264,236740,1,8,0:0:0:0:
324,132,236919,1,0,0:0:0:0:
324,132,237008,1,0,0:0:0:0:
324,132,237097,1,4,0:0:0:0:
174,143,237276,1,0,0:0:0:0:
320,212,237454,1,8,0:0:0:0:
174,143,237633,5,0,0:0:0:0:
84,288,237812,1,2,0:0:0:0:
256,264,237990,1,0,0:0:0:0:
104,200,238169,1,8,0:0:0:0:
236,348,238347,1,0,0:0:0:0:
280,345,238436,1,0,0:0:0:0:
320,326,238525,1,4,0:0:0:0:
284,184,238704,1,0,0:0:0:0:
240,187,238793,1,0,0:0:0:0:
200,206,238882,1,8,0:0:0:0:
84,288,239061,5,0,0:0:0:0:
236,348,239240,1,2,0:0:0:0:
200,206,239418,1,0,0:0:0:0:
144,356,239597,1,8,0:0:0:0:
256,264,239776,1,0,0:0:0:0:
104,192,239954,6,0,L|80:88,1,99.0000030212403,4|0,0:0|0:0,0:0:0:0:
408,192,240312,2,0,L|432:296,1,99.0000030212403,4|0,0:0|0:0,0:0:0:0:
97,192,240669,2,0,L|72:83,1,99.0000030212403,4|0,0:0|0:0,0:0:0:0:
414,192,241027,2,0,L|439:300,1,99.0000030212403,4|0,0:0|0:0,0:0:0:0:
252,304,241383,5,4,0:0:0:0:
307,128,241562,1,0,0:0:0:0:
342,101,241651,1,0,0:0:0:0:
384,88,241740,1,8,0:0:0:0:
429,90,241829,1,0,0:0:0:0:
469,107,241919,1,0,0:0:0:0:
448,292,242097,1,2,0:0:0:0:
412,318,242186,1,0,0:0:0:0:
370,331,242275,1,0,0:0:0:0:
325,329,242365,1,0,0:0:0:0:
284,312,242454,1,8,0:0:0:0:
246,288,242543,1,0,0:0:0:0:
202,279,242632,1,0,0:0:0:0:
159,286,242721,1,0,0:0:0:0:
120,307,242812,6,0,L|76:352,2,49.5000015106202,4|0|0,0:0|0:0|0:0,0:0:0:0:
256,192,243169,1,8,0:0:0:0:
391,76,243347,2,0,L|436:32,2,49.5000015106202,0|0|2,0:0|0:0|0:0,0:0:0:0:
256,192,243704,1,0,0:0:0:0:
256,192,243793,1,0,0:0:0:0:
256,192,243882,1,8,0:0:0:0:
120,308,244062,2,0,P|80:280|64:232,1,99.0000030212403,0|4,0:0|0:0,0:0:0:0:
88,84,244419,5,0,0:0:0:0:
152,224,244597,1,8,0:0:0:0:
8,64,244776,1,0,0:0:0:0:
24,33,244865,1,0,0:0:0:0:
52,12,244954,1,2,0:0:0:0:
85,3,245043,1,0,0:0:0:0:
119,8,245133,2,0,P|164:28|216:20,1,99.0000030212403,0|8,0:0|0:0,0:0:0:0:
420,16,245490,5,0,0:0:0:0:
445,45,245579,1,0,0:0:0:0:
456,83,245668,1,4,0:0:0:0:
449,122,245757,1,0,0:0:0:0:
426,153,245847,1,0,0:0:0:0:
391,172,245936,1,0,0:0:0:0:
352,174,246025,1,8,0:0:0:0:
156,132,246204,1,0,0:0:0:0:
116,133,246293,1,0,0:0:0:0:
81,151,246382,1,2,0:0:0:0:
58,182,246471,1,0,0:0:0:0:
50,221,246561,1,0,0:0:0:0:
59,259,246650,1,0,0:0:0:0:
84,289,246739,1,8,0:0:0:0:
120,306,246829,1,0,0:0:0:0:
159,313,246918,1,0,0:0:0:0:
198,309,247007,1,0,0:0:0:0:
234,294,247097,6,0,P|256:244|248:176,1,121.499996292114,4|0,0:0|0:0,0:0:0:0:
184,148,247454,6,0,L|292:120,1,94.499997116089,2|0,0:0|0:0,0:0:0:0:
264,56,247812,6,0,L|180:76,1,80.9999975280763,2|0,0:0|0:0,0:0:0:0:
116,104,248169,6,0,P|104:144|112:176,1,67.5,2|0,0:0|0:0,0:0:0:0:
148,236,248526,5,4,0:0:0:0:
191,247,248615,1,0,0:0:0:0:
235,242,248704,1,0,0:0:0:0:
276,223,248793,1,0,0:0:0:0:
313,198,248883,1,8,0:0:0:0:
350,172,248972,1,0,0:0:0:0:
390,150,249061,1,0,0:0:0:0:
432,137,249150,1,0,0:0:0:0:
477,136,249240,1,2,0:0:0:0:
456,240,249419,2,0,P|452:284|472:324,1,90,4|0,0:0|0:0,0:0:0:0:
476,136,249776,2,0,P|480:92|460:52,1,90,4|0,0:0|0:0,0:0:0:0:
312,40,250133,5,0,0:0:0:0:
267,47,250222,1,0,0:0:0:0:
222,46,250311,1,8,0:0:0:0:
178,38,250400,1,0,0:0:0:0:
32,160,250669,2,0,L|8:260,1,90,4|0,0:0|0:0,0:0:0:0:
84,304,250937,2,0,L|105:216,1,90,4|0,0:0|0:0,0:0:0:0:
204,164,251204,2,0,L|182:251,1,90,4|0,0:0|0:0,0:0:0:0:
224,320,251472,5,0,0:0:0:0:
264,338,251561,1,0,0:0:0:0:
308,330,251650,1,0,0:0:0:0:
344,304,251739,1,8,0:0:0:0:
377,273,251829,1,0,0:0:0:0:
412,244,251918,1,0,0:0:0:0:
451,223,252007,1,0,0:0:0:0:
495,216,252096,1,2,0:0:0:0:
488,384,252276,2,0,P|468:352|468:288,1,90,4|0,0:0|0:0,0:0:0:0:
496,108,252633,1,8,0:0:0:0:
256,192,252812,5,2,0:0:0:0:
212,202,252901,1,0,0:0:0:0:
168,194,252990,1,0,0:0:0:0:
132,168,253079,1,0,0:0:0:0:
108,130,253169,1,8,0:0:0:0:
103,86,253258,2,0,L|200:68,1,90,2|0,0:0|0:0,0:0:0:0:
252,120,253526,2,0,L|348:101,1,90,4|0,0:0|0:0,0:0:0:0:
372,172,253794,2,0,L|460:155,1,90,4|0,0:0|0:0,0:0:0:0:
512,208,254062,1,8,0:0:0:0:
420,336,254240,5,2,0:0:0:0:
381,359,254329,1,0,0:0:0:0:
337,365,254418,1,0,0:0:0:0:
294,352,254507,1,0,0:0:0:0:
260,323,254597,1,8,0:0:0:0:
240,283,254687,1,0,0:0:0:0:
221,243,254776,1,0,0:0:0:0:
183,221,254865,1,0,0:0:0:0:
139,223,254954,1,2,0:0:0:0:
103,249,255044,1,0,0:0:0:0:
88,291,255133,2,0,L|72:188,1,90,4|0,0:0|0:0,0:0:0:0:
12,56,255490,2,0,P|52:68|112:52,1,90,4|0,0:0|0:0,0:0:0:0:
256,36,255847,5,0,0:0:0:0:
299,26,255936,1,0,0:0:0:0:
344,32,256025,1,8,0:0:0:0:
383,52,256114,1,0,0:0:0:0:
414,85,256204,1,0,0:0:0:0:
464,288,256383,2,0,P|416:292|364:272,1,90,4|0,0:0|0:0,0:0:0:0:
344,248,256651,1,0,0:0:0:0:
300,239,256740,1,8,0:0:0:0:
257,251,256829,1,0,0:0:0:0:
223,280,256918,1,8,0:0:0:0:
48,354,257097,5,2,0:0:0:0:
21,318,257186,1,0,0:0:0:0:
6,275,257275,1,0,0:0:0:0:
6,230,257364,1,0,0:0:0:0:
20,188,257454,2,0,P|40:122|12:50,1,135,8|0,0:0|0:0,0:0:0:0:
20,61,257812,1,0,0:0:0:0:
152,164,257990,2,0,P|196:164|236:140,1,90,4|0,0:0|0:0,0:0:0:0:
234,141,258258,5,4,0:0:0:0:
440,16,258526,1,4,0:0:0:0:
447,261,258794,1,4,0:0:0:0:
235,142,259062,2,0,L|207:44,1,90,4|0,0:0|0:0,0:0:0:0:
341,91,259508,5,4,0:0:0:0:
458,156,259776,1,4,0:0:0:0:
343,228,260044,1,4,0:0:0:0:
