osu file format v14

[General]
AudioFilename: audio.mp3
AudioLeadIn: 0
PreviewTime: 56871
Countdown: 0
SampleSet: Soft
StackLeniency: 0.7
Mode: 0
LetterboxInBreaks: 0
WidescreenStoryboard: 1

[Editor]
Bookmarks: 22486,29871,34890,37256,44640,48333,57563,65179,65294,72333,79717
DistanceSpacing: 1.4
BeatDivisor: 6
GridSize: 4
TimelineZoom: 1.9

[Metadata]
Title:arc-en-ciel (TV Size)
TitleUnicode:アルカンシェル (TV Size)
Artist:Hanatan
ArtistUnicode:花たん
Creator:Lafayla
Version:Kibb's Extra
Source:転生王女と天才令嬢の魔法革命
Tags:Kibbleru Kyle73 Sparhten Hinsvar amiya rainbow japanese anime pop jpop yurica Tensei Oujo to Tensai Reijou no Mahou Kakumei The Magical Revolution of the Reincarnated Princess and the Genius Young Lady yuri op opening
BeatmapID:3990712
BeatmapSetID:1923372

[Difficulty]
HPDrainRate:6
CircleSize:4.2
OverallDifficulty:8.5
ApproachRate:9.3
SliderMultiplier:3.4
SliderTickRate:1

[Events]
//Background and Video events
Video,-155,"rainbow.mp4"
0,0,"euphielappillow.jpg",0,0
//Break Periods
//Storyboard Layer 0 (Background)
//Storyboard Layer 1 (Fail)
//Storyboard Layer 2 (Pass)
//Storyboard Layer 3 (Foreground)
//Storyboard Layer 4 (Overlay)
//Storyboard Sound Samples

[TimingPoints]
333,461.538461538462,4,2,1,45,1,0
333,-250,4,2,1,45,0,0
4371,-200,4,2,1,45,0,0
5871,-166.666666666667,4,2,1,45,0,0
6563,-333.333333333333,4,2,1,45,0,0
7025,-333.333333333333,4,2,1,50,0,0
7717,-181.818181818182,4,2,1,50,0,0
8409,-200,4,2,1,50,0,0
9102,-250,4,2,1,50,0,0
9909,-181.818181818182,4,2,1,50,0,0
12794,-222.222222222223,4,2,1,50,0,0
13025,-222.222222222223,4,2,1,40,0,0
14640,-100,4,2,1,55,0,0
15102,-100,4,2,1,65,0,0
16486,-200,4,2,1,65,0,0
16948,-100,4,2,1,65,0,0
18333,-142.857142857143,4,2,1,65,0,0
18794,-100,4,2,1,65,0,0
20409,-166.666666666667,4,2,1,65,0,0
22025,-200,4,2,1,65,0,0
22486,-200,4,2,1,50,0,0
29871,-142.857142857143,4,2,1,55,0,0
30563,-117.647058823529,4,2,1,55,0,0
31717,-142.857142857143,4,2,1,55,0,0
32409,-117.647058823529,4,2,1,55,0,0
33794,-200,4,2,1,55,0,0
35871,-200,4,2,1,60,0,0
36794,-200,4,2,1,55,0,0
37256,-222.222222222222,4,2,1,55,0,0
44063,-222.222222222222,4,2,1,60,0,0
44640,-200,4,2,1,60,0,0
48333,-200,4,2,1,62,0,0
50179,-200,4,2,1,64,0,0
52025,-200,4,2,1,66,0,0
52948,-142.857142857143,4,2,1,66,0,0
53871,-200,4,2,1,69,0,0
55371,-111.111111111111,4,2,1,69,0,0
57563,-111.111111111111,4,2,1,70,0,0
59179,-90.9090909090909,4,2,1,70,0,0
59640,-111.111111111111,4,2,1,70,0,0
60217,-100,4,2,1,70,0,0
60333,-90.9090909090909,4,2,1,70,0,0
60563,-125,4,2,1,70,0,0
60794,-200,4,2,1,70,0,0
61256,-125,4,2,1,70,0,0
61717,-100,4,2,1,70,0,0
62871,-166.666666666667,4,2,1,70,0,0
64486,-200,4,2,1,70,0,0
64948,-200,4,2,1,70,0,0
65409,-142.857142857143,4,2,1,70,0,0
65871,-111.111111111111,4,2,1,70,0,0
66794,-166.666666666666,4,2,1,70,0,0
67486,-100,4,2,1,70,0,0
68640,-111.111111111111,4,2,1,70,0,0
70256,-166.666666666667,4,2,1,70,0,0
71871,-100,4,2,1,70,0,0
72333,-100,4,2,1,70,0,0
73948,-90.9090909090909,4,2,1,70,0,0
74409,-111.111111111111,4,2,1,70,0,0
74986,-100,4,2,1,70,0,0
75332,-125,4,2,1,70,0,0
75563,-200,4,2,1,70,0,0
76025,-125,4,2,1,70,0,0
76486,-100,4,2,1,70,0,0
77640,-166.666666666667,4,2,1,70,0,0
78794,-200,4,2,1,70,0,0
79602,-111.111111111111,4,2,1,70,0,0
80640,-111.111111111111,4,2,1,70,0,0
81563,-166.666666666666,4,2,1,70,0,0
82255,-100,4,2,1,70,0,0
83409,-111.111111111111,4,2,1,70,0,0
85025,-166.666666666667,4,2,1,70,0,0
85659,-166.666666666667,4,2,1,50,0,0
86640,-100,4,2,1,50,0,0
112718,-90.9090909090909,4,2,1,50,0,0
113179,-111.111111111111,4,2,1,50,0,0
113756,-100,4,2,1,50,0,0
114102,-125,4,2,1,50,0,0
114333,-200,4,2,1,50,0,0

[Colours]
Combo1 : 250,190,230
Combo2 : 130,200,230
Combo3 : 206,186,239
Combo4 : 170,245,170

[HitObjects]
3,232,333,6,0,P|32:230|84:225,1,68,2|0,0:0|0:0,0:0:0:0:
208,261,679,2,0,P|178:262|127:268,1,68,2|0,0:0|0:0,0:0:0:0:
247,194,1025,2,0,B|292:199|292:199|334:224|334:224|390:232,1,136,2|2,0:0|0:0,0:0:0:0:
375,229,1717,2,0,L|380:201,3,22.6666666666667
472,143,2179,6,0,P|465:180|460:226,1,68,2|0,0:0|0:0,0:0:0:0:
281,278,2525,2,0,P|287:240|293:195,1,68,2|0,0:0|0:0,0:0:0:0:
484,294,2871,1,2,0:0:0:0:
484,294,3217,1,0,0:0:0:0:
484,294,3333,1,0,0:0:0:0:
264,133,3563,2,0,L|227:122,3,22.6666666666667,2|0|0|0,0:0|0:0|0:0|0:0,0:0:0:0:
282,31,4025,6,0,P|246:43|200:54,1,68,2|0,0:0|0:0,0:0:0:0:
151,139,4371,2,0,P|106:129|53:120,1,85,2|0,0:0|0:0,0:0:0:0:
33,191,4717,2,0,L|17:13,1,170,2|2,0:0|0:0,0:0:0:0:
336,211,5409,1,2,0:0:0:0:
345,228,5486,1,2,0:0:0:0:
347,247,5563,1,0,0:0:0:0:
342,266,5640,1,0,0:0:0:0:
267,245,5871,6,0,P|304:238|430:226,1,152.999995330811,2|2,0:0|0:0,0:0:0:0:
199,194,6563,2,0,B|169:198|169:198|136:213|136:213|96:217,1,101.999996887207,2|0,0:0|0:0,0:0:0:0:
54,156,7256,1,2,0:0:0:0:
10,96,7486,1,0,0:0:0:0:
45,326,7717,6,0,P|89:308|139:294,1,93.5000028533936,2|0,0:0|0:0,0:0:0:0:
196,148,8063,2,0,B|210:189|210:189|194:244,1,93.5000028533936,2|0,0:0|0:0,0:0:0:0:
176,356,8409,2,0,L|122:177,1,170,2|0,0:0|0:0,0:0:0:0:
286,117,9102,2,0,P|294:75|306:38,1,68,2|0,0:0|0:0,0:0:0:0:
373,239,9563,6,0,P|394:282|401:308,1,68,2|0,0:0|0:0,0:0:0:0:
212,373,9909,2,0,P|242:321|324:304,1,140.25000428009,2|2,0:0|0:0,0:0:0:0:
316,302,10717,1,0,0:0:0:0:
386,343,10948,1,2,0:0:0:0:
463,383,11179,2,0,L|470:327,1,46.7500014266968
493,180,11409,6,0,P|439:173|385:165,1,93.5000028533936,2|2,0:0|0:0,0:0:0:0:
286,207,11871,2,0,P|311:209|343:214,1,46.7500014266968,2|0,0:0|0:0,0:0:0:0:
398,250,12102,1,0,0:0:0:0:
240,276,12217,2,0,P|235:212|229:134,1,140.25000428009,2|2,0:0|0:0,0:0:0:0:
298,22,12794,2,0,P|335:51|346:92,1,76.4999976654053,2|8,0:0|3:0,0:0:0:0:
256,192,13717,12,0,14583,0:0:0:0:
172,74,14640,5,2,0:0:0:0:
145,83,14717,1,0,0:0:0:0:
123,101,14794,1,0,0:0:0:0:
110,126,14871,1,2,0:0:0:0:
106,154,14948,1,0,0:0:0:0:
113,181,15025,1,0,0:0:0:0:
128,204,15102,6,0,B|180:203|220:187|220:187|256:203|278:251,1,170,6|2,3:2|0:0,0:0:0:0:
327,304,15448,2,0,P|349:265|345:198,1,85,2|2,0:0|1:2,0:0:0:0:
457,133,15679,1,0,0:0:0:0:
482,263,15794,2,0,P|466:201|352:156,1,170,2|0,0:0|3:0,0:0:0:0:
309,113,16140,2,0,B|300:71|300:71|319:31,1,85,0|0,1:0|0:0,0:0:0:0:
203,271,16486,6,0,B|212:313|212:313|193:353,1,85,10|0,0:0|0:0,0:0:0:0:
122,379,16833,1,0,3:0:0:0:
121,300,16948,6,0,L|301:326,1,170,2|2,3:2|0:0,0:0:0:0:
369,256,17294,2,0,P|327:248|283:239,1,85,2|2,0:0|1:2,0:0:0:0:
142,156,17525,1,0,0:0:0:0:
207,374,17640,2,0,B|224:282|186:292|209:201,1,170,2|0,0:0|3:0,0:0:0:0:
264,72,17986,2,0,P|270:105|282:164,1,85,0|0,1:0|0:0,0:0:0:0:
113,327,18333,6,0,P|88:286|96:198,1,118.999996368408,10|0,0:0|0:0,0:0:0:0:
181,50,18679,1,0,3:0:0:0:
391,37,18794,6,0,P|452:118|426:209,1,170,2|0,3:2|0:0,0:0:0:0:
213,174,19256,2,0,P|265:111|356:114,1,170,0|0,1:0|3:0,0:0:0:0:
480,276,19717,2,0,P|439:261|396:247,1,85,2|0,3:2|0:0,0:0:0:0:
202,254,19948,1,0,3:0:0:0:
277,287,20063,1,0,3:0:0:0:
243,358,20179,1,0,1:0:0:0:
162,332,20409,6,0,L|144:158,1,152.999995330811,6|0,3:2|0:0,0:0:0:0:
130,156,20871,1,0,3:0:0:0:
70,315,21102,1,2,3:2:0:0:
239,369,21333,1,0,1:0:0:0:
416,196,21563,5,2,3:2:0:0:
416,196,21640,1,0,0:0:0:0:
416,196,21717,1,0,0:0:0:0:
416,196,21794,1,0,3:0:0:0:
416,196,21871,1,0,0:0:0:0:
416,196,21948,1,0,0:0:0:0:
416,196,22025,2,0,P|367:202|323:209,1,85,2|4,3:2|0:3,0:0:0:0:
123,66,22486,6,0,P|109:106|115:148,1,85,4|0,3:1|0:0,0:0:0:0:
161,300,22833,2,0,P|167:258|153:218,1,85,2|0,0:0|0:0,0:0:0:0:
51,189,23179,2,0,B|82:187|111:188|111:188|164:162|164:162|222:167,1,170,2|2,0:0|0:0,0:0:0:0:
316,129,23871,1,0,3:0:0:0:
251,249,24102,1,2,0:0:0:0:
435,222,24333,6,0,L|329:202,1,85,0|0,3:0|0:0,0:0:0:0:
287,53,24679,2,0,B|300:90|300:90|290:135,1,85,2|0,0:0|0:0,0:0:0:0:
217,274,25025,2,0,P|208:190|199:105,1,170,2|0,0:0|0:0,0:0:0:0:
67,20,25717,1,0,3:0:0:0:
67,20,26179,6,0,P|107:29|164:39,1,85,0|0,3:0|0:0,0:0:0:0:
199,133,26525,2,0,P|235:118|298:101,1,85,2|0,0:0|0:0,0:0:0:0:
342,52,26871,2,0,P|378:88|383:204,1,170,2|2,0:0|0:0,0:0:0:0:
305,265,27563,1,0,3:0:0:0:
305,265,27679,1,0,0:0:0:0:
305,265,27794,1,2,0:0:0:0:
447,349,28025,1,2,0:0:0:0:
446,349,29871,6,0,P|391:339|319:330,1,118.999996368408,6|0,3:2|0:0,0:0:0:0:
255,350,30217,2,0,P|251:321|248:291,1,59.4999981842042,2|8,0:0|0:0,0:0:0:0:
215,224,30448,1,0,0:0:0:0:
143,190,30563,2,0,P|76:191|21:249,2,144.500002756119,2|0|2,0:0|3:0|0:0,0:0:0:0:
277,162,31256,1,8,0:0:0:0:
155,292,31486,1,2,0:0:0:0:
454,331,31717,6,0,B|400:316|392:334|335:324,1,118.999996368408,2|0,3:2|0:0,0:0:0:0:
255,345,32063,2,0,L|266:270,1,59.4999981842042,2|8,0:0|0:0,0:0:0:0:
179,175,32294,1,0,0:0:0:0:
58,208,32409,2,0,L|78:362,2,144.500002756119,2|0|2,3:2|0:0|0:0,0:0:0:0:
277,50,33102,1,8,0:0:0:0:
298,75,33217,1,0,0:0:0:0:
280,99,33333,1,2,0:0:0:0:
192,77,33563,5,0,3:0:0:0:
359,10,33794,2,0,P|382:62|383:103,1,85,2|8,0:0|0:0,0:0:0:0:
447,224,34256,1,0,0:0:0:0:
446,223,34371,2,0,P|383:167|309:175,1,127.5,2|2,0:0|0:0,0:0:0:0:
215,243,34948,1,8,0:0:0:0:
280,287,35179,6,0,B|185:265|201:304|112:294,1,170,6|0,3:2|3:0,0:0:0:0:
84,85,35871,1,2,3:2:0:0:
176,127,36102,1,0,3:0:0:0:
1,160,36333,1,4,3:2:0:0:
371,37,36794,5,2,3:2:0:0:
371,37,37256,6,0,L|381:124,1,76.4999976654053,2|2,3:2|0:0,0:0:0:0:
444,168,37602,1,0,0:0:0:0:
303,239,37717,2,0,P|300:212|323:161,1,76.4999976654053,2|0,0:0|3:0,0:0:0:0:
476,272,38179,2,0,P|408:276|342:329,1,152.999995330811,8|2,0:0|0:0,0:0:0:0:
153,353,38871,6,0,P|115:349|79:335,1,76.4999976654053,2|2,0:0|3:2,0:0:0:0:
274,364,39333,1,2,0:0:0:0:
186,280,39563,1,0,0:0:0:0:
260,148,39794,2,0,P|273:185|273:232,1,76.4999976654053,0|8,3:0|0:0,0:0:0:0:
122,196,40256,1,2,0:0:0:0:
187,105,40486,2,0,L|196:54,2,38.2499988327027,0|2|0,0:0|0:0|3:0,0:0:0:0:
115,219,40948,6,0,P|152:213|207:206,1,76.4999976654053,2|0,3:2|0:0,0:0:0:0:
264,131,41294,2,0,P|297:143|345:155,1,76.4999976654053,0|0,3:0|0:0,0:0:0:0:
409,117,41640,1,0,3:0:0:0:
464,284,41871,1,8,0:0:0:0:
265,298,42102,2,0,P|299:251|402:234,1,152.999995330811,2|2,0:0|0:0,0:0:0:0:
398,384,42794,6,0,P|391:344|384:305,1,76.4999976654053,2|2,3:2|0:0,0:0:0:0:
451,143,43256,1,0,0:0:0:0:
451,143,43371,2,0,L|463:90,2,38.2499988327027,2|0|0,0:0|3:0|0:0,0:0:0:0:
487,210,43717,1,10,0:0:0:0:
82,77,44063,5,2,3:2:0:0:
163,95,44179,1,8,0:0:0:0:
86,97,44294,1,8,0:0:0:0:
167,115,44410,1,0,3:0:0:0:
78,180,44640,6,0,P|117:187|167:198,1,85,6|0,3:2|0:0,0:0:0:0:
249,140,44986,1,2,0:0:0:0:
249,140,45102,2,0,L|352:120,1,85,0|2,3:0|0:0,0:0:0:0:
400,73,45563,2,0,B|414:113|414:113|405:168,1,85,0|0,3:0|0:0,0:0:0:0:
324,271,45909,1,2,0:3:0:0:
324,271,46025,2,0,P|345:237|475:219,1,170,0|0,1:2|3:0,0:0:0:0:
343,358,46717,6,0,P|294:349|249:332,1,85,2|0,0:0|3:0,0:0:0:0:
113,169,47179,2,0,P|101:210|94:266,1,85,2|0,0:0|3:0,0:0:0:0:
129,342,47640,2,0,L|139:387,2,42.5,2|0|8,0:0|0:0|0:0,0:0:0:0:
51,311,47986,6,0,L|190:276,1,127.5,2|6,0:0|3:2,0:0:0:0:
252,217,48563,1,0,0:0:0:0:
397,223,48794,5,0,3:0:0:0:
181,168,49025,1,0,1:0:0:0:
19,136,49256,5,0,3:0:0:0:
256,103,49486,2,0,L|299:120,2,42.5,0|0|2,0:0|1:0|3:2,0:0:0:0:
169,41,49833,5,2,0:0:0:0:
234,88,49948,1,0,0:0:0:0:
187,152,50063,1,2,0:0:0:0:
253,199,50179,1,2,3:2:0:0:
87,340,50640,5,0,3:0:0:0:
112,187,50871,1,0,1:0:0:0:
424,240,51102,1,0,3:0:0:0:
424,240,51563,5,2,3:2:0:0:
333,289,51679,1,2,0:0:0:0:
502,342,51909,5,2,0:0:0:0:
315,210,52025,2,0,P|260:205|175:281,1,170,4|0,3:1|3:0,0:0:0:0:
100,328,52717,1,0,1:0:0:0:
47,16,52948,2,0,P|119:23|183:107,1,178.499994552612,0|0,3:0|3:0,0:0:0:0:
183,127,53409,1,8,0:0:0:0:
296,186,53640,1,2,3:2:0:0:
95,233,53871,6,0,B|84:190|84:190|96:151,1,85,4|0,3:1|0:0,0:0:0:0:
415,151,54217,2,0,B|428:190|428:190|417:233,1,85,2|0,3:2|3:0,0:0:0:0:
261,332,54563,5,2,3:2:0:0:
210,267,54679,1,0,3:0:0:0:
292,251,54794,1,0,3:0:0:0:
232,66,55025,5,2,3:2:0:0:
232,66,55102,1,0,1:0:0:0:
232,66,55179,1,0,1:0:0:0:
232,66,55256,1,8,0:0:0:0:
261,201,55371,6,0,L|253:277,1,76.4999976654053,2|4,3:2|3:0,0:0:0:0:
253,277,55717,1,2,0:0:0:0:
256,192,55775,12,2,57102,0:0:0:0:
246,180,57563,6,0,P|203:195|154:211,1,76.4999976654053,6|0,3:2|0:0,0:0:0:0:
292,313,57794,1,2,0:0:0:0:
292,313,57909,2,0,P|299:268|311:217,1,76.4999976654053,2|0,3:2|1:0,0:0:0:0:
176,122,58140,1,0,0:0:0:0:
151,284,58256,2,0,P|185:312|223:348,1,76.4999976654053,2|0,0:0|3:0,0:0:0:0:
379,317,58486,6,0,P|386:272|398:221,1,76.4999976654053,2|0,3:2|3:0,0:0:0:0:
239,47,58717,1,0,0:0:0:0:
239,47,58833,2,0,P|196:62|147:78,1,76.4999976654053,2|0,0:0|1:0,0:0:0:0:
42,175,59063,1,0,0:0:0:0:
87,317,59179,6,0,P|178:318|232:238,1,187.000005706787,4|2,0:0|3:2,0:0:0:0:
230,246,59640,2,0,L|218:157,1,76.4999976654053,2|0,0:0|0:0,0:0:0:0:
290,39,59871,2,0,B|303:78|303:78|291:135,1,76.4999976654053,0|0,1:0|3:0,0:0:0:0:
305,190,60102,1,0,0:0:0:0:
56,83,60217,6,0,B|112:57|112:57|158:88|234:85,1,170,2|0,3:2|0:0,0:0:0:0:
377,138,60563,2,0,L|436:66,1,68,2|0,0:0|0:0,0:0:0:0:
423,291,60794,2,0,P|379:275|335:262,1,85,0|2,1:0|0:0,0:0:0:0:
342,264,61256,6,0,B|269:254|282:284|207:275,1,136,4|0,3:1|0:0,0:0:0:0:
156,335,61602,1,0,3:0:0:0:
411,319,61717,2,0,P|456:253|445:163,1,170,0|2,1:0|0:0,0:0:0:0:
267,128,62063,1,0,3:0:0:0:
348,31,62179,2,0,P|351:75|365:131,1,85,2|0,3:2|0:0,0:0:0:0:
201,171,62409,5,0,3:0:0:0:
168,103,62525,1,0,3:0:0:0:
234,57,62640,1,0,1:0:0:0:
234,57,62871,6,0,L|257:268,1,203.999993774414,6|2,0:0|0:0,0:0:0:0:
147,330,63563,5,4,3:0:0:0:
168,212,63794,1,4,3:0:0:0:
29,129,64025,5,0,1:0:0:0:
34,148,64102,1,0,3:0:0:0:
39,167,64179,1,0,3:0:0:0:
44,186,64256,1,2,3:2:0:0:
49,205,64333,1,0,3:0:0:0:
62,224,64409,5,0,3:0:0:0:
40,254,64486,2,0,L|58:164,1,85,2|2,3:2|3:2,0:0:0:0:
270,36,64948,6,0,P|274:74|282:127,1,85,6|0,3:2|0:0,0:0:0:0:
346,172,65294,1,0,3:0:0:0:
148,243,65409,2,0,P|149:211|208:146,1,118.999996368408,0|2,1:0|0:0,0:0:0:0:
243,325,65756,1,0,3:0:0:0:
405,264,65871,6,0,P|362:255|324:250,2,76.4999976654053,0|0|2,3:0|3:0|0:0,0:0:0:0:
405,38,66333,2,0,B|356:45|356:45|316:81|316:81|261:89,1,152.999995330811,0|2,1:0|0:0,0:0:0:0:
390,120,66679,1,0,3:0:0:0:
215,11,66794,6,0,L|236:162,1,152.999995330811,2|0,3:2|0:0,0:0:0:0:
241,187,67256,1,0,1:0:0:0:
480,145,67486,6,0,L|456:333,1,170,4|0,0:0|3:0,0:0:0:0:
90,339,67948,1,2,3:2:0:0:
173,296,68179,1,0,1:0:0:0:
96,247,68409,1,2,0:0:0:0:
3,293,68640,6,0,B|63:282|63:282|101:311|161:315,1,152.999995330811,4|0,3:1|0:0,0:0:0:0:
253,256,68986,1,0,0:0:0:0:
318,300,69102,2,0,P|335:332|342:382,1,76.4999976654053,0|0,1:0|0:0,0:0:0:0:
131,226,69333,2,0,P|123:180|185:96,1,152.999995330811,2|0,0:0|3:0,0:0:0:0:
351,120,69679,5,2,0:0:0:0:
405,179,69794,1,0,3:0:0:0:
331,200,69909,1,0,3:0:0:0:
260,141,70025,5,0,1:0:0:0:
367,105,70140,1,0,0:0:0:0:
412,265,70256,6,0,P|328:249|245:236,1,152.999995330811,6|0,3:2|0:0,0:0:0:0:
233,243,70717,1,2,0:0:0:0:
85,346,70948,5,4,3:0:0:0:
274,162,71179,1,4,3:0:0:0:
13,199,71409,1,0,1:0:0:0:
246,323,71640,1,8,3:3:0:0:
130,85,71871,5,8,1:2:0:0:
113,214,71986,5,8,1:2:0:0:
199,124,72102,5,8,1:2:0:0:
72,142,72217,5,8,1:2:0:0:
193,203,72333,6,0,P|234:213|280:225,1,85,6|0,3:2|0:0,0:0:0:0:
333,161,72563,1,2,0:0:0:0:
333,161,72679,2,0,P|321:120|308:74,1,85,0|0,3:0|1:0,0:0:0:0:
359,242,72909,1,0,0:0:0:0:
226,64,73025,2,0,P|196:94|163:129,1,85,2|0,0:0|3:0,0:0:0:0:
426,171,73256,6,0,P|414:130|401:84,1,85,0|0,3:0|3:0,0:0:0:0:
214,294,73486,1,0,0:0:0:0:
214,294,73602,2,0,P|255:304|301:315,1,85,2|0,0:0|1:0,0:0:0:0:
419,291,73833,1,0,0:0:0:0:
276,131,73948,6,0,B|242:130|219:128|219:128|160:171|160:171|134:168|98:169,1,187.000005706787,4|2,0:0|3:2,0:0:0:0:
103,168,74409,2,0,P|98:130|92:84,1,76.4999976654053,2|0,0:0|0:0,0:0:0:0:
242,213,74640,2,0,P|303:230|357:332,1,152.999995330811,0|0,1:0|0:0,0:0:0:0:
174,275,74986,6,0,P|133:291|83:300,1,85,2|0,3:2|3:2,0:0:0:0:
8,204,75217,1,0,3:0:0:0:
114,156,75333,1,2,0:0:0:0:
44,114,75448,1,0,3:0:0:0:
174,12,75563,6,0,P|187:55|186:101,1,85,0|2,1:0|0:0,0:0:0:0:
349,117,76025,6,0,P|301:121|231:186,1,136,4|0,3:1|0:0,0:0:0:0:
272,248,76371,1,0,3:0:0:0:
37,263,76486,2,0,B|133:243|133:243|158:265|196:276,1,170,0|2,1:0|0:0,0:0:0:0:
266,372,76833,1,0,3:0:0:0:
372,324,76948,2,0,P|372:282|348:238,1,85,2|0,3:2|0:0,0:0:0:0:
283,46,77179,5,0,3:0:0:0:
259,123,77294,1,0,3:0:0:0:
334,145,77409,1,0,1:0:0:0:
366,67,77640,6,0,L|156:104,1,203.999993774414,6|2,0:0|0:0,0:0:0:0:
84,222,78333,1,0,1:0:0:0:
126,33,78563,1,0,3:0:0:0:
284,105,78794,6,0,L|296:205,1,85,0|0,1:0|3:0,0:0:0:0:
353,244,79140,1,0,3:0:0:0:
235,330,79256,2,0,L|223:230,1,85,8|8,3:0|3:0,0:0:0:0:
131,180,79602,6,0,P|172:171|218:160,1,76.4999976654053,0|6,3:0|3:2,0:0:0:0:
205,163,79948,2,0,B|257:168|257:168|298:208|298:208|354:218,1,152.999995330811,2|0,0:0|1:0,0:0:0:0:
468,93,80409,1,2,0:0:0:0:
454,12,80525,1,0,3:0:0:0:
370,31,80640,6,0,P|368:69|366:114,2,76.4999976654053,0|0|0,3:0|3:0|0:0,0:0:0:0:
471,272,81102,2,0,P|441:219|348:195,1,152.999995330811,0|2,1:0|0:0,0:0:0:0:
277,218,81448,1,0,3:0:0:0:
223,284,81563,6,0,B|143:268|151:307|57:291,1,152.999995330811,2|0,3:2|0:0,0:0:0:0:
47,281,82025,1,0,1:0:0:0:
164,47,82256,6,0,P|147:114|207:209,1,170,4|0,0:0|3:0,0:0:0:0:
381,342,82717,1,2,3:2:0:0:
487,156,82948,1,0,1:0:0:0:
299,42,83179,1,2,0:0:0:0:
193,228,83409,6,0,P|279:210|362:196,1,152.999995330811,4|0,3:1|0:0,0:0:0:0:
425,220,83756,1,0,3:0:0:0:
404,57,83871,2,0,P|414:94|410:145,1,76.4999976654053,0|0,1:0|0:0,0:0:0:0:
277,292,84102,2,0,B|285:210|254:218|267:125,1,152.999995330811,2|0,0:0|3:0,0:0:0:0:
302,37,84448,5,0,0:0:0:0:
223,72,84563,1,0,3:0:0:0:
337,109,84679,5,0,3:0:0:0:
182,6,84794,1,0,1:0:0:0:
264,55,85025,5,6,3:2:0:0:
256,192,85083,12,2,86871,0:0:0:0:
