osu file format v14

[General]
AudioFilename: audio.ogg
AudioLeadIn: 0
PreviewTime: 195328
Countdown: 0
SampleSet: Soft
StackLeniency: 0.8
Mode: 0
LetterboxInBreaks: 0
WidescreenStoryboard: 1

[Editor]
Bookmarks: 98,14867,29636,44405,57328,72097,86866,99789,114558,127481,142250,157019,179173,195790,210559,225328,233174,236866
DistanceSpacing: 1.1
BeatDivisor: 4
GridSize: 32
TimelineZoom: 1.7

[Metadata]
Title:arc-en-ciel
TitleUnicode:アルカンシェル
Artist:Hanatan
ArtistUnicode:花たん
Creator:Ayesha Altugle
Version:Normal
Source:転生王女と天才令嬢の魔法革命
Tags:Shizuku- Kazato Asa Shikibe Mayu magirevo Tensei Oujo to Tensai Reijou no Mahou Kakumei The Magical Revolution of the Reincarnated Princess and the Genius Young Lady YURiCa ZMCZ-16341 doriko isekai yuri opening full version pop jpop j-pop anime japanese
BeatmapID:3987870
BeatmapSetID:1930018

[Difficulty]
HPDrainRate:4
CircleSize:3.5
OverallDifficulty:5
ApproachRate:5.5
SliderMultiplier:1.28
SliderTickRate:1

[Events]
//Background and Video events
0,0,"104730528_p0.jpg",0,0
//Break Periods
2,90758,98203
2,195788,202049
//Storyboard Layer 0 (Background)
//Storyboard Layer 1 (Fail)
//Storyboard Layer 2 (Pass)
//Storyboard Layer 3 (Foreground)
//Storyboard Layer 4 (Overlay)
//Storyboard Sound Samples

[TimingPoints]
98,461.538461538462,4,2,2,60,1,0
98,-111.111111111111,4,2,2,60,0,0
7482,-111.111111111111,4,2,1,60,0,0
8174,-111.111111111111,4,2,2,60,0,0
14405,-100,4,2,2,60,0,0
15098,-100,4,2,1,70,0,0
22251,-111.111111111111,4,2,1,60,0,0
29866,-111.111111111111,4,2,3,60,0,0
35405,-111.111111111111,4,2,1,60,0,0
38635,-111.111111111111,4,2,3,60,0,0
43021,-111.111111111111,4,2,2,60,0,0
45558,-111.111111111111,4,2,2,65,0,0
48098,-111.111111111111,4,2,2,70,0,0
57328,461.538461538462,4,2,2,80,1,1
57328,-90.9090909090909,4,2,2,80,0,1
57558,-90.9090909090909,4,2,1,80,0,1
86866,-90.9090909090909,4,2,1,80,0,0
90558,-90.9090909090909,4,2,1,60,0,0
99328,-111.111111111111,4,2,2,60,0,0
99789,461.538461538462,4,2,2,65,1,0
99789,-111.111111111111,4,2,2,65,0,0
107173,-111.111111111111,4,2,2,60,0,0
108096,-111.111111111111,4,2,3,60,0,0
113635,-111.111111111111,4,2,1,60,0,0
115711,-111.111111111111,4,2,1,65,0,0
116173,-111.111111111111,4,2,2,65,0,0
118250,-111.111111111111,4,2,2,70,0,0
127481,461.538461538462,4,2,2,80,1,1
127481,-90.9090909090909,4,2,2,80,0,1
127711,-90.9090909090909,4,2,1,80,0,1
157019,-100,4,2,1,70,0,0
157250,-100,4,2,3,70,0,0
162788,-100,4,2,2,70,0,0
164404,-100,4,2,1,70,0,0
179173,-100,4,2,1,55,0,0
186557,-100,4,2,1,65,0,0
195790,461.538461538462,4,2,1,65,1,0
203174,-100,4,2,1,80,0,0
210559,-90.9090909090909,4,2,1,80,0,1
225328,-90.9090909090909,4,2,1,70,0,0
234559,-90.9090909090909,4,2,1,50,0,0
235020,-90.9090909090909,4,2,1,40,0,0
235482,-90.9090909090909,4,2,1,30,0,0
235943,-90.9090909090909,4,2,1,20,0,0
236405,-90.9090909090909,4,2,1,10,0,0

[Colours]
Combo1 : 192,185,236
Combo2 : 216,219,147
Combo3 : 173,227,239
Combo4 : 196,232,159

[HitObjects]
370,96,98,6,0,P|411:88|454:74,2,86.4000000000001,2|2|2,2:0|2:0|2:0,2:0:0:0:
270,48,1251,1,0,2:0:0:0:
270,48,1482,2,0,P|242:43|214:35,1,57.6000000000001,2|0,2:0|2:0,2:0:0:0:
176,106,1944,2,0,P|223:123|263:129,2,86.4000000000001,2|2|2,2:0|2:0|2:0,2:0:0:0:
32,201,3328,6,0,P|40:229|46:260,1,57.6000000000001,2|0,2:0|2:0,2:0:0:0:
126,247,3790,2,0,P|113:205|104:163,2,86.4000000000001,2|2|2,2:0|2:0|2:0,2:0:0:0:
209,326,4944,1,0,2:0:0:0:
327,327,5405,1,0,2:0:0:0:
327,327,5636,2,0,P|333:283|343:241,1,86.4000000000001,2|2,2:0|2:0,2:0:0:0:
417,199,6328,2,0,P|331:204|262:157,1,172.8,2|0,2:0|2:0,2:0:0:0:
242,78,7251,1,0,2:0:0:0:
242,78,7482,6,0,P|205:90|157:102,2,86.4000000000001,6|0|2,3:1|2:0|2:0,2:0:0:0:
385,174,8867,2,0,L|374:230,1,57.6000000000001,2|0,2:3|2:0,2:0:0:0:
406,304,9328,2,0,P|449:307|489:290,2,86.4000000000001,2|0|2,2:0|2:0|2:0,2:0:0:0:
262,373,10482,1,2,2:3:0:0:
262,373,10713,2,0,L|206:363,1,57.6000000000001,2|0,2:3|2:0,2:0:0:0:
126,381,11174,6,0,P|114:327|96:269,1,115.2,2|0,2:0|2:0,2:0:0:0:
26,228,11867,2,0,P|76:194|138:200,1,115.2,2|0,2:0|2:0,2:0:0:0:
194,242,12559,1,2,2:3:0:0:
271,218,12790,1,4,3:1:0:0:
271,218,14405,6,0,P|306:210|334:203,1,64,2|2,2:0|2:0,2:0:0:0:
403,164,14867,6,0,P|413:210|396:254,2,96,4|0|2,3:1|2:0|2:0,2:0:0:0:
430,88,15790,2,0,P|397:82|367:73,1,64,0|2,3:0|2:0,2:0:0:0:
299,31,16251,1,8,3:2:0:0:
153,98,16713,6,0,P|110:111|60:121,2,96,0|0|2,3:1|2:0|2:0,2:0:0:0:
223,135,17636,2,0,P|215:169|210:197,1,64,0|2,3:0|2:0,2:0:0:0:
260,260,18098,2,0,B|326:264|315:230|393:240,1,128,8|0,3:2|3:1,2:0:0:0:
454,200,18790,5,2,2:0:0:0:
454,200,19021,2,0,P|460:230|468:263,1,64,8|0,3:2|2:0,2:0:0:0:
511,329,19482,2,0,P|466:327|413:357,1,96,0|8,3:0|2:0,2:0:0:0:
304,376,20174,6,0,P|244:363|178:356,1,128,6|8,3:1|2:0,2:0:0:0:
100,376,20867,1,8,2:0:0:0:
33,331,21098,2,0,P|0:276|8:216,1,128,6|4,3:2|2:3,2:0:0:0:
53,149,21790,1,8,3:2:0:0:
206,194,22251,6,0,P|265:183|318:169,2,115.2,4|0|0,3:1|3:0|3:0,2:0:0:0:
111,259,23636,2,0,L|55:248,1,57.6000000000001,0|0,3:0|2:0,2:0:0:0:
19,202,24098,6,0,P|10:150|-5:90,1,115.2,0|0,3:0|3:0,2:0:0:0:
99,41,25021,2,0,P|108:93|123:153,1,115.2,0|0,3:0|3:0,2:0:0:0:
93,265,25944,6,0,P|151:265|203:290,1,115.2,0|0,3:0|3:0,2:0:0:0:
240,339,26636,1,0,2:0:0:0:
240,339,26867,2,0,L|296:326,1,57.6000000000001,0|0,3:0|2:0,2:0:0:0:
352,314,27328,1,0,3:0:0:0:
442,243,27790,6,0,P|498:290|510:387,2,172.8,0|0|0,2:0|2:0|2:0,2:0:0:0:
362,159,29636,6,0,L|249:186,1,115.2,6|8,3:1|3:1,2:0:0:0:
196,246,30328,1,2,2:0:0:0:
196,246,30559,2,0,L|139:234,1,57.6000000000001,0|2,3:0|2:0,2:0:0:0:
75,284,31021,1,8,3:1:0:0:
20,132,31482,6,0,P|12:76|-3:14,1,115.2,2|8,3:1|3:1,2:0:0:0:
77,1,32174,2,0,P|85:57|100:119,1,115.2,2|2,3:1|2:0,2:0:0:0:
79,192,32867,1,8,3:1:0:0:
46,349,33328,6,0,P|99:330|160:321,1,115.2,2|8,3:1|2:1,2:0:0:0:
227,281,34021,1,2,2:0:0:0:
278,342,34251,2,0,P|311:349|337:358,1,57.6000000000001,0|2,3:0|3:2,2:0:0:0:
410,329,34713,1,10,2:1:0:0:
410,329,34944,2,0,P|436:278|426:223,1,115.2,6|8,3:1|2:0,2:0:0:0:
485,167,35636,1,8,3:2:0:0:
502,88,35867,1,8,2:0:0:0:
450,25,36098,2,0,P|396:38|335:44,1,115.2,8|0,3:2|2:0,2:0:0:0:
180,5,37021,6,0,P|173:61|157:117,1,115.2,4|0,3:1|2:0,2:0:0:0:
135,172,37713,1,0,3:0:0:0:
135,172,37944,1,8,2:1:0:0:
46,244,38405,6,0,L|60:302,1,57.6000000000001,0|2,2:0|2:0,2:0:0:0:
70,356,38867,2,0,P|137:319|232:328,1,172.8,0|0,3:0|3:0,2:0:0:0:
275,362,39790,1,8,2:1:0:0:
384,325,40251,2,0,L|398:268,1,57.6000000000001,2|4,2:0|2:3,2:0:0:0:
428,219,40713,6,0,P|474:219|518:203,2,86.4000000000001,0|0|0,3:0|3:0|3:0,2:0:0:0:
380,185,41636,1,8,2:1:0:0:
275,233,42098,1,2,2:0:0:0:
275,233,42328,2,0,P|221:244|155:260,1,115.2,2|0,2:0|2:0,2:0:0:0:
105,269,43021,1,8,2:0:0:0:
25,185,43482,2,0,L|36:127,2,57.6000000000001,8|0|8,2:0|3:0|2:1,2:0:0:0:
14,299,44405,6,0,P|69:299|120:328,1,115.2,4|0,3:1|3:0,2:0:0:0:
160,369,45098,1,8,2:0:0:0:
160,369,45328,2,0,L|216:358,1,57.6000000000001,0|0,3:0|2:0,2:0:0:0:
269,380,45790,1,8,3:1:0:0:
269,380,46021,2,0,P|277:322|291:266,1,115.2,8|8,2:0|2:0,2:0:0:0:
202,192,46944,2,0,P|215:136|223:79,1,115.2,8|8,2:0|2:0,2:0:0:0:
235,22,47636,1,8,3:1:0:0:
339,71,48098,6,0,P|394:61|450:44,1,115.2,4|0,3:1|3:0,2:0:0:0:
496,78,48790,1,8,2:1:0:0:
480,133,49021,2,0,P|490:188|507:244,1,115.2,0|8,3:0|3:1,2:0:0:0:
445,341,49944,6,0,P|393:329|325:325,1,115.2,0|0,3:1|3:0,2:0:0:0:
286,289,50636,1,8,2:1:0:0:
233,313,50867,2,0,P|228:343|222:369,2,57.6000000000001,0|8|8,3:0|2:0|3:1,2:0:0:0:
326,245,51790,6,0,P|334:192|348:132,1,115.2,4|0,3:1|3:0,2:0:0:0:
383,86,52482,1,8,2:0:0:0:
355,35,52713,2,0,P|313:7|251:20,1,115.2,0|8,3:0|3:1,2:0:0:0:
206,53,53405,1,8,2:0:0:0:
206,53,53636,6,0,P|167:61|121:69,1,86.4000000000001,4|0,3:1|3:2,2:0:0:0:
39,41,54328,2,0,P|22:108|50:161,1,115.2,8|8,3:2|2:0,2:0:0:0:
70,196,55021,1,8,2:1:0:0:
180,163,55482,2,0,P|291:163|355:255,1,230.4,2|0,3:2|2:0,2:0:0:0:
354,253,57328,6,0,L|463:231,2,105.6,4|0|2,3:1|2:0|2:0,2:0:0:0:
285,217,58251,2,0,P|274:251|267:286,1,70.4,0|2,3:2|2:0,2:0:0:0:
307,350,58712,1,8,3:2:0:0:
235,380,58943,6,0,P|179:346|93:350,1,140.8,2|2,2:0|2:0,2:0:0:0:
30,367,59635,1,8,3:2:0:0:
9,213,60097,2,0,L|22:142,2,70.4,0|2|8,3:0|2:0|3:2,2:0:0:0:
71,267,60789,1,2,2:0:0:0:
71,267,61020,6,0,P|135:246|210:231,1,140.8,4|8,3:2|3:2,2:0:0:0:
277,196,61712,1,2,2:0:0:0:
277,196,61943,1,0,3:2:0:0:
416,267,62404,5,8,3:2:0:0:
484,231,62635,2,0,P|515:169|500:102,1,140.8,4|0,3:1|3:0,2:0:0:0:
463,33,63328,2,0,P|428:43|394:50,1,70.4,8|8,3:2|2:0,2:0:0:0:
328,9,63789,1,8,3:2:0:0:
262,50,64020,1,8,2:3:0:0:
186,31,64251,1,8,2:0:0:0:
56,115,64712,6,0,P|75:181|89:253,1,140.8,4|8,3:1|3:2,2:0:0:0:
160,280,65404,1,2,2:0:0:0:
213,223,65635,2,0,P|194:157|180:85,1,140.8,0|8,3:2|3:2,2:0:0:0:
238,34,66328,1,2,2:0:0:0:
311,57,66558,1,0,3:2:0:0:
461,10,67020,5,8,3:2:0:0:
510,69,67251,2,0,P|493:135|481:206,1,140.8,2|2,2:0|2:0,2:0:0:0:
508,278,67943,1,8,3:2:0:0:
477,352,68174,1,2,2:0:0:0:
400,339,68404,6,0,P|331:339|272:375,2,140.8,4|8|0,3:2|3:2|3:2,2:0:0:0:
441,189,69789,1,8,3:2:0:0:
441,189,70020,6,0,P|424:124|412:50,1,140.8,4|0,3:1|3:0,2:0:0:0:
344,13,70712,2,0,P|311:21|274:27,1,70.4,8|8,3:2|2:0,2:0:0:0:
201,3,71174,2,0,P|194:42|186:74,1,70.4,8|8,3:2|2:3,2:0:0:0:
156,143,71635,1,8,3:2:0:0:
259,258,72097,6,0,P|311:243|362:235,2,105.6,4|0|2,3:1|2:0|2:0,2:0:0:0:
203,311,73020,2,0,P|168:317|133:327,1,70.4,0|2,3:2|2:0,2:0:0:0:
70,370,73481,1,8,3:2:0:0:
70,370,73712,6,0,P|24:323|24:251,1,140.8,2|2,2:0|2:0,2:0:0:0:
1,177,74404,2,0,P|37:168|69:155,1,70.4,8|2,3:2|2:0,2:0:0:0:
136,118,74866,1,0,3:0:0:0:
136,118,75097,1,2,2:0:0:0:
197,165,75328,2,0,P|205:197|216:232,1,70.4,8|2,3:2|2:0,2:0:0:0:
195,307,75789,1,4,3:2:0:0:
334,375,76251,6,0,P|369:365|406:360,1,70.4,8|2,3:2|2:0,2:0:0:0:
478,375,76712,2,0,P|487:302|502:235,1,140.8,0|8,3:2|3:2,2:0:0:0:
458,172,77404,6,0,P|405:206|329:206,1,140.8,4|0,3:1|3:0,2:0:0:0:
257,174,78097,2,0,P|250:139|242:106,2,70.4,8|8|8,3:2|2:0|3:2,2:0:0:0:
225,325,79020,5,8,2:0:0:0:
160,368,79251,1,4,2:3:0:0:
84,353,79481,2,0,P|68:283|47:216,1,140.8,4|8,3:1|3:2,2:0:0:0:
2,153,80174,1,2,2:0:0:0:
32,82,80404,2,0,P|97:69|146:17,1,140.8,0|8,3:2|3:2,2:0:0:0:
210,59,81097,1,2,2:0:0:0:
284,37,81328,6,0,P|353:24|422:0,1,140.8,0|8,3:2|3:2,2:0:0:0:
470,59,82020,2,0,P|446:125|433:197,1,140.8,2|2,2:0|2:0,2:0:0:0:
470,262,82712,2,0,P|485:290|486:328,1,70.4,8|2,3:2|2:0,2:0:0:0:
428,381,83174,6,0,P|372:350|295:358,1,140.8,4|8,3:2|3:2,2:0:0:0:
223,378,83866,1,2,2:0:0:0:
154,340,84097,2,0,P|146:305|135:273,1,70.4,0|2,3:2|2:0,2:0:0:0:
181,210,84558,1,8,3:2:0:0:
256,227,84789,6,0,P|357:139|321:12,1,281.6,4|0,3:1|2:0,2:0:0:0:
256,192,86866,12,6,90558,2:1:0:0:
326,15,99328,6,0,L|313:72,1,57.6000000000001,2|0,2:0|2:0,2:0:0:0:
340,121,99789,6,0,P|397:119|449:142,2,115.2,4|0|0,3:1|3:0|3:0,2:0:0:0:
242,182,101173,2,0,L|186:196,1,57.6000000000001,0|0,3:0|2:0,2:0:0:0:
132,174,101635,6,0,P|123:236|111:287,1,115.2,0|0,3:0|3:0,2:0:0:0:
201,358,102558,2,0,P|263:349|314:337,1,115.2,0|8,3:0|3:1,2:0:0:0:
361,370,103250,1,0,2:0:0:0:
417,356,103481,1,0,3:0:0:0:
496,272,103942,6,0,P|490:248|485:216,1,57.6000000000001,8|2,3:1|2:0,2:0:0:0:
508,162,104404,2,0,P|452:157|395:145,1,115.2,0|8,3:0|3:1,2:0:0:0:
341,121,105096,1,4,3:1:0:0:
262,205,105558,1,8,2:3:0:0:
262,205,105789,2,0,P|269:232|276:260,1,57.6000000000001,8|8,2:1|2:1,2:0:0:0:
248,311,106250,2,0,P|192:298|136:289,1,115.2,4|2,3:2|2:0,2:0:0:0:
40,223,107173,6,0,P|30:163|19:109,1,115.2,4|0,3:1|2:0,2:0:0:0:
4,59,107865,1,0,3:0:0:0:
4,59,108096,1,8,2:0:0:0:
118,73,108558,6,0,P|146:67|173:59,1,57.6000000000001,0|2,2:0|2:0,2:0:0:0:
222,28,109019,2,0,P|263:37|306:44,2,86.4000000000001,0|0|0,3:0|3:0|3:0,2:0:0:0:
173,58,109942,1,8,2:0:0:0:
210,166,110404,2,0,L|200:223,1,57.6000000000001,2|0,2:0|2:0,2:0:0:0:
165,269,110865,6,0,P|169:336|273:367,1,172.8,0|0,3:0|3:0,2:0:0:0:
303,337,111789,1,8,2:0:0:0:
417,373,112250,1,0,2:0:0:0:
417,373,112481,2,0,P|427:315|446:260,1,115.2,2|0,2:0|2:0,2:0:0:0:
470,210,113173,1,2,2:0:0:0:
489,96,113635,2,0,P|483:67|474:40,2,57.6000000000001,8|0|8,2:0|3:0|3:2,2:0:0:0:
387,151,114558,6,0,P|333:143|273:132,1,115.2,4|0,3:1|3:0,2:0:0:0:
234,174,115250,1,0,2:0:0:0:
234,174,115481,2,0,P|243:206|249:230,1,57.6000000000001,0|0,3:0|2:0,2:0:0:0:
293,266,115942,1,8,3:1:0:0:
293,266,116173,1,8,2:0:0:0:
223,357,116635,2,0,P|193:362|168:373,1,57.6000000000001,8|0,2:0|3:0,2:0:0:0:
112,356,117096,6,0,P|100:304|79:246,1,115.2,8|8,2:0|2:0,2:0:0:0:
51,194,117789,1,8,3:1:0:0:
12,85,118250,2,0,P|40:32|91:21,1,115.2,4|0,3:1|3:0,2:0:0:0:
143,42,118942,1,8,2:1:0:0:
143,42,119173,2,0,L|199:30,1,57.6000000000001,0|8,3:0|2:0,2:0:0:0:
256,19,119635,1,8,3:1:0:0:
335,102,120096,2,0,P|379:116|421:124,2,86.4000000000001,0|0|8,3:1|2:0|2:1,2:0:0:0:
235,159,121250,1,8,2:0:0:0:
235,159,121481,2,0,L|179:172,1,57.6000000000001,8|8,3:1|2:3,2:0:0:0:
127,146,121942,6,0,P|87:146|47:166,1,86.4000000000001,4|8,3:1|2:0,2:0:0:0:
13,246,122635,1,8,2:0:0:0:
13,246,122865,2,0,P|19:274|25:303,1,57.6000000000001,0|8,3:0|2:0,2:0:0:0:
37,358,123327,1,8,3:1:0:0:
149,331,123789,6,0,P|140:288|131:246,2,86.4000000000001,4|8|8,3:1|3:2|3:2,2:0:0:0:
255,374,124942,1,8,2:0:0:0:
255,374,125173,2,0,P|283:367|311:361,1,57.6000000000001,8|8,3:1|2:0,2:0:0:0:
367,375,125635,2,0,B|348:326|389:275|406:275|424:275|458:218|426:172,1,230.4,0|0,3:0|2:0,2:0:0:0:
425,171,127481,6,0,P|377:158|322:149,2,105.6,4|0|2,3:1|2:0|2:0,2:0:0:0:
397,243,128404,2,0,P|363:233|321:226,1,70.4,0|2,3:2|2:0,2:0:0:0:
279,287,128865,1,8,3:2:0:0:
203,267,129096,1,2,2:0:0:0:
89,371,129557,5,2,2:0:0:0:
19,337,129788,2,0,P|10:305|-1:268,1,70.4,8|2,3:2|2:0,2:0:0:0:
30,197,130250,1,0,3:2:0:0:
105,215,130481,1,2,2:0:0:0:
179,234,130711,2,0,L|247:218,1,70.4,8|2,3:2|2:0,2:0:0:0:
310,263,131173,1,4,3:2:0:0:
448,195,131634,6,0,L|467:126,1,70.4,8|2,3:2|2:0,2:0:0:0:
510,63,132096,2,0,P|440:63|377:31,1,140.8,0|8,3:2|3:2,2:0:0:0:
306,2,132788,1,4,3:1:0:0:
202,117,133250,5,0,3:0:0:0:
202,117,133481,2,0,L|215:187,1,70.4,8|8,3:2|2:0,2:0:0:0:
286,216,133942,1,8,3:2:0:0:
307,290,134173,1,8,2:3:0:0:
262,353,134404,2,0,P|233:339|196:339,1,70.4,8|4,2:0|2:3,2:0:0:0:
122,365,134865,6,0,P|51:365|-3:323,1,140.8,4|8,3:1|3:2,2:0:0:0:
12,247,135557,1,2,2:0:0:0:
28,171,135788,2,0,P|99:171|153:213,1,140.8,0|8,3:0|3:2,2:0:0:0:
224,241,136481,1,2,2:0:0:0:
288,197,136711,5,0,3:2:0:0:
426,266,137173,1,8,3:2:0:0:
490,223,137404,2,0,P|494:152|512:82,1,140.8,2|2,2:0|2:0,2:0:0:0:
464,22,138096,2,0,L|396:37,1,70.4,8|2,3:2|2:0,2:0:0:0:
323,66,138557,6,0,P|257:46|185:40,2,140.8,4|8|0,3:2|3:2|3:2,2:0:0:0:
365,215,139942,1,8,3:2:0:0:
330,284,140173,2,0,P|263:296|195:321,1,140.8,4|0,3:1|3:0,2:0:0:0:
134,369,140865,2,0,P|99:359|61:350,1,70.4,8|8,3:2|2:0,2:0:0:0:
16,291,141327,2,0,P|9:257|-1:223,1,70.4,8|8,2:3|2:3,2:0:0:0:
40,157,141788,1,8,3:2:0:0:
184,213,142250,6,0,P|174:262|165:316,2,105.6,4|0|2,3:1|2:0|2:0,2:0:0:0:
256,240,143173,2,0,P|290:230|324:222,1,70.4,0|2,3:2|2:0,2:0:0:0:
398,200,143634,1,8,3:2:0:0:
467,232,143865,2,0,P|505:174|491:107,1,140.8,2|2,2:0|2:0,2:0:0:0:
506,30,144557,1,8,3:2:0:0:
352,6,145019,6,0,P|320:16|282:25,1,70.4,0|2,2:0|2:0,2:0:0:0:
207,8,145481,2,0,P|199:46|191:78,1,70.4,8|2,3:2|2:0,2:0:0:0:
146,139,145942,1,4,3:2:0:0:
266,237,146404,6,0,P|304:226|334:218,1,70.4,8|2,3:2|2:0,2:0:0:0:
360,290,146865,2,0,P|284:312|226:332,1,140.8,0|8,3:2|3:2,2:0:0:0:
160,374,147557,6,0,P|83:371|27:328,1,140.8,4|0,3:1|3:0,2:0:0:0:
9,261,148250,1,8,3:2:0:0:
73,120,148711,2,0,P|64:84|56:52,1,70.4,8|8,3:2|2:3,2:0:0:0:
131,31,149173,2,0,P|139:66|148:99,1,70.4,8|4,2:0|2:3,2:0:0:0:
217,133,149634,6,0,B|271:118|271:118|298:121|298:121|355:105,1,140.8,4|8,3:1|3:2,2:0:0:0:
414,56,150327,1,2,2:0:0:0:
488,77,150557,2,0,P|494:113|504:145,1,70.4,0|2,3:2|2:0,2:0:0:0:
476,218,151019,1,8,3:2:0:0:
509,369,151481,6,0,P|445:339|375:339,1,140.8,0|8,3:2|3:2,2:0:0:0:
304,369,152173,1,2,2:0:0:0:
188,266,152634,1,2,2:0:0:0:
188,266,152865,2,0,L|202:198,1,70.4,8|2,3:2|2:0,2:0:0:0:
268,156,153327,6,0,P|275:91|229:33,1,140.8,4|8,3:2|3:2,2:0:0:0:
155,17,154019,1,2,2:0:0:0:
155,17,154250,2,0,P|122:26|86:35,1,70.4,0|2,3:2|2:0,2:0:0:0:
14,7,154711,1,8,3:2:0:0:
2,83,154942,6,0,P|35:219|65:357,1,281.6,4|0,3:1|2:0,2:0:0:0:
65,357,157019,6,0,P|116:328|183:328,1,128,6|0,3:1|3:0,2:0:0:0:
261,363,157711,1,2,2:0:0:0:
261,363,157942,2,0,L|325:349,1,64,0|2,3:1|2:0,2:0:0:0:
397,380,158404,1,8,3:1:0:0:
487,248,158865,6,0,P|498:177|513:118,1,128,0|0,3:1|3:1,2:0:0:0:
479,49,159557,2,0,P|433:52|383:28,2,96,2|2|8,2:0|2:0|3:1,2:0:0:0:
406,191,160711,6,0,P|374:199|342:207,1,64,4|2,3:1|2:0,2:0:0:0:
266,184,161173,1,0,3:1:0:0:
266,184,161404,2,0,P|256:247|242:309,1,128,2|2,2:0|2:0,2:0:0:0:
171,347,162096,1,8,3:1:0:0:
110,293,162327,6,0,P|119:229|133:167,1,128,6|8,3:1|2:0,2:0:0:0:
197,119,163019,1,8,3:2:0:0:
197,119,163250,2,0,P|260:119|318:90,1,128,8|8,2:0|2:0,2:0:0:0:
368,29,163942,1,8,3:2:0:0:
487,135,164404,6,0,P|498:200|513:262,1,128,6|8,3:1|2:0,2:0:0:0:
466,325,165096,1,2,2:0:0:0:
388,303,165327,2,0,P|356:313|327:320,1,64,0|2,3:0|2:0,2:0:0:0:
248,300,165788,1,8,2:0:0:0:
104,370,166250,6,0,P|96:341|86:306,1,64,8|2,2:3|2:0,2:0:0:0:
90,228,166711,2,0,P|41:222|0:202,2,96,8|8|2,2:0|2:0|2:0,2:0:0:0:
161,192,167634,1,8,2:0:0:0:
270,308,168096,6,0,P|302:314|334:321,1,64,6|2,3:1|2:0,2:0:0:0:
399,277,168557,2,0,P|427:219|416:158,1,128,8|0,2:0|3:0,2:0:0:0:
453,87,169250,1,2,2:0:0:0:
401,25,169481,2,0,P|367:33|338:39,1,64,8|2,2:0|2:0,2:0:0:0:
267,75,169942,6,0,P|259:124|248:171,2,96,8|0|2,2:3|2:0|2:0,2:0:0:0:
215,13,170865,1,0,3:0:0:0:
74,89,171327,2,0,P|45:98|13:105,1,64,8|2,2:0|2:0,2:0:0:0:
23,184,171788,6,0,P|85:168|147:156,1,128,4|8,3:2|2:0,2:0:0:0:
219,120,172481,1,2,2:0:0:0:
280,171,172711,2,0,P|270:204|264:232,1,64,0|2,3:0|2:0,2:0:0:0:
215,297,173173,1,8,2:0:0:0:
351,379,173634,6,0,P|411:364|477:352,1,128,8|8,2:3|2:0,2:0:0:0:
503,276,174327,1,2,2:0:0:0:
457,210,174557,2,0,P|464:179|473:149,1,64,0|2,3:0|2:0,2:0:0:0:
506,75,175019,2,0,P|449:103|386:96,1,128,8|6,2:0|3:1,2:0:0:0:
244,23,175942,6,0,P|236:53|227:85,1,64,8|0,2:0|2:0,2:0:0:0:
186,153,176404,1,0,3:0:0:0:
258,186,176634,1,2,2:0:0:0:
282,262,176865,1,8,3:2:0:0:
249,335,177096,6,0,P|186:321|123:312,1,128,6|8,3:1|2:0,2:0:0:0:
150,157,178019,1,8,2:0:0:0:
150,157,178250,2,0,P|212:170|275:179,2,128,8|8|6,3:2|2:0|3:1,2:0:0:0:
256,192,179404,12,0,182865,3:1:0:0:
200,17,184019,5,0,2:0:0:0:
77,39,184481,1,4,2:3:0:0:
77,39,184711,2,0,P|70:102|55:165,1,128,0|0,3:1|3:1,2:0:0:0:
23,221,185404,2,0,P|33:252|39:282,1,64,0|0,2:0|3:1,2:0:0:0:
95,314,185865,1,0,2:0:0:0:
95,314,186096,2,0,P|102:345|112:376,2,64,8|0|4,3:1|2:0|3:1,2:0:0:0:
198,239,187019,1,0,3:1:0:0:
296,320,187481,1,0,3:1:0:0:
296,320,187711,2,0,L|358:334,1,64,2|0,2:0|3:0,2:0:0:0:
421,345,188173,6,0,P|433:282|454:221,1,128,14|0,2:0|2:0,2:0:0:0:
491,169,188865,1,0,3:1:0:0:
449,47,189327,2,0,P|421:55|387:62,1,64,0|2,3:1|2:0,2:0:0:0:
332,28,189788,1,10,3:2:0:0:
269,42,190019,2,0,P|256:104|235:165,1,128,4|0,2:2|2:0,2:0:0:0:
273,217,190711,1,0,3:1:0:0:
206,326,191173,6,0,P|174:333|142:342,1,64,0|0,3:0|2:0,2:0:0:0:
88,373,191634,1,8,3:1:0:0:
88,373,191865,2,0,P|73:306|54:248,1,128,6|0,3:1|3:0,2:0:0:0:
29,190,192557,1,8,3:2:0:0:
120,100,193019,6,0,P|150:108|182:114,1,64,8|8,3:2|2:0,2:0:0:0:
240,142,193481,1,8,3:2:0:0:
292,106,193711,2,0,P|344:68|408:68,1,128,4|0,3:1|2:0,2:0:0:0:
390,20,203174,6,0,P|379:82|363:145,1,128,4|0,3:1|3:1,2:0:0:0:
407,191,203866,1,0,2:0:0:0:
407,191,204097,2,0,P|439:181|469:174,2,64,0|0|0,3:1|2:0|3:1,2:0:0:0:
345,303,205020,1,0,3:1:0:0:
219,276,205482,1,0,3:1:0:0:
219,276,205713,2,0,B|155:263|99:308|99:308,1,128,0|0,2:0|2:0,2:0:0:0:
53,353,206405,1,8,3:2:0:0:
256,192,206866,12,0,208482,2:0:0:0:
167,51,210559,6,0,P|116:64|64:73,2,105.6,4|0|2,3:1|2:0|2:0,2:0:0:0:
228,100,211482,2,0,P|217:137|210:168,1,70.4,0|2,3:2|2:0,2:0:0:0:
264,223,211943,1,8,3:2:0:0:
336,196,212174,1,2,2:0:0:0:
473,266,212636,5,2,2:0:0:0:
441,336,212866,2,0,P|389:345|340:363,2,105.6,8|8|2,3:2|2:0|2:0,2:0:0:0:
473,266,213790,1,8,3:2:0:0:
409,124,214251,6,0,P|342:146|270:162,1,140.8,4|8,3:2|3:2,2:0:0:0:
206,200,214943,1,2,2:0:0:0:
247,265,215174,2,0,P|238:303|230:334,1,70.4,0|8,3:2|2:3,2:0:0:0:
165,375,215636,1,8,3:2:0:0:
165,375,215866,6,0,P|105:337|33:342,1,140.8,4|0,3:1|3:0,2:0:0:0:
5,269,216559,1,8,3:2:0:0:
42,118,217020,2,0,P|35:82|27:48,2,70.4,8|8|8,3:2|2:3|2:0,2:0:0:0:
159,219,217943,6,0,P|225:236|293:263,1,140.8,4|8,3:1|3:2,2:0:0:0:
350,314,218636,1,2,2:0:0:0:
425,298,218866,2,0,P|431:263|441:229,1,70.4,0|2,3:2|2:0,2:0:0:0:
505,185,219328,1,8,3:2:0:0:
429,49,219790,6,0,P|362:49|302:10,1,140.8,0|8,3:2|3:2,2:0:0:0:
240,57,220482,1,2,2:0:0:0:
89,19,220943,1,2,2:0:0:0:
89,19,221174,2,0,P|82:53|70:86,1,70.4,8|2,3:2|2:0,2:0:0:0:
16,142,221636,6,0,P|77:182|141:171,1,140.8,4|8,3:2|3:2,2:0:0:0:
206,211,222328,1,2,2:0:0:0:
262,157,222559,2,0,P|297:147|329:136,1,70.4,0|2,3:2|2:0,2:0:0:0:
384,81,223020,1,8,3:2:0:0:
460,96,223251,1,4,3:1:0:0:
504,244,223713,6,0,P|493:278|485:313,1,70.4,0|8,3:0|3:2,2:0:0:0:
436,371,224174,2,0,P|379:334|309:334,1,140.8,8|4,3:2|2:3,2:0:0:0:
242,376,224866,1,8,3:2:0:0:
109,295,225328,6,0,P|60:311|8:325,2,105.6,4|0|2,3:1|2:0|2:0,2:0:0:0:
167,243,226251,2,0,P|200:254|234:262,1,70.4,0|2,3:0|2:0,2:0:0:0:
306,231,226713,1,8,3:2:0:0:
454,273,227174,6,0,P|466:337|478:383,2,105.6,0|0|2,3:1|2:0|2:0,2:0:0:0:
494,206,228097,1,0,3:0:0:0:
508,129,228328,1,2,2:0:0:0:
478,57,228559,2,0,P|409:42|346:11,1,140.8,8|0,3:2|3:1,2:0:0:0:
227,111,229482,6,0,P|239:149|247:182,1,70.4,8|0,3:2|2:0,2:0:0:0:
307,226,229943,2,0,P|357:244|421:260,1,105.6,0|2,3:0|2:3,2:0:0:0:
390,372,230636,6,0,P|323:348|238:326,1,140.8,6|8,3:1|2:3,2:0:0:0:
190,372,231328,1,8,2:0:0:0:
114,352,231559,6,0,P|67:213|260:246,1,422.400012890625,6|0,3:2|2:0,2:0:0:0:
256,192,233059,12,0,236866,2:0:0:0:
