osu file format v14

[General]
AudioFilename: audio.ogg
AudioLeadIn: 0
PreviewTime: 195328
Countdown: 0
SampleSet: Soft
StackLeniency: 0.8
Mode: 0
LetterboxInBreaks: 0
WidescreenStoryboard: 1

[Editor]
Bookmarks: 98,14867,29636,44405,57328,72097,86866,99789,114558,127481,142250,157019,179173,195790,210559,225328,233174,236866
DistanceSpacing: 0.9
BeatDivisor: 4
GridSize: 32
TimelineZoom: 1.7

[Metadata]
Title:arc-en-ciel
TitleUnicode:アルカンシェル
Artist:Hanatan
ArtistUnicode:花たん
Creator:Ayesha Altugle
Version:Insane
Source:転生王女と天才令嬢の魔法革命
Tags:Shizuku- Kazato Asa Shikibe Mayu magirevo Tensei Oujo to Tensai Reijou no Mahou Kakumei The Magical Revolution of the Reincarnated Princess and the Genius Young Lady YURiCa ZMCZ-16341 doriko isekai yuri opening full version pop jpop j-pop anime japanese
BeatmapID:3989560
BeatmapSetID:1930018

[Difficulty]
HPDrainRate:5
CircleSize:4
OverallDifficulty:8
ApproachRate:8.5
SliderMultiplier:2.24
SliderTickRate:1

[Events]
//Background and Video events
0,0,"104730528_p0.jpg",0,0
//Break Periods
2,90758,98653
2,195788,202499
//Storyboard Layer 0 (Background)
//Storyboard Layer 1 (Fail)
//Storyboard Layer 2 (Pass)
//Storyboard Layer 3 (Foreground)
//Storyboard Layer 4 (Overlay)
//Storyboard Sound Samples

[TimingPoints]
98,461.538461538462,4,2,2,60,1,0
98,-166.666666666667,4,2,2,60,0,0
7482,-125,4,2,1,60,0,0
8174,-125,4,2,2,60,0,0
14867,-100,4,2,2,60,0,0
15098,-100,4,2,1,70,0,0
22251,-125,4,2,1,60,0,0
29866,-125,4,2,3,60,0,0
34944,-100,4,2,3,60,0,0
35405,-100,4,2,1,60,0,0
36559,-142.857142857143,4,2,1,60,0,0
38636,-142.857142857143,4,2,3,60,0,0
43021,-142.857142857143,4,2,2,60,0,0
45559,-142.857142857143,4,2,2,65,0,0
48098,-142.857142857143,4,2,2,70,0,0
55482,-166.666666666667,4,2,2,70,0,0
56867,-333.333333333333,4,2,2,70,0,0
57328,461.538461538462,4,2,2,80,1,1
57328,-90.9090909090909,4,2,2,80,0,1
57558,-90.9090909090909,4,2,1,80,0,1
84789,-125,4,2,1,80,0,1
86866,-100,4,2,1,60,0,0
99328,-333.333333333333,4,2,2,60,0,0
99789,461.538461538462,4,2,2,65,1,0
103019,-125,4,2,2,65,0,0
105096,-100,4,2,2,65,0,0
106712,-142.857142857143,4,2,2,65,0,0
107173,-142.857142857143,4,2,2,60,0,0
108096,-142.857142857143,4,2,3,60,0,0
113635,-142.857142857143,4,2,1,60,0,0
115712,-142.857142857143,4,2,2,65,0,0
118250,-142.857142857143,4,2,2,70,0,0
125635,-166.666666666667,4,2,2,70,0,0
127019,-333.333333333333,4,2,2,70,0,0
127481,461.538461538462,4,2,2,80,1,1
127481,-90.9090909090909,4,2,2,80,0,1
127711,-90.9090909090909,4,2,1,80,0,1
154942,-125,4,2,1,80,0,1
157019,-111.111111111111,4,2,1,70,0,0
157250,-111.111111111111,4,2,3,70,0,0
162788,-111.111111111111,4,2,2,70,0,0
164404,-100,4,2,1,70,0,0
179173,-142.857142857143,4,2,1,55,0,0
186557,-142.857142857143,4,2,1,65,0,0
188173,-111.111111111111,4,2,1,65,0,0
192904,-111.111111111111,4,2,2,65,0,0
193019,-111.111111111111,4,2,1,65,0,0
195790,461.538461538462,4,2,1,65,1,0
203174,-142.857142857143,4,2,1,80,0,0
210097,-333.333333333333,4,2,2,80,0,0
210559,-90.9090909090909,4,2,2,80,0,1
210789,-90.9090909090909,4,2,1,80,0,1
225328,-100,4,2,1,70,0,0
230636,-83.3333333333333,4,2,1,70,0,0
231559,-166.666666666667,4,2,1,70,0,0
234559,-166.666666666667,4,2,1,50,0,0
235020,-166.666666666667,4,2,1,40,0,0
235482,-166.666666666667,4,2,1,30,0,0
235943,-166.666666666667,4,2,1,20,0,0
236405,-166.666666666667,4,2,1,10,0,0

[Colours]
Combo1 : 192,185,236
Combo2 : 216,219,147
Combo3 : 173,227,239
Combo4 : 196,232,159

[HitObjects]
364,24,98,6,0,P|359:59|351:89,1,67.1999979492188,2|0,2:0|2:0,0:0:0:0:
350,89,444,1,2,2:0:0:0:
424,167,674,1,0,2:0:0:0:
424,167,790,2,0,P|378:176|327:191,1,100.799996923828,2|0,2:0|2:0,0:0:0:0:
326,191,1251,1,0,2:0:0:0:
147,60,1482,6,0,L|144:44,2,16.7999994873047,2|0|0,2:0|2:0|2:0,0:0:0:0:
215,112,1713,1,0,2:0:0:0:
94,260,1944,6,0,P|66:252|28:245,1,67.1999979492188,2|0,2:0|2:0,0:0:0:0:
46,165,2290,2,0,P|74:173|112:180,1,67.1999979492188,2|0,2:0|2:0,0:0:0:0:
111,179,2636,1,2,2:0:0:0:
165,375,2982,1,0,2:0:0:0:
165,375,3098,1,0,2:0:0:0:
214,308,3328,2,0,L|211:289,2,16.7999994873047,2|0|0,2:0|2:0|2:0,0:0:0:0:
290,340,3559,1,0,2:0:0:0:
451,205,3790,6,0,P|457:172|465:140,1,67.1999979492188,2|0,2:0|2:0,0:0:0:0:
465,139,4136,1,2,2:0:0:0:
379,107,4367,1,0,2:0:0:0:
379,107,4482,2,0,P|368:159|356:211,1,100.799996923828,2|0,2:0|2:0,0:0:0:0:
357,205,4944,1,0,2:0:0:0:
400,288,5174,6,0,L|419:283,2,16.7999994873047,2|0|0,2:0|2:0|2:0,0:0:0:0:
329,359,5405,5,0,2:0:0:0:
329,359,5521,1,0,0:0:0:0:
329,359,5636,2,0,P|283:365|228:378,1,100.799996923828,2|2,2:0|2:0,0:0:0:0:
161,276,6328,2,0,P|253:264|363:238,1,201.599993847656,2|0,2:0|0:0,0:0:0:0:
358,239,7251,1,0,2:0:0:0:
469,57,7482,6,0,P|456:103|451:147,1,89.6,6|0,3:1|2:0,0:0:0:0:
451,144,7828,1,0,2:0:0:0:
348,121,8059,1,0,0:0:0:0:
348,121,8174,2,0,P|364:190|389:248,1,134.4,2|0,2:0|2:0,0:0:0:0:
389,248,8636,1,2,2:3:0:0:
418,352,8867,2,0,P|374:336|330:331,1,89.6,2|0,2:3|2:0,0:0:0:0:
185,182,9328,6,0,P|140:176|98:161,1,89.6,2|0,2:0|2:0,0:0:0:0:
98,161,9674,1,0,2:0:0:0:
57,240,9905,1,0,2:0:0:0:
57,240,10021,2,0,P|123:261|190:270,1,134.4,2|0,2:0|2:0,0:0:0:0:
187,269,10482,1,2,2:3:0:0:
264,224,10713,2,0,P|280:268|289:313,1,89.6,2|0,2:3|2:0,0:0:0:0:
400,312,11174,6,0,P|368:224|350:134,1,179.2,2|0,2:0|2:0,0:0:0:0:
144,184,11867,2,0,P|176:272|194:362,1,179.2,2|0,2:0|2:0,0:0:0:0:
312,384,12559,1,2,2:3:0:0:
312,384,12790,1,4,3:1:0:0:
284,40,14405,6,0,L|314:32,5,29.8666666666667,2|2|2|2|2|2,2:0|2:0|2:0|2:0|2:0|2:0,0:0:0:0:
346,18,14867,6,0,P|399:35|453:47,1,112,4|2,3:1|2:0,0:0:0:0:
453,47,15213,2,0,P|460:75|469:102,1,56,0|8,2:0|3:2,0:0:0:0:
400,172,15444,1,0,2:0:0:0:
400,172,15559,2,0,P|393:144|384:117,1,56,2|0,2:0|0:0,0:0:0:0:
256,32,15790,5,0,3:0:0:0:
196,196,16021,1,2,2:0:0:0:
2,141,16251,2,0,P|81:122|162:88,1,168,8|0,3:2|2:0,0:0:0:0:
256,32,16713,6,0,P|241:89|233:148,1,112,0|2,3:1|2:0,0:0:0:0:
308,200,17059,2,0,P|334:207|361:217,1,56,0|8,2:0|3:2,0:0:0:0:
336,300,17290,1,0,2:0:0:0:
336,300,17405,2,0,P|310:293|283:283,1,56,2|0,2:0|0:0,0:0:0:0:
232,354,17636,1,0,3:0:0:0:
114,296,17867,1,2,2:0:0:0:
30,384,18098,2,0,P|14:324|1:214,1,168,8|0,3:2|2:0,0:0:0:0:
1,219,18559,1,0,3:1:0:0:
184,80,18790,2,0,L|174:135,1,56,2|0,2:0|2:0,0:0:0:0:
126,203,19021,6,0,P|68:186|16:160,1,112,8|0,3:2|0:0,0:0:0:0:
21,163,19367,1,0,2:0:0:0:
21,163,19482,1,0,3:0:0:0:
200,52,19713,1,2,2:0:0:0:
200,52,19828,1,8,2:0:0:0:
200,52,19944,2,0,L|213:108,1,56,8|0,3:2|2:0,0:0:0:0:
224,256,20174,6,0,P|301:223|385:207,1,168,6|0,3:1|2:0,0:0:0:0:
383,207,20636,1,8,2:0:0:0:
429,78,20867,6,0,P|423:110|417:135,1,56,8|0,2:0|0:0,0:0:0:0:
501,171,21098,2,0,P|507:139|513:114,1,56,6|0,3:2|0:0,0:0:0:0:
364,8,21328,2,0,P|310:24|255:35,1,112,8|4,2:3|2:3,0:0:0:0:
80,104,21713,5,8,0:0:0:0:
80,104,21790,2,0,P|52:99|24:93,1,56,8|0,3:2|2:0,0:0:0:0:
6,171,22021,2,0,P|34:176|62:182,1,56,8|0,2:3|2:0,0:0:0:0:
208,244,22251,6,0,P|188:148|168:64,2,179.2,4|0|0,3:1|3:0|3:0,0:0:0:0:
208,244,23636,5,0,3:0:0:0:
295,277,23867,1,0,2:0:0:0:
364,214,24098,2,0,P|343:126|325:39,1,179.2,0|0,3:0|3:0,0:0:0:0:
396,2,24790,1,0,2:0:0:0:
470,27,25021,1,0,3:0:0:0:
497,102,25251,1,0,2:0:0:0:
457,174,25482,1,0,3:0:0:0:
176,56,25944,6,0,P|83:80|-3:94,2,179.2,2|0|0,3:2|3:0|3:0,0:0:0:0:
260,24,27098,1,0,2:0:0:0:
313,97,27328,2,0,P|301:142|292:185,1,89.6,0|0,3:0|2:0,0:0:0:0:
292,184,27790,1,0,0:0:0:0:
112,368,29405,5,0,2:0:0:0:
33,330,29636,2,0,P|80:294|166:304,1,134.4,6|0,3:1|2:0,0:0:0:0:
152,296,30098,1,8,3:1:0:0:
203,230,30328,2,0,P|230:268|235:314,1,89.6,2|0,2:0|3:0,0:0:0:0:
340,375,30790,1,2,2:0:0:0:
340,375,31021,2,0,L|428:357,1,89.6,8|2,3:1|2:0,0:0:0:0:
486,233,31482,6,0,P|420:235|356:202,1,134.4,2|0,3:1|2:0,0:0:0:0:
351,195,31944,1,8,3:1:0:0:
285,250,32174,2,0,P|270:212|270:163,1,89.6,2|0,3:1|0:0,0:0:0:0:
232,16,32636,1,2,2:0:0:0:
360,68,32867,5,8,3:1:0:0:
387,70,32982,1,0,0:0:0:0:
412,64,33098,1,2,2:0:0:0:
440,48,33213,1,0,2:0:0:0:
460,24,33328,1,2,3:1:0:0:
349,151,33559,5,2,2:0:0:0:
257,73,33790,1,8,2:1:0:0:
161,113,34021,1,2,2:0:0:0:
161,113,34136,2,0,L|46:143,1,89.6,0|0,2:0|2:0,0:0:0:0:
74,135,34482,1,2,3:2:0:0:
32,28,34713,1,10,2:1:0:0:
0,232,34944,6,0,P|75:232|155:278,1,168,6|0,3:1|2:0,0:0:0:0:
154,277,35405,1,8,2:0:0:0:
256,184,35636,2,0,P|230:195|200:201,1,56,8|0,3:2|2:0,0:0:0:0:
160,372,35867,2,0,P|186:361|216:355,1,56,8|0,2:0|2:0,0:0:0:0:
360,384,36098,1,8,3:2:0:0:
359,384,36559,6,0,P|373:306|404:234,1,156.799995214844,0|4,2:0|3:1,0:0:0:0:
466,170,37251,2,0,P|484:166|504:160,2,39.199998803711
404,234,37713,1,0,3:0:0:0:
326,210,37944,2,0,B|240:198|262:245|174:230,1,156.799995214844,8|0,2:1|2:0,0:0:0:0:
96,284,38636,1,2,2:0:0:0:
10,239,38867,6,0,P|19:200|26:162,1,78.399997607422,0|0,3:0|0:0,0:0:0:0:
26,162,39213,1,0,3:0:0:0:
7,88,39444,1,0,0:0:0:0:
7,88,39559,2,0,L|48:78,1,39.199998803711,0|0,3:0|0:0,0:0:0:0:
174,230,39790,6,0,P|155:306|141:383,1,156.799995214844,8|2,2:1|2:0,0:0:0:0:
240,320,40482,1,4,0:3:0:0:
68,248,40713,5,0,3:0:0:0:
112,176,40944,1,0,0:0:0:0:
112,176,41059,2,0,B|104:140|84:100|84:100,1,78.399997607422,0|0,3:0|2:0,0:0:0:0:
85,102,41405,1,0,3:0:0:0:
25,24,41636,2,0,P|93:60|169:44,1,156.799995214844,8|2,2:1|2:0,0:0:0:0:
244,8,42328,1,2,2:0:0:0:
256,16,42444,1,2,2:0:0:0:
264,22,42559,2,0,L|244:100,1,78.399997607422,8|0,2:3|2:0,0:0:0:0:
297,154,42905,5,4,2:3:0:0:
330,142,43021,1,8,2:0:0:0:
365,140,43136,1,8,2:0:0:0:
399,146,43251,1,4,2:3:0:0:
427,167,43367,1,8,2:0:0:0:
447,195,43482,1,8,2:0:0:0:
296,316,43713,5,0,3:0:0:0:
296,316,43828,1,8,2:0:0:0:
296,316,43944,2,0,L|287:275,1,39.199998803711,8|8,2:1|2:1,0:0:0:0:
376,336,44174,5,8,2:2:0:0:
375,367,44290,1,8,2:0:0:0:
352,384,44405,2,0,P|279:354|202:343,1,156.799995214844,4|0,3:1|3:0,0:0:0:0:
112,384,45098,1,8,2:0:0:0:
112,384,45213,1,8,2:0:0:0:
112,384,45328,2,0,P|104:348|92:308,1,78.399997607422,0|0,3:0|0:0,0:0:0:0:
66,231,45790,1,8,3:1:0:0:
0,282,46021,6,0,P|68:282|167:231,1,156.799995214844,8|8,2:0|2:0,0:0:0:0:
212,177,46713,1,0,3:0:0:0:
296,216,46944,2,0,P|335:225|372:237,1,78.399997607422,8|0,2:0|3:0,0:0:0:0:
460,185,47405,1,8,2:0:0:0:
437,173,47521,1,8,2:0:0:0:
425,145,47636,1,8,3:1:0:0:
440,112,47751,2,0,P|431:75|423:35,1,78.399997607422,8|8,2:0|2:3,0:0:0:0:
423,35,48098,6,0,P|343:24|263:-5,1,156.799995214844,4|0,3:1|3:0,0:0:0:0:
193,61,48790,1,8,2:1:0:0:
263,121,49021,2,0,P|278:160|287:199,1,78.399997607422,0|0,3:0|0:0,0:0:0:0:
363,241,49482,5,8,3:1:0:0:
381,259,49598,1,8,2:0:0:0:
387,279,49713,1,8,2:0:0:0:
384,305,49828,1,8,2:0:0:0:
368,328,49944,2,0,P|292:342|218:369,1,156.799995214844,0|0,3:1|3:0,0:0:0:0:
135,331,50636,1,8,2:1:0:0:
200,266,50867,2,0,P|211:229|216:190,1,78.399997607422,0|8,3:0|2:0,0:0:0:0:
297,148,51328,1,8,3:1:0:0:
297,148,51444,2,0,P|302:109|313:71,1,78.399997607422,8|8,2:0|2:3,0:0:0:0:
374,0,51790,6,0,P|306:37|230:29,1,156.799995214844,4|0,3:1|3:0,0:0:0:0:
130,0,52482,1,8,2:0:0:0:
80,86,52713,2,0,P|42:100|6:109,1,78.399997607422,0|8,3:0|2:0,0:0:0:0:
5,109,53059,1,8,2:0:0:0:
5,109,53174,1,8,3:1:0:0:
144,168,53405,5,8,2:0:0:0:
144,168,53521,1,8,2:0:0:0:
144,168,53636,2,0,P|182:158|218:144,1,78.399997607422,4|8,3:1|2:0,0:0:0:0:
253,153,53982,1,8,3:2:0:0:
288,150,54098,1,8,0:0:0:0:
321,137,54213,1,8,2:0:0:0:
346,112,54328,1,8,3:2:0:0:
361,80,54444,1,8,2:0:0:0:
368,45,54559,1,8,3:1:0:0:
475,144,54790,6,0,L|465:182,1,39.199998803711,8|0,2:0|0:0,0:0:0:0:
505,251,55021,1,8,2:1:0:0:
505,251,55136,2,0,L|490:327,1,78.399997607422,8|8,2:1|2:0,0:0:0:0:
489,327,55482,6,0,P|361:308|247:390,1,268.799991796875,2|0,3:2|2:0,0:0:0:0:
5,274,56867,6,0,L|16:224,1,50.3999984619141,2|0,2:0|2:0,0:0:0:0:
16,225,57328,6,0,P|-1:171|1:105,1,123.200003759766,4|2,3:1|2:0,0:0:0:0:
0,27,57674,1,0,2:0:0:0:
35,34,57789,1,8,3:2:0:0:
70,26,57904,1,0,2:0:0:0:
97,1,58020,1,2,2:0:0:0:
298,116,58251,6,0,L|238:100,1,61.6000018798829,0|8,3:2|2:0,0:0:0:0:
158,150,58481,1,2,2:0:0:0:
107,144,58597,1,0,2:0:0:0:
72,182,58712,1,8,3:2:0:0:
298,116,58943,6,0,P|385:115|482:56,1,184.800005639649,2|0,2:0|2:0,0:0:0:0:
469,69,59404,1,2,2:0:0:0:
511,182,59635,2,0,L|496:243,1,61.6000018798829,8|0,3:2|2:0,0:0:0:0:
503,326,59866,1,2,2:0:0:0:
503,326,59981,2,0,P|447:335|382:353,1,123.200003759766,8|8,2:0|2:0,0:0:0:0:
312,384,60328,5,2,2:0:0:0:
280,361,60443,1,0,2:0:0:0:
233,371,60558,1,8,3:2:0:0:
180,226,60789,5,2,2:0:0:0:
257,241,60904,1,8,2:0:0:0:
317,187,61020,2,0,P|334:100|358:7,1,184.800005639649,4|0,3:2|2:0,0:0:0:0:
358,6,61481,1,8,3:2:0:0:
473,112,61712,1,2,2:0:0:0:
433,117,61828,1,8,2:0:0:0:
405,143,61943,1,0,3:2:0:0:
251,47,62174,5,8,2:3:0:0:
173,71,62289,1,8,2:0:0:0:
114,15,62404,2,0,P|86:24|55:30,1,61.6000018798829,8|0,3:2|2:0,0:0:0:0:
28,215,62635,6,0,P|123:183|211:166,1,184.800005639649,4|0,3:1|2:0,0:0:0:0:
205,166,63097,1,0,3:0:0:0:
312,90,63328,6,0,P|320:59|327:28,1,61.6000018798829,8|0,3:2|2:0,0:0:0:0:
413,49,63558,2,0,P|404:79|398:111,1,61.6000018798829,8|0,2:0|2:0,0:0:0:0:
342,170,63789,1,8,3:2:0:0:
503,244,64020,2,0,P|472:253|443:260,1,61.6000018798829,8|0,2:3|0:0,0:0:0:0:
330,383,64251,5,8,2:0:0:0:
270,336,64366,1,8,2:0:0:0:
195,325,64481,1,4,2:3:0:0:
119,337,64597,1,4,2:3:0:0:
48,368,64712,6,0,P|27:309|15:249,1,123.200003759766,4|2,3:1|2:0,0:0:0:0:
117,163,65174,1,8,3:2:0:0:
251,233,65404,1,2,2:0:0:0:
251,233,65520,1,8,2:0:0:0:
251,233,65635,2,0,P|272:174|284:114,1,123.200003759766,0|2,3:2|2:0,0:0:0:0:
202,8,66097,1,8,3:2:0:0:
22,111,66328,5,2,2:0:0:0:
22,111,66443,1,8,2:0:0:0:
22,111,66558,2,0,P|81:97|139:76,1,123.200003759766,0|2,3:2|2:0,0:0:0:0:
408,16,67020,1,8,3:2:0:0:
460,167,67251,6,0,P|373:135|283:114,1,184.800005639649,2|8,2:0|2:0,0:0:0:0:
283,114,67712,1,2,2:0:0:0:
248,186,67943,5,8,3:2:0:0:
211,161,68058,1,0,2:0:0:0:
197,120,68174,1,2,2:0:0:0:
206,79,68289,1,8,2:0:0:0:
236,41,68404,6,0,P|178:60|116:69,1,123.200003759766,4|2,3:2|2:0,0:0:0:0:
86,100,68751,1,0,2:0:0:0:
108,149,68866,1,8,3:2:0:0:
200,248,69097,2,0,P|228:240|260:233,2,61.6000018798829,2|0|0,2:0|2:0|3:2,0:0:0:0:
62,384,69558,5,2,2:0:0:0:
49,372,69674,1,8,2:0:0:0:
38,357,69789,2,0,L|53:290,1,61.6000018798829,8|0,3:2|2:0,0:0:0:0:
7,221,70020,6,0,P|-6:133|63:79,1,184.800005639649,4|0,3:1|2:0,0:0:0:0:
63,79,70481,2,0,P|98:71|127:59,1,61.6000018798829,0|0,3:0|0:0,0:0:0:0:
218,6,70712,2,0,P|207:40|203:71,1,61.6000018798829,8|0,3:2|2:0,0:0:0:0:
203,176,70943,2,0,P|178:149|153:130,1,61.6000018798829,8|0,2:0|2:0,0:0:0:0:
376,12,71174,5,8,3:2:0:0:
376,12,71404,2,0,P|405:21|435:26,1,61.6000018798829,8|0,2:3|2:0,0:0:0:0:
509,147,71635,5,8,3:2:0:0:
461,133,71751,1,8,2:0:0:0:
408,144,71866,1,8,2:0:0:0:
363,172,71981,1,8,2:0:0:0:
330,216,72097,2,0,P|269:229|211:247,1,123.200003759766,4|2,3:1|2:0,0:0:0:0:
211,247,72443,1,0,2:0:0:0:
211,247,72558,1,8,3:2:0:0:
46,109,72789,6,0,L|59:47,1,61.6000018798829,2|0,2:0|2:0,0:0:0:0:
147,34,73020,2,0,L|121:154,1,123.200003759766,0|2,3:2|2:0,0:0:0:0:
74,227,73366,1,0,2:0:0:0:
59,218,73481,2,0,L|0:234,1,61.6000018798829,8|0,3:2|2:0,0:0:0:0:
129,373,73712,6,0,P|214:345|310:320,1,184.800005639649,2|0,2:0|2:0,0:0:0:0:
310,324,74174,1,2,2:0:0:0:
512,377,74404,2,0,P|449:378|401:339,1,123.200003759766,8|2,3:2|2:0,0:0:0:0:
403,342,74751,2,0,L|418:267,1,61.6000018798829,8|0,2:0|0:0,0:0:0:0:
372,162,74981,1,8,2:0:0:0:
349,174,75097,2,0,L|337:234,1,61.6000018798829,2|0,2:0|2:0,0:0:0:0:
266,374,75328,5,8,3:2:0:0:
237,346,75443,1,0,2:0:0:0:
195,338,75558,1,2,2:0:0:0:
151,346,75674,1,8,2:0:0:0:
116,369,75789,2,0,P|101:309|83:246,1,123.200003759766,4|0,3:2|0:0,0:0:0:0:
93,228,76135,1,0,2:0:0:0:
77,205,76251,2,0,P|46:213|16:221,1,61.6000018798829,8|0,3:2|0:0,0:0:0:0:
131,94,76481,2,0,P|160:86|190:78,1,61.6000018798829,2|0,2:0|2:0,0:0:0:0:
318,244,76712,6,0,P|379:259|443:275,1,123.200003759766,0|8,3:2|2:3,0:0:0:0:
499,225,77058,1,8,2:0:0:0:
469,157,77174,1,8,3:2:0:0:
234,356,77404,6,0,P|215:268|193:175,1,184.800005639649,4|0,3:1|2:0,0:0:0:0:
193,175,77866,1,0,3:0:0:0:
303,9,78097,6,0,P|296:43|289:75,1,61.6000018798829,8|0,3:2|2:0,0:0:0:0:
379,88,78328,2,0,P|386:54|393:22,1,61.6000018798829,8|0,2:0|2:0,0:0:0:0:
209,27,78558,5,8,3:2:0:0:
209,27,78789,2,0,P|179:37|145:44,1,61.6000018798829,8|0,2:3|0:0,0:0:0:0:
0,216,79020,5,8,2:0:0:0:
50,198,79135,1,8,2:0:0:0:
111,195,79251,1,4,2:3:0:0:
161,213,79366,1,4,2:3:0:0:
207,249,79481,5,4,3:1:0:0:
272,196,79712,2,0,L|284:128,1,61.6000018798829,2|0,2:0|0:0,0:0:0:0:
332,296,79943,5,8,3:2:0:0:
412,324,80174,2,0,L|424:392,1,61.6000018798829,2|8,2:0|2:0,0:0:0:0:
480,263,80404,5,0,3:2:0:0:
469,253,80520,1,8,2:0:0:0:
457,243,80635,2,0,L|446:182,1,61.6000018798829,2|0,2:0|2:0,0:0:0:0:
512,112,80866,2,0,P|450:122|393:87,1,123.200003759766,8|2,3:2|2:0,0:0:0:0:
425,0,81212,5,8,2:0:0:0:
434,12,81328,2,0,P|370:78|265:56,1,184.800005639649,0|0,3:2|2:0,0:0:0:0:
256,48,81789,1,8,3:2:0:0:
58,233,82020,2,0,P|114:219|180:204,1,123.200003759766,2|0,2:0|0:0,0:0:0:0:
193,203,82366,1,8,2:0:0:0:
208,198,82481,2,0,L|220:132,1,61.6000018798829,2|0,2:0|2:0,0:0:0:0:
303,322,82712,2,0,L|291:382,1,61.6000018798829,8|0,3:2|2:0,0:0:0:0:
418,225,82943,5,2,2:0:0:0:
406,217,83058,1,0,2:0:0:0:
397,207,83174,2,0,L|336:223,1,61.6000018798829,4|0,3:2|0:0,0:0:0:0:
208,341,83404,5,2,2:0:0:0:
196,349,83520,1,0,2:0:0:0:
187,359,83635,2,0,L|126:343,1,61.6000018798829,8|0,3:2|0:0,0:0:0:0:
17,220,83866,2,0,L|77:204,1,61.6000018798829,2|0,2:0|2:0,0:0:0:0:
242,226,84097,5,0,3:2:0:0:
277,201,84212,1,0,2:0:0:0:
298,162,84328,1,2,2:0:0:0:
297,115,84443,1,8,2:0:0:0:
273,77,84558,1,8,3:2:0:0:
144,0,84789,6,0,P|285:97|445:33,1,358.4,4|0,3:1|2:0,0:0:0:0:
445,33,86866,5,4,3:1:0:0:
256,192,86981,12,6,90558,2:1:0:0:
64,100,99328,6,0,P|40:108|15:115,1,50.3999984619141,2|0,2:0|2:0,0:0:0:0:
15,115,99789,5,4,3:1:0:0:
169,162,100250,1,0,3:0:0:0:
256,32,100712,1,0,3:0:0:0:
321,92,100942,1,0,0:0:0:0:
402,56,101173,1,0,3:0:0:0:
509,274,101635,5,0,3:0:0:0:
328,204,102096,1,0,3:0:0:0:
307,378,102558,5,0,3:0:0:0:
397,332,102789,1,0,0:0:0:0:
245,309,103019,5,8,3:1:0:0:
245,309,103135,2,0,P|236:264|224:220,1,89.6,8|0,2:1|2:0,0:0:0:0:
224,221,103481,1,0,3:0:0:0:
419,163,103942,6,0,P|372:157|330:142,1,89.6,8|2,3:1|2:0,0:0:0:0:
144,264,104404,1,0,3:0:0:0:
332,143,104865,6,0,L|319:96,1,44.8,8|0,3:1|2:0,0:0:0:0:
98,102,105096,6,0,P|121:180|148:285,1,168,4|0,3:1|2:0,0:0:0:0:
143,263,105558,1,8,2:3:0:0:
272,208,105789,2,0,P|244:203|217:195,1,56,8|0,2:1|2:0,0:0:0:0:
90,342,106019,2,0,P|117:346|144:354,1,56,8|0,2:1|2:0,0:0:0:0:
19,163,106250,1,4,3:2:0:0:
19,163,106712,6,0,P|13:111|0:48,1,117.599996411133,2|0,2:0|0:0,0:0:0:0:
0,48,107173,1,4,3:1:0:0:
232,96,107865,5,0,3:0:0:0:
256,8,108096,1,8,2:0:0:0:
337,47,108327,1,2,0:0:0:0:
337,47,108442,1,2,0:0:0:0:
337,47,108558,2,0,P|381:34|422:19,1,78.399997607422,0|2,0:0|2:0,0:0:0:0:
486,176,109019,6,0,P|429:192|374:211,2,117.599996411133,0|0|0,3:0|3:0|3:0,0:0:0:0:
482,87,109942,6,0,P|398:116|314:140,1,156.799995214844,8|2,2:0|2:0,0:0:0:0:
248,117,110635,1,2,0:0:0:0:
248,117,110750,1,2,0:0:0:0:
248,117,110865,1,0,3:0:0:0:
158,339,111558,5,0,3:0:0:0:
74,367,111789,1,8,2:0:0:0:
74,367,112250,2,0,P|66:328|55:286,1,78.399997607422,0|2,0:0|2:0,0:0:0:0:
25,176,112712,6,0,P|64:167|101:155,1,78.399997607422,8|0,2:3|2:0,0:0:0:0:
130,166,113058,1,4,2:3:0:0:
162,163,113173,1,2,2:0:0:0:
193,147,113289,1,0,2:0:0:0:
213,122,113404,1,4,2:3:0:0:
227,86,113519,1,4,0:3:0:0:
219,47,113635,1,8,2:0:0:0:
219,47,113865,6,0,L|210:87,1,39.199998803711,0|8,3:0|2:0,0:0:0:0:
332,243,114096,1,8,3:2:0:0:
360,247,114212,1,8,2:0:0:0:
389,254,114327,1,8,2:0:0:0:
417,263,114442,1,4,0:3:0:0:
444,274,114558,5,4,3:1:0:0:
499,214,115019,5,0,3:0:0:0:
480,137,115481,5,0,3:0:0:0:
402,118,115712,2,0,L|392:80,2,39.199998803711,0|0|8,0:0|0:0|3:1,0:0:0:0:
299,317,116173,5,8,2:0:0:0:
299,317,116289,1,8,2:0:0:0:
299,317,116404,1,0,3:1:0:0:
220,275,116865,5,0,3:0:0:0:
139,302,117327,5,0,3:0:0:0:
90,366,117558,5,8,2:0:0:0:
77,354,117673,1,8,2:0:0:0:
56,350,117789,1,8,3:1:0:0:
38,357,117904,1,8,2:0:0:0:
3,230,118135,5,8,2:3:0:0:
3,230,118250,2,0,P|80:212|156:184,1,156.799995214844,4|0,3:1|3:0,0:0:0:0:
256,320,118942,1,8,2:1:0:0:
160,192,119173,2,0,P|173:113|204:42,1,156.799995214844,0|8,3:0|3:1,0:0:0:0:
376,176,119865,1,8,2:0:0:0:
385,79,120096,6,0,P|353:91|310:103,1,78.399997607422,0|8,3:1|2:0,0:0:0:0:
310,102,120442,1,8,2:0:0:0:
310,102,120558,1,0,3:0:0:0:
376,176,120789,1,8,2:1:0:0:
463,237,121019,2,0,P|406:252|351:272,1,117.599996411133,0|8,3:0|2:0,0:0:0:0:
351,272,121481,2,0,L|341:313,2,39.199998803711,8|8|8,3:1|2:0|2:3,0:0:0:0:
268,236,121942,6,0,L|248:318,1,78.399997607422,4|8,3:1|2:0,0:0:0:0:
249,312,122289,1,8,2:0:0:0:
249,312,122404,1,0,3:0:0:0:
179,262,122635,1,8,2:0:0:0:
310,384,122865,2,0,P|236:357|158:346,1,156.799995214844,0|8,3:0|3:1,0:0:0:0:
100,259,123558,5,8,2:0:0:0:
100,259,123673,1,8,2:0:0:0:
100,259,123789,2,0,P|139:249|178:237,1,78.399997607422,4|0,3:1|3:0,0:0:0:0:
206,245,124135,1,8,3:2:0:0:
236,239,124250,1,8,2:0:0:0:
261,221,124365,1,8,2:0:0:0:
279,195,124481,1,8,3:2:0:0:
306,181,124596,1,8,2:0:0:0:
337,183,124712,1,8,3:1:0:0:
485,195,124942,5,8,2:0:0:0:
511,151,125058,1,8,2:0:0:0:
506,100,125173,1,8,3:1:0:0:
479,56,125289,1,8,2:0:0:0:
432,35,125404,1,8,2:0:0:0:
381,36,125519,1,8,2:0:0:0:
335,59,125635,1,0,3:0:0:0:
256,192,125750,12,0,126558,2:0:0:0:
248,104,127019,6,0,P|242:128|235:152,1,50.3999984619141,2|0,2:0|2:0,0:0:0:0:
280,228,127481,6,0,P|335:205|399:196,1,123.200003759766,4|2,3:1|2:0,0:0:0:0:
454,250,127827,1,0,2:0:0:0:
473,220,127942,1,8,3:2:0:0:
479,183,128057,1,0,2:0:0:0:
464,152,128173,1,2,2:0:0:0:
361,41,128404,6,0,P|421:30|485:4,1,123.200003759766,0|2,3:2|2:0,0:0:0:0:
478,7,128750,1,0,2:0:0:0:
478,7,128865,1,8,3:2:0:0:
250,1,129096,6,0,P|234:98|212:183,1,184.800005639649,2|0,2:0|2:0,0:0:0:0:
212,181,129557,2,0,P|241:173|273:166,1,61.6000018798829,2|0,2:0|2:0,0:0:0:0:
324,240,129788,2,0,P|293:246|264:255,1,61.6000018798829,8|0,3:2|2:0,0:0:0:0:
208,361,130019,1,2,2:0:0:0:
201,368,130134,2,0,P|145:343|84:343,1,123.200003759766,8|8,2:0|2:0,0:0:0:0:
21,294,130481,1,2,2:0:0:0:
10,258,130596,1,0,0:0:0:0:
26,221,130711,2,0,P|57:213|84:202,1,61.6000018798829,8|0,3:2|2:0,0:0:0:0:
176,125,130942,5,2,2:0:0:0:
247,168,131057,1,8,2:0:0:0:
327,137,131173,2,0,P|336:76|352:16,1,123.200003759766,4|0,3:2|0:0,0:0:0:0:
512,184,131634,2,0,P|502:244|486:304,1,123.200003759766,8|2,3:2|2:0,0:0:0:0:
486,304,131981,1,8,2:0:0:0:
486,304,132096,1,0,3:2:0:0:
405,384,132327,5,8,2:3:0:0:
343,329,132442,1,8,2:0:0:0:
265,355,132557,2,0,P|254:325|250:295,1,61.6000018798829,8|0,3:2|2:0,0:0:0:0:
369,96,132788,6,0,P|277:86|189:58,1,184.800005639649,4|0,3:1|2:0,0:0:0:0:
189,58,133250,1,0,3:0:0:0:
8,145,133481,2,0,P|37:137|68:124,1,61.6000018798829,8|0,3:2|2:0,0:0:0:0:
135,174,133711,2,0,P|123:211|118:238,1,61.6000018798829,8|0,2:0|2:0,0:0:0:0:
80,308,133942,6,0,P|137:286|198:274,1,123.200003759766,8|8,3:2|2:3,0:0:0:0:
261,321,134288,1,8,0:3:0:0:
336,334,134404,1,8,2:0:0:0:
407,311,134519,1,8,2:0:0:0:
452,253,134634,1,4,2:3:0:0:
461,178,134750,1,4,2:3:0:0:
439,100,134865,6,0,P|446:68|455:37,1,61.6000018798829,4|0,3:1|2:0,0:0:0:0:
333,205,135096,1,2,2:0:0:0:
185,12,135327,6,0,P|127:33|67:47,1,123.200003759766,8|2,3:2|2:0,0:0:0:0:
38,69,135673,1,8,2:0:0:0:
19,109,135788,1,0,3:0:0:0:
25,147,135904,1,8,2:0:0:0:
53,178,136019,1,2,2:0:0:0:
8,263,136250,6,0,P|37:269|67:279,1,61.6000018798829,8|0,3:2|0:0,0:0:0:0:
149,353,136481,1,2,2:0:0:0:
198,359,136596,1,8,2:0:0:0:
236,324,136711,2,0,P|222:263|205:204,1,123.200003759766,0|2,3:2|2:0,0:0:0:0:
392,64,137173,5,8,3:2:0:0:
272,0,137404,2,0,P|297:88|318:178,1,184.800005639649,2|8,2:0|2:0,0:0:0:0:
318,178,137865,1,2,2:0:0:0:
432,232,138096,1,8,3:2:0:0:
504,144,138327,1,2,2:0:0:0:
208,256,138557,6,0,P|147:237|86:227,1,123.200003759766,4|2,3:2|2:0,0:0:0:0:
130,54,139019,2,0,P|191:73|252:83,1,123.200003759766,8|2,3:2|2:0,0:0:0:0:
249,82,139365,1,0,2:0:0:0:
249,82,139481,2,0,P|281:74|308:64,1,61.6000018798829,0|0,3:2|2:0,0:0:0:0:
203,164,139711,1,2,2:0:0:0:
203,164,139827,1,8,2:0:0:0:
203,164,139942,2,0,P|171:156|143:151,1,61.6000018798829,8|0,3:2|2:0,0:0:0:0:
0,111,140173,6,0,P|24:199|39:291,1,184.800005639649,4|0,3:1|2:0,0:0:0:0:
39,291,140634,1,0,3:0:0:0:
184,242,140865,2,0,P|153:236|124:228,1,61.6000018798829,8|0,3:2|2:3,0:0:0:0:
99,370,141096,2,0,P|129:375|158:383,1,61.6000018798829,8|0,2:0|2:0,0:0:0:0:
225,325,141327,1,8,2:3:0:0:
325,112,141557,6,0,L|311:172,1,61.6000018798829,8|4,2:3|2:3,0:0:0:0:
225,325,141788,5,8,3:2:0:0:
270,306,141904,1,8,2:0:0:0:
319,308,142019,1,8,2:0:0:0:
366,329,142134,1,8,2:0:0:0:
400,376,142250,6,0,P|409:318|421:255,1,123.200003759766,4|2,3:1|2:0,0:0:0:0:
485,208,142596,1,0,2:0:0:0:
497,177,142711,1,8,3:2:0:0:
494,143,142827,1,0,0:0:0:0:
467,118,142942,1,2,2:0:0:0:
497,12,143173,6,0,P|466:23|438:30,1,61.6000018798829,0|8,3:2|2:0,0:0:0:0:
361,120,143404,1,2,2:0:0:0:
361,120,143519,2,0,P|331:127|302:137,1,61.6000018798829,0|8,2:0|3:2,0:0:0:0:
163,37,143750,1,0,2:0:0:0:
163,37,143865,2,0,P|100:29|39:9,1,123.200003759766,2|0,2:0|3:0,0:0:0:0:
43,10,144327,6,0,L|30:70,1,61.6000018798829,2|0,2:0|2:0,0:0:0:0:
91,187,144557,2,0,L|104:127,1,61.6000018798829,8|0,3:2|2:0,0:0:0:0:
288,10,144788,5,2,2:0:0:0:
276,0,144904,2,0,P|227:39|222:102,1,123.200003759766,8|0,2:0|0:0,0:0:0:0:
302,137,145250,2,0,P|334:127|363:120,1,61.6000018798829,2|0,2:0|2:0,0:0:0:0:
428,55,145481,1,8,3:2:0:0:
491,246,145711,5,2,2:0:0:0:
491,246,145827,1,8,2:0:0:0:
491,246,145942,2,0,B|388:228|415:293|297:267,1,184.800005639649,4|0,3:2|2:0,0:0:0:0:
241,323,146404,2,0,P|230:265|214:202,1,123.200003759766,8|2,3:2|2:0,0:0:0:0:
214,202,146750,1,8,2:0:0:0:
214,202,146865,1,0,3:2:0:0:
345,13,147096,5,8,2:3:0:0:
357,62,147211,1,8,2:0:0:0:
320,97,147327,2,0,P|291:88|261:84,1,61.6000018798829,8|0,3:2|0:0,0:0:0:0:
0,198,147557,6,0,P|92:196|164:132,1,184.800005639649,4|0,3:1|2:0,0:0:0:0:
160,138,148019,1,0,3:0:0:0:
331,227,148250,2,0,L|271:242,1,61.6000018798829,8|0,3:2|2:0,0:0:0:0:
196,367,148481,2,0,L|256:352,1,61.6000018798829,8|0,2:0|2:0,0:0:0:0:
425,381,148711,6,0,P|436:320|451:258,1,123.200003759766,8|8,3:2|2:3,0:0:0:0:
481,239,149057,1,8,2:3:0:0:
496,195,149173,1,8,2:0:0:0:
484,142,149288,1,8,2:0:0:0:
445,116,149404,2,0,P|418:126|386:133,1,61.6000018798829,4|4,2:3|2:3,0:0:0:0:
214,22,149634,5,4,3:1:0:0:
144,50,149865,2,0,P|138:83|130:113,1,61.6000018798829,2|0,2:0|2:0,0:0:0:0:
241,330,150096,5,8,3:2:0:0:
311,302,150327,2,0,P|317:269|325:239,1,61.6000018798829,2|8,2:0|2:0,0:0:0:0:
338,155,150557,6,0,B|236:150|259:223|151:202,1,184.800005639649,0|0,3:2|0:0,0:0:0:0:
165,204,151019,1,8,3:2:0:0:
1,167,151250,5,2,2:0:0:0:
1,167,151365,1,8,2:0:0:0:
1,167,151481,2,0,P|12:107|24:39,1,123.200003759766,0|0,3:2|0:0,0:0:0:0:
161,0,151942,1,8,3:2:0:0:
270,108,152173,2,0,P|248:228|224:364,1,246.400007519531,2|2,2:0|2:0,0:0:0:0:
226,350,152750,1,0,2:0:0:0:
226,350,152865,1,8,3:2:0:0:
328,384,153096,2,0,L|387:368,1,61.6000018798829,2|8,2:0|2:0,0:0:0:0:
471,384,153327,6,0,P|483:322|498:264,1,123.200003759766,4|0,3:2|0:0,0:0:0:0:
374,165,153673,1,0,2:0:0:0:
340,174,153788,2,0,P|328:236|313:294,1,123.200003759766,8|2,3:2|2:0,0:0:0:0:
209,374,154250,5,0,3:2:0:0:
173,343,154365,1,0,0:0:0:0:
130,332,154481,1,2,2:0:0:0:
83,334,154596,1,8,2:0:0:0:
38,351,154711,1,8,3:2:0:0:
0,176,154942,6,0,B|94:206|185:132|126:105|202:30|315:72,1,358.4,4|0,3:1|2:0,0:0:0:0:
314,71,156788,6,0,L|325:114,1,44.8
278,195,157019,2,0,P|327:207|377:224,1,100.799996923828,6|2,3:1|2:0,0:0:0:0:
374,223,157365,1,2,2:0:0:0:
374,223,157481,1,0,3:0:0:0:
450,164,157711,2,0,L|437:115,2,50.3999984619141,2|2|0,2:0|2:0|3:1,0:0:0:0:
297,287,158173,2,0,P|290:307|285:335,1,50.3999984619141,2|0,2:0|2:0,0:0:0:0:
284,335,158404,2,0,B|206:329|220:378|139:366,1,151.199995385742,8|0,3:1|2:0,0:0:0:0:
60,384,158865,6,0,P|48:334|34:286,1,100.799996923828,0|2,3:1|2:0,0:0:0:0:
34,286,159211,1,2,2:0:0:0:
34,286,159327,1,0,3:1:0:0:
96,205,159557,1,2,2:0:0:0:
96,205,159673,1,2,2:0:0:0:
212,254,159904,1,2,2:0:0:0:
212,254,160019,2,0,L|264:239,1,50.3999984619141,2|0,2:0|2:0,0:0:0:0:
327,190,160250,2,0,B|385:202|385:202|407:223|407:223|483:239,1,151.199995385742,8|0,3:1|2:0,0:0:0:0:
467,235,160711,1,4,3:1:0:0:
500,130,160942,6,0,P|474:140|450:147,1,50.3999984619141,2|0,2:0|2:0,0:0:0:0:
341,278,161173,1,0,3:1:0:0:
224,181,161404,5,2,2:0:0:0:
214,172,161519,2,0,L|244:19,1,151.199995385742,2|2,2:0|2:0,0:0:0:0:
243,23,161981,1,2,2:0:0:0:
243,23,162096,2,0,P|270:17|292:10,1,50.3999984619141,8|0,3:1|2:0,0:0:0:0:
107,201,162327,6,0,P|206:199|288:256,1,201.599993847656,6|8,3:1|2:0,0:0:0:0:
437,195,163019,1,8,3:2:0:0:
444,163,163134,1,8,2:3:0:0:
452,127,163250,1,8,2:0:0:0:
320,64,163481,6,0,L|334:113,1,50.3999984619141,8|0,3:2|0:0,0:0:0:0:
287,255,163711,2,0,L|273:206,1,50.3999984619141,8|0,2:0|2:0,0:0:0:0:
115,97,163942,2,0,L|129:146,1,50.3999984619141,8|0,3:2|0:0,0:0:0:0:
60,346,164173,2,0,L|46:297,1,50.3999984619141,8|8,2:0|2:0,0:0:0:0:
0,199,164404,6,0,P|53:214|108:223,1,112,6|2,3:1|2:0,0:0:0:0:
141,206,164750,1,0,2:0:0:0:
186,204,164865,1,8,2:0:0:0:
227,220,164981,1,0,2:0:0:0:
253,258,165096,2,0,L|240:312,1,56,2|0,2:0|2:0,0:0:0:0:
362,384,165327,6,0,P|352:329|336:271,1,112,0|2,3:0|2:0,0:0:0:0:
415,276,165673,1,0,2:0:0:0:
476,230,165788,2,0,P|466:175|450:117,1,112,8|2,2:0|2:0,0:0:0:0:
451,120,166134,1,8,2:0:0:0:
451,120,166250,1,8,2:3:0:0:
251,5,166481,5,2,2:0:0:0:
240,22,166596,1,0,2:0:0:0:
225,42,166711,2,0,L|283:31,1,56,8|0,2:0|2:0,0:0:0:0:
360,188,166942,5,2,2:0:0:0:
293,153,167057,2,0,L|170:181,1,112,8|8,2:0|2:0,0:0:0:0:
183,177,167404,2,0,L|195:121,1,56,2|0,2:0|2:0,0:0:0:0:
98,9,167634,5,8,2:0:0:0:
61,16,167750,1,0,2:0:0:0:
38,45,167865,1,2,2:0:0:0:
32,81,167981,1,8,2:0:0:0:
52,118,168096,1,6,3:1:0:0:
6,290,168327,6,0,P|36:299|63:310,1,56,2|0,2:0|2:0,0:0:0:0:
171,185,168557,2,0,P|118:203|63:216,1,112,8|2,2:0|2:0,0:0:0:0:
63,216,168904,1,0,2:0:0:0:
63,216,169019,2,0,P|55:188|40:162,1,56,0|8,3:0|2:0,0:0:0:0:
224,344,169250,1,2,2:0:0:0:
132,384,169481,6,0,P|139:328|154:275,1,112,8|2,2:0|2:0,0:0:0:0:
154,274,169827,1,8,2:0:0:0:
154,274,169942,1,8,2:3:0:0:
154,274,170057,2,0,P|184:268|216:256,1,56,0|0,2:0|0:0,0:0:0:0:
372,200,170288,5,0,2:0:0:0:
360,184,170404,2,0,L|336:296,1,112,8|2,2:0|2:0,0:0:0:0:
272,384,170750,1,0,2:0:0:0:
256,376,170865,2,0,B|292:340|340:344|340:344|372:380|428:372,1,168,0|0,3:0|2:0,0:0:0:0:
489,384,171327,2,0,P|498:330|509:272,1,112,8|2,2:0|2:0,0:0:0:0:
508,273,171673,1,8,2:0:0:0:
508,273,171788,1,4,3:2:0:0:
445,205,172019,5,2,2:0:0:0:
419,226,172134,1,0,2:0:0:0:
385,232,172250,1,8,2:0:0:0:
352,224,172365,1,0,2:0:0:0:
326,201,172481,1,2,2:0:0:0:
319,168,172596,1,0,2:0:0:0:
330,136,172711,1,0,3:0:0:0:
208,8,172942,6,0,P|203:35|195:62,1,56,2|0,2:0|0:0,0:0:0:0:
256,228,173173,1,8,2:0:0:0:
112,108,173404,6,0,P|107:80|99:53,1,56,2|8,2:0|2:0,0:0:0:0:
4,240,173634,1,8,2:3:0:0:
4,240,173865,5,2,2:0:0:0:
51,221,173981,1,0,2:0:0:0:
101,222,174096,1,8,2:0:0:0:
147,240,174211,1,0,2:0:0:0:
180,277,174327,1,2,2:0:0:0:
195,324,174442,1,0,2:0:0:0:
228,361,174557,1,0,3:0:0:0:
276,376,174673,1,8,2:0:0:0:
324,363,174788,2,0,L|342:296,1,56,2|0,2:0|2:0,0:0:0:0:
256,228,175019,2,0,B|370:242|333:138|479:163,1,224,8|6,2:0|3:1,0:0:0:0:
234,321,175711,5,2,2:0:0:0:
234,321,175827,1,0,2:0:0:0:
234,321,175942,2,0,P|215:245|190:155,1,168,8|0,2:0|2:0,0:0:0:0:
191,158,176404,1,0,3:0:0:0:
319,8,176634,5,2,2:0:0:0:
327,18,176750,1,8,2:0:0:0:
338,26,176865,2,0,L|322:81,1,56,8|0,3:2|0:0,0:0:0:0:
187,253,177096,6,0,B|129:232|129:232|84:241|84:241|12:222,1,168,6|0,3:1|2:0,0:0:0:0:
25,225,177557,2,0,P|20:202|13:172,1,56,8|0,2:0|0:0,0:0:0:0:
85,96,177788,2,0,P|90:119|97:149,1,56,8|0,3:2|2:0,0:0:0:0:
187,253,178019,2,0,P|180:225|174:198,1,56,8|0,2:0|2:0,0:0:0:0:
256,56,178250,1,8,3:2:0:0:
396,168,178481,5,8,2:0:0:0:
415,180,178596,1,8,2:3:0:0:
436,185,178711,1,8,2:0:0:0:
458,185,178827,1,8,2:3:0:0:
479,180,178942,1,4,2:3:0:0:
498,169,179057,1,4,2:3:0:0:
510,155,179173,6,0,P|492:72|480:0,2,156.799995214844,6|0|0,3:1|3:0|3:1,0:0:0:0:
344,292,180557,1,0,3:1:0:0:
256,256,180788,6,0,P|173:274|101:286,1,156.799995214844,12|0,2:1|2:0,0:0:0:0:
102,285,181481,2,0,P|91:322|83:360,1,78.399997607422,0|0,3:1|2:0,0:0:0:0:
0,302,181942,2,0,P|11:264|19:226,1,78.399997607422,0|0,3:1|2:0,0:0:0:0:
19,226,182288,1,0,2:0:0:0:
19,226,182404,1,8,3:1:0:0:
152,192,182634,1,8,2:3:0:0:
200,332,182865,6,0,P|275:355|352:365,2,156.799995214844,0|0|0,3:1|3:1|3:1,0:0:0:0:
248,252,184019,2,0,P|243:212|232:172,1,78.399997607422,0|0,2:0|3:1,0:0:0:0:
148,140,184481,1,4,2:3:0:0:
64,188,184711,6,0,P|74:268|96:348,2,156.799995214844,0|0|0,3:1|3:1|3:1,0:0:0:0:
3,123,185865,1,0,2:0:0:0:
35,36,186096,2,0,P|93:31|146:6,1,117.599996411133,8|0,3:1|2:0,0:0:0:0:
146,6,186557,5,4,3:1:0:0:
226,51,186788,2,0,L|264:40,2,39.199998803711,0|0|0,0:0|2:0|3:1,0:0:0:0:
176,121,187250,1,0,2:0:0:0:
173,136,187365,1,0,2:0:0:0:
170,153,187481,1,0,3:1:0:0:
106,227,187711,5,0,2:0:0:0:
118,265,187827,1,0,2:0:0:0:
156,288,187942,1,0,3:0:0:0:
92,376,188173,6,0,P|174:321|274:325,1,201.599993847656,14|0,2:0|2:0,0:0:0:0:
368,316,188865,2,0,L|357:365,2,50.3999984619141,0|0|0,3:1|2:0|2:0,0:0:0:0:
448,256,189327,5,0,3:1:0:0:
471,223,189442,1,0,2:0:0:0:
472,184,189557,1,0,2:0:0:0:
452,144,189673,1,0,2:0:0:0:
412,120,189788,1,10,3:2:0:0:
484,8,190019,2,0,P|483:33|475:56,1,50.3999984619141,4|0,2:0|2:0,0:0:0:0:
396,200,190250,6,0,P|296:211|199:240,1,201.599993847656,0|0,3:1|3:1,0:0:0:0:
161,57,190942,2,0,P|260:45|357:16,1,201.599993847656,0|0,2:0|2:0,0:0:0:0:
357,16,191634,1,8,3:1:0:0:
328,120,191865,2,0,P|279:126|229:140,1,100.799996923828,6|0,3:1|0:0,0:0:0:0:
161,57,192327,2,0,L|168:25,3,33.5999989746094,0|0|0|8,3:0|3:0|3:0|3:2,0:0:0:0:
104,260,192788,5,8,2:0:0:0:
104,260,192904,1,8,2:0:0:0:
104,260,193019,2,0,P|127:253|154:248,1,50.3999984619141,8|0,3:2|2:0,0:0:0:0:
229,139,193250,2,0,P|223:162|214:188,1,50.3999984619141,8|0,2:0|2:0,0:0:0:0:
271,307,193481,2,0,P|253:290|235:269,1,50.3999984619141,8|0,3:2|2:0,0:0:0:0:
68,84,193711,6,0,P|167:67|258:25,1,201.599993847656,4|0,3:1|2:0,0:0:0:0:
0,229,203174,6,0,P|21:307|34:389,1,156.799995214844,4|0,3:1|3:1,0:0:0:0:
130,361,203866,1,0,2:0:0:0:
130,361,203982,1,0,2:0:0:0:
130,361,204097,2,0,P|109:283|96:201,1,156.799995214844,0|0,3:1|3:1,0:0:0:0:
36,150,204790,5,0,2:0:0:0:
36,150,204905,1,0,2:0:0:0:
36,150,205020,2,0,P|44:113|51:72,1,78.399997607422,0|0,3:1|2:0,0:0:0:0:
139,26,205482,1,0,3:1:0:0:
203,104,205713,2,0,P|195:141|188:182,1,78.399997607422,0|0,2:0|3:1,0:0:0:0:
277,254,206174,1,0,2:0:0:0:
380,204,206405,1,8,3:2:0:0:
395,98,206636,1,0,2:0:0:0:
304,32,206866,1,4,3:1:0:0:
256,192,206982,12,0,208482,2:0:0:0:
352,24,210097,6,0,P|359:47|366:73,1,50.3999984619141,2|0,2:0|2:0,0:0:0:0:
409,172,210559,6,0,P|350:154|288:151,1,123.200003759766,4|2,3:1|2:0,0:0:0:0:
268,65,210905,2,0,P|239:77|209:82,1,61.6000018798829,0|8,2:0|3:2,0:0:0:0:
5,187,211136,5,0,2:0:0:0:
36,205,211251,1,2,2:0:0:0:
78,202,211366,1,0,2:0:0:0:
114,178,211482,2,0,P|118:148|125:118,1,61.6000018798829,0|8,3:2|2:0,0:0:0:0:
177,281,211713,5,2,2:0:0:0:
219,313,211828,1,0,2:0:0:0:
209,362,211943,2,0,P|178:367|150:376,1,61.6000018798829,8|0,3:2|2:0,0:0:0:0:
302,235,212174,6,0,P|363:282|483:257,1,184.800005639649,2|0,2:0|2:0,0:0:0:0:
465,270,212636,2,0,P|470:238|479:208,1,61.6000018798829,2|0,2:0|2:0,0:0:0:0:
416,118,212866,1,8,3:2:0:0:
408,125,212982,2,0,P|400:154|394:185,1,61.6000018798829,0|2,2:0|2:0,0:0:0:0:
343,313,213213,2,0,P|280:326|216:342,1,123.200003759766,8|8,2:0|2:0,0:0:0:0:
149,369,213559,5,2,2:0:0:0:
111,381,213674,1,0,2:0:0:0:
64,369,213790,1,8,3:2:0:0:
34,341,213905,1,0,2:0:0:0:
22,297,214020,1,2,2:0:0:0:
36,249,214136,1,8,2:0:0:0:
63,215,214251,6,0,P|122:201|181:181,1,123.200003759766,4|0,3:2|0:0,0:0:0:0:
226,209,214597,1,0,2:0:0:0:
273,182,214713,2,0,P|281:121|296:61,1,123.200003759766,8|2,3:2|2:0,0:0:0:0:
296,61,215059,1,0,2:0:0:0:
296,61,215174,1,0,3:2:0:0:
509,195,215405,5,8,2:3:0:0:
454,259,215520,1,8,2:0:0:0:
370,238,215636,2,0,P|361:208|353:179,1,61.6000018798829,8|0,3:2|2:0,0:0:0:0:
214,357,215866,6,0,B|99:323|152:387|24:347,1,184.800005639649,4|0,3:1|2:0,0:0:0:0:
33,349,216328,1,0,3:0:0:0:
71,212,216559,6,0,P|79:239|86:274,1,61.6000018798829,8|0,3:2|2:0,0:0:0:0:
184,249,216790,2,0,P|175:221|169:187,1,61.6000018798829,8|0,2:0|2:0,0:0:0:0:
108,131,217021,1,8,3:2:0:0:
155,331,217251,6,0,P|188:336|216:345,1,61.6000018798829,8|8,2:3|2:3,0:0:0:0:
296,365,217482,1,8,2:0:0:0:
342,380,217597,1,8,2:0:0:0:
390,370,217713,1,4,2:3:0:0:
431,340,217828,1,4,2:3:0:0:
452,296,217943,5,4,3:1:0:0:
398,235,218174,2,0,L|334:251,1,61.6000018798829,2|0,2:0|2:0,0:0:0:0:
96,127,218405,5,8,3:2:0:0:
150,66,218636,2,0,L|214:82,1,61.6000018798829,2|8,2:0|2:0,0:0:0:0:
300,2,218866,5,0,3:2:0:0:
309,16,218982,1,8,2:0:0:0:
313,30,219097,2,0,P|306:60|300:90,1,61.6000018798829,2|0,2:0|0:0,0:0:0:0:
421,320,219328,2,0,P|434:259|447:199,1,123.200003759766,8|2,3:2|2:0,0:0:0:0:
495,116,219674,5,8,2:0:0:0:
510,125,219790,2,0,P|470:172|354:173,1,184.800005639649,0|0,3:2|2:0,0:0:0:0:
354,173,220251,1,8,3:2:0:0:
121,325,220482,6,0,P|151:317|181:310,1,61.6000018798829,2|0,2:0|0:0,0:0:0:0:
256,352,220713,1,0,3:2:0:0:
287,331,220828,1,8,2:0:0:0:
303,295,220943,1,2,2:0:0:0:
304,257,221059,1,0,2:0:0:0:
276,219,221174,1,8,3:2:0:0:
313,1,221405,5,2,2:0:0:0:
320,10,221520,1,8,2:0:0:0:
330,17,221636,2,0,P|262:78|173:62,1,184.800005639649,4|0,3:2|2:0,0:0:0:0:
144,32,222097,1,8,3:2:0:0:
5,164,222328,6,0,P|34:157|64:150,1,61.6000018798829,2|8,2:0|2:0,0:0:0:0:
144,182,222559,1,0,3:2:0:0:
173,167,222674,1,8,0:0:0:0:
190,138,222790,1,2,2:0:0:0:
192,99,222905,1,8,2:0:0:0:
175,63,223020,1,8,3:2:0:0:
375,3,223251,5,4,3:1:0:0:
375,3,223713,2,0,P|409:11|437:14,1,61.6000018798829,0|0,3:0|0:0,0:0:0:0:
479,120,223943,2,0,P|455:145|438:168,1,61.6000018798829,8|0,3:2|2:0,0:0:0:0:
325,151,224174,2,0,P|314:117|303:91,1,61.6000018798829,8|0,3:2|2:0,0:0:0:0:
393,91,224405,1,8,2:3:0:0:
476,297,224636,5,4,2:3:0:0:
447,285,224751,1,8,2:0:0:0:
411,283,224866,1,8,3:2:0:0:
374,297,224982,1,8,2:0:0:0:
345,324,225097,2,0,P|338:343|333:363,2,41.0666679199219,8|4|4,2:3|2:3|2:3,0:0:0:0:
322,355,225328,6,0,P|268:372|213:382,1,112,4|2,3:1|2:0,0:0:0:0:
199,357,225674,1,0,2:0:0:0:
168,342,225790,1,8,3:2:0:0:
133,342,225905,1,0,2:0:0:0:
103,354,226020,1,2,2:0:0:0:
10,286,226251,6,0,P|41:276|66:269,1,56,0|8,3:0|2:0,0:0:0:0:
211,208,226482,1,2,2:0:0:0:
30,173,226713,6,0,P|82:222|177:222,1,168,8|0,3:2|2:0,0:0:0:0:
211,208,227174,6,0,P|220:149|233:92,1,112,0|2,3:1|2:0,0:0:0:0:
215,67,227520,1,0,2:0:0:0:
217,34,227636,1,8,3:2:0:0:
243,7,227751,1,0,2:0:0:0:
281,6,227866,1,2,2:0:0:0:
383,62,228097,6,0,P|356:69|328:78,1,56,0|8,3:0|2:0,0:0:0:0:
217,34,228328,1,2,2:0:0:0:
389,159,228559,6,0,P|321:114|241:130,1,168,8|0,3:2|2:0,0:0:0:0:
176,178,229020,1,0,3:1:0:0:
29,108,229251,5,2,2:0:0:0:
41,98,229366,1,0,2:0:0:0:
57,84,229482,2,0,L|23:283,1,168,8|0,3:2|2:0,0:0:0:0:
124,384,229943,2,0,P|131:329|141:273,1,112,0|2,3:0|2:0,0:0:0:0:
203,233,230290,1,2,2:3:0:0:
267,281,230405,2,0,P|295:273|324:266,1,56,8|0,3:2|0:0,0:0:0:0:
512,144,230636,6,0,P|414:157|333:101,1,201.599993847656,6|0,3:1|2:0,0:0:0:0:
333,101,231097,1,8,2:3:0:0:
194,1,231328,6,0,L|177:72,1,67.1999979492188,8|0,2:0|2:0,0:0:0:0:
408,192,231559,2,0,B|308:145|209:231|246:258|286:288|173:378|81:328,1,403.199987695313,6|0,3:2|2:0,0:0:0:0:
256,192,233059,12,0,236866,2:0:0:0:
