osu file format v14

[General]
AudioFilename: audio.ogg
AudioLeadIn: 0
PreviewTime: 195328
Countdown: 0
SampleSet: Soft
StackLeniency: 0.8
Mode: 0
LetterboxInBreaks: 0
WidescreenStoryboard: 1

[Editor]
Bookmarks: 98,14867,29636,44405,57328,72097,86866,99789,114558,127481,142250,157019,179173,195790,210559,225328,233174,236866
DistanceSpacing: 0.9
BeatDivisor: 4
GridSize: 32
TimelineZoom: 0.7999997

[Metadata]
Title:arc-en-ciel
TitleUnicode:アルカンシェル
Artist:Hanatan
ArtistUnicode:花たん
Creator:Ayesha Altugle
Version:Hard
Source:転生王女と天才令嬢の魔法革命
Tags:Shizuku- Kazato Asa Shikibe Mayu magirevo Tensei Oujo to Tensai Reijou no Mahou Kakumei The Magical Revolution of the Reincarnated Princess and the Genius Young Lady YURiCa ZMCZ-16341 doriko isekai yuri opening full version pop jpop j-pop anime japanese
BeatmapID:3988441
BeatmapSetID:1930018

[Difficulty]
HPDrainRate:4.5
CircleSize:3.8
OverallDifficulty:6
ApproachRate:8
SliderMultiplier:1.68
SliderTickRate:1

[Events]
//Background and Video events
0,0,"104730528_p0.jpg",0,0
//Break Periods
2,90758,98578
2,195788,202424
//Storyboard Layer 0 (Background)
//Storyboard Layer 1 (Fail)
//Storyboard Layer 2 (Pass)
//Storyboard Layer 3 (Foreground)
//Storyboard Layer 4 (Overlay)
//Storyboard Sound Samples

[TimingPoints]
98,461.538461538462,4,2,2,60,1,0
98,-142.857142857143,4,2,2,60,0,0
7482,-142.857142857143,4,2,1,60,0,0
8174,-142.857142857143,4,2,2,60,0,0
14867,-100,4,2,2,60,0,0
15097,-100,4,2,1,70,0,0
22251,-125,4,2,1,60,0,0
29866,-125,4,2,3,60,0,0
35405,-125,4,2,1,60,0,0
38636,-125,4,2,3,60,0,0
43020,-125,4,2,2,60,0,0
44405,-111.111111111111,4,2,2,60,0,0
45558,-111.111111111111,4,2,2,65,0,0
48098,-111.111111111111,4,2,2,70,0,0
57328,461.538461538462,4,2,2,80,1,1
57328,-90.9090909090909,4,2,2,80,0,1
57558,-90.9090909090909,4,2,1,80,0,1
84789,-125,4,2,1,80,0,1
86866,-125,4,2,1,60,0,0
99328,-100,4,2,2,60,0,0
99789,461.538461538462,4,2,2,65,1,0
99789,-111.111111111111,4,2,2,65,0,0
107173,-111.111111111111,4,2,2,60,0,0
108096,-111.111111111111,4,2,3,60,0,0
108558,-125,4,2,3,60,0,0
113635,-125,4,2,1,60,0,0
114558,-111.111111111111,4,2,1,60,0,0
115711,-111.111111111111,4,2,1,65,0,0
116173,-111.111111111111,4,2,2,65,0,0
118250,-111.111111111111,4,2,2,70,0,0
127481,461.538461538462,4,2,2,80,1,1
127481,-90.9090909090909,4,2,2,80,0,1
127711,-90.9090909090909,4,2,1,80,0,1
154942,-125,4,2,1,80,0,1
157019,-125,4,2,1,70,0,0
157250,-100,4,2,3,70,0,0
162788,-100,4,2,2,70,0,0
164404,-100,4,2,1,70,0,0
179173,-111.111111111111,4,2,1,55,0,0
186557,-111.111111111111,4,2,1,65,0,0
195790,461.538461538462,4,2,1,65,1,0
203174,-111.111111111111,4,2,1,80,0,0
210097,-111.111111111111,4,2,2,80,0,0
210559,-90.9090909090909,4,2,2,80,0,1
210789,-90.9090909090909,4,2,1,80,0,1
225328,-100,4,2,1,70,0,0
231559,-125,4,2,1,70,0,0
234559,-125,4,2,1,50,0,0
235020,-125,4,2,1,40,0,0
235482,-125,4,2,1,30,0,0
235943,-125,4,2,1,20,0,0
236405,-125,4,2,1,10,0,0

[Colours]
Combo1 : 192,185,236
Combo2 : 216,219,147
Combo3 : 173,227,239
Combo4 : 196,232,159

[HitObjects]
248,98,98,6,0,P|207:101|165:83,1,88.1999999999999,2|2,2:0|2:0,2:0:0:0:
124,13,674,1,0,2:0:0:0:
124,13,790,2,0,P|111:69|95:128,1,117.6,2|0,2:0|2:0,2:0:0:0:
25,181,1482,2,0,P|55:196|81:216,1,58.7999999999999,2|0,2:0|2:0,2:0:0:0:
112,315,1944,5,2,2:0:0:0:
188,272,2174,1,0,2:0:0:0:
188,272,2290,2,0,P|230:259|273:250,1,88.1999999999999,2|2,2:0|2:0,2:0:0:0:
425,125,3328,6,0,L|434:95,2,29.4,2|0|0,2:0|2:0|2:0,2:0:0:0:
485,200,3790,6,0,P|441:206|400:220,1,88.1999999999999,2|2,2:0|2:0,2:0:0:0:
333,273,4367,1,0,2:0:0:0:
333,273,4482,2,0,P|293:254|250:244,1,88.1999999999999,2|0,2:0|2:0,2:0:0:0:
250,244,4944,2,0,P|246:215|239:187,1,58.7999999999999,0|2,2:0|2:0,2:0:0:0:
292,123,5405,1,0,2:0:0:0:
265,42,5636,6,0,B|310:46|310:46|355:16,2,88.1999999999999,2|2|2,2:0|2:0|2:0,2:0:0:0:
71,8,7251,1,0,2:0:0:0:
13,53,7482,6,0,P|6:85|0:113,1,58.7999999999999,6|0,3:1|2:0,2:0:0:0:
0,110,7828,1,0,2:0:0:0:
45,189,8059,1,0,2:0:0:0:
45,189,8174,2,0,P|96:172|161:158,1,117.6,2|2,2:0|2:3,2:0:0:0:
231,110,8867,2,0,P|240:79|246:50,1,58.7999999999999,2|0,2:3|2:0,2:0:0:0:
307,174,9328,5,2,2:0:0:0:
384,127,9559,1,0,2:0:0:0:
384,127,9674,2,0,P|415:135|442:140,1,58.7999999999999,0|0,2:0|2:0,2:0:0:0:
476,122,10021,6,0,P|512:165|512:225,1,117.6,2|2,2:0|2:3,2:0:0:0:
457,295,10713,2,0,P|488:306|520:319,1,58.7999999999999,2|0,2:3|2:0,2:0:0:0:
374,359,11174,6,0,P|312:371|249:388,1,117.6,2|0,2:0|2:0,2:0:0:0:
196,333,11867,2,0,P|209:279|222:215,1,117.6,2|0,2:0|2:0,2:0:0:0:
307,179,12559,1,2,2:3:0:0:
363,245,12790,1,4,3:1:0:0:
432,14,14867,6,0,P|393:27|334:36,1,84,4|2,3:1|2:0,2:0:0:0:
331,51,15213,1,0,2:0:0:0:
310,32,15328,1,8,3:2:0:0:
278,22,15444,1,0,2:0:0:0:
246,31,15559,1,2,2:0:0:0:
154,0,15790,6,0,P|147:46|136:82,1,84,0|2,3:0|2:0,2:0:0:0:
88,162,16251,2,0,P|125:134|202:142,1,126,8|0,3:2|2:0,2:0:0:0:
213,146,16713,1,0,3:1:0:0:
298,67,16944,5,2,2:0:0:0:
298,67,17059,1,0,2:0:0:0:
298,67,17174,2,0,L|312:24,2,42,8|0|2,3:2|2:0|2:0,2:0:0:0:
372,151,17636,2,0,P|393:148|417:140,1,42,0|8,3:0|2:0,2:0:0:0:
477,97,17867,1,2,2:0:0:0:
504,234,18098,6,0,L|481:367,1,126,8|0,3:2|2:0,2:0:0:0:
482,358,18559,6,0,P|448:342|397:341,1,84,0|2,3:1|2:0,2:0:0:0:
308,384,19021,2,0,P|300:342|290:300,1,84,8|0,3:2|2:0,2:0:0:0:
363,244,19482,2,0,P|355:202|345:160,1,84,0|2,3:0|2:0,2:0:0:0:
345,161,19828,1,8,2:0:0:0:
345,161,19944,1,8,3:2:0:0:
438,68,20174,6,0,P|381:76|304:30,1,126,6|0,3:1|2:0,2:0:0:0:
320,48,20636,1,8,2:0:0:0:
221,11,20867,1,8,2:0:0:0:
153,81,21098,6,0,P|114:96|71:103,1,84,6|8,3:2|2:3,2:0:0:0:
45,198,21559,2,0,P|26:191|2:186,2,42,4|8|8,2:3|2:0|3:2,2:0:0:0:
83,286,22021,1,8,2:3:0:0:
62,374,22251,6,0,P|125:356|196:347,1,134.4,4|0,3:1|3:0,2:0:0:0:
244,272,22944,1,0,2:0:0:0:
174,218,23174,2,0,P|168:187|158:152,1,67.2,0|0,3:0|2:0,2:0:0:0:
259,106,23636,2,0,P|268:138|274:171,1,67.2,0|0,3:0|2:0,2:0:0:0:
352,260,24098,6,0,P|404:263|473:218,1,134.4,0|0,3:0|3:0,2:0:0:0:
471,220,24790,1,0,2:0:0:0:
440,128,25021,2,0,P|388:125|319:170,1,134.4,0|0,3:0|3:0,2:0:0:0:
320,167,25713,1,0,2:0:0:0:
224,148,25944,6,0,P|234:179|238:213,1,67.2,0|0,3:0|2:0,2:0:0:0:
308,276,26405,2,0,P|297:307|293:341,1,67.2,0|0,3:0|2:0,2:0:0:0:
293,341,26751,1,0,2:0:0:0:
293,341,26867,2,0,P|244:372|168:360,1,134.4,0|0,3:0|3:0,2:0:0:0:
82,384,27559,2,0,P|74:352|64:319,1,67.2,0|0,2:0|2:0,2:0:0:0:
2,182,29405,5,0,2:0:0:0:
2,182,29636,2,0,P|56:179|111:147,1,100.8,6|0,3:1|2:0,2:0:0:0:
108,146,30098,1,8,3:1:0:0:
204,100,30328,2,0,P|193:141|187:175,1,67.2,2|0,2:0|3:0,2:0:0:0:
239,238,30790,1,2,2:0:0:0:
315,202,31021,2,0,P|321:169|330:136,1,67.2,8|2,3:1|2:0,2:0:0:0:
309,52,31482,6,0,P|357:53|412:27,1,100.8,2|0,3:1|2:0,2:0:0:0:
404,32,31944,1,8,3:1:0:0:
511,23,32174,2,0,P|466:37|451:132,1,134.4,2|2,3:1|2:0,2:0:0:0:
449,126,32751,1,0,2:0:0:0:
463,133,32867,1,8,3:1:0:0:
512,216,33098,5,2,2:0:0:0:
512,216,33213,1,0,2:0:0:0:
512,216,33328,2,0,L|495:284,1,67.2,2|2,3:1|2:0,2:0:0:0:
503,371,33790,1,8,2:1:0:0:
419,342,34021,1,2,2:0:0:0:
419,342,34136,2,0,P|376:351|320:364,1,100.8,0|2,2:0|3:2,2:0:0:0:
251,306,34713,1,10,2:1:0:0:
319,246,34944,6,0,P|338:181|345:115,1,134.4,6|8,3:1|2:0,2:0:0:0:
298,39,35636,1,8,3:2:0:0:
209,85,35867,1,8,2:0:0:0:
146,12,36098,1,8,3:2:0:0:
146,12,36559,6,0,P|103:27|41:39,1,100.8,0|0,2:0|2:0,2:0:0:0:
48,38,37021,1,4,3:1:0:0:
0,285,37713,5,0,3:0:0:0:
24,363,37944,1,8,2:1:0:0:
24,363,38636,5,2,2:0:0:0:
82,299,38867,2,0,P|131:313|184:319,2,100.8,0|0|0,3:0|3:0|3:0,2:0:0:0:
0,285,39790,1,8,2:1:0:0:
57,222,40021,1,2,2:0:0:0:
14,147,40251,5,2,2:0:0:0:
14,147,40367,2,0,P|63:135|111:115,1,100.8,2|0,2:0|3:0,2:0:0:0:
209,160,40944,1,0,2:0:0:0:
209,160,41059,2,0,P|219:128|236:94,1,67.2,0|0,3:0|2:0,2:0:0:0:
233,97,41405,1,0,3:0:0:0:
191,27,41636,2,0,P|251:63|325:49,1,134.4,8|2,2:1|2:0,2:0:0:0:
387,0,42328,5,2,2:0:0:0:
387,0,42444,1,2,2:0:0:0:
387,0,42559,2,0,B|351:40|351:40|374:147,1,134.4,8|8,2:3|2:0,2:0:0:0:
433,185,43251,1,4,2:3:0:0:
433,185,43367,1,8,2:0:0:0:
433,185,43482,2,0,L|498:201,1,67.2,8|0,2:0|3:0,2:0:0:0:
504,303,43944,5,8,2:1:0:0:
467,299,44059,1,8,2:1:0:0:
426,308,44174,1,8,2:0:0:0:
394,335,44290,1,8,2:0:0:0:
378,375,44405,6,0,P|304:357|229:344,1,151.2,4|0,3:1|3:0,2:0:0:0:
211,251,45098,1,0,2:0:0:0:
295,209,45328,2,0,P|302:173|313:133,1,75.6000000000001,0|0,3:0|2:0,2:0:0:0:
312,135,45674,1,8,2:0:0:0:
312,135,45790,1,8,3:1:0:0:
401,77,46021,6,0,P|342:87|255:36,1,151.2,8|8,2:0|2:0,2:0:0:0:
178,0,46713,1,0,3:0:0:0:
111,53,46944,2,0,P|73:66|33:74,1,75.6000000000001,8|0,2:0|3:0,2:0:0:0:
2,171,47405,1,8,2:0:0:0:
33,164,47521,1,8,2:0:0:0:
63,166,47636,1,8,3:1:0:0:
90,181,47751,1,8,2:0:0:0:
109,210,47867,1,8,2:0:0:0:
180,152,48098,6,0,B|267:134|247:175|329:155,1,151.2,4|0,3:1|3:0,2:0:0:0:
438,100,48790,1,8,2:1:0:0:
438,100,48905,1,8,2:0:0:0:
438,100,49021,2,0,L|423:177,1,75.6000000000001,0|0,3:0|2:0,2:0:0:0:
506,213,49482,2,0,L|491:290,1,75.6000000000001,8|8,3:1|2:0,2:0:0:0:
499,306,49828,1,8,2:0:0:0:
510,331,49944,6,0,B|477:306|477:306|422:297|371:333,1,151.2,0|0,3:1|3:0,2:0:0:0:
303,381,50636,1,8,2:1:0:0:
238,324,50867,2,0,L|253:250,1,75.6000000000001,0|8,3:0|2:0,2:0:0:0:
334,197,51328,5,8,3:1:0:0:
334,197,51444,2,0,P|350:156|346:120,1,75.6000000000001,8|8,2:0|2:3,2:0:0:0:
360,108,51790,2,0,P|278:102|215:35,1,151.2,4|0,3:1|3:0,2:0:0:0:
159,0,52482,1,8,2:0:0:0:
66,51,52713,2,0,P|79:88|89:129,1,75.6000000000001,0|8,3:0|2:0,2:0:0:0:
13,183,53174,1,8,3:1:0:0:
89,241,53405,5,8,2:0:0:0:
89,241,53521,1,8,2:0:0:0:
89,241,53636,2,0,P|107:295|94:349,2,113.4,4|0|8,3:1|3:2|3:2,2:0:0:0:
13,183,54559,1,8,3:1:0:0:
75,102,54790,1,8,2:0:0:0:
115,114,54905,1,0,2:0:0:0:
154,110,55021,1,8,2:1:0:0:
193,95,55136,1,8,2:1:0:0:
228,62,55251,1,0,2:0:0:0:
298,148,55482,6,0,P|359:121|504:269,1,302.4,2|0,3:2|2:0,2:0:0:0:
504,262,56867,1,2,2:0:0:0:
402,342,57328,6,0,P|356:352|311:362,1,92.4,4|2,3:1|2:0,2:0:0:0:
311,362,57674,1,0,2:0:0:0:
311,362,57789,1,8,3:2:0:0:
237,301,58020,1,2,2:0:0:0:
305,242,58251,2,0,P|315:196|324:152,1,92.4,0|2,3:2|2:0,2:0:0:0:
324,151,58597,1,0,2:0:0:0:
324,151,58712,1,8,3:2:0:0:
446,74,58943,6,0,P|380:81|272:10,1,184.8,2|2,2:0|2:0,2:0:0:0:
188,73,59635,1,8,3:2:0:0:
115,37,59866,1,2,2:0:0:0:
115,37,59981,2,0,L|23:58,1,92.4,8|8,2:0|2:0,2:0:0:0:
24,57,60328,1,2,2:0:0:0:
63,147,60558,2,0,L|53:197,1,46.2,8|0,3:2|2:0,2:0:0:0:
3,260,60789,5,2,2:0:0:0:
8,269,60904,1,8,2:0:0:0:
13,280,61020,2,0,B|85:273|71:310|157:298,1,138.6,4|0,3:2|2:0,2:0:0:0:
148,299,61481,1,8,3:2:0:0:
244,339,61712,2,0,L|234:387,2,46.2,2|8|0,2:0|2:0|3:2,2:0:0:0:
274,243,62174,1,8,2:3:0:0:
274,243,62289,1,8,2:0:0:0:
274,243,62404,1,8,3:2:0:0:
151,206,62635,6,0,P|114:160|128:75,1,138.6,4|0,3:1|2:0,2:0:0:0:
107,73,63097,2,0,P|153:63|197:43,1,92.4,0|8,3:0|3:2,2:0:0:0:
258,111,63558,1,8,2:0:0:0:
319,28,63789,2,0,P|366:15|418:-3,1,92.4,8|8,3:2|2:3,2:0:0:0:
436,5,64135,1,8,2:3:0:0:
465,26,64251,1,8,2:0:0:0:
478,54,64366,1,8,2:0:0:0:
472,87,64481,1,4,2:3:0:0:
390,156,64712,6,0,B|356:145|318:139|318:139|279:153|279:153|245:142|196:136,1,184.8,4|8,3:1|3:2,2:0:0:0:
96,87,65404,1,2,2:0:0:0:
96,87,65520,1,8,2:0:0:0:
96,87,65635,2,0,P|107:133|115:183,1,92.4,0|2,3:2|2:0,2:0:0:0:
36,248,66097,2,0,P|10:298|25:342,1,92.4,8|2,3:2|2:0,2:0:0:0:
26,342,66443,1,8,2:0:0:0:
38,351,66558,6,0,B|141:326|106:380|219:350,1,184.8,0|8,3:2|3:2,2:0:0:0:
308,384,67251,2,0,P|315:339|326:290,1,92.4,2|0,2:0|3:0,2:0:0:0:
243,263,67712,5,2,2:0:0:0:
160,232,67943,1,8,3:2:0:0:
130,151,68174,1,2,2:0:0:0:
159,63,68404,6,0,P|235:71|323:-3,1,184.8,4|8,3:2|3:2,2:0:0:0:
390,69,69097,1,2,2:0:0:0:
469,33,69328,2,0,P|487:77|486:125,1,92.4,0|2,3:2|2:0,2:0:0:0:
484,133,69674,1,8,2:0:0:0:
475,144,69789,1,8,3:2:0:0:
512,233,70020,6,0,P|467:190|345:185,1,184.8,4|0,3:1|3:0,2:0:0:0:
272,220,70712,1,8,3:2:0:0:
188,179,70943,1,8,2:0:0:0:
186,83,71174,1,8,3:2:0:0:
105,38,71404,5,8,2:3:0:0:
87,47,71520,1,8,2:3:0:0:
68,54,71635,2,0,L|57:99,1,46.2,8|8,3:2|2:0,2:0:0:0:
0,166,71866,2,0,L|11:211,1,46.2,8|8,2:0|2:0,2:0:0:0:
0,323,72097,6,0,P|55:289|139:310,1,138.6,4|0,3:1|2:0,2:0:0:0:
141,312,72558,2,0,L|232:291,1,92.4,8|2,3:2|2:0,2:0:0:0:
317,357,73020,1,0,3:2:0:0:
404,313,73251,1,2,2:0:0:0:
407,301,73366,1,0,2:0:0:0:
411,288,73481,1,8,3:2:0:0:
471,191,73712,6,0,P|404:242|296:242,1,184.8,2|2,2:0|2:0,2:0:0:0:
226,202,74404,1,8,3:2:0:0:
151,269,74635,1,2,2:0:0:0:
151,269,74751,2,0,L|59:293,1,92.4,8|8,2:0|2:0,2:0:0:0:
61,292,75097,1,2,2:0:0:0:
8,221,75328,1,8,3:2:0:0:
59,140,75558,1,2,2:0:0:0:
0,50,75789,6,0,P|78:93|169:76,1,184.8,4|8,3:2|3:2,2:0:0:0:
252,24,76481,1,2,2:0:0:0:
294,108,76712,2,0,L|274:199,1,92.4,0|8,3:2|2:3,2:0:0:0:
274,198,77058,1,8,2:0:0:0:
274,198,77174,1,8,3:2:0:0:
186,252,77404,6,0,P|174:313|218:373,1,138.6,4|0,3:1|2:0,2:0:0:0:
216,371,77866,1,0,3:0:0:0:
311,334,78097,1,8,3:2:0:0:
401,384,78328,1,8,2:0:0:0:
487,334,78558,2,0,P|495:291|506:242,1,92.4,8|8,3:2|2:3,2:0:0:0:
509,220,78904,1,8,2:3:0:0:
498,194,79020,1,8,2:0:0:0:
476,180,79135,1,8,2:0:0:0:
446,176,79251,1,4,2:3:0:0:
361,200,79481,6,0,P|313:195|268:181,1,92.4000028198243,4|2,3:1|2:0,2:0:0:0:
251,272,79943,1,8,3:2:0:0:
168,244,80174,1,2,2:0:0:0:
168,244,80289,1,8,2:0:0:0:
168,244,80404,2,0,B|107:255|62:278|62:278|17:268|-6:237,1,184.8,0|8,3:2|3:2,2:0:0:0:
30,169,81097,5,2,2:0:0:0:
30,169,81212,1,8,2:0:0:0:
30,169,81328,2,0,P|19:124|4:78,1,92.4,0|2,3:2|2:0,2:0:0:0:
74,4,81789,1,8,3:2:0:0:
184,29,82020,2,0,P|212:116|234:206,1,184.8,2|2,2:0|2:0,2:0:0:0:
234,206,82597,1,0,2:0:0:0:
234,206,82712,1,8,3:2:0:0:
188,298,82943,2,0,P|213:303|233:312,1,46.2,2|0,2:0|2:0,2:0:0:0:
288,381,83174,6,0,P|359:365|475:338,1,184.8,4|8,3:2|3:2,2:0:0:0:
396,268,83866,1,2,2:0:0:0:
473,219,84097,2,0,P|486:171|489:127,1,92.4,0|2,3:2|2:0,2:0:0:0:
489,128,84443,1,8,2:0:0:0:
489,128,84558,1,8,3:2:0:0:
512,21,84789,6,0,P|422:112|291:100,1,268.8,4|0,3:1|2:0,2:0:0:0:
290,99,86866,5,4,3:1:0:0:
256,192,86981,12,6,90558,2:1:0:0:
85,23,99328,6,0,P|143:37|157:95,1,126,2|0,2:0|2:0,2:0:0:0:
157,95,99789,6,0,P|81:107|9:128,2,151.2,4|0|0,3:1|3:0|3:0,2:0:0:0:
240,144,100942,1,0,2:0:0:0:
240,144,101173,2,0,L|260:69,1,75.6000000000001,0|0,3:0|2:0,2:0:0:0:
335,108,101635,6,0,P|409:93|488:63,2,151.2,0|0|0,3:0|3:0|3:0,2:0:0:0:
316,199,102789,1,0,2:0:0:0:
392,240,103019,1,8,3:1:0:0:
412,259,103135,1,8,2:1:0:0:
424,284,103250,1,0,2:0:0:0:
427,313,103365,1,0,2:0:0:0:
421,340,103481,6,0,P|381:351|340:363,1,75.6000000000001,0|0,3:0|2:0,2:0:0:0:
270,321,103942,1,8,3:1:0:0:
203,384,104173,1,2,2:0:0:0:
203,384,104289,2,0,P|151:368|93:358,1,113.4,0|0,2:0|2:0,2:0:0:0:
14,318,104865,1,8,3:1:0:0:
38,231,105096,6,0,P|114:215|182:188,1,151.2,4|8,3:1|2:3,2:0:0:0:
279,156,105789,1,8,2:1:0:0:
349,222,106019,1,8,2:1:0:0:
437,181,106250,1,4,3:2:0:0:
437,181,106712,6,0,P|449:125|465:65,1,113.4,2|0,2:0|2:0,2:0:0:0:
463,70,107173,5,4,3:1:0:0:
321,7,107865,1,0,3:0:0:0:
255,54,108096,1,8,2:0:0:0:
255,54,108558,2,0,L|179:38,1,67.2,0|2,2:0|2:0,2:0:0:0:
149,116,109019,6,0,P|199:126|249:141,2,100.8,0|0|0,3:0|3:0|3:0,2:0:0:0:
72,79,109942,1,8,2:0:0:0:
40,154,110173,1,0,2:0:0:0:
14,232,110404,5,2,2:0:0:0:
14,232,110519,2,0,P|27:281|40:334,1,100.8,2|0,2:0|3:0,2:0:0:0:
200,373,111558,1,0,3:0:0:0:
226,299,111789,1,8,2:0:0:0:
226,299,112481,5,2,2:0:0:0:
176,232,112712,2,0,P|160:184|152:134,2,100.8,8|4|4,2:3|2:3|2:3,2:0:0:0:
144,316,113635,1,8,2:0:0:0:
207,381,113865,1,0,3:0:0:0:
222,362,113981,1,8,2:0:0:0:
248,349,114096,1,8,3:2:0:0:
278,343,114212,1,8,2:0:0:0:
311,349,114327,1,8,2:0:0:0:
427,384,114558,6,0,P|436:320|461:233,1,151.2,4|0,3:1|3:0,2:0:0:0:
484,132,115250,1,0,2:0:0:0:
484,132,115365,1,0,2:0:0:0:
484,132,115481,2,0,P|448:154|395:150,1,75.6000000000001,0|0,3:0|2:0,2:0:0:0:
374,233,115942,1,8,3:1:0:0:
291,198,116173,6,0,P|226:190|151:243,1,151.2,8|8,2:0|2:0,2:0:0:0:
108,306,116865,1,0,3:0:0:0:
25,271,117096,2,0,P|13:199|-1:122,1,151.2,8|8,2:0|2:0,2:0:0:0:
56,52,117789,1,8,3:1:0:0:
56,52,117904,2,0,P|93:65|133:71,1,75.6000000000001,8|8,2:0|2:3,2:0:0:0:
128,70,118250,6,0,P|180:30|263:29,1,151.2,4|0,3:1|3:0,2:0:0:0:
336,78,118942,1,8,2:1:0:0:
298,158,119173,2,0,P|304:198|317:240,1,75.6000000000001,0|8,3:0|2:0,2:0:0:0:
313,231,119519,1,8,2:0:0:0:
313,231,119635,1,8,3:1:0:0:
406,293,119865,1,8,2:0:0:0:
353,372,120096,6,0,P|318:336|258:334,1,113.4,0|0,3:1|2:0,2:0:0:0:
251,339,120558,1,0,3:0:0:0:
184,281,120789,2,0,P|136:322|42:312,1,151.2,8|8,2:1|2:0,2:0:0:0:
0,243,121481,2,0,P|8:204|14:167,1,75.6000000000001,8|8,3:1|2:3,2:0:0:0:
0,72,121942,6,0,P|77:76|146:25,1,151.2,4|0,3:1|3:0,2:0:0:0:
223,6,122635,1,8,2:0:0:0:
233,14,122750,1,8,2:0:0:0:
245,20,122865,2,0,L|223:113,1,75.6000000000001,0|8,3:0|2:0,2:0:0:0:
254,181,123327,1,8,3:1:0:0:
184,214,123558,5,8,2:0:0:0:
184,214,123673,1,8,2:0:0:0:
184,214,123789,2,0,B|162:245|162:245|178:326,1,113.4,4|8,3:1|3:2,2:0:0:0:
185,332,124250,2,0,P|224:340|264:351,1,75.6000000000001,8|8,2:0|3:2,2:0:0:0:
367,383,124712,1,8,3:1:0:0:
456,341,124942,1,8,2:0:0:0:
469,314,125058,1,8,2:0:0:0:
465,284,125173,1,8,3:1:0:0:
444,258,125289,1,8,2:0:0:0:
419,242,125404,1,8,2:0:0:0:
448,144,125635,6,0,P|349:250|202:251,1,302.4,0|0,3:0|2:0,2:0:0:0:
199,250,127019,1,2,2:0:0:0:
118,332,127481,6,0,P|107:288|94:243,1,92.4,4|2,3:1|2:0,2:0:0:0:
93,242,127827,1,0,2:0:0:0:
93,242,127942,1,8,3:2:0:0:
13,197,128173,1,2,2:0:0:0:
33,109,128404,2,0,P|73:98|123:79,1,92.4,0|2,3:2|2:0,2:0:0:0:
120,80,128750,1,0,2:0:0:0:
120,80,128865,1,8,3:2:0:0:
169,2,129096,6,0,B|149:121|201:66|178:193,1,184.8,2|2,2:0|2:0,2:0:0:0:
133,259,129788,1,8,3:2:0:0:
186,337,130019,1,2,2:0:0:0:
186,337,130134,2,0,P|255:337|321:376,1,138.6,8|2,2:0|2:0,2:0:0:0:
314,369,130596,1,0,2:0:0:0:
314,369,130711,1,8,3:2:0:0:
417,325,130942,2,0,L|425:277,1,46.2,2|8,2:0|2:0,2:0:0:0:
512,259,131173,6,0,B|419:259|447:196|340:212,1,184.8,4|8,3:2|3:2,2:0:0:0:
266,177,131865,2,0,L|255:131,2,46.2,2|8|0,2:0|2:0|3:2,2:0:0:0:
249,270,132327,1,8,2:3:0:0:
249,270,132442,1,8,2:0:0:0:
249,270,132557,1,8,3:2:0:0:
155,190,132788,6,0,P|84:201|-7:116,1,184.8,4|0,3:1|3:0,2:0:0:0:
20,54,133481,2,0,P|63:43|110:26,1,92.4,8|8,3:2|2:0,2:0:0:0:
206,6,133942,2,0,P|196:55|191:99,1,92.4,8|8,3:2|2:3,2:0:0:0:
207,117,134288,1,8,2:3:0:0:
211,139,134404,1,8,2:0:0:0:
208,169,134519,1,8,2:0:0:0:
189,189,134634,1,4,2:3:0:0:
116,254,134865,6,0,P|203:224|294:210,1,184.8,4|8,3:1|3:2,2:0:0:0:
338,133,135557,1,2,2:0:0:0:
338,133,135673,1,8,2:0:0:0:
338,133,135788,2,0,L|347:86,2,46.2,0|8|2,3:0|2:0|2:0,2:0:0:0:
410,185,136250,1,8,3:2:0:0:
511,149,136481,5,2,2:0:0:0:
511,149,136596,1,8,2:0:0:0:
511,149,136711,2,0,P|493:236|481:334,1,184.8,0|8,3:2|3:2,2:0:0:0:
405,378,137404,2,0,P|363:365|314:356,1,92.4,2|0,2:0|3:0,2:0:0:0:
279,281,137865,1,2,2:0:0:0:
352,232,138096,1,8,3:2:0:0:
373,148,138327,1,2,2:0:0:0:
335,64,138557,6,0,B|284:88|284:88|222:92|164:48,1,184.8,4|8,3:2|3:2,2:0:0:0:
127,132,139250,1,2,2:0:0:0:
40,106,139481,2,0,P|26:152|17:199,1,92.4,0|2,3:2|2:0,2:0:0:0:
17,195,139827,1,8,2:0:0:0:
17,195,139942,1,8,3:2:0:0:
0,314,140173,6,0,B|50:348|120:338|120:338|183:293,1,184.8,4|0,3:1|3:0,2:0:0:0:
242,241,140865,1,8,3:2:0:0:
182,165,141096,1,8,2:0:0:0:
210,76,141327,2,0,P|257:64|301:47,1,92.4,8|8,2:3|2:3,2:0:0:0:
297,48,141673,1,4,2:3:0:0:
297,48,141788,2,0,L|311:-1,2,46.2,8|8|8,3:2|2:0|2:0,2:0:0:0:
359,117,142250,6,0,P|403:132|448:142,1,92.4,4|2,3:1|2:0,2:0:0:0:
447,141,142596,1,0,2:0:0:0:
447,141,142711,1,8,3:2:0:0:
491,238,142942,1,2,2:0:0:0:
400,287,143173,2,0,P|356:272|311:262,1,92.4,0|2,3:2|2:0,2:0:0:0:
311,262,143519,1,0,2:0:0:0:
311,262,143634,1,8,3:2:0:0:
240,329,143865,6,0,P|161:385|69:372,1,184.8,2|2,2:0|2:0,2:0:0:0:
26,307,144557,1,8,3:2:0:0:
67,223,144788,1,2,2:0:0:0:
67,223,144904,2,0,P|56:178|39:135,1,92.4,8|8,2:0|2:0,2:0:0:0:
39,135,145250,1,2,2:0:0:0:
4,68,145481,2,0,P|24:33|74:22,1,92.4,8|2,3:2|2:0,2:0:0:0:
72,21,145827,1,8,2:0:0:0:
72,21,145942,6,0,P|144:63|239:39,1,184.8,4|8,3:2|3:2,2:0:0:0:
335,3,146634,1,2,2:0:0:0:
394,73,146865,2,0,L|376:163,1,92.4,0|8,3:2|2:3,2:0:0:0:
375,163,147211,1,8,2:0:0:0:
375,163,147327,1,8,3:2:0:0:
460,222,147557,6,0,B|412:209|359:221|359:221|322:204|279:203,1,184.8,4|0,3:1|3:0,2:0:0:0:
190,180,148250,1,8,3:2:0:0:
134,252,148481,1,8,2:0:0:0:
48,227,148711,2,0,L|35:183,1,46.2,8|0,3:2|2:0,2:0:0:0:
0,100,148942,1,8,2:3:0:0:
23,101,149057,1,8,2:3:0:0:
48,96,149173,1,8,2:0:0:0:
70,85,149288,1,8,2:0:0:0:
92,69,149404,1,4,2:3:0:0:
161,0,149634,6,0,P|124:83|127:175,1,184.8,4|8,3:1|3:2,2:0:0:0:
256,224,150327,1,2,2:0:0:0:
256,224,150442,1,8,2:0:0:0:
256,224,150557,2,0,P|292:140|289:48,1,184.8,0|8,3:2|3:2,2:0:0:0:
212,98,151250,5,2,2:0:0:0:
212,98,151365,1,8,2:0:0:0:
212,98,151481,2,0,P|223:140|233:191,1,92.4,0|2,3:2|2:0,2:0:0:0:
169,263,151942,1,8,3:2:0:0:
243,329,152173,2,0,B|337:329|307:377|418:377,1,184.8,2|2,2:0|2:0,2:0:0:0:
486,327,152865,1,8,3:2:0:0:
436,264,153096,5,2,2:0:0:0:
436,264,153211,1,8,2:0:0:0:
436,264,153327,2,0,P|446:216|456:172,1,92.4,4|2,3:2|2:0,2:0:0:0:
350,122,153788,2,0,P|340:170|330:214,1,92.4,8|2,3:2|2:0,2:0:0:0:
264,285,154250,1,0,3:2:0:0:
159,255,154481,1,2,2:0:0:0:
159,255,154596,1,8,2:0:0:0:
159,255,154711,1,8,3:2:0:0:
72,336,154942,6,0,P|3:224|19:93,1,268.8,4|0,3:1|2:0,2:0:0:0:
19,92,157019,5,6,3:1:0:0:
96,52,157250,2,0,L|104:8,2,42,2|2|0,2:0|2:0|3:0,2:0:0:0:
156,120,157711,1,2,2:0:0:0:
156,120,157827,1,2,2:0:0:0:
156,120,157942,2,0,L|136:208,1,84,0|2,3:1|2:0,2:0:0:0:
64,260,158404,2,0,P|64:328|104:376,1,126,8|0,3:1|2:0,2:0:0:0:
108,380,158865,6,0,P|152:368|200:356,1,84,0|2,3:1|2:0,2:0:0:0:
268,312,159327,1,0,3:1:0:0:
332,376,159557,1,2,2:0:0:0:
332,376,159673,2,0,P|376:364|416:360,1,84,2|2,2:0|2:0,2:0:0:0:
414,360,160019,1,2,2:0:0:0:
504,384,160250,2,0,P|456:316|456:232,1,168,8|4,3:1|3:1,2:0:0:0:
512,168,160942,5,2,2:0:0:0:
488,88,161173,2,0,P|448:80|408:60,1,84,0|2,3:1|2:0,2:0:0:0:
408,48,161519,2,0,P|352:44|300:88,1,126,2|2,2:0|2:0,2:0:0:0:
216,48,162096,1,8,3:1:0:0:
176,129,162327,6,0,P|188:173|196:222,1,84,6|0,3:1|2:0,2:0:0:0:
289,251,162788,1,8,2:0:0:0:
250,328,163019,1,8,3:2:0:0:
242,348,163134,1,8,2:3:0:0:
233,371,163250,2,0,P|163:350|68:336,1,168,8|8,2:0|2:0,2:0:0:0:
11,272,163942,1,8,3:2:0:0:
32,181,164173,1,8,2:0:0:0:
117,151,164404,6,0,P|164:149|214:125,1,84,6|2,3:1|2:0,2:0:0:0:
208,124,164750,1,0,2:0:0:0:
215,112,164865,2,0,L|206:68,2,42,8|0|2,2:0|2:0|2:0,2:0:0:0:
273,192,165327,1,0,3:0:0:0:
349,158,165557,1,2,2:0:0:0:
429,129,165788,2,0,P|466:147|511:159,1,84,8|2,2:0|2:0,2:0:0:0:
507,158,166134,1,8,2:0:0:0:
507,158,166250,5,8,2:3:0:0:
463,243,166481,2,0,L|422:253,2,42,2|0|8,2:0|2:0|2:0,2:0:0:0:
512,317,166942,1,2,2:0:0:0:
512,317,167057,2,0,L|429:338,1,84,8|8,2:0|2:0,2:0:0:0:
430,337,167404,1,2,2:0:0:0:
355,383,167634,2,0,P|301:332|211:332,1,168,8|6,2:0|3:1,2:0:0:0:
133,382,168327,5,2,2:0:0:0:
133,382,168442,1,0,2:0:0:0:
133,382,168557,2,0,P|122:339|111:297,1,84,8|2,2:0|2:0,2:0:0:0:
103,296,168904,1,0,2:0:0:0:
94,288,169019,2,0,L|84:242,1,42,0|8,3:0|2:0,2:0:0:0:
126,173,169250,1,2,2:0:0:0:
202,208,169481,2,0,P|241:195|284:183,1,84,8|2,2:0|2:0,2:0:0:0:
359,250,169942,5,8,2:3:0:0:
359,250,170057,2,0,P|399:261|439:276,1,84,0|0,2:0|2:0,2:0:0:0:
438,275,170404,1,8,2:0:0:0:
512,209,170634,1,2,2:0:0:0:
486,128,170865,2,0,P|405:105|326:75,1,168,0|8,3:0|2:0,2:0:0:0:
241,18,171557,5,2,2:0:0:0:
241,18,171673,1,8,2:0:0:0:
241,18,171788,2,0,P|231:59|217:98,1,84,4|2,3:2|2:0,2:0:0:0:
180,176,172250,1,8,2:0:0:0:
222,257,172481,1,2,2:0:0:0:
222,257,172596,1,0,2:0:0:0:
222,257,172711,2,0,P|263:269|302:284,2,84,0|2|8,3:0|2:0|2:0,2:0:0:0:
162,325,173404,5,2,2:0:0:0:
162,325,173519,1,8,2:0:0:0:
162,325,173634,2,0,P|123:333|81:345,1,84,8|2,2:3|2:0,2:0:0:0:
11,297,174096,1,8,2:0:0:0:
39,219,174327,1,2,2:0:0:0:
57,203,174442,1,8,2:0:0:0:
70,180,174557,1,0,3:0:0:0:
72,155,174673,1,8,2:0:0:0:
62,130,174788,1,2,2:0:0:0:
0,76,175019,6,0,B|48:101|48:101|102:95|165:56,1,168,8|6,2:0|3:1,2:0:0:0:
221,16,175711,1,2,2:0:0:0:
292,71,175942,2,0,P|280:115|274:154,1,84,8|0,2:0|2:0,2:0:0:0:
204,215,176404,2,0,P|216:259|222:298,1,84,0|2,3:0|2:0,2:0:0:0:
221,296,176750,1,8,2:0:0:0:
221,296,176865,1,8,3:2:0:0:
162,372,177096,6,0,B|253:372|216:323|321:323,1,168,6|8,3:1|2:0,2:0:0:0:
404,364,177788,1,8,3:2:0:0:
479,327,178019,1,8,2:0:0:0:
479,327,178134,1,8,2:3:0:0:
479,327,178250,2,0,P|490:279|501:237,1,84,8|8,3:2|2:0,2:0:0:0:
503,222,178596,1,8,2:3:0:0:
496,192,178711,1,8,2:0:0:0:
477,175,178827,1,8,2:3:0:0:
447,170,178942,1,4,2:3:0:0:
358,132,179173,6,0,P|431:134|486:85,2,151.2,6|0|0,3:1|3:0|3:1,2:0:0:0:
208,47,180557,1,0,3:1:0:0:
208,47,180788,2,0,L|186:199,1,151.2,12|0,2:1|2:0,2:0:0:0:
246,260,181481,2,0,L|320:243,1,75.6000000000001,0|0,3:1|2:0,2:0:0:0:
372,324,181942,2,0,L|298:341,1,75.6000000000001,0|0,3:1|2:0,2:0:0:0:
219,384,182404,1,8,3:1:0:0:
149,322,182634,2,0,P|77:323|7:256,1,151.2,8|0,2:3|2:0,2:0:0:0:
16,275,183327,1,0,3:1:0:0:
86,163,183788,6,0,P|93:200|103:236,2,75.6000000000001,0|0|0,3:1|2:0|3:1,2:0:0:0:
0,118,184481,1,4,2:3:0:0:
0,118,184711,2,0,P|56:124|134:74,1,151.2,0|0,3:1|3:1,2:0:0:0:
218,21,185404,2,0,L|291:38,1,75.6000000000001,0|0,2:0|3:1,2:0:0:0:
291,38,185750,1,8,2:0:0:0:
291,38,185865,1,0,2:0:0:0:
403,17,186096,2,0,P|395:54|388:91,1,75.6000000000001,8|0,3:1|2:0,2:0:0:0:
472,139,186557,6,0,P|415:136|326:180,1,151.2,4|0,3:1|3:1,2:0:0:0:
266,224,187250,1,0,2:0:0:0:
188,177,187481,2,0,P|181:141|170:97,1,75.6000000000001,0|0,3:1|2:0,2:0:0:0:
171,103,187827,1,0,2:0:0:0:
171,103,187942,1,0,3:0:0:0:
66,87,188173,6,0,P|84:160|98:234,1,151.2,14|0,2:0|2:0,2:0:0:0:
39,310,188865,2,0,P|73:319|112:332,1,75.6000000000001,0|0,3:1|2:0,2:0:0:0:
186,384,189327,1,0,3:1:0:0:
260,349,189557,1,0,2:0:0:0:
275,277,189788,1,10,3:2:0:0:
209,221,190019,2,0,P|168:158|177:85,1,151.2,4|0,2:2|2:0,2:0:0:0:
98,46,190711,1,0,3:1:0:0:
98,46,190942,2,0,P|163:32|252:5,1,151.2,0|0,2:0|2:0,2:0:0:0:
311,65,191634,1,8,3:1:0:0:
387,19,191865,6,0,P|427:10|471:-5,1,75.6000000000001,6|0,3:1|2:0,2:0:0:0:
509,76,192327,1,0,3:0:0:0:
509,76,192442,1,0,2:0:0:0:
509,76,192557,2,0,P|497:118|491:152,1,75.6000000000001,8|8,3:2|2:0,2:0:0:0:
500,242,193019,5,8,3:2:0:0:
405,219,193250,1,8,2:0:0:0:
321,257,193481,1,8,3:2:0:0:
256,336,193711,6,0,B|180:324|187:368|109:352,1,151.2,4|0,3:1|2:0,2:0:0:0:
460,232,203174,6,0,P|456:296|436:380,1,151.2,4|0,3:1|3:1,2:0:0:0:
344,360,203866,1,0,2:0:0:0:
344,360,203982,1,0,2:0:0:0:
344,360,204097,2,0,P|348:296|368:212,1,151.2,0|0,3:1|3:1,2:0:0:0:
268,192,204790,5,0,2:0:0:0:
268,192,204905,1,0,2:0:0:0:
268,192,205020,2,0,P|264:256|244:340,1,151.2,0|0,3:1|3:1,2:0:0:0:
148,320,205713,2,0,P|152:256|172:172,1,151.2,0|0,2:0|2:0,2:0:0:0:
128,112,206405,1,8,3:2:0:0:
48,104,206636,1,0,2:0:0:0:
0,184,206866,6,0,P|248:184|472:28,1,529.200000000001,4|0,3:1|2:0,2:0:0:0:
336,20,210097,5,2,2:0:0:0:
509,112,210559,2,0,P|496:166|489:204,1,92.4,4|2,3:1|2:0,2:0:0:0:
489,202,210905,1,0,2:0:0:0:
489,202,211020,1,8,3:2:0:0:
412,258,211251,1,2,2:0:0:0:
347,189,211482,2,0,P|360:135|367:97,1,92.4,0|2,3:2|2:0,2:0:0:0:
366,98,211828,1,0,2:0:0:0:
366,98,211943,1,8,3:2:0:0:
415,0,212174,6,0,P|344:63|245:40,1,184.8,2|2,2:0|2:0,2:0:0:0:
181,5,212866,1,8,3:2:0:0:
120,75,213097,1,2,2:0:0:0:
120,75,213213,2,0,P|131:120|139:167,1,92.4,8|8,2:0|2:0,2:0:0:0:
138,165,213559,1,2,2:0:0:0:
236,145,213790,1,8,3:2:0:0:
300,222,214020,2,0,L|288:276,1,46.2,2|8,2:0|2:0,2:0:0:0:
220,320,214251,6,0,B|152:335|152:335|123:362|123:362|48:381,1,184.8,4|8,3:2|3:2,2:0:0:0:
0,310,214943,1,2,2:0:0:0:
70,259,215174,2,0,P|86:221|85:167,1,92.4,0|8,3:2|2:3,2:0:0:0:
79,158,215520,1,8,2:0:0:0:
69,150,215636,1,8,3:2:0:0:
0,81,215866,6,0,P|79:127|165:105,1,184.8,4|0,3:1|3:0,2:0:0:0:
242,62,216559,1,8,3:2:0:0:
324,99,216790,1,8,2:0:0:0:
307,198,217020,2,0,P|322:238|335:288,1,92.4,8|8,3:2|2:3,2:0:0:0:
350,303,217366,1,8,2:3:0:0:
372,309,217482,1,8,2:0:0:0:
394,306,217597,1,8,2:0:0:0:
413,294,217713,1,4,2:3:0:0:
468,352,217943,6,0,B|401:343|401:343|354:361|354:361|281:349,1,184.8,4|8,3:1|3:2,2:0:0:0:
185,330,218636,1,2,2:0:0:0:
185,330,218751,1,8,2:0:0:0:
185,330,218866,2,0,P|141:339|96:353,1,92.4,0|2,3:2|2:0,2:0:0:0:
14,304,219328,1,8,3:2:0:0:
86,247,219559,5,2,2:0:0:0:
86,247,219674,1,8,2:0:0:0:
86,247,219790,2,0,P|95:202|101:153,1,92.4,0|0,3:2|2:0,2:0:0:0:
188,110,220251,1,8,3:2:0:0:
282,162,220482,2,0,P|264:252|252:350,1,184.8,2|2,2:0|2:0,2:0:0:0:
347,384,221174,1,8,3:2:0:0:
452,372,221405,5,2,2:0:0:0:
452,372,221520,1,8,2:0:0:0:
452,372,221636,2,0,P|470:282|482:184,1,184.8,4|8,3:2|3:2,2:0:0:0:
440,116,222328,1,2,2:0:0:0:
449,7,222559,2,0,P|417:35|359:33,1,92.4,0|2,3:2|2:0,2:0:0:0:
360,32,222905,1,8,2:0:0:0:
352,24,223020,1,8,3:2:0:0:
256,0,223251,6,0,B|240:112|288:72|264:184,1,184.8,4|0,3:1|3:0,2:0:0:0:
328,240,223943,1,8,3:2:0:0:
320,344,224174,2,0,P|274:348|230:361,1,92.4,8|8,3:2|2:3,2:0:0:0:
144,320,224636,2,0,L|136:272,2,46.2,4|8|8,2:3|2:0|3:2,2:0:0:0:
68,382,225097,1,8,2:3:0:0:
19,304,225328,6,0,P|14:263|4:221,1,84,4|2,3:1|2:0,2:0:0:0:
7,194,225674,1,0,2:0:0:0:
24,174,225790,1,8,3:2:0:0:
51,164,225905,1,0,2:0:0:0:
84,167,226020,1,2,2:0:0:0:
160,122,226251,2,0,P|198:143|241:143,1,84,0|2,3:0|2:0,2:0:0:0:
332,120,226713,2,0,P|312:180|312:244,1,126,8|0,3:2|2:0,2:0:0:0:
311,242,227174,5,0,3:1:0:0:
256,316,227405,1,2,2:0:0:0:
256,316,227520,1,0,2:0:0:0:
256,316,227636,2,0,L|206:328,2,42,8|0|2,3:2|2:0|2:0,2:0:0:0:
314,384,228097,1,0,3:0:0:0:
399,362,228328,1,2,2:0:0:0:
482,343,228559,2,0,P|492:256|512:179,1,168,8|0,3:2|3:1,2:0:0:0:
333,54,229482,6,0,P|323:141|303:218,1,168,8|0,3:2|3:0,2:0:0:0:
263,308,230174,1,2,2:0:0:0:
263,308,230290,1,2,2:3:0:0:
263,308,230405,1,8,3:2:0:0:
312,383,230636,2,0,P|254:337|144:336,1,168,6|8,3:1|2:3,2:0:0:0:
86,384,231328,1,8,2:0:0:0:
20,332,231559,6,0,B|56:266|14:204|14:204|68:243|154:215|175:156|136:95|80:100|64:142,1,403.2,6|0,3:2|2:0,2:0:0:0:
256,192,233059,12,0,236866,2:0:0:0:
