osu file format v14

[General]
AudioFilename: audio.ogg
AudioLeadIn: 0
PreviewTime: 195328
Countdown: 0
SampleSet: Soft
StackLeniency: 0.8
Mode: 0
LetterboxInBreaks: 0
WidescreenStoryboard: 1

[Editor]
Bookmarks: 98,14867,29636,44405,57328,72097,86866,99789,114558,127481,142250,157019,179173,195790,210559,225328,233174,236866
DistanceSpacing: 1
BeatDivisor: 4
GridSize: 8
TimelineZoom: 1.5

[Metadata]
Title:arc-en-ciel
TitleUnicode:アルカンシェル
Artist:Hanatan
ArtistUnicode:花たん
Creator:Ayesha Altugle
Version:Easy
Source:転生王女と天才令嬢の魔法革命
Tags:Shizuku- Kazato Asa Shikibe Mayu magirevo Tensei Oujo to Tensai Reijou no Mahou Kakumei The Magical Revolution of the Reincarnated Princess and the Genius Young Lady YURiCa ZMCZ-16341 doriko isekai yuri opening full version pop jpop j-pop anime japanese
BeatmapID:3987929
BeatmapSetID:1930018

[Difficulty]
HPDrainRate:3
CircleSize:3.2
OverallDifficulty:3
ApproachRate:3
SliderMultiplier:1
SliderTickRate:1

[Events]
//Background and Video events
0,0,"104730528_p0.jpg",0,0
//Break Periods
2,90758,98349
2,195790,201734
//Storyboard Layer 0 (Background)
//Storyboard Layer 1 (Fail)
//Storyboard Layer 2 (Pass)
//Storyboard Layer 3 (Foreground)
//Storyboard Layer 4 (Overlay)
//Storyboard Sound Samples

[TimingPoints]
98,461.538461538462,4,2,2,60,1,0
98,-111.111111111111,4,2,2,60,0,0
7482,-111.111111111111,4,2,1,60,0,0
8174,-111.111111111111,4,2,2,60,0,0
14867,-100,4,2,2,60,0,0
15098,-100,4,2,1,70,0,0
22251,-111.111111111111,4,2,1,60,0,0
29866,-111.111111111111,4,2,3,60,0,0
35405,-111.111111111111,4,2,1,60,0,0
42098,-111.111111111111,4,2,3,60,0,0
43020,-111.111111111111,4,2,2,60,0,0
45790,-111.111111111111,4,2,2,65,0,0
48098,-111.111111111111,4,2,2,70,0,0
57328,461.538461538462,4,2,2,80,1,1
57328,-95.2380952380952,4,2,2,80,0,1
57558,-95.2380952380952,4,2,1,80,0,1
86866,-95.2380952380952,4,2,1,80,0,0
90558,-95.2380952380952,4,2,1,60,0,0
99789,461.538461538462,4,2,1,65,1,0
99789,-111.111111111111,4,2,1,65,0,0
106711,-111.111111111111,4,2,2,65,0,0
107173,-111.111111111111,4,2,2,60,0,0
108096,-111.111111111111,4,2,3,60,0,0
113635,-111.111111111111,4,2,1,60,0,0
115942,-111.111111111111,4,2,1,65,0,0
118250,-111.111111111111,4,2,1,70,0,0
124250,-111.111111111111,4,2,2,70,0,0
127481,461.538461538462,4,2,2,80,1,1
127481,-95.2380952380952,4,2,2,80,0,1
127711,-95.2380952380952,4,2,1,80,0,1
157019,-100,4,2,1,70,0,0
157250,-100,4,2,3,70,0,0
162788,-100,4,2,2,70,0,0
164404,-100,4,2,1,70,0,0
179173,-100,4,2,1,55,0,0
186557,-100,4,2,1,65,0,0
195790,461.538461538462,4,2,1,65,1,0
203174,-111.111111111111,4,2,1,80,0,0
210559,-95.2380952380952,4,2,1,80,0,1
225328,-100,4,2,1,70,0,0
234559,-100,4,2,1,50,0,0
235020,-100,4,2,1,40,0,0
235482,-100,4,2,1,30,0,0
235943,-100,4,2,1,20,0,0
236405,-100,4,2,1,10,0,0

[Colours]
Combo1 : 192,185,236
Combo2 : 216,219,147
Combo3 : 173,227,239
Combo4 : 196,232,159

[HitObjects]
333,71,98,6,0,P|364:83|400:83,2,67.5000000000001,2|2|2,2:0|2:0|2:0,2:0:0:0:
256,23,1251,1,0,2:0:0:0:
132,77,1944,2,0,L|65:91,2,67.5000000000001,2|2|2,2:0|2:0|2:0,2:0:0:0:
256,128,3328,1,2,2:0:0:0:
322,67,3790,6,0,P|329:31|336:1,2,67.5000000000001,2|2|2,2:0|2:0|2:0,2:0:0:0:
393,121,4944,1,0,2:0:0:0:
479,88,5405,5,0,2:0:0:0:
479,88,5636,2,0,P|510:153|504:215,2,135,2|2|0,2:0|2:0|2:0,2:0:0:0:
393,121,7482,6,0,L|261:150,1,135,6|2,3:1|2:0,2:0:0:0:
146,221,8867,1,2,2:3:0:0:
57,207,9328,2,0,L|28:75,2,135,2|2|2,2:0|2:0|2:3,2:0:0:0:
29,292,11174,6,0,P|117:287|193:335,1,180,2|0,2:0|2:0,2:0:0:0:
271,376,12559,2,0,L|315:366,1,45,2|4,2:3|3:1,2:0:0:0:
314,366,14867,6,0,P|322:316|332:267,1,100,4|8,3:1|3:2,2:0:0:0:
310,222,15559,2,0,P|358:210|405:194,1,100,2|0,0:0|3:0,0:0:0:0:
451,173,16251,1,8,3:2:0:0:
421,77,16713,6,0,P|372:68|326:51,1,100,0|8,3:1|3:2,2:0:0:0:
224,57,17636,2,0,P|219:34|211:9,2,50,0|2|8,3:0|2:0|3:2,2:0:0:0:
176,145,18559,5,0,3:1:0:0:
253,208,19021,2,0,P|297:195|350:185,1,100,8|0,3:2|3:0,2:0:0:0:
440,141,19944,1,8,3:2:0:0:
440,141,20174,2,0,P|452:189|472:239,1,100,6|8,3:1|2:0,2:0:0:0:
461,288,20867,1,8,0:0:0:0:
461,288,21098,2,0,P|387:281|324:320,1,150,6|8,3:2|3:2,2:0:0:0:
228,342,22251,6,0,P|183:352|141:363,2,90.0000000000001,4|0|0,3:1|3:0|3:0,2:0:0:0:
258,257,23636,1,0,3:0:0:0:
182,207,24098,2,0,P|137:217|95:228,1,90.0000000000001,0|0,3:0|3:0,2:0:0:0:
51,216,24790,2,0,P|19:157|33:92,1,134.999995880127,0|0,2:0|3:0,2:0:0:0:
96,28,25944,6,0,P|139:20|184:6,1,90.0000000000001,0|0,3:0|3:0,2:0:0:0:
259,53,26867,1,0,3:0:0:0:
232,138,27328,1,0,3:0:0:0:
293,203,27790,1,0,2:0:0:0:
293,203,29636,6,0,P|339:211|381:221,1,90.0000000000001,6|8,3:1|3:1,2:0:0:0:
424,231,30328,2,0,P|465:185|465:115,1,135,2|8,2:0|3:1,2:0:0:0:
405,47,31482,2,0,P|361:36|320:19,1,90.0000000000001,2|8,3:1|3:1,2:0:0:0:
278,0,32174,2,0,P|236:13|191:21,1,89.9999972534181,2|0,3:1|3:0,0:0:0:0:
146,13,32867,1,8,3:1:0:0:
87,83,33328,6,0,P|81:127|69:174,1,90.0000000000001,2|8,3:1|2:1,2:0:0:0:
143,223,34251,2,0,P|90:259|23:251,2,135,0|6|8,3:0|3:1|3:2,2:0:0:0:
229,248,36098,2,0,P|241:296|248:335,1,90.0000000000001,8|0,3:2|2:0,2:0:0:0:
331,369,37021,6,0,P|400:366|463:280,1,180,4|8,3:1|2:1,2:0:0:0:
433,197,38405,1,0,2:0:0:0:
408,110,38867,2,0,L|426:22,2,90.0000000000001,0|0|8,3:0|2:0|2:1,2:0:0:0:
340,276,40713,6,0,B|293:312|293:312|232:323|177:286,1,180,0|8,3:0|2:1,2:0:0:0:
98,328,42098,1,2,2:0:0:0:
16,290,42559,2,0,P|26:244|32:200,1,90.0000000000001,8|8,2:3|2:0,2:0:0:0:
0,116,43482,1,8,2:0:0:0:
147,12,44405,6,0,P|226:54|312:37,1,180,4|0,3:1|3:0,2:0:0:0:
395,4,45790,1,8,3:1:0:0:
467,56,46251,2,0,P|456:106|450:145,1,90.0000000000001,0|0,3:1|3:0,2:0:0:0:
489,225,47174,2,0,P|455:251|396:246,1,90.0000000000001,0|8,3:0|3:1,2:0:0:0:
341,311,48098,6,0,B|242:298|266:356|159:339,1,180,4|0,3:1|3:0,2:0:0:0:
86,379,49482,1,8,3:1:0:0:
22,315,49944,2,0,P|30:270|36:222,1,90.0000000000001,0|0,3:1|3:0,2:0:0:0:
8,140,50867,1,0,3:0:0:0:
64,69,51328,1,8,3:1:0:0:
146,104,51790,6,0,P|234:103|312:49,1,180,4|0,3:1|3:0,2:0:0:0:
394,26,53174,1,8,3:1:0:0:
468,75,53636,2,0,L|445:216,2,135,4|8|8,3:1|3:2|2:1,2:0:0:0:
394,26,55482,2,0,B|348:12|311:43|311:43|277:73|221:57,1,180,2|0,3:2|2:0,2:0:0:0:
224,58,57328,6,0,P|212:113|203:162,1,105,4|8,3:1|3:2,2:0:0:0:
281,231,58251,1,0,3:2:0:0:
363,163,58712,1,8,3:2:0:0:
363,163,58943,2,0,P|414:157|461:178,1,104.999996795654,2|2,2:0|0:2,2:0:0:0:
494,219,59635,1,8,0:0:0:0:
486,323,60097,1,0,3:0:0:0:
392,369,60558,2,0,P|368:366|341:359,1,52.4999983978272,8|2,0:0|0:0,0:0:0:0:
289,348,61020,6,0,P|239:356|185:370,1,105,4|8,3:2|3:2,2:0:0:0:
97,312,61943,1,0,3:2:0:0:
142,219,62404,1,8,3:2:0:0:
142,219,62635,2,0,P|192:211|246:197,1,105,4|0,3:1|3:0,2:0:0:0:
328,260,63558,1,8,2:0:0:0:
328,260,63789,2,0,P|384:270|431:283,1,105,8|8,3:2|2:0,2:0:0:0:
505,209,64712,6,0,P|492:157|482:105,1,105,4|8,3:1|3:2,2:0:0:0:
390,55,65635,1,0,3:2:0:0:
298,106,66097,1,8,3:2:0:0:
345,199,66558,2,0,P|333:255|322:303,1,105,0|8,3:2|3:2,2:0:0:0:
313,348,67251,2,0,P|270:330|213:330,1,104.999996795654,2|2,2:0|0:2,2:0:0:0:
175,359,67943,1,8,0:0:0:0:
82,379,68404,5,4,3:2:0:0:
18,309,68866,1,8,3:2:0:0:
38,216,69328,2,0,P|28:165|17:108,1,105,0|8,3:2|3:2,2:0:0:0:
6,67,70020,2,0,P|57:70|106:51,1,104.999996795654,4|0,3:1|3:2,2:0:0:0:
149,21,70712,1,8,0:0:0:0:
250,46,71174,1,8,3:2:0:0:
267,149,71635,1,8,3:2:0:0:
206,236,72097,6,0,P|192:291|207:343,1,105,4|8,3:1|3:2,2:0:0:0:
298,381,73020,1,0,3:2:0:0:
396,345,73481,1,8,3:2:0:0:
396,345,73712,2,0,P|404:294|417:243,1,104.999996795654,2|2,2:0|0:2,2:0:0:0:
425,190,74404,1,8,0:0:0:0:
490,107,74866,1,0,3:0:0:0:
446,11,75328,1,8,3:2:0:0:
341,8,75789,6,0,P|291:23|240:32,1,105,4|8,3:2|3:2,2:0:0:0:
194,127,76712,1,0,3:2:0:0:
261,207,77174,1,8,3:2:0:0:
261,207,77404,2,0,P|248:258|238:310,1,105,4|0,3:1|3:0,2:0:0:0:
266,353,78097,2,0,P|318:340|370:333,2,105,8|8|8,3:2|3:2|2:0,2:0:0:0:
163,373,79481,6,0,P|113:359|59:349,1,105,4|8,3:1|3:2,2:0:0:0:
11,256,80404,1,0,3:2:0:0:
57,161,80866,1,8,3:2:0:0:
159,183,81328,2,0,P|208:204|259:204,1,105,0|8,3:2|3:2,2:0:0:0:
307,184,82020,2,0,L|411:160,1,105,2|2,2:0|2:0,2:0:0:0:
458,142,82712,1,8,3:2:0:0:
508,234,83174,6,0,L|487:341,1,105,4|8,3:2|3:2,2:0:0:0:
391,379,84097,1,0,3:2:0:0:
292,342,84558,1,8,3:2:0:0:
292,342,84789,2,0,B|227:352|171:373|171:373|141:342|106:320,1,210,4|0,3:1|2:0,2:0:0:0:
256,192,86866,12,6,90558,2:1:0:0:
48,88,99789,6,0,P|92:78|136:64,1,90.0000000000001,4|0,3:1|3:0,2:0:0:0:
210,15,100712,1,0,3:0:0:0:
374,89,101635,6,0,P|363:132|353:177,1,90.0000000000001,0|0,3:0|3:0,2:0:0:0:
422,233,102558,2,0,P|438:275|427:326,1,90.0000000000001,0|8,3:0|3:1,2:0:0:0:
362,376,103481,5,0,3:0:0:0:
273,357,103942,2,0,L|185:374,1,90.0000000000001,8|0,3:1|3:0,2:0:0:0:
99,344,104865,1,8,3:1:0:0:
99,344,105096,2,0,B|123:309|123:309|97:218,1,135,4|8,3:1|2:1,2:0:0:0:
25,165,106250,2,0,P|12:121|21:77,1,90.0000000000001,4|2,3:2|2:0,2:0:0:0:
85,16,107173,6,0,P|163:55|256:31,1,180,4|8,3:1|2:0,2:0:0:0:
335,5,108558,1,0,2:0:0:0:
407,58,109019,2,0,L|474:44,2,67.5000000000001,0|0|0,3:0|3:0|3:0,2:0:0:0:
380,94,109942,2,0,P|372:137|361:181,1,90.0000000000001,8|2,2:0|2:0,2:0:0:0:
437,229,110865,6,0,P|452:311|393:380,1,180,0|8,3:0|2:0,2:0:0:0:
307,350,112250,1,0,2:0:0:0:
307,350,112481,2,0,L|174:376,1,135,2|2,2:0|2:0,2:0:0:0:
92,338,113635,2,0,B|104:297|104:297|86:252,1,90.0000000000001,8|8,2:0|3:2,2:0:0:0:
4,215,114558,6,0,B|95:211|72:149|179:154,1,180,4|0,3:1|3:0,2:0:0:0:
248,113,115942,1,8,3:1:0:0:
313,175,116404,2,0,P|303:220|295:263,1,90.0000000000001,0|0,3:1|3:0,2:0:0:0:
379,294,117327,2,0,P|387:249|397:205,1,90.0000000000001,0|8,3:0|3:1,2:0:0:0:
473,157,118250,6,0,P|494:73|435:10,1,180,4|0,3:1|3:0,2:0:0:0:
350,40,119635,1,8,3:1:0:0:
268,2,120096,2,0,L|181:22,1,90.0000000000001,0|0,3:1|3:0,2:0:0:0:
136,10,120789,2,0,P|99:60|122:157,1,135,8|8,2:1|3:1,2:0:0:0:
176,182,121942,6,0,P|219:171|264:161,1,90.0000000000001,4|0,3:1|3:0,2:0:0:0:
340,113,122865,1,0,3:0:0:0:
426,139,123327,1,8,3:1:0:0:
466,219,123789,6,0,P|455:267|447:308,1,90.0000000000001,4|8,3:1|2:0,2:0:0:0:
388,375,124712,2,0,P|350:357|303:357,1,90.0000000000001,8|8,3:1|3:1,2:0:0:0:
216,332,125635,6,0,P|131:349|56:301,1,180,0|0,3:0|2:0,2:0:0:0:
56,301,127481,6,0,P|45:252|29:199,1,105,4|8,3:1|3:2,2:0:0:0:
72,103,128404,1,0,3:2:0:0:
175,140,128865,1,8,3:2:0:0:
175,140,129096,2,0,P|221:161|275:161,1,104.999996795654,2|2,2:0|0:2,2:0:0:0:
322,139,129788,1,8,0:0:0:0:
411,83,130250,1,0,3:2:0:0:
505,128,130711,1,8,3:2:0:0:
510,234,131173,6,0,P|498:284|488:336,1,105,4|8,3:2|3:2,2:0:0:0:
391,377,132096,1,0,3:2:0:0:
292,340,132557,1,8,3:2:0:0:
292,340,132788,2,0,P|244:350|188:364,1,105,4|0,3:1|3:0,2:0:0:0:
169,265,133711,1,8,2:0:0:0:
169,265,133942,2,0,P|217:255|273:241,1,105,8|8,3:2|2:0,2:0:0:0:
371,271,134865,6,0,P|406:234|416:183,1,104.999996795654,4|8,3:1|0:0,2:0:0:0:
437,80,135788,1,0,3:0:0:0:
345,17,136250,1,8,3:2:0:0:
257,74,136711,2,0,P|206:62|156:48,1,105,0|8,3:2|3:2,2:0:0:0:
115,11,137404,2,0,P|64:13|22:43,1,104.999996795654,2|2,2:0|0:2,2:0:0:0:
3,92,138096,1,8,0:0:0:0:
40,190,138557,5,4,3:2:0:0:
140,219,139019,1,8,3:2:0:0:
231,167,139481,2,0,L|333:143,1,105,0|8,3:2|3:2,2:0:0:0:
383,127,140173,1,4,3:1:0:0:
475,186,140634,1,0,3:0:0:0:
475,186,140865,2,0,P|461:241|452:288,1,105,8|8,3:2|2:3,2:0:0:0:
383,367,141788,1,8,3:2:0:0:
278,357,142250,6,0,P|230:364|174:377,1,105,4|8,3:1|3:2,2:0:0:0:
103,299,143173,1,0,3:2:0:0:
150,207,143634,1,8,3:2:0:0:
150,207,143865,2,0,P|198:200|254:187,1,105,2|2,0:0|0:2,2:0:0:0:
304,175,144557,1,8,0:0:0:0:
383,243,145019,1,0,3:0:0:0:
485,220,145481,1,8,3:2:0:0:
511,118,145942,6,0,P|499:63|490:15,2,105,4|8|0,3:2|3:2|3:2,2:0:0:0:
460,210,147327,1,8,3:2:0:0:
460,210,147557,2,0,B|388:200|388:238|303:220,1,157.5,4|8,3:1|3:2,2:0:0:0:
204,215,148711,1,8,3:2:0:0:
126,286,149173,1,8,2:0:0:0:
26,252,149634,6,0,P|19:204|7:149,1,105,4|8,3:1|3:2,2:0:0:0:
90,85,150557,1,0,3:2:0:0:
190,116,151019,1,8,3:2:0:0:
289,148,151481,2,0,P|300:199|308:251,1,105,0|8,3:2|3:2,2:0:0:0:
285,298,152173,2,0,P|335:348|418:348,1,157.5,2|8,2:0|3:2,2:0:0:0:
481,264,153327,6,0,P|489:214|502:156,1,105,4|8,3:2|3:2,2:0:0:0:
450,68,154250,1,0,3:2:0:0:
352,106,154711,1,8,3:2:0:0:
352,106,154942,2,0,B|301:89|251:123|251:123|198:116|167:65,1,210,4|0,3:1|2:0,2:0:0:0:
16,265,157019,6,0,P|32:313|45:366,2,100,6|0|0,3:1|3:0|3:1,2:0:0:0:
86,194,158404,1,8,3:1:0:0:
164,256,158865,2,0,P|215:269|259:286,1,100,0|0,3:1|3:1,2:0:0:0:
337,347,159788,1,0,3:0:0:0:
429,309,160250,2,0,P|441:262|460:213,1,100,8|4,3:1|3:1,2:0:0:0:
509,127,161173,5,0,3:1:0:0:
467,36,161634,1,0,3:0:0:0:
373,18,162096,1,8,3:1:0:0:
373,18,162327,2,0,B|329:35|329:35|265:18,1,100,6|8,3:1|2:0,2:0:0:0:
200,84,163250,2,0,P|217:154|235:229,1,150,8|8,2:0|3:2,2:0:0:0:
290,313,164404,6,0,P|240:313|196:333,2,100,6|8|0,3:1|2:0|3:0,2:0:0:0:
377,361,165788,1,8,2:0:0:0:
466,315,166250,1,8,2:3:0:0:
440,218,166711,2,0,L|367:204,2,75,8|8|2,2:0|2:0|2:0,2:0:0:0:
475,182,167634,2,0,P|484:136|501:84,1,100,8|6,2:0|3:1,2:0:0:0:
434,10,168557,5,8,2:0:0:0:
339,43,169019,2,0,P|290:57|240:66,1,100,0|8,3:0|2:0,2:0:0:0:
149,104,169942,2,0,P|139:53|123:8,2,100,8|8|0,2:3|2:0|3:0,2:0:0:0:
115,198,171327,1,8,2:0:0:0:
175,277,171788,6,0,P|223:262|271:250,1,100,4|8,3:2|2:0,2:0:0:0:
353,306,172711,1,0,3:0:0:0:
445,268,173173,1,8,2:0:0:0:
474,172,173634,6,0,P|482:119|493:70,1,100,8|8,2:3|2:0,2:0:0:0:
415,8,174557,1,0,3:0:0:0:
327,56,175019,2,0,P|319:109|308:158,1,100,8|6,2:0|3:1,2:0:0:0:
282,250,175942,5,8,2:0:0:0:
346,322,176404,2,0,P|427:314|490:356,2,150,0|6|8,3:0|3:1|3:2,2:0:0:0:
260,373,178250,1,8,3:2:0:0:
162,353,178711,1,8,2:0:0:0:
63,333,179173,1,6,3:1:0:0:
256,192,179404,12,0,182865,3:1:0:0:
234,59,184481,6,0,P|190:73|136:83,1,100,4|0,2:3|2:0,2:0:0:0:
41,51,185404,2,0,P|30:130|16:200,1,150,0|8,2:0|3:1,2:0:0:0:
80,275,186557,6,0,P|130:261|176:249,1,100,4|0,3:1|3:1,2:0:0:0:
256,188,187481,1,0,3:1:0:0:
339,243,187942,1,0,3:0:0:0:
339,243,188173,2,0,P|329:313|366:381,1,150,14|0,2:0|3:1,2:0:0:0:
459,345,189327,2,0,P|468:293|479:245,1,100,0|10,3:1|3:2,2:0:0:0:
509,207,190019,6,0,P|519:139|470:72,1,150,4|0,2:2|3:1,2:0:0:0:
396,13,191173,1,0,3:0:0:0:
309,59,191634,1,8,3:1:0:0:
309,59,191865,2,0,P|244:76|158:94,1,150,6|8,3:1|3:2,2:0:0:0:
68,59,193019,2,0,P|60:109|48:159,1,100,8|8,3:2|3:2,2:0:0:0:
29,203,193711,2,0,B|83:203|120:238,1,100,4|0,3:1|2:0,2:0:0:0:
35,178,203174,6,0,P|22:135|16:90,1,90.0000000000001,4|0,3:1|3:1,2:0:0:0:
103,69,204097,2,0,P|116:112|122:157,1,90.0000000000001,0|0,3:1|3:1,2:0:0:0:
195,208,205020,2,0,B|261:208|250:169|325:177,2,135,0|0|8,3:1|2:0|3:2,2:0:0:0:
166,293,206866,1,4,3:1:0:0:
256,192,207097,12,0,208482,2:0:0:0:
0,110,210559,6,0,P|51:98|101:83,1,105,4|8,3:1|3:2,2:0:0:0:
186,144,211482,1,0,3:2:0:0:
271,82,211943,1,8,3:2:0:0:
271,82,212174,2,0,P|321:70|372:55,1,105,2|2,2:0|2:0,2:0:0:0:
419,30,212866,1,8,3:2:0:0:
504,90,213328,1,0,3:2:0:0:
492,194,213790,1,8,3:2:0:0:
406,255,214251,6,0,P|358:236|305:224,1,105,4|8,3:2|3:2,2:0:0:0:
223,159,215174,1,0,3:2:0:0:
167,249,215636,1,8,3:2:0:0:
167,249,215866,2,0,P|121:278|63:275,1,105,4|0,3:1|3:0,2:0:0:0:
23,255,216559,2,0,P|11:202|-6:152,1,105,8|8,3:2|3:2,2:0:0:0:
32,56,217482,1,8,2:0:0:0:
130,92,217943,6,0,P|184:78|231:60,1,105,4|8,3:1|3:2,2:0:0:0:
322,10,218866,2,0,P|371:29|423:42,1,105,0|8,3:2|3:2,2:0:0:0:
487,124,219790,1,0,3:2:0:0:
410,194,220251,1,8,3:2:0:0:
410,194,220482,2,0,B|390:232|390:232|406:293,1,105,2|2,2:0|2:0,2:0:0:0:
421,342,221174,1,8,3:2:0:0:
324,383,221636,6,0,P|279:368|222:356,1,105,4|8,3:2|3:2,2:0:0:0:
120,381,222559,1,0,3:2:0:0:
22,341,223020,1,8,3:2:0:0:
22,341,223251,2,0,P|0:296|-1:238,1,105,4|0,3:1|3:0,2:0:0:0:
26,143,224174,1,8,3:2:0:0:
26,143,224405,2,0,P|75:134|121:104,1,105,8|8,2:3|3:2,2:0:0:0:
220,97,225328,6,0,L|240:-4,2,100,4|8|0,3:1|3:2|3:0,2:0:0:0:
302,154,226713,1,8,3:2:0:0:
385,99,227174,2,0,P|432:86|482:68,2,100,0|8|0,3:1|3:2|3:0,2:0:0:0:
439,183,228559,2,0,P|426:228|415:280,1,100,8|0,3:2|3:1,2:0:0:0:
343,349,229482,5,8,3:2:0:0:
249,314,229943,1,0,3:0:0:0:
105,359,230636,2,0,P|93:310|76:257,1,100,6|8,3:1|2:3,2:0:0:0:
40,230,231328,1,8,0:0:0:0:
40,230,231559,6,0,P|60:102|210:79,1,300,6|0,3:2|2:0,2:0:0:0:
256,192,233059,12,0,236866,2:0:0:0:
