osu file format v14

[General]
AudioFilename: audio.mp3
AudioLeadIn: 0
PreviewTime: 102388
Countdown: 0
SampleSet: Soft
StackLeniency: 0.7
Mode: 2
LetterboxInBreaks: 0
WidescreenStoryboard: 0

[Editor]
Bookmarks: 1472,14805,41471,73471,78805,105471,137471,153471,185471,193471
DistanceSpacing: 1
BeatDivisor: 2
GridSize: 4
TimelineZoom: 1

[Metadata]
Title:Yuragi
TitleUnicode:ユラギ
Artist:Hanatan
ArtistUnicode:花たん
Creator:JBHyperion
Version:Salad
Source:
Tags:Tremor YURiCa melancholy j-rock lily niki
BeatmapID:1272607
BeatmapSetID:602506

[Difficulty]
HPDrainRate:4
CircleSize:3
OverallDifficulty:7
ApproachRate:7
SliderMultiplier:1.2
SliderTickRate:1

[Events]
//Background and Video events
0,0,"anime_girl_sunset_sky_clouds_beauty_landscape_1920x1080.jpg",0,0
//Break Periods
2,76338,77905
//Storyboard Layer 0 (Background)
//Storyboard Layer 1 (Fail)
//Storyboard Layer 2 (Pass)
//Storyboard Layer 3 (Foreground)
//Storyboard Sound Samples

[TimingPoints]
1472,333.333333333333,4,2,1,80,1,0
12471,-100,4,2,1,70,0,0
14805,-80,4,2,1,70,0,0
15138,-100,4,2,1,70,0,0
25471,-80,4,2,1,80,0,0
26471,-100,4,2,1,80,0,0
27138,-100,4,2,1,70,0,0
33471,-80,4,2,1,70,0,0
36138,-80,4,2,1,75,0,0
38805,-80,4,2,1,80,0,0
40471,-80,4,2,1,40,0,0
40805,-80,4,2,1,80,0,0
41305,-80,4,2,1,20,0,0
41471,-100,4,2,1,90,0,1
46471,-100,4,2,1,50,0,1
46805,-100,4,2,1,90,0,1
51471,-100,4,2,1,50,0,1
51638,-100,4,2,1,55,0,1
51805,-100,4,2,1,60,0,1
51971,-100,4,2,1,65,0,1
52138,-100,4,2,1,90,0,1
57138,-100,4,2,1,50,0,1
57471,-100,4,2,1,90,0,1
62471,-100,4,2,1,70,0,1
62805,-100,4,2,1,90,0,1
73471,-100,4,2,1,80,0,0
73638,-100,4,2,1,60,0,0
78805,-100,4,2,1,70,0,0
87305,-100,4,2,1,45,0,0
87471,-100,4,2,1,70,0,0
89471,-80,4,2,1,80,0,0
90805,-100,4,2,1,70,0,0
92638,-100,4,2,1,45,0,0
92804,-100,4,2,1,70,0,0
94805,-100,4,2,1,75,0,0
97471,-80,4,2,1,70,0,0
97971,-80,4,2,1,45,0,0
98137,-80,4,2,1,70,0,0
100138,-80,4,2,1,75,0,0
102805,-80,4,2,1,80,0,0
104471,-80,4,2,1,40,0,0
104805,-80,4,2,1,80,0,0
105305,-80,4,2,1,30,0,0
105471,-100,4,2,1,90,0,1
110471,-100,4,2,1,50,0,1
110805,-100,4,2,1,90,0,1
115471,-100,4,2,1,50,0,1
115638,-100,4,2,1,55,0,1
115805,-100,4,2,1,60,0,1
115971,-100,4,2,1,65,0,1
116138,-100,4,2,1,90,0,1
121138,-100,4,2,1,50,0,1
121471,-100,4,2,1,90,0,1
126471,-100,4,2,1,70,0,1
126805,-100,4,2,1,90,0,1
131805,-100,4,2,1,70,0,1
132138,-100,4,2,1,90,0,1
137138,-100,4,2,1,50,0,1
137471,-100,4,2,1,80,0,0
142471,-100,4,2,1,50,0,0
142805,-100,4,2,1,80,0,0
147805,-100,4,2,1,50,0,0
148139,-100,4,2,1,80,0,0
152138,-100,4,2,1,100,0,0
153138,-100,4,2,1,50,0,0
153472,-100,4,2,1,80,0,0
154471,-100,4,2,1,90,0,1
158471,-100,4,2,1,50,0,1
158805,-100,4,2,1,90,0,1
163471,-100,4,2,1,50,0,1
163638,-100,4,2,1,55,0,1
163805,-100,4,2,1,60,0,1
163971,-100,4,2,1,65,0,1
164138,-100,4,2,1,90,0,1
169138,-100,4,2,1,50,0,1
169471,-100,4,2,1,90,0,1
174471,-100,4,2,1,70,0,1
174805,-100,4,2,1,90,0,1
179805,-100,4,2,1,70,0,1
180138,-100,4,2,1,90,0,1
185138,-100,4,2,1,50,0,1
185471,-100,4,2,1,80,0,0
190971,-100,4,2,1,60,0,0
191138,-100,4,2,1,100,0,0
193638,-100,4,2,1,50,0,0
194138,-100,4,2,1,47,0,0
194471,-100,4,2,1,44,0,0
194805,-100,4,2,1,41,0,0
195138,-100,4,2,1,38,0,0
195471,-100,4,2,1,35,0,0
195805,-100,4,2,1,32,0,0
196138,-100,4,2,1,29,0,0
196471,-100,4,2,1,26,0,0
196805,-100,4,2,1,23,0,0
197138,-100,4,2,1,20,0,0
197471,-100,4,2,1,17,0,0
197805,-100,4,2,1,14,0,0
198138,-100,4,2,1,11,0,0
198471,-100,4,2,1,8,0,0
198805,-100,4,2,1,5,0,0

[Colours]
Combo1 : 170,100,255
Combo2 : 0,40,128
Combo3 : 70,100,255
Combo4 : 255,170,100

[HitObjects]
304,192,1472,6,0,L|176:192,1,120,4|0,0:0|0:0,0:0:0:0:
256,192,1971,1,0,0:0:0:0:
328,192,2138,1,8,0:0:0:0:
392,180,2305,1,0,0:0:0:0:
428,128,2471,1,0,0:0:0:0:
433,66,2638,1,2,0:0:0:0:
288,68,2971,5,2,0:0:0:0:
360,68,3138,2,0,L|492:68,2,120,2|8|0,0:3|0:0|0:0,0:0:0:0:
96,68,4138,6,0,P|44:88|20:148,1,120,4|0,0:0|0:0,0:0:0:0:
56,192,4638,1,0,0:0:0:0:
116,192,4805,2,0,L|176:192,2,60,8|0|0,0:0|0:0|0:0,0:0:0:0:
56,192,5305,1,2,0:0:0:0:
200,192,5638,6,0,L|260:192,1,60,2|2,0:0|0:3,0:0:0:0:
92,192,6138,2,0,L|73:311,1,120,8|2,0:0|0:0,0:0:0:0:
337,307,6805,6,0,B|457:307,1,120,4|0,0:0|0:0,0:0:0:0:
313,307,7471,2,0,L|249:307,2,60,8|0|0,0:0|0:0|0:0,0:0:0:0:
373,307,7971,1,2,0:0:0:0:
229,307,8305,5,2,0:0:0:0:
157,307,8471,2,0,L|25:307,2,120,2|8|0,0:3|0:0|0:0,0:0:0:0:
421,307,9471,5,4,0:0:0:0:
481,259,9638,2,0,P|457:203|393:167,1,120,0|0,0:0|0:0,0:0:0:0:
349,171,10138,2,0,L|473:171,1,120,8|0,0:0|0:0,0:0:0:0:
409,170,10638,1,2,0:0:0:0:
277,55,10971,6,0,L|217:55,1,60,2|2,0:0|0:3,0:0:0:0:
60,52,11471,2,0,L|172:100,1,120,8|2,0:0|0:0,0:0:0:0:
436,100,12138,6,0,P|496:164|440:220,1,180,4|2,0:0|0:0,0:0:0:0:
372,220,12805,1,8,0:0:0:0:
228,220,13138,2,0,L|156:220,1,60,0|2,0:0|0:0,0:0:0:0:
240,220,13471,5,2,0:3:0:0:
309,244,13638,1,0,0:0:0:0:
324,316,13805,1,2,0:0:0:0:
180,316,14138,2,0,L|52:316,1,120,8|2,0:0|0:0,0:0:0:0:
392,320,14805,6,0,P|456:292|488:220,1,150,4|0,0:0|0:0,0:0:0:0:
432,224,15305,2,0,L|316:192,1,120,0|0,0:0|0:0,0:0:0:0:
264,192,15805,2,0,P|180:120|264:72,1,240,2|2,0:3|0:0,0:0:0:0:
392,72,16805,2,0,L|304:156,1,120,8|2,0:0|0:0,0:0:0:0:
136,152,17471,6,0,L|280:152,1,120,2|0,0:3|0:0,0:0:0:0:
316,152,17971,2,0,L|192:152,1,120,2|0,0:3|0:0,0:0:0:0:
256,152,18471,2,0,P|316:164|416:304,1,240,2|2,0:3|0:0,0:0:0:0:
272,300,19471,1,8,0:0:0:0:
440,300,19805,1,2,0:0:0:0:
176,300,20138,6,0,L|56:300,1,120,4|0,0:0|0:0,0:0:0:0:
128,300,20638,2,0,L|256:300,1,120,2|0,0:3|0:0,0:0:0:0:
176,300,21138,2,0,P|92:228|176:180,1,240,2|2,0:3|0:0,0:0:0:0:
316,180,22138,2,0,L|436:192,1,120,8|0,0:0|0:0,0:0:0:0:
368,192,22638,1,0,0:0:0:0:
296,192,22805,6,0,L|172:192,1,120,4|0,0:3|0:0,0:0:0:0:
248,276,23305,2,0,L|124:276,1,120,4|0,0:3|0:0,0:0:0:0:
200,360,23805,2,0,B|104:360|104:360|44:340|28:280|52:228,1,240,4|2,0:3|0:0,0:0:0:0:
112,248,24638,1,0,0:0:0:0:
180,248,24805,2,0,L|300:248,1,120,8|2,0:0|0:0,0:0:0:0:
36,192,25471,6,0,P|60:124|128:96,1,150,4|0,0:0|0:0,0:0:0:0:
196,96,25971,2,0,P|172:28|104:0,1,150,4|0,0:3|0:0,0:0:0:0:
176,0,26471,2,0,L|416:0,1,240,4|2,0:3|0:0,0:0:0:0:
272,0,27471,2,0,L|172:72,1,120,8|2,0:0|0:0,0:0:0:0:
252,72,27971,1,0,0:0:0:0:
328,72,28138,6,0,L|336:196,1,120,2|0,0:3|0:0,0:0:0:0:
260,192,28638,2,0,L|252:72,1,120,2|0,0:3|0:0,0:0:0:0:
175,69,29138,2,0,P|153:174|259:192,1,240,2|2,0:3|0:0,0:0:0:0:
416,192,30138,1,8,0:0:0:0:
296,240,30471,1,2,0:0:0:0:
32,240,30805,6,0,L|24:116,1,120,4|0,0:0|0:0,0:0:0:0:
96,120,31305,2,0,L|216:120,1,120,2|0,0:3|0:0,0:0:0:0:
144,120,31805,2,0,P|88:200|176:292,1,240,2|2,0:3|0:0,0:0:0:0:
316,292,32805,1,8,0:0:0:0:
160,292,33138,1,2,0:0:0:0:
460,292,33471,6,0,P|512:232|428:144,1,225,4|2,0:0|0:3,0:0:0:0:
204,140,34471,2,0,B|204:64|204:64|352:64|352:64|352:144,1,300,4|2,0:0|0:0,0:0:0:0:
200,140,35471,1,8,0:0:0:0:
48,140,35805,1,2,0:0:0:0:
316,144,36138,6,0,P|288:216|208:228,1,150,4|0,0:0|0:0,0:0:0:0:
156,232,36638,2,0,L|300:192,1,150,2|0,0:3|0:0,0:0:0:0:
372,192,37138,2,0,B|372:272|372:272|232:272|232:272|232:192,1,300,4|2,0:0|0:0,0:0:0:0:
396,192,38138,2,0,L|500:84,1,150,8|2,0:0|0:0,0:0:0:0:
408,84,38638,1,8,0:0:0:0:
316,84,38805,6,0,P|248:112|260:184,1,150,4|2,0:0|0:0,0:0:0:0:
332,180,39305,1,2,0:0:0:0:
408,180,39471,2,0,L|420:256,1,75,8|2,0:0|0:0,0:0:0:0:
344,256,39805,2,0,L|268:256,1,75,8|8,0:0|0:0,0:0:0:0:
360,256,40138,6,0,L|492:180,1,150,4|8,0:0|0:0,0:0:0:0:
220,180,40805,2,0,B|96:272|96:272|156:316,1,225,2|0,0:3|0:0,0:0:0:0:
316,180,41471,6,0,L|436:180,1,120,4|0,0:0|0:0,0:0:0:0:
280,264,42138,2,0,L|160:264,1,120,8|2,0:0|0:0,0:0:0:0:
228,264,42638,2,0,P|264:222|228:180,1,120,2|2,0:0|0:0,0:0:0:0:
156,180,43138,2,0,L|88:180,2,60,2|0|8,0:0|0:0|0:0,0:0:0:0:
324,180,43805,1,2,0:0:0:0:
56,180,44138,6,0,P|12:140|28:88,1,120,4|0,0:0|0:0,0:0:0:0:
196,88,44805,2,0,L|316:88,1,120,8|2,0:0|0:0,0:0:0:0:
244,88,45305,2,0,P|208:130|244:172,1,120,2|2,0:0|0:0,0:0:0:0:
316,172,45805,2,0,L|384:172,2,60,2|2|8,0:0|0:0|0:0,0:0:0:0:
160,172,46471,1,8,0:0:0:0:
424,172,46805,6,0,B|476:172|476:172|404:172,1,120,4|0,0:0|0:0,0:0:0:0:
236,172,47471,2,0,P|184:192|164:260,1,120,8|2,0:0|0:0,0:0:0:0:
232,244,47971,2,0,L|352:244,1,120,2|2,0:0|0:0,0:0:0:0:
400,192,48471,1,2,0:0:0:0:
232,192,48805,2,0,L|112:192,1,120,8|2,0:0|0:0,0:0:0:0:
380,192,49471,6,0,P|472:136|392:72,1,240,4|2,0:0|0:0,0:0:0:0:
212,72,50471,2,0,B|92:72|92:72|124:128,1,180,4|0,0:0|0:0,0:0:0:0:
192,124,51138,1,2,0:3:0:0:
336,124,51471,2,0,L|404:124,1,60,8|8,0:0|0:0,0:0:0:0:
468,192,51805,2,0,L|408:192,1,60,8|8,0:0|0:0,0:0:0:0:
240,192,52138,6,0,L|120:192,1,120,4|0,0:0|0:0,0:0:0:0:
288,276,52805,2,0,L|296:152,1,120,8|2,0:0|0:0,0:0:0:0:
228,152,53305,2,0,P|192:110|228:68,1,120,2|2,0:0|0:0,0:0:0:0:
300,68,53805,2,0,L|368:68,2,60,2|0|8,0:0|0:0|0:0,0:0:0:0:
132,68,54471,1,2,0:0:0:0:
396,68,54805,6,0,P|444:104|460:168,1,120,4|0,0:0|0:0,0:0:0:0:
292,160,55471,2,0,L|412:160,1,120,8|2,0:0|0:0,0:0:0:0:
340,160,55971,2,0,L|253:247,1,120,2|2,0:0|0:0,0:0:0:0:
184,244,56471,2,0,L|116:244,2,60,2|2|8,0:0|0:0|0:0,0:0:0:0:
352,244,57138,1,8,0:0:0:0:
84,244,57471,6,0,B|44:244|44:244|184:244,1,180,4|0,0:0|0:0,0:0:0:0:
248,244,58138,2,0,P|300:264|320:332,1,120,8|2,0:0|0:0,0:0:0:0:
252,316,58638,2,0,L|132:316,1,120,2|2,0:0|0:0,0:0:0:0:
180,244,59138,1,2,0:0:0:0:
348,244,59471,2,0,L|456:192,1,120,8|2,0:0|0:0,0:0:0:0:
180,244,60138,6,0,P|72:196|32:84,1,240,4|2,0:0|0:0,0:0:0:0:
212,88,61138,2,0,B|332:88|332:88|332:148,1,180,4|0,0:0|0:0,0:0:0:0:
272,192,61805,2,0,L|204:192,1,60,2|2,0:0|0:0,0:0:0:0:
128,192,62138,2,0,L|8:192,1,120,8|8,0:0|0:0,0:0:0:0:
300,192,62805,6,0,L|420:192,1,120,4|0,0:0|0:0,0:0:0:0:
252,276,63471,2,0,L|128:276,1,120,8|2,0:0|0:0,0:0:0:0:
204,276,63971,2,0,L|292:192,1,120,2|2,0:0|0:0,0:0:0:0:
360,192,64471,2,0,L|428:192,1,60,2|0,0:0|0:0,0:0:0:0:
336,192,64805,2,0,L|216:192,1,120,8|2,0:0|0:0,0:0:0:0:
488,76,65471,6,0,L|500:196,1,120,4|2,0:0|0:0,0:0:0:0:
336,192,66138,2,0,L|216:192,1,120,8|2,0:0|0:0,0:0:0:0:
144,272,66638,2,0,L|264:272,1,120,2|2,0:0|0:0,0:0:0:0:
192,272,67138,2,0,L|124:272,2,60,2|2|8,0:0|0:0|0:0,0:0:0:0:
360,272,67805,1,0,0:0:0:0:
72,272,68138,6,0,L|56:152,1,120,4|2,0:0|0:0,0:0:0:0:
128,152,68638,1,2,0:0:0:0:
200,152,68805,2,0,L|272:152,2,60,8|2|2,0:0|0:0|0:0,0:0:0:0:
128,152,69305,1,8,0:0:0:0:
272,316,69638,5,8,0:0:0:0:
200,316,69805,2,0,L|68:316,2,120,2|8|2,0:0|0:0|0:0,0:0:0:0:
472,268,70805,6,0,P|452:216|392:192,1,120,4|2,0:0|0:0,0:0:0:0:
324,192,71305,1,2,0:0:0:0:
252,192,71471,2,0,L|192:192,2,60,8|2|2,0:0|0:0|0:0,0:0:0:0:
324,192,71971,1,8,0:0:0:0:
180,192,72305,6,0,L|176:132,1,60,8|2,0:0|0:0,0:0:0:0:
320,100,72805,2,0,L|448:100,1,120,8|2,0:0|0:0,0:0:0:0:
168,100,73471,5,4,0:0:0:0:
256,192,73805,12,0,76138,0:0:0:0:
344,192,78805,6,0,P|404:136|340:80,1,180,4|2,0:0|0:3,0:0:0:0:
276,80,79471,1,0,0:0:0:0:
276,136,79638,1,0,0:0:0:0:
356,136,79805,2,0,P|404:148|500:300,1,240,2|2,0:3|0:0,0:0:0:0:
420,300,80638,1,2,0:0:0:0:
340,300,80805,2,0,L|216:300,1,120,8|2,0:0|0:0,0:0:0:0:
388,192,81471,6,0,L|244:192,1,120,2|0,0:3|0:0,0:0:0:0:
208,192,81971,2,0,L|332:192,1,120,2|0,0:3|0:0,0:0:0:0:
268,192,82471,2,0,P|192:136|268:44,1,240,2|8,0:3|0:0,0:0:0:0:
424,44,83471,2,0,L|436:120,1,60,2|2,0:0|0:0,0:0:0:0:
348,104,83805,1,8,0:0:0:0:
84,104,84138,6,0,P|24:160|88:216,1,180,4|2,0:0|0:3,0:0:0:0:
152,220,84805,1,0,0:0:0:0:
204,268,84971,1,0,0:0:0:0:
216,340,85138,1,2,0:3:0:0:
72,340,85471,6,0,L|8:340,2,60,2|2|2,0:3|0:3|0:0,0:0:0:0:
144,340,85971,1,2,0:0:0:0:
216,340,86138,2,0,L|88:340,1,120,8|2,0:0|0:0,0:0:0:0:
176,192,86638,1,0,0:0:0:0:
256,192,86805,6,0,L|380:192,1,120,4|0,0:3|0:0,0:0:0:0:
296,280,87305,2,0,L|176:280,1,120,8|0,0:0|0:0,0:0:0:0:
256,364,87805,2,0,B|324:364|324:364|376:336|412:276|344:200,1,240,4|8,0:3|0:0,0:0:0:0:
216,220,88805,2,0,L|100:192,1,120,2|8,0:0|0:0,0:0:0:0:
384,192,89471,6,0,P|452:168|480:100,1,150,4|0,0:0|0:0,0:0:0:0:
404,100,89971,2,0,P|336:76|312:8,1,150,4|0,0:3|0:0,0:0:0:0:
388,8,90471,2,0,P|452:28|480:100,1,150,4|2,0:3|0:3,0:0:0:0:
456,172,90971,5,2,0:3:0:0:
384,192,91138,1,2,0:0:0:0:
312,192,91305,1,2,0:0:0:0:
384,192,91471,2,0,L|496:248,1,120,8|2,0:0|0:0,0:0:0:0:
319,311,92138,6,0,L|311:187,1,120,2|0,0:3|0:0,0:0:0:0:
384,192,92638,2,0,L|492:245,1,120,8|0,0:0|0:0,0:0:0:0:
408,240,93138,2,0,B|228:240|228:240|228:304,1,240,2|8,0:3|0:0,0:0:0:0:
372,348,94138,1,2,0:0:0:0:
204,300,94471,1,8,0:0:0:0:
472,300,94805,6,0,L|480:176,1,120,4|0,0:0|0:0,0:0:0:0:
396,180,95305,2,0,L|276:180,1,120,2|0,0:3|0:0,0:0:0:0:
360,180,95805,2,0,P|432:264|360:352,1,240,2|2,0:3|0:0,0:0:0:0:
284,352,96638,1,2,0:0:0:0:
204,352,96805,1,8,0:0:0:0:
348,352,97138,1,2,0:0:0:0:
48,352,97471,6,0,P|8:288|100:200,1,225,4|8,0:3|0:0,0:0:0:0:
328,200,98471,2,0,B|328:124|328:124|180:124|180:124|180:204,1,300,4|8,0:3|0:0,0:0:0:0:
332,200,99471,1,2,0:0:0:0:
152,200,99805,1,8,0:0:0:0:
420,200,100138,6,0,P|476:240|440:296,1,150,4|0,0:0|0:0,0:0:0:0:
368,292,100638,2,0,L|224:252,1,150,2|0,0:3|0:0,0:0:0:0:
300,252,101138,2,0,B|380:252|380:252|380:112|380:112|300:112,1,300,2|8,0:3|0:0,0:0:0:0:
136,252,102138,2,0,P|72:212|68:144,1,150,2|2,0:0|0:0,0:0:0:0:
153,144,102638,1,8,0:0:0:0:
237,144,102805,6,0,P|305:172|329:240,1,150,4|2,0:0|0:0,0:0:0:0:
245,240,103305,1,2,0:0:0:0:
153,312,103471,2,0,L|225:270,1,75,8|2,0:0|0:0,0:0:0:0:
309,312,103805,2,0,L|236:270,1,75,8|8,0:0|0:0,0:0:0:0:
153,312,104138,6,0,L|21:236,1,150,4|8,0:0|0:0,0:0:0:0:
301,312,104805,2,0,B|425:220|425:220|365:176,1,225,2|0,0:3|0:0,0:0:0:0:
200,228,105471,6,0,L|80:228,1,120,4|0,0:0|0:0,0:0:0:0:
32,284,105971,1,2,0:0:0:0:
104,284,106138,2,0,L|224:284,1,120,8|2,0:0|0:0,0:0:0:0:
296,284,106638,2,0,P|332:242|296:200,1,120,2|2,0:0|0:0,0:0:0:0:
224,200,107138,2,0,L|156:200,2,60,2|0|8,0:0|0:0|0:0,0:0:0:0:
380,200,107805,1,2,0:0:0:0:
104,200,108138,6,0,P|52:168|36:108,1,120,4|0,0:0|0:0,0:0:0:0:
204,116,108805,2,0,L|84:116,1,120,8|2,0:0|0:0,0:0:0:0:
156,116,109305,2,0,L|280:116,1,120,2|2,0:0|0:0,0:0:0:0:
348,116,109805,2,0,L|416:116,2,60,2|2|8,0:0|0:0|0:0,0:0:0:0:
180,116,110471,1,8,0:0:0:0:
448,192,110805,6,0,P|488:240|404:252,1,180,4|0,0:0|0:0,0:0:0:0:
340,252,111471,2,0,P|288:232|268:164,1,120,8|2,0:0|0:0,0:0:0:0:
340,180,111971,2,0,L|448:112,1,120,2|2,0:0|0:0,0:0:0:0:
500,80,112471,1,2,0:0:0:0:
332,80,112805,2,0,L|456:80,1,120,8|2,0:0|0:0,0:0:0:0:
176,80,113471,6,0,P|176:156|312:236,1,240,4|2,0:0|0:0,0:0:0:0:
136,236,114471,2,0,B|16:236|16:236|48:292,1,180,4|0,0:0|0:0,0:0:0:0:
116,288,115138,1,2,0:3:0:0:
260,288,115471,2,0,L|184:288,1,60,8|8,0:0|0:0,0:0:0:0:
116,288,115805,2,0,L|176:288,1,60,8|8,0:0|0:0,0:0:0:0:
344,288,116138,6,0,L|464:288,1,120,4|0,0:0|0:0,0:0:0:0:
296,372,116805,2,0,L|288:248,1,120,8|2,0:0|0:0,0:0:0:0:
360,252,117305,2,0,P|396:210|360:168,1,120,2|2,0:0|0:0,0:0:0:0:
284,168,117805,2,0,L|216:168,2,60,2|0|8,0:0|0:0|0:0,0:0:0:0:
452,168,118471,1,2,0:0:0:0:
180,260,118805,6,0,L|60:260,1,120,4|0,0:0|0:0,0:0:0:0:
228,260,119471,2,0,L|259:144,1,120,8|2,0:0|0:0,0:0:0:0:
188,140,119971,2,0,L|101:53,1,120,2|2,0:0|0:0,0:0:0:0:
176,56,120471,2,0,L|244:56,2,60,2|2|8,0:0|0:0|0:0,0:0:0:0:
8,56,121138,1,8,0:0:0:0:
296,56,121471,6,0,B|352:56|352:56|284:56,1,120,4|0,0:0|0:0,0:0:0:0:
132,56,122138,2,0,P|92:92|132:124,1,120,8|2,0:0|0:0,0:0:0:0:
204,124,122638,2,0,L|84:124,1,120,2|2,0:0|0:0,0:0:0:0:
36,176,123138,1,2,0:0:0:0:
204,176,123471,2,0,L|312:228,1,120,8|2,0:0|0:0,0:0:0:0:
36,176,124138,6,0,P|72:288|176:340,1,240,4|2,0:0|0:0,0:0:0:0:
356,336,125138,2,0,B|356:216|356:216|296:216,1,180,4|0,0:0|0:0,0:0:0:0:
224,216,125805,2,0,L|296:216,1,60,2|0,0:0|0:0,0:0:0:0:
368,132,126138,2,0,L|484:88,1,120,8|8,0:0|0:0,0:0:0:0:
204,132,126805,6,0,L|84:132,1,120,4|0,0:0|0:0,0:0:0:0:
252,216,127471,2,0,L|376:216,1,120,8|2,0:0|0:0,0:0:0:0:
300,216,127971,2,0,L|212:132,1,120,2|2,0:0|0:0,0:0:0:0:
284,132,128471,2,0,L|352:132,1,60,2|0,0:0|0:0,0:0:0:0:
428,132,128805,2,0,L|308:132,1,120,8|2,0:0|0:0,0:0:0:0:
40,132,129471,6,0,L|28:252,1,120,4|2,0:0|0:0,0:0:0:0:
192,252,130138,2,0,L|312:252,1,120,8|2,0:0|0:0,0:0:0:0:
240,332,130638,2,0,L|120:332,1,120,2|2,0:0|0:0,0:0:0:0:
192,332,131138,2,0,L|260:332,1,60,2|2,0:0|0:0,0:0:0:0:
336,332,131471,1,8,0:0:0:0:
192,332,131805,2,0,L|256:332,1,60,8|8,0:0|0:0,0:0:0:0:
324,332,132138,6,0,L|340:212,1,120,4|0,0:0|0:0,0:0:0:0:
260,212,132638,1,2,0:0:0:0:
180,212,132805,1,8,0:0:0:0:
456,209,133138,6,0,P|410:102|300:63,1,240,4|2,0:0|0:0,0:0:0:0:
224,64,133971,1,2,0:0:0:0:
144,64,134138,2,0,L|29:129,1,120,8|2,0:0|0:0,0:0:0:0:
196,192,134805,6,0,L|68:192,1,120,4|0,0:0|0:0,0:0:0:0:
376,192,135471,2,0,L|436:192,1,60,8|2,0:0|0:0,0:0:0:0:
344,192,135805,6,0,P|256:152|216:16,1,240,4|2,0:0|0:0,0:0:0:0:
292,24,136638,1,2,0:0:0:0:
364,24,136805,1,8,0:0:0:0:
208,120,137138,2,0,L|140:120,1,60
316,120,137471,6,0,L|352:168,1,60,4|8,0:0|0:0,0:0:0:0:
232,192,137971,2,0,L|172:192,1,60,2|8,0:0|0:0,0:0:0:0:
436,192,138471,6,0,P|504:120|432:20,1,240,4|2,0:0|0:0,0:0:0:0:
356,16,139305,1,2,0:0:0:0:
279,16,139471,2,0,L|160:16,1,120,8|2,0:0|0:3,0:0:0:0:
328,132,140138,6,0,L|396:132,1,60,4|8,0:0|0:0,0:0:0:0:
508,192,140638,2,0,L|496:128,1,60,2|8,0:0|0:0,0:0:0:0:
228,116,141138,6,0,P|112:172|84:280,1,240,4|2,0:0|0:0,0:0:0:0:
160,272,141971,1,2,0:0:0:0:
240,272,142138,2,0,L|316:272,1,60,8|0,0:0|0:0,0:0:0:0:
380,272,142471,2,0,L|352:212,1,60,8|8,0:0|0:0,0:0:0:0:
268,192,142805,6,0,L|204:192,1,60,4|8,0:0|0:0,0:0:0:0:
352,120,143305,2,0,L|412:120,1,60,2|8,0:0|0:0,0:0:0:0:
148,120,143805,6,0,P|72:188|164:260,1,240,4|2,0:0|0:0,0:0:0:0:
232,264,144638,1,2,0:0:0:0:
154,262,144805,2,0,L|58:338,1,120,8|2,0:0|0:3,0:0:0:0:
240,336,145471,6,0,L|420:336,1,180,4|2,0:0|0:0,0:0:0:0:
487,336,146138,1,8,0:0:0:0:
188,247,146471,6,0,P|160:168|272:92,1,240,4|2,0:0|0:0,0:0:0:0:
428,92,147471,1,8,0:0:0:0:
272,92,147805,1,0,0:0:0:0:
350,92,147971,1,0,0:0:0:0:
428,92,148138,6,0,L|492:92,1,60,4|8,0:0|0:0,0:0:0:0:
380,20,148638,2,0,L|320:20,1,60,2|8,0:0|0:0,0:0:0:0:
56,28,149138,6,0,P|16:112|128:180,1,240,4|2,0:0|0:0,0:0:0:0:
200,184,149971,1,2,0:0:0:0:
277,184,150138,2,0,L|373:108,1,120,8|2,0:0|0:3,0:0:0:0:
225,45,150805,5,4,0:0:0:0:
297,44,150971,2,0,L|399:108,1,120,8|2,0:0|0:0,0:0:0:0:
325,108,151471,1,8,0:0:0:0:
469,108,151805,1,2,0:0:0:0:
301,108,152138,6,0,L|217:196,1,120,2|2,0:3|0:0,0:0:0:0:
385,196,152805,2,0,L|260:196,1,120,8|0,0:0|0:0,0:0:0:0:
192,196,153305,1,0,0:0:0:0:
24,192,153471,1,4,0:0:0:0:
312,276,154471,5,12,0:0:0:0:
228,276,154638,2,0,L|140:192,1,120,2|2,0:0|0:0,0:0:0:0:
224,192,155138,2,0,L|292:192,2,60,2|2|8,0:0|0:0|0:0,0:0:0:0:
56,192,155805,1,2,0:0:0:0:
344,192,156138,6,0,P|392:144|312:112,1,180,4|0,0:0|0:0,0:0:0:0:
244,108,156805,2,0,L|124:108,1,120,8|2,0:0|0:0,0:0:0:0:
208,108,157305,2,0,P|272:136|288:192,1,120,2|2,0:0|0:0,0:0:0:0:
204,180,157805,2,0,L|136:180,2,60,2|2|8,0:0|0:0|0:0,0:0:0:0:
372,180,158471,1,8,0:0:0:0:
84,180,158805,6,0,B|24:180|24:180|24:244,1,120,4|0,0:0|0:0,0:0:0:0:
192,240,159471,2,0,P|244:220|264:152,1,120,8|2,0:0|0:0,0:0:0:0:
180,164,159971,2,0,L|72:96,1,120,2|2,0:0|0:0,0:0:0:0:
152,100,160471,1,2,0:0:0:0:
320,100,160805,2,0,L|196:100,1,120,8|2,0:0|0:0,0:0:0:0:
488,100,161471,6,0,P|488:176|352:256,1,240,4|2,0:0|0:0,0:0:0:0:
72,260,162471,2,0,P|72:184|208:104,1,240,4|2,0:0|0:3,0:0:0:0:
344,104,163471,2,0,L|420:104,1,60,8|8,0:0|0:0,0:0:0:0:
476,192,163805,2,0,L|416:192,1,60,8|8,0:0|0:0,0:0:0:0:
248,192,164138,6,0,L|128:192,1,120,4|0,0:0|0:0,0:0:0:0:
300,191,164805,2,0,L|388:108,1,120,8|2,0:0|0:0,0:0:0:0:
300,107,165305,2,0,P|264:149|300:191,1,120,2|2,0:0|0:0,0:0:0:0:
384,192,165805,2,0,L|452:192,2,60,2|0|8,0:0|0:0|0:0,0:0:0:0:
212,192,166471,1,2,0:0:0:0:
484,192,166805,6,0,L|453:308,1,120,4|0,0:0|0:0,0:0:0:0:
285,308,167471,2,0,L|408:308,1,120,8|2,0:0|0:0,0:0:0:0:
320,308,167971,2,0,L|233:221,1,120,2|2,0:0|0:0,0:0:0:0:
152,224,168471,2,0,L|84:224,2,60,2|2|8,0:0|0:0|0:0,0:0:0:0:
320,224,169138,1,8,0:0:0:0:
56,224,169471,6,0,B|8:224|8:224|80:224,1,120,4|0,0:0|0:0,0:0:0:0:
248,224,170138,2,0,L|364:192,1,120,8|2,0:0|0:0,0:0:0:0:
280,124,170638,2,0,L|164:92,1,120,2|2,0:0|0:0,0:0:0:0:
92,92,171138,1,2,0:0:0:0:
260,92,171471,2,0,L|384:92,1,120,8|2,0:0|0:0,0:0:0:0:
92,92,172138,6,0,P|36:192|116:264,1,240,4|2,0:0|0:0,0:0:0:0:
403,263,173138,2,0,P|459:163|379:91,1,240,4|2,0:0|0:3,0:0:0:0:
296,92,173971,1,0,0:0:0:0:
212,92,174138,2,0,L|96:136,1,120,8|8,0:0|0:0,0:0:0:0:
376,192,174805,6,0,L|496:192,1,120,4|0,0:0|0:0,0:0:0:0:
328,276,175471,2,0,L|204:276,1,120,8|2,0:0|0:0,0:0:0:0:
124,276,175971,2,0,L|212:192,1,120,2|2,0:0|0:0,0:0:0:0:
128,192,176471,2,0,L|60:192,1,60,2|0,0:0|0:0,0:0:0:0:
152,192,176805,2,0,L|32:192,1,120,8|2,0:0|0:0,0:0:0:0:
308,192,177471,6,0,L|320:72,1,120,4|0,0:0|0:0,0:0:0:0:
152,72,178138,2,0,L|272:72,1,120,10|2,0:0|0:0,0:0:0:0:
356,72,178638,2,0,L|236:72,1,120,2|2,0:0|0:0,0:0:0:0:
152,72,179138,2,0,L|84:72,2,60,2|2|8,0:0|0:0|0:0,0:0:0:0:
320,72,179805,1,8,0:0:0:0:
32,72,180138,6,0,L|16:192,1,120,4|0,0:0|0:0,0:0:0:0:
100,192,180638,1,2,0:0:0:0:
184,192,180805,1,8,0:0:0:0:
256,244,180971,1,2,0:0:0:0:
256,324,181138,1,2,0:0:0:0:
184,376,181305,1,8,0:0:0:0:
16,376,181638,5,8,0:0:0:0:
88,376,181805,2,0,L|220:376,2,120,2|8|2,0:0|0:0|0:0,0:0:0:0:
376,380,182805,6,0,P|428:360|452:300,1,120,4|0,0:0|0:0,0:0:0:0:
368,304,183305,1,2,0:0:0:0:
284,304,183471,1,8,0:0:0:0:
212,252,183638,1,2,0:0:0:0:
212,172,183805,1,2,0:0:0:0:
284,120,183971,1,8,0:0:0:0:
140,172,184305,6,0,L|136:112,1,60,8|2,0:0|0:0,0:0:0:0:
304,120,184805,2,0,L|416:76,1,120,8|2,0:0|0:0,0:0:0:0:
140,172,185471,6,0,L|12:172,1,120,4|0,0:0|0:0,0:0:0:0:
92,172,185971,1,2,0:0:0:0:
160,172,186138,1,8,0:0:0:0:
228,172,186305,1,0,0:0:0:0:
292,172,186471,1,2,0:0:0:0:
228,172,186638,1,8,0:0:0:0:
356,268,186971,6,0,L|360:336,1,60,8|2,0:0|0:0,0:0:0:0:
216,328,187471,2,0,L|84:328,1,120,8|2,0:0|0:0,0:0:0:0:
359,327,188138,6,0,L|487:327,1,120,4|0,0:0|0:0,0:0:0:0:
407,327,188638,1,2,0:0:0:0:
335,327,188805,1,8,0:0:0:0:
263,327,188971,1,2,0:0:0:0:
191,327,189138,1,2,0:0:0:0:
263,327,189305,1,8,0:0:0:0:
143,231,189638,6,0,L|139:163,1,60,8|2,0:0|0:0,0:0:0:0:
308,172,190138,2,0,L|372:172,2,60,8|0|2,0:0|0:0|0:0,0:0:0:0:
248,172,190638,1,8,0:0:0:0:
180,172,190805,1,0,0:0:0:0:
352,92,190971,6,0,L|420:92,1,60,4|2,0:0|0:0,0:0:0:0:
276,172,191471,2,0,L|132:108,1,120,8|2,0:0|0:0,0:0:0:0:
240,124,191971,1,8,0:0:0:0:
312,124,192138,5,2,0:0:0:0:
240,124,192305,2,0,L|180:124,1,60,8|2,0:0|0:0,0:0:0:0:
348,124,192805,2,0,L|372:188,1,60,8|0,0:0|0:0,0:0:0:0:
268,184,193138,2,0,L|248:248,1,60,2|2,0:0|0:0,0:0:0:0:
80,240,193471,5,4,0:0:0:0:
256,192,193805,12,0,198805,0:0:0:0:
