osu file format v14

[General]
AudioFilename: audio.mp3
AudioLeadIn: 0
PreviewTime: 102388
Countdown: 0
SampleSet: Soft
StackLeniency: 0.7
Mode: 2
LetterboxInBreaks: 0
WidescreenStoryboard: 0

[Editor]
Bookmarks: 1472,14805,41471,73471,78805,105471,137471,153471,185471,193471
DistanceSpacing: 1.3
BeatDivisor: 2
GridSize: 4
TimelineZoom: 1

[Metadata]
Title:Yuragi
TitleUnicode:ユラギ
Artist:Hanatan
ArtistUnicode:花たん
Creator:JBHyperion
Version:Rain
Source:
Tags:Tremor YURiCa melancholy j-rock lily niki
BeatmapID:1272606
BeatmapSetID:602506

[Difficulty]
HPDrainRate:6
CircleSize:4
OverallDifficulty:9
ApproachRate:9
SliderMultiplier:1.6
SliderTickRate:1

[Events]
//Background and Video events
0,0,"anime_girl_sunset_sky_clouds_beauty_landscape_1920x1080.jpg",0,0
//Break Periods
2,76338,78205
//Storyboard Layer 0 (Background)
//Storyboard Layer 1 (Fail)
//Storyboard Layer 2 (Pass)
//Storyboard Layer 3 (Foreground)
//Storyboard Sound Samples

[TimingPoints]
1472,333.333333333333,4,2,1,80,1,0
6805,-80,4,2,1,80,0,0
7138,-100,4,2,1,80,0,0
12138,-80,4,2,1,80,0,0
12471,-100,4,2,1,70,0,0
14221,-100,4,2,2,100,0,0
14471,-100,4,2,1,70,0,0
14805,-80,4,2,1,70,0,0
15138,-100,4,2,1,70,0,0
20138,-80,4,2,1,70,0,0
21138,-100,4,2,1,70,0,0
25471,-100,4,2,1,80,0,0
27138,-100,4,2,1,70,0,0
33471,-80,4,2,1,70,0,0
36138,-80,4,2,1,75,0,0
38805,-80,4,2,1,80,0,0
40471,-80,4,2,1,40,0,0
40805,-80,4,2,1,80,0,0
41305,-80,4,2,1,30,0,0
41471,-80,4,2,1,90,0,1
46471,-80,4,2,1,50,0,1
46805,-80,4,2,1,90,0,1
51471,-80,4,2,1,50,0,1
51638,-80,4,2,1,55,0,1
51805,-80,4,2,1,60,0,1
51971,-80,4,2,1,65,0,1
52138,-80,4,2,1,90,0,1
57138,-80,4,2,1,50,0,1
57471,-80,4,2,1,90,0,1
62471,-80,4,2,1,70,0,1
62805,-80,4,2,1,90,0,1
73471,-100,4,2,1,80,0,0
73638,-100,4,2,1,60,0,0
78805,-100,4,2,1,70,0,0
84138,-80,4,2,1,70,0,0
85138,-100,4,2,1,70,0,0
87305,-100,4,2,1,45,0,0
87471,-100,4,2,1,70,0,0
89471,-100,4,2,1,80,0,0
90805,-100,4,2,1,70,0,0
92638,-100,4,2,1,45,0,0
92804,-100,4,2,1,70,0,0
94805,-80,4,2,1,75,0,0
96305,-100,4,2,1,75,0,0
97471,-80,4,2,1,70,0,0
97971,-80,4,2,1,45,0,0
98137,-80,4,2,1,70,0,0
100138,-80,4,2,1,75,0,0
102805,-80,4,2,1,80,0,0
104471,-80,4,2,1,40,0,0
104805,-80,4,2,1,80,0,0
105305,-80,4,2,1,30,0,0
105471,-80,4,2,1,90,0,1
110471,-80,4,2,1,50,0,1
110805,-80,4,2,1,90,0,1
115471,-80,4,2,1,50,0,1
115638,-80,4,2,1,55,0,1
115805,-80,4,2,1,60,0,1
115971,-80,4,2,1,65,0,1
116138,-80,4,2,1,90,0,1
121138,-80,4,2,1,50,0,1
121471,-80,4,2,1,90,0,1
126471,-80,4,2,1,70,0,1
126805,-80,4,2,1,90,0,1
131805,-80,4,2,1,70,0,1
132138,-80,4,2,1,90,0,1
137138,-80,4,2,1,50,0,1
137471,-100,4,2,1,80,0,0
142471,-100,4,2,1,50,0,0
142805,-100,4,2,1,80,0,0
147805,-100,4,2,1,50,0,0
148139,-100,4,2,1,80,0,0
152138,-80,4,2,1,100,0,0
152471,-100,4,2,1,100,0,0
153138,-100,4,2,1,50,0,0
153472,-100,4,2,1,80,0,0
154471,-80,4,2,1,90,0,1
158471,-80,4,2,1,50,0,1
158805,-80,4,2,1,90,0,1
162471,-66.6666666666667,4,2,1,90,0,1
162971,-80,4,2,1,90,0,1
163471,-80,4,2,1,50,0,1
163638,-80,4,2,1,55,0,1
163805,-80,4,2,1,60,0,1
163971,-80,4,2,1,65,0,1
164138,-80,4,2,1,90,0,1
169138,-80,4,2,1,50,0,1
169471,-80,4,2,1,90,0,1
174471,-80,4,2,1,70,0,1
174805,-80,4,2,1,90,0,1
179805,-80,4,2,1,70,0,1
180138,-80,4,2,1,90,0,1
185138,-80,4,2,1,50,0,1
185471,-100,4,2,1,80,0,0
190971,-100,4,2,1,60,0,0
191138,-100,4,2,1,100,0,0
193638,-100,4,2,1,50,0,0
194138,-100,4,2,1,47,0,0
194471,-100,4,2,1,44,0,0
194805,-100,4,2,1,41,0,0
195138,-100,4,2,1,38,0,0
195471,-100,4,2,1,35,0,0
195805,-100,4,2,1,32,0,0
196138,-100,4,2,1,29,0,0
196471,-100,4,2,1,26,0,0
196805,-100,4,2,1,23,0,0
197138,-100,4,2,1,20,0,0
197471,-100,4,2,1,17,0,0
197805,-100,4,2,1,14,0,0
198138,-100,4,2,1,11,0,0
198471,-100,4,2,1,8,0,0
198805,-100,4,2,1,5,0,0

[Colours]
Combo1 : 170,100,255
Combo2 : 0,40,128
Combo3 : 70,100,255
Combo4 : 255,170,100

[HitObjects]
304,192,1472,6,0,L|464:192,1,160,4|0,0:0|0:0,0:0:0:0:
384,268,1971,1,0,0:0:0:0:
240,268,2138,2,0,L|172:220,2,80,8|0|0,0:0|0:0|0:0,0:0:0:0:
320,268,2638,1,2,0:0:0:0:
160,268,2971,5,2,0:0:0:0:
320,268,3138,2,0,L|408:268,1,80,2|0,0:3|0:0,0:0:0:0:
220,192,3471,2,0,L|136:192,1,80,8|0,0:0|0:0,0:0:0:0:
240,192,3805,1,0,0:0:0:0:
280,120,3971,1,0,0:0:0:0:
36,120,4138,6,0,P|-8:156|60:192,1,160,4|0,0:0|0:0,0:0:0:0:
140,192,4638,1,0,0:0:0:0:
300,192,4805,1,8,0:0:0:0:
368,232,4971,1,0,0:0:0:0:
380,308,5138,1,0,0:0:0:0:
324,356,5305,1,2,0:0:0:0:
148,232,5638,5,2,0:0:0:0:
308,232,5805,2,0,L|396:232,1,80,2|2,0:3|0:0,0:0:0:0:
208,308,6138,2,0,L|288:308,2,80,8|0|2,0:0|0:0|0:0,0:0:0:0:
128,308,6638,1,2,0:0:0:0:
364,296,6805,6,0,B|488:296|488:296|488:220,1,200,4|0,0:0|0:0,0:0:0:0:
408,220,7305,1,0,0:0:0:0:
240,220,7471,2,0,L|172:172,2,80,8|0|0,0:0|0:0|0:0,0:0:0:0:
320,220,7971,1,2,0:0:0:0:
160,220,8305,5,2,0:0:0:0:
320,220,8471,2,0,L|408:220,1,80,2|0,0:3|0:0,0:0:0:0:
220,144,8805,2,0,L|132:144,2,80,8|0|0,0:0|0:0|0:0,0:0:0:0:
384,144,9305,1,0,0:0:0:0:
144,64,9471,6,0,L|56:64,2,80,4|0|0,0:0|0:0|0:0,0:0:0:0:
224,64,9971,1,0,0:0:0:0:
400,64,10138,2,0,P|460:80|492:168,1,160,8|0,0:0|0:0,0:0:0:0:
396,164,10638,1,2,0:0:0:0:
220,164,10971,5,2,0:0:0:0:
380,164,11138,2,0,L|292:164,1,80,2|0,0:3|0:0,0:0:0:0:
492,240,11471,2,0,L|412:240,2,80,8|2|2,0:0|0:0|0:0,0:0:0:0:
396,240,11971,1,2,0:0:0:0:
160,240,12138,6,0,B|36:240|36:240|36:316,1,200,4|0,0:0|0:0,0:0:0:0:
116,316,12638,1,2,0:0:0:0:
276,316,12805,2,0,P|256:248|176:216,1,160,8|0,0:0|0:0,0:0:0:0:
100,216,13305,1,2,0:0:0:0:
212,216,13471,6,0,L|300:216,2,80,2|0|2,0:3|0:0|0:0,0:0:0:0:
468,216,14138,1,8,0:0:0:0:
484,216,14221,1,2,0:0:0:0:
500,216,14305,1,2,0:0:0:0:
340,216,14471,1,2,0:0:0:0:
452,216,14638,1,2,0:0:0:0:
168,216,14805,6,0,P|76:188|52:88,1,200,4|0,0:0|0:0,0:0:0:0:
132,96,15305,1,0,0:0:0:0:
212,96,15471,2,0,L|284:136,1,80,2|0,0:0|0:0,0:0:0:0:
104,192,15805,2,0,P|60:224|208:348,1,320,2|2,0:3|0:0,0:0:0:0:
464,364,16805,1,8,0:0:0:0:
304,364,17138,2,0,L|288:284,1,80,2|0,0:0|0:0,0:0:0:0:
464,284,17471,6,0,P|480:248|432:144,1,160,2|0,0:3|0:0,0:0:0:0:
272,144,17971,2,0,P|216:132|192:32,1,160,2|0,0:3|0:0,0:0:0:0:
352,144,18471,2,0,B|348:220|276:252|160:232|112:124,1,320,2|2,0:3|0:0,0:0:0:0:
396,52,19471,1,8,0:0:0:0:
236,52,19805,2,0,L|320:52,1,80,2|0,0:0|0:0,0:0:0:0:
72,52,20138,6,0,P|8:108|76:176,1,200,4|0,0:0|0:0,0:0:0:0:
316,176,20638,2,0,P|372:184|448:304,1,200,2|0,0:3|0:0,0:0:0:0:
288,248,21138,2,0,B|216:228|208:104|280:60|376:100|436:128,1,320,2|2,0:3|0:0,0:0:0:0:
84,112,22138,1,8,0:0:0:0:
324,116,22638,1,0,0:0:0:0:
68,112,22805,6,0,P|32:168|76:248,1,160,4|0,0:3|0:0,0:0:0:0:
232,244,23305,2,0,P|268:300|224:380,1,160,4|0,0:3|0:0,0:0:0:0:
69,374,23805,2,0,P|151:264|230:377,1,320,4|2,0:3|0:0,0:0:0:0:
150,349,24638,1,0,0:0:0:0:
328,376,24805,2,0,L|400:340,1,80,8|0,0:0|0:0,0:0:0:0:
340,276,25138,1,2,0:0:0:0:
180,276,25305,1,2,0:0:0:0:
452,276,25471,6,0,P|488:220|444:140,1,160,4|0,0:0|0:0,0:0:0:0:
192,144,25971,2,0,P|156:88|200:8,1,160,4|0,0:3|0:0,0:0:0:0:
451,14,26471,2,0,P|369:124|290:11,1,320,4|2,0:3|0:0,0:0:0:0:
370,39,27305,1,2,0:0:0:0:
192,40,27471,1,8,0:0:0:0:
356,120,27805,2,0,L|272:120,1,80,2|0,0:0|0:0,0:0:0:0:
44,120,28138,6,0,P|40:168|120:232,1,160,2|0,0:3|0:0,0:0:0:0:
280,232,28638,2,0,P|332:280|276:328,1,160,2|0,0:3|0:0,0:0:0:0:
100,328,29138,2,0,B|24:288|24:172|80:120|80:120|160:120,1,320,2|2,0:3|0:0,0:0:0:0:
240,120,29971,1,2,0:0:0:0:
408,120,30138,2,0,L|416:208,1,80,8|0,0:0|0:0,0:0:0:0:
240,200,30471,2,0,L|144:200,1,80,2|0,0:0|0:0,0:0:0:0:
396,200,30805,6,0,P|448:212|496:304,1,160,4|0,0:0|0:0,0:0:0:0:
264,300,31305,2,0,B|184:300|184:300|184:212,1,160,2|0,0:3|0:0,0:0:0:0:
416,300,31805,2,0,P|508:188|404:80,1,320,2|2,0:3|0:0,0:0:0:0:
367,80,32555,1,2,0:0:0:0:
328,80,32638,1,2,0:0:0:0:
152,80,32805,1,8,0:0:0:0:
432,84,33138,2,0,L|444:168,1,80,2|8,0:0|0:0,0:0:0:0:
208,160,33471,6,0,P|128:184|84:288,1,200,4|0,0:0|0:0,0:0:0:0:
264,284,33971,2,0,L|424:164,1,200,2|0,0:3|0:0,0:0:0:0:
152,160,34471,2,0,P|187:302|224:160,1,400,4|2,0:0|0:0,0:0:0:0:
132,160,35305,1,0,0:0:0:0:
312,160,35471,2,0,P|380:176|440:288,1,200,8|2,0:0|0:0,0:0:0:0:
360,280,35971,1,2,0:0:0:0:
120,280,36138,6,0,P|72:192|120:112,1,200,4|0,0:0|0:0,0:0:0:0:
372,113,36638,2,0,P|417:196|369:279,1,200,2|0,0:3|0:0,0:0:0:0:
100,280,37138,2,0,B|60:240|104:192|104:192|196:152|196:152|240:104|200:64,1,300,4|0,0:0|0:0,0:0:0:0:
24,64,37805,2,0,L|12:164,1,100,2|0,0:0|0:0,0:0:0:0:
192,164,38138,2,0,L|340:192,1,150,8|2,0:0|0:0,0:0:0:0:
288,192,38471,1,2,0:0:0:0:
140,192,38638,1,8,0:0:0:0:
400,104,38805,6,0,L|492:60,2,100,4|8|2,0:0|0:0|0:0,0:0:0:0:
308,104,39305,1,2,0:0:0:0:
120,104,39471,2,0,L|48:172,1,100,8|2,0:0|0:0,0:0:0:0:
224,176,39805,1,8,0:0:0:0:
64,172,39971,1,8,0:0:0:0:
364,176,40138,6,0,P|424:200|448:284,1,150,4|0,0:0|0:0,0:0:0:0:
440,312,40471,1,8,0:0:0:0:
418,342,40555,1,8,0:0:0:0:
385,359,40638,1,8,0:0:0:0:
348,361,40721,1,8,0:0:0:0:
148,360,40805,2,0,P|88:352|128:180,1,300,2|0,0:3|0:0,0:0:0:0:
376,184,41471,6,0,P|436:172|500:56,1,200,4|0,0:0|0:0,0:0:0:0:
408,60,41971,1,2,0:0:0:0:
228,60,42138,2,0,L|141:110,2,100,8|0|2,0:0|0:0|0:0,0:0:0:0:
380,60,42638,2,0,P|424:80|364:184,1,200,2|2,0:0|0:0,0:0:0:0:
280,184,43138,2,0,L|193:234,1,100,2|0,0:0|0:0,0:0:0:0:
372,184,43471,2,0,L|380:284,1,100,8|0,0:0|0:0,0:0:0:0:
204,284,43805,1,2,0:0:0:0:
360,284,43971,1,2,0:0:0:0:
76,284,44138,6,0,P|20:224|84:144,1,200,4|0,0:0|0:0,0:0:0:0:
172,144,44638,1,2,0:0:0:0:
352,144,44805,2,0,L|438:94,2,100,8|0|2,0:0|0:0|0:0,0:0:0:0:
200,144,45305,2,0,P|148:168|200:268,1,200,2|2,0:0|0:0,0:0:0:0:
289,225,45805,2,0,L|198:267,1,100,2|2,0:0|0:0,0:0:0:0:
456,268,46138,2,0,L|464:168,1,100,8|2,0:0|0:0,0:0:0:0:
296,168,46471,1,8,0:0:0:0:
244,128,46555,1,8,0:0:0:0:
247,62,46638,1,8,0:0:0:0:
305,35,46721,1,8,0:0:0:0:
128,36,46805,6,0,P|56:56|16:172,1,200,4|0,0:0|0:0,0:0:0:0:
104,164,47305,1,2,0:0:0:0:
280,168,47471,2,0,L|380:192,2,100,8|0|2,0:0|0:0|0:0,0:0:0:0:
128,164,47971,2,0,P|140:104|256:40,1,200,2|2,0:0|0:0,0:0:0:0:
164,40,48471,2,0,L|76:96,1,100,2|0,0:0|0:0,0:0:0:0:
372,192,48805,2,0,L|272:192,1,100,8|0,0:0|0:0,0:0:0:0:
92,184,49138,2,0,L|196:184,1,100,2|2,0:0|0:0,0:0:0:0:
432,184,49471,6,0,P|480:212|376:356,1,300,4|0,0:0|0:0,0:0:0:0:
204,360,50138,2,0,L|112:316,1,100,2|2,0:0|0:0,0:0:0:0:
364,320,50471,2,0,P|312:212|252:320,1,300,4|0,0:0|0:0,0:0:0:0:
344,320,51138,2,0,L|424:260,1,100,2|0,0:3|0:0,0:0:0:0:
160,260,51471,5,8,0:0:0:0:
141,214,51555,1,8,0:0:0:0:
145,164,51638,1,8,0:0:0:0:
172,123,51721,1,8,0:0:0:0:
296,192,51805,1,8,0:0:0:0:
314,146,51888,1,8,0:0:0:0:
310,96,51971,1,8,0:0:0:0:
283,55,52055,1,8,0:0:0:0:
104,56,52138,6,0,P|24:104|56:192,1,200,4|0,0:0|0:0,0:0:0:0:
144,192,52638,1,2,0:0:0:0:
329,94,52805,2,0,L|416:144,2,100,8|0|2,0:0|0:0|0:0,0:0:0:0:
177,94,53305,2,0,P|125:118|177:218,1,200,2|2,0:0|0:0,0:0:0:0:
268,156,53805,2,0,L|168:156,1,100,2|0,0:0|0:0,0:0:0:0:
348,156,54138,2,0,L|356:256,1,100,8|0,0:0|0:0,0:0:0:0:
180,256,54471,1,2,0:0:0:0:
336,256,54638,1,2,0:0:0:0:
76,256,54805,6,0,P|68:320|176:376,1,200,4|0,0:0|0:0,0:0:0:0:
264,376,55305,1,2,0:0:0:0:
440,328,55471,2,0,L|354:378,2,100,8|0|2,0:0|0:0|0:0,0:0:0:0:
288,313,55971,2,0,P|224:254|295:203,1,200,2|2,0:0|0:0,0:0:0:0:
386,245,56471,2,0,L|295:203,1,100,2|2,0:0|0:0,0:0:0:0:
44,304,56805,2,0,L|52:204,1,100,8|0,0:0|0:0,0:0:0:0:
232,204,57138,1,8,0:0:0:0:
290,177,57221,1,8,0:0:0:0:
298,113,57305,1,8,0:0:0:0:
249,71,57388,1,8,0:0:0:0:
72,72,57471,6,0,P|92:144|208:184,1,200,4|0,0:0|0:0,0:0:0:0:
292,184,57971,1,2,0:0:0:0:
116,188,58138,2,0,L|16:212,2,100,8|0|2,0:0|0:0|0:0,0:0:0:0:
268,184,58638,2,0,P|256:124|140:60,1,200,2|2,0:0|0:0,0:0:0:0:
52,60,59138,2,0,L|140:116,1,100,2|0,0:0|0:0,0:0:0:0:
384,112,59471,2,0,L|477:166,1,100,8|0,0:0|0:0,0:0:0:0:
224,192,59805,2,0,L|124:192,1,100,2|2,0:0|0:0,0:0:0:0:
424,244,60138,6,0,P|508:144|424:20,1,300,4|0,0:0|0:0,0:0:0:0:
180,192,60805,2,0,L|80:192,1,100,2|2,0:0|0:0,0:0:0:0:
332,16,61138,2,0,P|432:104|328:192,1,300,4|0,0:0|0:0,0:0:0:0:
244,328,61805,2,0,L|164:268,1,100,2|2,0:0|0:0,0:0:0:0:
404,192,62138,2,0,L|300:192,1,100,8|2,0:0|0:0,0:0:0:0:
64,192,62471,1,8,0:0:0:0:
46,146,62555,1,8,0:0:0:0:
50,96,62638,1,8,0:0:0:0:
77,55,62721,1,8,0:0:0:0:
280,56,62805,6,0,P|360:88|400:188,1,200,4|0,0:0|0:0,0:0:0:0:
304,192,63305,1,2,0:0:0:0:
120,192,63471,2,0,L|33:242,2,100,8|0|2,0:0|0:0|0:0,0:0:0:0:
272,192,63971,2,0,P|264:260|156:320,1,200,2|2,0:0|0:0,0:0:0:0:
68,320,64471,2,0,L|60:220,1,100,2|0,0:0|0:0,0:0:0:0:
240,168,64805,2,0,L|154:218,1,100,8|0,0:0|0:0,0:0:0:0:
328,220,65138,1,2,0:0:0:0:
172,220,65305,1,2,0:0:0:0:
432,220,65471,6,0,P|408:144|304:96,1,200,4|2,0:0|0:0,0:0:0:0:
216,96,65971,1,2,0:0:0:0:
396,220,66138,2,0,L|310:170,2,100,8|0|2,0:0|0:0|0:0,0:0:0:0:
244,220,66638,2,0,P|192:244|244:344,1,200,2|2,0:0|0:0,0:0:0:0:
332,344,67138,2,0,L|423:302,1,100,2|2,0:0|0:0,0:0:0:0:
176,344,67471,2,0,L|168:244,1,100,8|2,0:0|0:0,0:0:0:0:
412,244,67805,2,0,L|500:192,1,100,0|0,0:0|0:0,0:0:0:0:
208,192,68138,6,0,P|144:136|212:72,1,200,4|2,0:0|0:0,0:0:0:0:
300,72,68638,1,2,0:0:0:0:
124,21,68805,2,0,L|210:71,2,100,8|2|2,0:0|0:0|0:0,0:0:0:0:
32,20,69305,1,8,0:0:0:0:
312,20,69638,5,8,0:0:0:0:
132,20,69805,2,0,L|56:88,1,100,2|2,0:0|0:0,0:0:0:0:
308,104,70138,2,0,L|232:172,1,100,8|0,0:0|0:0,0:0:0:0:
48,172,70471,2,0,L|124:240,1,100,2|0,0:0|0:0,0:0:0:0:
376,100,70805,6,0,P|440:156|372:220,1,200,4|2,0:0|0:0,0:0:0:0:
284,220,71305,1,2,0:0:0:0:
104,268,71471,2,0,L|190:218,2,100,8|2|2,0:0|0:0|0:0,0:0:0:0:
12,268,71971,1,8,0:0:0:0:
292,268,72305,5,8,0:0:0:0:
112,268,72471,2,0,L|36:200,1,100,2|2,0:0|0:0,0:0:0:0:
288,180,72805,2,0,L|364:112,1,100,8|0,0:0|0:0,0:0:0:0:
112,164,73138,2,0,L|36:96,1,100,2|2,0:0|0:0,0:0:0:0:
344,40,73471,5,4,0:0:0:0:
256,192,73638,12,4,76138,0:0:0:0:
160,192,78805,6,0,P|120:140|176:72,1,160,4|0,0:0|0:0,0:0:0:0:
332,72,79305,2,0,P|340:128|268:192,1,160,2|0,0:3|0:0,0:0:0:0:
444,192,79805,2,0,P|484:212|364:356,1,320,2|2,0:3|0:0,0:0:0:0:
284,364,80638,1,2,0:0:0:0:
228,364,80721,1,2,0:0:0:0:
84,364,80805,2,0,P|56:288|96:224,1,160,8|2,0:0|0:0,0:0:0:0:
376,200,81471,6,0,L|224:152,1,160,2|0,0:3|0:0,0:0:0:0:
384,128,81971,2,0,L|464:128,2,80,2|0|0,0:3|0:0|0:0,0:0:0:0:
208,152,82471,2,0,P|120:104|212:40,1,240,2|0,0:3|0:0,0:0:0:0:
376,36,83138,2,0,L|312:88,1,80,8|0,0:0|0:0,0:0:0:0:
233,86,83471,2,0,L|321:86,1,80,2|2,0:0|0:0,0:0:0:0:
144,88,83805,2,0,L|80:140,1,80,8|0,0:0|0:0,0:0:0:0:
324,160,84138,6,0,P|396:188|328:244,1,200,4|0,0:0|0:0,0:0:0:0:
88,244,84638,2,0,P|92:192|208:120,1,200,2|0,0:3|0:0,0:0:0:0:
368,80,85138,2,0,L|448:80,1,80,2|0,0:3|0:0,0:0:0:0:
352,152,85471,2,0,L|272:152,2,80,2|2|2,0:3|0:3|0:0,0:0:0:0:
448,152,85971,1,2,0:0:0:0:
464,152,86055,1,2,0:0:0:0:
312,228,86138,2,0,B|232:228|232:228|172:304,1,160,8|2,0:0|0:0,0:0:0:0:
340,304,86638,1,0,0:0:0:0:
108,304,86805,6,0,B|28:304|28:304|28:224,1,160,4|0,0:3|0:0,0:0:0:0:
196,228,87305,2,0,B|276:228|276:228|276:148,1,160,8|0,0:0|0:0,0:0:0:0:
108,48,87805,2,0,P|190:158|269:45,1,320,4|8,0:3|0:0,0:0:0:0:
189,73,88638,1,0,0:0:0:0:
28,36,88805,2,0,L|100:72,1,80,2|2,0:0|0:0,0:0:0:0:
172,152,89138,1,8,0:0:0:0:
12,152,89305,1,0,0:0:0:0:
268,152,89471,6,0,L|428:152,1,160,4|0,0:0|0:0,0:0:0:0:
172,256,89971,2,0,L|8:256,1,160,4|0,0:3|0:0,0:0:0:0:
300,256,90471,2,0,L|380:256,1,80,4|0,0:3|0:0,0:0:0:0:
260,184,90805,2,0,L|180:184,2,80,2|2|2,0:3|0:3|0:0,0:0:0:0:
164,184,91305,1,2,0:0:0:0:
148,184,91388,1,2,0:0:0:0:
300,104,91471,1,8,0:0:0:0:
80,128,91805,2,0,L|136:184,1,80,2|0,0:0|0:0,0:0:0:0:
376,184,92138,6,0,P|456:216|488:288,1,160,2|0,0:3|0:0,0:0:0:0:
248,280,92638,2,0,P|285:211|359:185,1,160,8|0,0:0|0:0,0:0:0:0:
196,184,93138,2,0,P|124:96|200:12,1,240,2|0,0:3|0:0,0:0:0:0:
356,12,93805,1,8,0:0:0:0:
436,60,93971,1,0,0:0:0:0:
284,64,94138,2,0,L|276:152,1,80,2|2,0:0|0:0,0:0:0:0:
456,144,94471,2,0,L|376:144,1,80,8|0,0:0|0:0,0:0:0:0:
116,140,94805,6,0,P|32:144|16:244,1,200,4|0,0:0|0:0,0:0:0:0:
248,240,95305,2,0,P|316:192|240:140,1,200,2|0,0:3|0:0,0:0:0:0:
480,240,95805,2,0,B|452:116|304:116|276:240,1,300,2|0,0:3|0:0,0:0:0:0:
436,240,96471,2,0,L|444:160,1,80,2|2,0:0|0:0,0:0:0:0:
404,160,96721,1,2,0:0:0:0:
256,160,96805,1,8,0:0:0:0:
504,76,97138,2,0,L|424:76,1,80,2|2,0:0|0:0,0:0:0:0:
184,72,97471,6,0,B|84:72|84:72|84:172,1,200,4|0,0:3|0:0,0:0:0:0:
256,172,97971,2,0,P|324:228|256:288,1,200,8|0,0:0|0:0,0:0:0:0:
20,284,98471,2,0,P|40:156|180:76,1,300,4|0,0:3|0:0,0:0:0:0:
360,76,99138,2,0,L|464:108,1,100,8|0,0:0|0:0,0:0:0:0:
304,160,99471,1,2,0:0:0:0:
396,160,99638,1,2,0:0:0:0:
196,240,99805,2,0,L|108:192,1,100,8|0,0:0|0:0,0:0:0:0:
373,326,100138,6,0,P|421:238|373:158,1,200,4|0,0:0|0:0,0:0:0:0:
108,192,100638,2,0,P|63:275|111:358,1,200,2|0,0:3|0:0,0:0:0:0:
388,328,101138,2,0,B|428:288|392:228|392:228|340:240|284:200|288:132|340:92,1,300,2|0,0:3|0:0,0:0:0:0:
476,112,101805,2,0,L|488:212,1,100,8|0,0:0|0:0,0:0:0:0:
324,212,102138,2,0,L|224:212,1,100,2|2,0:0|0:0,0:0:0:0:
284,212,102388,1,2,0:0:0:0:
460,212,102471,1,2,0:0:0:0:
360,212,102638,1,8,0:0:0:0:
104,212,102805,6,0,L|12:256,2,100,4|8|2,0:0|0:0|0:0,0:0:0:0:
196,212,103305,1,2,0:0:0:0:
384,212,103471,2,0,L|456:144,1,100,8|2,0:0|0:0,0:0:0:0:
280,144,103805,1,8,0:0:0:0:
440,144,103971,1,8,0:0:0:0:
120,212,104138,6,0,P|60:188|36:104,1,150,4|0,0:0|0:0,0:0:0:0:
82,110,104471,1,8,0:0:0:0:
104,72,104555,1,8,0:0:0:0:
87,26,104638,1,8,0:0:0:0:
40,20,104721,1,8,0:0:0:0:
248,20,104805,2,0,B|348:20|348:20|468:20|468:152,1,300,2|0,0:3|0:0,0:0:0:0:
188,148,105471,6,0,P|128:160|64:276,1,200,4|0,0:0|0:0,0:0:0:0:
156,272,105971,1,2,0:0:0:0:
336,272,106138,2,0,L|423:222,2,100,8|0|2,0:0|0:0|0:0,0:0:0:0:
184,272,106638,2,0,P|100:244|88:144,1,200,2|2,0:0|0:0,0:0:0:0:
180,144,107138,2,0,L|280:144,1,100,2|0,0:0|0:0,0:0:0:0:
104,144,107471,2,0,L|54:57,1,100,8|0,0:0|0:0,0:0:0:0:
340,44,107805,1,2,0:0:0:0:
200,44,107971,1,2,0:0:0:0:
480,48,108138,6,0,P|488:120|392:184,1,200,4|0,0:0|0:0,0:0:0:0:
304,184,108638,1,2,0:0:0:0:
124,184,108805,2,0,L|38:234,2,100,8|0|2,0:0|0:0|0:0,0:0:0:0:
276,184,109305,2,0,P|248:96|152:52,1,200,2|2,0:0|0:0,0:0:0:0:
248,52,109805,2,0,L|339:10,1,100,2|2,0:0|0:0,0:0:0:0:
81,9,110138,2,0,L|73:109,1,100,8|0,0:0|0:0,0:0:0:0:
249,109,110471,1,8,0:0:0:0:
312,124,110555,1,8,0:0:0:0:
358,171,110638,1,8,0:0:0:0:
371,236,110721,1,8,0:0:0:0:
196,168,110805,6,0,P|124:188|84:304,1,200,4|0,0:0|0:0,0:0:0:0:
172,296,111305,1,2,0:0:0:0:
348,300,111471,2,0,L|448:324,2,100,8|0|2,0:0|0:0|0:0,0:0:0:0:
196,296,111971,2,0,P|208:236|324:172,1,200,2|2,0:0|0:0,0:0:0:0:
412,172,112471,2,0,L|308:172,1,100,2|0,0:0|0:0,0:0:0:0:
136,168,112805,2,0,L|120:272,1,100,8|0,0:0|0:0,0:0:0:0:
300,268,113138,2,0,L|200:268,1,100,2|2,0:0|0:0,0:0:0:0:
452,268,113471,6,0,P|504:128|372:76,1,300,4|0,0:0|0:0,0:0:0:0:
216,68,114138,2,0,L|308:112,1,100,2|2,0:0|0:0,0:0:0:0:
56,108,114471,2,0,P|84:236|232:308,1,300,4|0,0:0|0:0,0:0:0:0:
136,308,115138,2,0,L|56:368,1,100,2|0,0:3|0:0,0:0:0:0:
308,368,115471,5,8,0:0:0:0:
328,320,115555,1,8,0:0:0:0:
320,268,115638,1,8,0:0:0:0:
284,228,115721,1,8,0:0:0:0:
156,228,115805,1,8,0:0:0:0:
120,188,115889,1,8,0:0:0:0:
112,136,115972,1,8,0:0:0:0:
132,88,116055,1,8,0:0:0:0:
316,84,116138,6,0,P|380:144|320:216,1,200,4|0,0:0|0:0,0:0:0:0:
228,220,116638,1,2,0:0:0:0:
413,122,116805,2,0,L|500:172,2,100,8|0|2,0:0|0:0|0:0,0:0:0:0:
261,122,117305,2,0,P|209:146|261:246,1,200,2|2,0:0|0:0,0:0:0:0:
172,244,117805,2,0,L|72:244,1,100,2|0,0:0|0:0,0:0:0:0:
252,244,118138,2,0,L|260:344,1,100,8|0,0:0|0:0,0:0:0:0:
84,344,118471,1,2,0:0:0:0:
240,344,118638,1,2,0:0:0:0:
488,344,118805,6,0,P|484:276|376:224,1,200,4|0,0:0|0:0,0:0:0:0:
284,224,119305,1,2,0:0:0:0:
100,176,119471,2,0,L|186:226,2,100,8|0|2,0:0|0:0|0:0,0:0:0:0:
252,176,119971,2,0,P|300:144|232:52,1,200,2|2,0:0|0:0,0:0:0:0:
144,93,120471,2,0,L|235:51,1,100,2|2,0:0|0:0,0:0:0:0:
486,152,120805,2,0,L|478:52,1,100,8|0,0:0|0:0,0:0:0:0:
296,156,121138,1,8,0:0:0:0:
247,114,121221,1,8,0:0:0:0:
255,50,121305,1,8,0:0:0:0:
313,23,121388,1,8,0:0:0:0:
136,20,121471,6,0,P|64:40|12:152,1,200,4|0,0:0|0:0,0:0:0:0:
100,144,121971,1,2,0:0:0:0:
276,148,122138,2,0,L|376:172,2,100,8|0|2,0:0|0:0|0:0,0:0:0:0:
124,144,122638,2,0,P|136:84|252:20,1,200,2|2,0:0|0:0,0:0:0:0:
160,16,123138,2,0,L|248:72,1,100,2|0,0:0|0:0,0:0:0:0:
412,48,123471,2,0,L|347:126,1,100,8|0,0:0|0:0,0:0:0:0:
184,124,123805,2,0,L|84:124,1,100,2|2,0:0|0:0,0:0:0:0:
353,122,124138,6,0,P|453:210|349:298,1,300,4|0,0:0|0:0,0:0:0:0:
116,296,124805,2,0,L|216:296,1,100,2|2,0:0|0:0,0:0:0:0:
457,298,125138,2,0,P|357:210|461:122,1,300,4|0,0:0|0:0,0:0:0:0:
348,124,125805,2,0,L|268:184,1,100,2|0,0:0|0:0,0:0:0:0:
24,184,126138,2,0,L|128:184,1,100,8|2,0:0|0:0,0:0:0:0:
364,184,126471,1,8,0:0:0:0:
382,230,126555,1,8,0:0:0:0:
378,280,126638,1,8,0:0:0:0:
351,321,126721,1,8,0:0:0:0:
160,316,126805,6,0,P|80:284|40:184,1,200,4|0,0:0|0:0,0:0:0:0:
136,180,127305,1,2,0:0:0:0:
320,180,127471,2,0,L|407:130,2,100,8|0|2,0:0|0:0|0:0,0:0:0:0:
168,180,127971,2,0,P|176:112|284:52,1,200,2|2,0:0|0:0,0:0:0:0:
192,56,128471,2,0,L|184:156,1,100,2|0,0:0|0:0,0:0:0:0:
364,208,128805,2,0,L|278:158,1,100,8|0,0:0|0:0,0:0:0:0:
452,156,129138,1,2,0:0:0:0:
296,156,129305,1,2,0:0:0:0:
48,156,129471,6,0,P|72:232|176:280,1,200,4|2,0:0|0:0,0:0:0:0:
264,280,129971,1,2,0:0:0:0:
84,156,130138,2,0,L|170:206,2,100,8|0|2,0:0|0:0|0:0,0:0:0:0:
236,156,130638,2,0,P|288:132|236:32,1,200,2|2,0:0|0:0,0:0:0:0:
136,32,131138,2,0,L|128:132,1,100,2|2,0:0|0:0,0:0:0:0:
392,156,131471,2,0,L|483:114,1,100,8|2,0:0|0:0,0:0:0:0:
212,156,131805,1,8,0:0:0:0:
160,194,131888,1,8,0:0:0:0:
158,258,131971,1,8,0:0:0:0:
208,300,132055,1,8,0:0:0:0:
388,300,132138,5,4,0:0:0:0:
480,300,132305,2,0,P|504:256|408:176,1,200,8|2,0:0|0:0,0:0:0:0:
236,176,132805,2,0,L|152:116,1,100,8|2,0:0|0:0,0:0:0:0:
408,100,133138,6,0,B|516:112|512:224|460:280|396:256|232:256,1,400,4|2,0:0|0:0,0:0:0:0:
328,176,133971,1,2,0:0:0:0:
164,176,134138,2,0,P|188:264|280:308,1,200,8|2,0:0|0:0,0:0:0:0:
372,308,134638,1,0,0:0:0:0:
132,308,134805,5,4,0:0:0:0:
40,308,134971,2,0,P|12:264|108:180,1,200,8|2,0:0|0:0,0:0:0:0:
380,184,135471,2,0,L|464:124,1,100,8|2,0:0|0:0,0:0:0:0:
108,96,135805,6,0,P|32:132|148:244,1,300,4|0,0:0|0:0,0:0:0:0:
284,252,136471,1,2,0:0:0:0:
192,252,136638,1,2,0:0:0:0:
432,252,136805,2,0,P|480:224|480:128,1,150,8|0,0:0|0:0,0:0:0:0:
304,136,137138,2,8,L|252:136,1,50
304,60,137305,2,8,L|356:60,1,50
192,60,137471,5,4,0:0:0:0:
96,60,137638,2,0,P|36:88|24:176,1,160,8|2,0:0|0:0,0:0:0:0:
200,176,138138,2,0,L|284:176,1,80,8|2,0:0|0:0,0:0:0:0:
48,176,138471,6,0,P|8:224|104:336,1,240,4|0,0:0|0:0,0:0:0:0:
264,336,139138,1,2,0:0:0:0:
184,336,139305,1,2,0:0:0:0:
352,336,139471,2,0,L|436:336,1,80,8|0,0:0|0:0,0:0:0:0:
252,336,139805,2,0,L|232:252,1,80,2|2,0:3|0:0,0:0:0:0:
468,260,140138,5,4,0:0:0:0:
356,260,140305,2,0,L|212:192,1,160,8|2,0:0|0:0,0:0:0:0:
36,192,140805,2,0,L|120:192,1,80,8|2,0:0|0:0,0:0:0:0:
356,260,141138,6,0,P|400:192|300:100,1,240,4|0,0:0|0:0,0:0:0:0:
464,100,141805,2,0,L|476:184,1,80,2|2,0:0|0:0,0:0:0:0:
296,176,142138,2,0,L|216:192,1,80,8|0,0:0|0:0,0:0:0:0:
384,192,142471,1,8,0:0:0:0:
423,243,142555,1,8,0:0:0:0:
415,307,142638,1,8,0:0:0:0:
363,346,142721,1,8,0:0:0:0:
216,344,142805,5,4,0:0:0:0:
88,344,142971,2,0,P|44:304|48:208,1,160,8|2,0:0|0:0,0:0:0:0:
224,228,143471,2,0,L|140:228,1,80,8|2,0:0|0:0,0:0:0:0:
384,228,143805,6,0,P|484:176|488:56,1,240,4|0,0:0|0:0,0:0:0:0:
328,60,144471,1,2,0:0:0:0:
408,60,144638,1,2,0:0:0:0:
248,60,144805,2,0,L|164:60,1,80,8|0,0:0|0:0,0:0:0:0:
280,124,145138,2,0,L|368:156,1,80,2|0,0:3|0:0,0:0:0:0:
124,124,145471,5,4,0:0:0:0:
236,124,145638,2,0,L|388:180,1,160,8|2,0:0|0:0,0:0:0:0:
220,192,146138,2,0,L|304:192,1,80,8|2,0:0|0:0,0:0:0:0:
68,204,146471,6,0,P|24:272|124:364,1,240,4|0,0:0|0:0,0:0:0:0:
220,364,147138,2,0,L|256:292,1,80,2|2,0:0|0:0,0:0:0:0:
80,292,147471,2,0,L|8:248,1,80,8|0,0:0|0:0,0:0:0:0:
256,192,147805,2,8,L|304:192,1,40
240,116,147971,2,8,L|192:116,1,40
360,116,148138,5,4,0:0:0:0:
472,116,148305,2,0,P|504:168|436:232,1,160,8|2,0:0|0:0,0:0:0:0:
268,232,148805,2,0,L|192:192,1,80,8|2,0:0|0:0,0:0:0:0:
436,232,149138,6,0,P|468:320|356:372,1,240,4|0,0:0|0:0,0:0:0:0:
204,372,149805,1,2,0:0:0:0:
292,372,149971,1,2,0:0:0:0:
116,372,150138,2,0,L|104:284,1,80,8|0,0:0|0:0,0:0:0:0:
200,292,150471,2,0,L|284:244,1,80,2|0,0:3|0:0,0:0:0:0:
36,252,150805,5,4,0:0:0:0:
124,252,150971,2,0,P|200:220|224:152,1,160,8|2,0:0|0:0,0:0:0:0:
48,152,151471,1,8,0:0:0:0:
304,152,151805,2,0,L|312:72,1,80,2|0,0:0|0:0,0:0:0:0:
132,76,152138,6,0,P|60:124|124:192,1,200,2|2,0:3|0:0,0:0:0:0:
216,192,152638,1,2,0:0:0:0:
396,192,152805,2,0,L|480:192,1,80,8|2,0:0|0:0,0:0:0:0:
244,272,153138,2,8,L|188:272,1,40
260,344,153305,2,8,L|308:344,1,40
440,344,153471,5,4,0:0:0:0:
64,192,154471,5,12,0:0:0:0:
308,192,154638,2,0,P|372:152|304:80,1,200,2|2,0:0|0:0,0:0:0:0:
206,79,155138,2,0,L|306:79,1,100,2|2,0:0|0:0,0:0:0:0:
484,79,155471,2,0,L|500:183,1,100,8|2,0:0|0:0,0:0:0:0:
324,176,155805,1,2,0:0:0:0:
476,175,155971,1,2,0:0:0:0:
176,176,156138,6,0,P|120:236|184:316,1,200,4|0,0:0|0:0,0:0:0:0:
272,316,156638,1,2,0:0:0:0:
452,316,156805,2,0,L|366:266,2,100,8|0|2,0:0|0:0|0:0,0:0:0:0:
272,316,157305,2,0,P|220:292|272:192,1,200,2|2,0:0|0:0,0:0:0:0:
372,236,157805,2,0,L|280:192,1,100,2|2,0:0|0:0,0:0:0:0:
100,256,158138,2,0,L|8:212,1,100,8|0,0:0|0:0,0:0:0:0:
192,256,158471,1,8,0:0:0:0:
241,214,158555,1,8,0:0:0:0:
233,150,158638,1,8,0:0:0:0:
175,123,158721,1,8,0:0:0:0:
356,152,158805,6,0,P|331:58|240:24,1,200,4|0,0:0|0:0,0:0:0:0:
152,24,159305,1,2,0:0:0:0:
332,152,159471,2,0,L|432:128,2,100,8|0|2,0:0|0:0|0:0,0:0:0:0:
180,156,159971,2,0,P|192:216|308:280,1,200,2|2,0:0|0:0,0:0:0:0:
216,280,160471,2,0,L|128:224,1,100,2|0,0:0|0:0,0:0:0:0:
376,236,160805,2,0,L|392:132,1,100,8|0,0:0|0:0,0:0:0:0:
148,136,161138,2,0,L|48:136,1,100,2|2,0:0|0:0,0:0:0:0:
391,137,161471,6,0,P|452:172|360:336,1,300,4|0,0:0|0:0,0:0:0:0:
132,332,162138,2,0,L|40:288,1,100,2|2,0:0|0:0,0:0:0:0:
292,292,162471,2,0,P|249:162|204:292,1,360.000013732911,4|0,0:0|0:0,0:0:0:0:
304,292,163138,2,0,L|384:232,1,100,2|0,0:3|0:0,0:0:0:0:
144,220,163471,5,8,0:0:0:0:
112,276,163555,1,8,0:0:0:0:
124,340,163638,1,8,0:0:0:0:
176,380,163721,1,8,0:0:0:0:
352,380,163805,1,8,0:0:0:0:
412,380,163888,1,8,0:0:0:0:
472,308,163971,1,8,0:0:0:0:
412,308,164055,1,8,0:0:0:0:
236,308,164138,6,0,P|136:264|108:180,1,200,4|0,0:0|0:0,0:0:0:0:
208,184,164638,1,2,0:0:0:0:
393,86,164805,2,0,L|480:136,2,100,8|0|2,0:0|0:0|0:0,0:0:0:0:
241,86,165305,2,0,P|189:110|241:210,1,200,2|2,0:0|0:0,0:0:0:0:
340,209,165805,2,0,L|240:209,1,100,2|0,0:0|0:0,0:0:0:0:
420,208,166138,2,0,L|428:308,1,100,8|0,0:0|0:0,0:0:0:0:
256,308,166471,1,2,0:0:0:0:
408,308,166638,1,2,0:0:0:0:
144,304,166805,6,0,P|104:244|192:180,1,200,4|0,0:0|0:0,0:0:0:0:
288,180,167305,1,2,0:0:0:0:
460,132,167471,2,0,L|374:182,2,100,8|0|2,0:0|0:0|0:0,0:0:0:0:
320,132,167971,2,0,P|348:48|448:8,1,200,2|2,0:0|0:0,0:0:0:0:
356,8,168471,2,0,L|265:50,1,100,2|2,0:0|0:0,0:0:0:0:
24,80,168805,2,0,L|16:180,1,100,8|2,0:0|0:0,0:0:0:0:
196,180,169138,1,8,0:0:0:0:
264,192,169221,1,8,0:0:0:0:
312,240,169305,1,8,0:0:0:0:
320,308,169388,1,8,0:0:0:0:
140,318,169471,6,0,P|174:227|264:191,1,200,4|0,0:0|0:0,0:0:0:0:
360,196,169971,1,2,0:0:0:0:
180,196,170138,2,0,L|80:220,2,100,8|0|2,0:0|0:0|0:0,0:0:0:0:
332,192,170638,2,0,P|320:132|204:64,1,200,2|2,0:0|0:0,0:0:0:0:
308,68,171138,2,0,L|396:124,1,100,2|0,0:0|0:0,0:0:0:0:
132,196,171471,2,0,L|45:145,1,100,8|0,0:0|0:0,0:0:0:0:
288,196,171805,2,0,L|388:196,1,100,2|2,0:0|0:0,0:0:0:0:
112,196,172138,6,0,P|212:284|108:372,1,300,4|0,0:0|0:0,0:0:0:0:
352,372,172805,2,0,L|252:372,1,100,2|2,0:0|0:0,0:0:0:0:
496,372,173138,2,0,P|396:284|500:196,1,300,4|0,0:0|0:0,0:0:0:0:
396,196,173805,2,0,L|476:136,1,100,2|0,0:3|0:0,0:0:0:0:
232,196,174138,2,0,L|132:196,1,100,8|2,0:0|0:0,0:0:0:0:
396,196,174471,1,8,0:0:0:0:
414,150,174555,1,8,0:0:0:0:
410,100,174638,1,8,0:0:0:0:
383,59,174721,1,8,0:0:0:0:
200,60,174805,6,0,P|120:92|80:192,1,200,4|0,0:0|0:0,0:0:0:0:
180,192,175305,1,2,0:0:0:0:
364,192,175471,2,0,L|451:242,2,100,8|0|2,0:0|0:0|0:0,0:0:0:0:
204,192,175971,2,0,P|248:284|340:308,1,200,2|2,0:0|0:0,0:0:0:0:
236,304,176471,2,0,L|142:250,1,100,2|0,0:0|0:0,0:0:0:0:
392,192,176805,2,0,L|478:242,1,100,8|0,0:0|0:0,0:0:0:0:
304,244,177138,1,2,0:0:0:0:
460,244,177305,1,2,0:0:0:0:
200,244,177471,6,0,P|124:220|76:116,1,200,4|0,0:0|0:0,0:0:0:0:
176,116,177971,1,2,0:0:0:0:
360,116,178138,2,0,L|274:166,2,100,10|0|2,0:0|0:0|0:0,0:0:0:0:
120,116,178638,2,0,P|68:140|120:240,1,200,2|2,0:0|0:0,0:0:0:0:
220,240,179138,2,0,L|129:198,1,100,2|2,0:0|0:0,0:0:0:0:
376,240,179471,2,0,L|464:192,1,100,8|2,0:0|0:0,0:0:0:0:
188,192,179805,1,8,0:0:0:0:
166,150,179888,1,8,0:0:0:0:
170,100,179971,1,8,0:0:0:0:
197,59,180055,1,8,0:0:0:0:
372,60,180138,6,0,P|436:116|368:180,1,200,4|0,0:0|0:0,0:0:0:0:
280,180,180638,1,2,0:0:0:0:
40,180,180805,2,0,L|126:230,2,100,8|2|2,0:0|0:0|0:0,0:0:0:0:
160,180,181305,1,8,0:0:0:0:
12,332,181638,5,8,0:0:0:0:
252,332,181805,2,0,L|328:264,1,100,2|2,0:0|0:0,0:0:0:0:
84,248,182138,2,0,L|172:192,3,100,8|0|2|0,0:0|0:0|0:0|0:0,0:0:0:0:
412,192,182805,6,0,P|396:268|292:312,1,200,4|0,0:0|0:0,0:0:0:0:
192,312,183305,1,2,0:0:0:0:
432,260,183471,2,0,L|344:308,2,100,8|2|2,0:0|0:0|0:0,0:0:0:0:
260,308,183971,1,8,0:0:0:0:
452,308,184305,5,8,0:0:0:0:
212,308,184471,2,0,L|288:240,1,100,2|2,0:0|0:0,0:0:0:0:
44,308,184805,2,0,L|120:240,1,100,8|2,0:0|0:0,0:0:0:0:
360,308,185138,2,0,L|252:308,1,100,2|2,0:0|0:0,0:0:0:0:
492,308,185471,6,0,P|476:236|400:204,1,160,4|0,0:0|0:0,0:0:0:0:
312,204,185971,1,2,0:0:0:0:
152,204,186138,2,0,L|72:192,2,80,8|0|2,0:0|0:0|0:0,0:0:0:0:
328,204,186638,6,0,P|400:176|432:104,1,160,8|8,0:0|0:0,0:0:0:0:
268,104,187138,2,0,L|184:104,1,80,2|2,0:0|0:0,0:0:0:0:
428,192,187471,2,0,L|332:192,1,80,8|0,0:0|0:0,0:0:0:0:
188,192,187805,2,0,L|268:192,1,80,2|0,0:0|0:0,0:0:0:0:
28,192,188138,6,0,P|44:264|120:296,1,160,4|0,0:0|0:0,0:0:0:0:
208,296,188638,1,2,0:0:0:0:
368,296,188805,2,0,L|448:308,2,80,8|2|2,0:0|0:0|0:0,0:0:0:0:
208,296,189305,1,8,0:0:0:0:
368,192,189638,5,8,0:0:0:0:
192,192,189805,2,0,L|108:192,1,80,2|2,0:0|0:0,0:0:0:0:
352,104,190138,2,0,L|272:104,2,80,8|0|2,0:0|0:0|0:0,0:0:0:0:
192,104,190638,1,8,0:0:0:0:
96,104,190805,1,2,0:0:0:0:
272,192,190971,5,4,0:0:0:0:
32,192,191138,2,0,L|112:192,1,80,2|0,0:0|0:0,0:0:0:0:
272,280,191471,2,0,L|192:280,2,80,8|0|2,0:0|0:0|0:0,0:0:0:0:
112,280,191971,1,8,0:0:0:0:
88,280,192055,1,2,0:0:0:0:
64,280,192138,1,2,0:0:0:0:
176,280,192305,5,8,0:0:0:0:
352,280,192471,2,0,L|436:280,1,80,2|2,0:0|0:0,0:0:0:0:
192,192,192805,2,0,L|108:192,2,80,8|0|2,0:0|0:0|0:0,0:0:0:0:
352,192,193305,1,2,0:0:0:0:
96,192,193471,5,4,0:0:0:0:
256,192,193638,12,0,198805,0:0:0:0:
