osu file format v14

[General]
AudioFilename: audio.mp3
AudioLeadIn: 0
PreviewTime: 102388
Countdown: 0
SampleSet: Soft
StackLeniency: 0.7
Mode: 2
LetterboxInBreaks: 0
WidescreenStoryboard: 0

[Editor]
Bookmarks: 1472,14805,41471,73471,78805,105471,137471,153471,185471,193471
DistanceSpacing: 1.4
BeatDivisor: 2
GridSize: 4
TimelineZoom: 1

[Metadata]
Title:Yuragi
TitleUnicode:ユラギ
Artist:Hanatan
ArtistUnicode:花たん
Creator:JBHyperion
Version:Platter
Source:
Tags:Tremor YURiCa melancholy j-rock lily niki
BeatmapID:1272605
BeatmapSetID:602506

[Difficulty]
HPDrainRate:5
CircleSize:3.5
OverallDifficulty:8
ApproachRate:8
SliderMultiplier:1.4
SliderTickRate:1

[Events]
//Background and Video events
0,0,"anime_girl_sunset_sky_clouds_beauty_landscape_1920x1080.jpg",0,0
//Break Periods
2,76338,78055
//Storyboard Layer 0 (Background)
//Storyboard Layer 1 (Fail)
//Storyboard Layer 2 (Pass)
//Storyboard Layer 3 (Foreground)
//Storyboard Sound Samples

[TimingPoints]
1472,333.333333333333,4,2,1,80,1,0
12471,-100,4,2,1,70,0,0
14805,-80,4,2,1,70,0,0
15138,-100,4,2,1,70,0,0
17971,-80,4,2,1,70,0,0
18305,-100,4,2,1,70,0,0
20138,-80,4,2,1,70,0,0
21138,-100,4,2,1,70,0,0
25471,-100,4,2,1,80,0,0
27138,-100,4,2,1,70,0,0
33471,-80,4,2,1,70,0,0
36138,-80,4,2,1,75,0,0
38805,-80,4,2,1,80,0,0
40471,-80,4,2,1,40,0,0
40805,-80,4,2,1,80,0,0
41305,-80,4,2,1,30,0,0
41471,-80,4,2,1,90,0,1
46471,-80,4,2,1,50,0,1
46805,-80,4,2,1,90,0,1
51471,-80,4,2,1,50,0,1
51638,-80,4,2,1,55,0,1
51805,-80,4,2,1,60,0,1
51971,-80,4,2,1,65,0,1
52138,-80,4,2,1,90,0,1
57138,-80,4,2,1,50,0,1
57471,-80,4,2,1,90,0,1
62471,-80,4,2,1,70,0,1
62805,-80,4,2,1,90,0,1
63971,-72.7272727272727,4,2,1,90,0,1
64305,-80,4,2,1,90,0,1
73471,-100,4,2,1,80,0,0
73638,-100,4,2,1,60,0,0
78805,-100,4,2,1,70,0,0
81971,-80,4,2,1,70,0,0
82305,-100,4,2,1,70,0,0
84138,-80,4,2,1,70,0,0
85138,-100,4,2,1,70,0,0
87305,-100,4,2,1,45,0,0
87471,-100,4,2,1,70,0,0
89471,-100,4,2,1,80,0,0
90805,-100,4,2,1,70,0,0
92638,-100,4,2,1,45,0,0
92804,-100,4,2,1,70,0,0
94805,-80,4,2,1,75,0,0
96305,-100,4,2,1,75,0,0
97471,-80,4,2,1,70,0,0
97971,-80,4,2,1,45,0,0
98137,-80,4,2,1,70,0,0
100138,-80,4,2,1,75,0,0
102805,-80,4,2,1,80,0,0
104471,-80,4,2,1,40,0,0
104805,-80,4,2,1,80,0,0
105305,-80,4,2,1,30,0,0
105471,-80,4,2,1,90,0,1
110471,-80,4,2,1,50,0,1
110805,-80,4,2,1,90,0,1
115471,-80,4,2,1,50,0,1
115638,-80,4,2,1,55,0,1
115805,-80,4,2,1,60,0,1
115971,-80,4,2,1,65,0,1
116138,-80,4,2,1,90,0,1
121138,-80,4,2,1,50,0,1
121471,-80,4,2,1,90,0,1
126471,-80,4,2,1,70,0,1
126805,-80,4,2,1,90,0,1
131805,-80,4,2,1,70,0,1
132138,-80,4,2,1,90,0,1
137138,-80,4,2,1,50,0,1
137471,-100,4,2,1,80,0,0
142471,-100,4,2,1,50,0,0
142805,-100,4,2,1,80,0,0
147805,-100,4,2,1,50,0,0
148139,-100,4,2,1,80,0,0
152138,-80,4,2,1,100,0,0
152471,-100,4,2,1,100,0,0
153138,-100,4,2,1,50,0,0
153472,-100,4,2,1,80,0,0
154471,-80,4,2,1,90,0,1
158471,-80,4,2,1,50,0,1
158805,-80,4,2,1,90,0,1
163471,-80,4,2,1,50,0,1
163638,-80,4,2,1,55,0,1
163805,-80,4,2,1,60,0,1
163971,-80,4,2,1,65,0,1
164138,-80,4,2,1,90,0,1
169138,-80,4,2,1,50,0,1
169471,-80,4,2,1,90,0,1
174471,-80,4,2,1,70,0,1
174805,-80,4,2,1,90,0,1
179805,-80,4,2,1,70,0,1
180138,-80,4,2,1,90,0,1
185138,-80,4,2,1,50,0,1
185471,-100,4,2,1,80,0,0
190971,-100,4,2,1,60,0,0
191138,-100,4,2,1,100,0,0
193638,-100,4,2,1,50,0,0
194138,-100,4,2,1,47,0,0
194471,-100,4,2,1,44,0,0
194805,-100,4,2,1,41,0,0
195138,-100,4,2,1,38,0,0
195471,-100,4,2,1,35,0,0
195805,-100,4,2,1,32,0,0
196138,-100,4,2,1,29,0,0
196471,-100,4,2,1,26,0,0
196805,-100,4,2,1,23,0,0
197138,-100,4,2,1,20,0,0
197471,-100,4,2,1,17,0,0
197805,-100,4,2,1,14,0,0
198138,-100,4,2,1,11,0,0
198471,-100,4,2,1,8,0,0
198805,-100,4,2,1,5,0,0

[Colours]
Combo1 : 170,100,255
Combo2 : 0,40,128
Combo3 : 70,100,255
Combo4 : 255,170,100

[HitObjects]
348,192,1472,6,0,L|236:108,1,140,4|0,0:0|0:0,0:0:0:0:
152,108,1971,1,0,0:0:0:0:
328,108,2138,2,0,L|400:108,2,70,8|0|0,0:0|0:0|0:0,0:0:0:0:
244,108,2638,1,2,0:0:0:0:
132,108,2971,5,2,0:0:0:0:
300,108,3138,2,0,L|440:108,1,140,2|8,0:3|0:0,0:0:0:0:
356,184,3638,1,0,0:0:0:0:
440,184,3805,2,0,L|504:212,1,70
328,184,4138,6,0,L|188:184,1,140,4|0,0:0|0:0,0:0:0:0:
272,264,4638,1,0,0:0:0:0:
116,264,4805,1,8,0:0:0:0:
82,204,4971,1,0,0:0:0:0:
91,136,5138,1,0,0:0:0:0:
140,87,5305,1,2,0:0:0:0:
280,88,5638,5,2,0:0:0:0:
116,264,5805,2,0,P|76:208|116:160,1,140,2|8,0:3|0:0,0:0:0:0:
200,160,6305,1,0,0:0:0:0:
284,160,6471,2,0,L|214:160,1,70,2|2,0:0|0:0,0:0:0:0:
384,160,6805,6,0,B|456:160|456:160|456:232,1,140,4|0,0:0|0:0,0:0:0:0:
384,272,7305,1,0,0:0:0:0:
216,272,7471,2,0,L|140:272,2,70,8|0|0,0:0|0:0|0:0,0:0:0:0:
300,272,7971,1,2,0:0:0:0:
412,348,8305,5,2,0:0:0:0:
244,348,8471,2,0,L|104:348,1,140,2|8,0:3|0:0,0:0:0:0:
188,272,8971,2,0,L|112:272,2,70,0|0|0,0:0|0:0|0:0,0:0:0:0:
368,272,9471,5,4,0:0:0:0:
452,272,9638,2,0,P|496:220|452:184,1,140,0|0,0:0|0:0,0:0:0:0:
284,184,10138,2,0,L|144:184,1,140,8|0,0:0|0:0,0:0:0:0:
88,104,10638,1,2,0:0:0:0:
240,104,10971,5,2,0:0:0:0:
408,280,11138,2,0,L|264:280,1,140,2|8,0:3|0:0,0:0:0:0:
196,316,11638,1,2,0:0:0:0:
268,356,11805,2,0,L|338:356,1,70,2|2,0:0|0:0,0:0:0:0:
168,356,12138,6,0,B|96:356|96:356|56:292,1,140,4|0,0:0|0:0,0:0:0:0:
96,220,12638,1,2,0:0:0:0:
264,220,12805,2,0,L|400:188,1,140,8|0,0:0|0:0,0:0:0:0:
340,155,13305,1,2,0:0:0:0:
325,89,13471,5,2,0:3:0:0:
368,36,13638,1,0,0:0:0:0:
432,28,13805,1,2,0:0:0:0:
164,36,14138,2,0,L|124:105,1,70,8|2,0:0|0:0,0:0:0:0:
248,36,14471,2,0,L|292:108,1,70,2|2,0:0|0:0,0:0:0:0:
56,96,14805,6,0,P|8:156|56:232,1,175,4|0,0:0|0:0,0:0:0:0:
144,232,15305,2,0,L|280:192,1,140,0|0,0:0|0:0,0:0:0:0:
136,192,15805,2,0,P|72:280|192:344,1,280,2|2,0:3|0:0,0:0:0:0:
440,344,16805,1,8,0:0:0:0:
272,344,17138,2,0,L|220:284,1,70,2|0,0:0|0:0,0:0:0:0:
396,288,17471,6,0,B|468:288|468:288|496:216,1,140,2|0,0:3|0:0,0:0:0:0:
392,228,17971,2,0,P|339:273|404:347,1,175,2|0,0:3|0:0,0:0:0:0:
236,344,18471,2,0,B|96:344|96:344|96:268,1,210,2|0,0:3|0:0,0:0:0:0:
180,268,19138,2,0,L|260:268,1,70,2|0,0:0|0:0,0:0:0:0:
100,208,19471,1,8,0:0:0:0:
276,124,19805,2,0,L|204:124,1,70,2|0,0:0|0:0,0:0:0:0:
436,124,20138,6,0,P|480:156|432:252,1,175,4|0,0:0|0:0,0:0:0:0:
280,248,20638,2,0,P|208:232|172:144,1,175,2|0,0:3|0:0,0:0:0:0:
328,172,21138,2,0,B|396:208|392:336|301:353|224:336,1,280,2|2,0:3|0:0,0:0:0:0:
20,336,22138,2,0,P|8:288|40:204,1,140,8|0,0:0|0:0,0:0:0:0:
128,208,22638,1,0,0:0:0:0:
368,208,22805,6,0,L|512:208,1,140,4|0,0:3|0:0,0:0:0:0:
352,208,23305,2,0,P|296:192|272:120,1,140,4|0,0:3|0:0,0:0:0:0:
432,208,23805,2,0,P|408:268|340:288,1,140,4|0,0:3|0:0,0:0:0:0:
160,288,24471,6,0,L|156:212,1,70,2|0,0:0|0:0,0:0:0:0:
328,220,24805,2,0,L|412:220,2,70,8|0|2,0:0|0:0|0:0,0:0:0:0:
460,220,25305,1,2,0:0:0:0:
224,220,25471,6,0,L|76:220,1,140,4|0,0:0|0:0,0:0:0:0:
256,124,25971,2,0,L|396:124,1,140,4|0,0:3|0:0,0:0:0:0:
228,44,26471,2,0,P|192:68|300:196,1,280,4|2,0:3|0:0,0:0:0:0:
388,196,27305,5,2,0:0:0:0:
232,196,27471,1,8,0:0:0:0:
416,196,27805,2,0,L|419:265,1,70,2|0,0:0|0:0,0:0:0:0:
248,264,28138,6,0,P|200:260|160:184,1,140,2|0,0:3|0:0,0:0:0:0:
328,188,28638,2,0,L|468:188,1,140,2|0,0:3|0:0,0:0:0:0:
300,188,29138,2,0,P|256:140|300:96,1,140,2|0,0:3|0:0,0:0:0:0:
476,96,29805,6,0,L|444:32,1,70,2|2,0:0|0:0,0:0:0:0:
288,36,30138,2,0,L|208:36,1,70,8|0,0:0|0:0,0:0:0:0:
352,36,30471,2,0,L|388:104,1,70,2|0,0:0|0:0,0:0:0:0:
152,100,30805,6,0,L|8:100,1,140,4|0,0:0|0:0,0:0:0:0:
184,100,31305,2,0,P|240:120|276:192,1,140,2|0,0:3|0:0,0:0:0:0:
120,192,31805,2,0,P|76:240|120:284,1,140,2|0,0:3|0:0,0:0:0:0:
288,284,32471,6,0,L|324:284,2,35,2|2|2,0:0|0:0|0:0,0:0:0:0:
132,284,32805,1,8,0:0:0:0:
272,284,33138,2,0,L|208:244,1,70,2|8,0:0|0:0,0:0:0:0:
484,288,33471,6,0,P|500:240|416:168,1,175,4|0,0:0|0:0,0:0:0:0:
328,168,33971,2,0,L|488:96,1,175,2|0,0:3|0:0,0:0:0:0:
326,101,34471,6,0,P|262:181|382:129,1,350,4|2,0:0|0:0,0:0:0:0:
304,100,35305,1,0,0:0:0:0:
136,100,35471,1,8,0:0:0:0:
276,192,35805,1,2,0:0:0:0:
172,192,35971,1,2,0:0:0:0:
404,192,36138,6,0,P|472:208|512:308,1,175,4|0,0:0|0:0,0:0:0:0:
356,296,36638,2,0,P|385:216|465:190,1,175,2|0,0:3|0:0,0:0:0:0:
272,192,37138,6,0,P|192:104|280:24,1,262.5,4|0,0:0|0:0,0:0:0:0:
444,24,37805,1,2,0:0:0:0:
296,108,38138,2,0,L|416:168,1,131.25,8|2,0:0|0:0,0:0:0:0:
460,192,38471,1,2,0:0:0:0:
356,196,38638,1,8,0:0:0:0:
180,196,38805,6,0,L|103:240,2,87.5,4|8|2,0:0|0:0|0:0,0:0:0:0:
268,196,39305,1,2,0:0:0:0:
104,196,39471,2,0,L|96:108,1,87.5,8|2,0:0|0:0,0:0:0:0:
200,108,39805,1,8,0:0:0:0:
108,108,39971,1,8,0:0:0:0:
284,108,40138,6,0,L|380:108,1,87.5,4|0,0:0|0:0,0:0:0:0:
196,196,40471,2,0,L|148:196,2,43.75,8|8|8,0:0|0:0|0:0,0:0:0:0:
440,196,40805,2,0,P|504:256|412:368,1,262.5,2|0,0:3|0:0,0:0:0:0:
148,376,41471,6,0,B|60:376|60:376|44:288,1,175,4|0,0:0|0:0,0:0:0:0:
132,288,41971,1,2,0:0:0:0:
308,292,42138,2,0,P|388:260|412:172,1,175,8|2,0:0|0:0,0:0:0:0:
256,180,42638,6,0,P|204:132|264:72,1,175,2|2,0:0|0:0,0:0:0:0:
352,72,43138,2,0,L|428:116,1,87.5,2|0,0:0|0:0,0:0:0:0:
252,116,43471,1,8,0:0:0:0:
464,116,43805,2,0,L|472:208,1,87.5,2|2,0:0|0:0,0:0:0:0:
242,268,44138,6,0,B|148:268|148:268|121:192,1,175,4|0,0:0|0:0,0:0:0:0:
208,192,44638,1,2,0:0:0:0:
368,192,44805,1,8,0:0:0:0:
228,192,45138,1,2,0:0:0:0:
388,192,45305,6,0,P|440:240|380:300,1,175,2|2,0:0|0:0,0:0:0:0:
276,300,45805,2,0,L|199:256,1,87.5,2|2,0:0|0:0,0:0:0:0:
368,192,46138,2,0,L|376:100,1,87.5,8|2,0:0|0:0,0:0:0:0:
192,104,46471,2,0,L|144:104,2,43.75,8|8|8,0:0|0:0|0:0,0:0:0:0:
432,104,46805,6,0,P|496:140|420:272,1,262.5,4|2,0:0|0:0,0:0:0:0:
256,272,47471,2,0,L|172:232,2,87.5,8|0|2,0:0|0:0|0:0,0:0:0:0:
412,272,47971,6,0,P|420:224|328:148,1,175,2|2,0:0|0:0,0:0:0:0:
244,148,48471,1,2,0:0:0:0:
328,148,48638,1,0,0:0:0:0:
148,148,48805,1,8,0:0:0:0:
304,148,49138,2,0,L|384:104,1,87.5,2|2,0:0|0:0,0:0:0:0:
152,68,49471,6,0,P|100:84|160:228,1,262.5,4|0,0:0|0:0,0:0:0:0:
318,228,50138,2,0,L|236:192,1,87.5,2|2,0:0|0:0,0:0:0:0:
400,228,50471,2,0,P|452:212|392:68,1,262.5,4|0,0:0|0:0,0:0:0:0:
308,68,51138,2,0,L|236:124,1,87.5,2|0,0:3|0:0,0:0:0:0:
416,192,51471,5,8,0:0:0:0:
444,192,51555,1,8,0:0:0:0:
472,192,51638,1,8,0:0:0:0:
296,280,51805,1,8,0:0:0:0:
268,280,51888,1,8,0:0:0:0:
240,280,51971,1,8,0:0:0:0:
468,284,52138,6,0,B|468:196|468:196|380:180,1,175,4|0,0:0|0:0,0:0:0:0:
296,180,52638,1,2,0:0:0:0:
120,180,52805,2,0,P|68:132|128:72,1,175,8|2,0:0|0:0,0:0:0:0:
288,76,53305,6,0,P|256:156|168:180,1,175,2|2,0:0|0:0,0:0:0:0:
264,180,53805,2,0,L|340:224,1,87.5,2|0,0:0|0:0,0:0:0:0:
164,224,54138,1,8,0:0:0:0:
372,224,54471,2,0,L|380:316,1,87.5,2|2,0:0|0:0,0:0:0:0:
148,308,54805,6,0,P|140:240|208:164,1,175,4|0,0:0|0:0,0:0:0:0:
296,164,55305,1,2,0:0:0:0:
456,164,55471,1,8,0:0:0:0:
316,164,55805,1,2,0:0:0:0:
476,164,55971,6,0,P|468:232|372:272,1,175,2|2,0:0|0:0,0:0:0:0:
292,272,56471,2,0,L|368:228,1,87.5,2|2,0:0|0:0,0:0:0:0:
196,164,56805,2,0,L|188:72,1,87.5,8|0,0:0|0:0,0:0:0:0:
364,76,57138,1,8,0:0:0:0:
468,76,57305,1,8,0:0:0:0:
240,76,57471,6,0,P|176:112|252:244,1,262.5,4|2,0:0|0:0,0:0:0:0:
416,244,58138,2,0,L|500:204,2,87.5,8|0|2,0:0|0:0|0:0,0:0:0:0:
260,244,58638,6,0,P|252:196|344:120,1,175,2|2,0:0|0:0,0:0:0:0:
428,120,59138,1,2,0:0:0:0:
344,120,59305,1,0,0:0:0:0:
168,120,59471,1,8,0:0:0:0:
324,120,59805,2,0,L|404:76,1,87.5,2|2,0:0|0:0,0:0:0:0:
172,40,60138,6,0,P|120:56|180:200,1,262.5,4|0,0:0|0:0,0:0:0:0:
342,200,60805,2,0,L|423:152,1,87.5,2|2,0:0|0:0,0:0:0:0:
154,139,61138,2,0,P|44:200|72:320,1,262.5,4|0,0:0|0:0,0:0:0:0:
176,320,61805,2,0,L|256:280,1,87.5,2|2,0:0|0:0,0:0:0:0:
76,236,62138,6,0,L|64:140,1,87.5,8|2,0:0|0:0,0:0:0:0:
240,148,62471,1,8,0:0:0:0:
268,148,62555,1,8,0:0:0:0:
296,148,62638,1,8,0:0:0:0:
67,88,62805,6,0,P|32:164|76:236,1,175,4|0,0:0|0:0,0:0:0:0:
164,236,63305,1,2,0:0:0:0:
332,236,63471,2,0,P|412:262|443:341,1,175,8|2,0:0|0:0,0:0:0:0:
284,344,63971,6,0,P|232:288|296:212,1,192.500001835823,2|2,0:0|0:0,0:0:0:0:
164,236,64471,2,0,L|128:156,1,87.5,2|0,0:0|0:0,0:0:0:0:
304,188,64805,2,0,L|400:188,1,87.5,8|0,0:0|0:0,0:0:0:0:
216,188,65138,2,0,L|208:96,1,87.5,2|2,0:0|0:0,0:0:0:0:
436,44,65471,6,0,P|476:108|432:188,1,175,4|2,0:0|0:0,0:0:0:0:
344,188,65971,1,2,0:0:0:0:
184,188,66138,1,8,0:0:0:0:
324,188,66471,1,2,0:0:0:0:
164,188,66638,6,0,P|172:120|268:80,1,175,2|2,0:0|0:0,0:0:0:0:
348,80,67138,2,0,L|271:124,1,87.5,2|2,0:0|0:0,0:0:0:0:
96,124,67471,2,0,P|24:176|56:240,1,175,8|0,0:0|0:0,0:0:0:0:
476,240,68138,6,0,P|504:172|432:112,1,175,4|2,0:0|0:0,0:0:0:0:
348,112,68638,1,2,0:0:0:0:
172,112,68805,2,0,L|100:64,2,87.5,8|2|2,0:0|0:0|0:0,0:0:0:0:
260,112,69305,1,8,0:0:0:0:
436,192,69638,5,8,0:0:0:0:
260,192,69805,2,0,L|180:238,1,87.5,2|2,0:0|0:0,0:0:0:0:
360,236,70138,2,0,L|452:236,2,87.5,8|0|2,0:0|0:0|0:0,0:0:0:0:
272,236,70638,1,0,0:0:0:0:
96,236,70805,6,0,P|44:296|92:368,1,175,4|2,0:0|0:0,0:0:0:0:
176,368,71305,1,2,0:0:0:0:
344,368,71471,2,0,P|404:356|452:256,1,175,8|2,0:0|0:0,0:0:0:0:
364,264,71971,1,8,0:0:0:0:
208,264,72305,5,8,0:0:0:0:
384,264,72471,2,0,L|436:192,1,87.5,2|2,0:0|0:0,0:0:0:0:
268,192,72805,2,0,L|320:120,1,87.5,8|0,0:0|0:0,0:0:0:0:
216,120,73138,2,0,L|136:74,1,87.5,2|2,0:0|0:0,0:0:0:0:
380,120,73471,5,4,0:0:0:0:
256,192,73638,12,4,76138,0:0:0:0:
132,192,78805,6,0,L|20:108,1,140,4|0,0:0|0:0,0:0:0:0:
120,92,79305,2,0,L|8:8,1,140,2|0,0:3|0:0,0:0:0:0:
152,92,79805,2,0,P|288:152|324:272,1,280,2|2,0:3|0:0,0:0:0:0:
240,268,80638,1,2,0:0:0:0:
84,268,80805,1,8,0:0:0:0:
224,268,81138,2,0,L|296:268,1,70,2|0,0:0|0:0,0:0:0:0:
456,204,81471,6,0,B|431:267|431:267|359:267,1,140,2|0,0:3|0:0,0:0:0:0:
456,204,81971,2,0,P|509:249|444:323,1,175,2|0,0:3|0:0,0:0:0:0:
292,324,82471,2,0,B|240:268|288:196|288:196|360:196,1,210,2|0,0:3|0:0,0:0:0:0:
200,192,83138,2,0,L|120:192,1,70,8|0,0:0|0:0,0:0:0:0:
216,112,83471,2,0,L|136:112,1,70,2|2,0:0|0:0,0:0:0:0:
308,64,83805,2,0,L|380:64,1,70,8|0,0:0|0:0,0:0:0:0:
133,65,84138,6,0,P|89:97|137:193,1,175,4|0,0:0|0:0,0:0:0:0:
288,192,84638,2,0,P|360:176|376:80,1,175,2|0,0:3|0:0,0:0:0:0:
240,116,85138,2,0,B|172:152|176:280|267:297|344:280,1,280,2|2,0:3|0:0,0:0:0:0:
176,280,85971,1,2,0:0:0:0:
140,280,86055,1,2,0:0:0:0:
104,280,86138,2,0,P|40:248|20:180,1,140,8|2,0:0|0:0,0:0:0:0:
104,188,86638,1,0,0:0:0:0:
332,188,86805,6,0,L|456:116,1,140,4|0,0:3|0:0,0:0:0:0:
300,120,87305,2,0,L|175:48,1,140,8|0,0:0|0:0,0:0:0:0:
332,120,87805,2,0,P|400:184|328:256,1,210,4|0,0:3|0:0,0:0:0:0:
180,256,88471,5,8,0:0:0:0:
335,256,88805,2,0,L|271:220,2,70,2|2|8,0:0|0:0|0:0,0:0:0:0:
476,256,89305,1,0,0:0:0:0:
244,220,89471,6,0,L|104:220,1,140,4|0,0:0|0:0,0:0:0:0:
272,144,89971,2,0,L|412:144,1,140,4|0,0:3|0:0,0:0:0:0:
244,144,90471,2,0,L|28:144,1,210,4|2,0:3|0:3,0:0:0:0:
116,144,91138,5,2,0:0:0:0:
284,8,91305,1,2,0:0:0:0:
320,8,91388,1,2,0:0:0:0:
356,8,91471,2,0,L|488:60,1,140,8|2,0:0|0:0,0:0:0:0:
404,56,91971,1,0,0:0:0:0:
236,56,92138,6,0,P|184:72|152:148,1,140,2|0,0:3|0:0,0:0:0:0:
308,144,92638,2,0,P|352:96|308:52,1,140,8|0,0:0|0:0,0:0:0:0:
151,146,93138,2,0,L|291:146,1,140,2|0,0:3|0:0,0:0:0:0:
24,148,93805,6,0,L|100:148,1,70,8|0,0:0|0:0,0:0:0:0:
179,150,94138,2,0,L|249:150,1,70,2|2,0:0|0:0,0:0:0:0:
94,148,94471,2,0,L|63:210,1,70,8|0,0:0|0:0,0:0:0:0:
292,192,94805,6,0,P|372:224|400:304,1,175,4|0,0:0|0:0,0:0:0:0:
240,304,95305,2,0,P|160:272|132:192,1,175,2|0,0:3|0:0,0:0:0:0:
312,192,95805,2,0,P|400:120|312:36,1,262.5,2|0,0:3|0:0,0:0:0:0:
220,36,96471,5,2,0:0:0:0:
379,37,96638,2,0,L|415:37,2,35,2|2|8,0:0|0:0|0:0,0:0:0:0:
112,124,97138,2,0,L|84:192,1,70,2|2,0:0|0:0,0:0:0:0:
260,192,97471,6,0,P|336:156|368:72,1,175,4|0,0:3|0:0,0:0:0:0:
244,192,97971,2,0,B|332:192|332:192|404:264,1,175,8|0,0:0|0:0,0:0:0:0:
231,363,98471,6,0,P|116:269|243:191,1,350,4|8,0:3|0:0,0:0:0:0:
332,192,99305,1,0,0:0:0:0:
168,188,99471,2,0,L|92:144,1,87.5,2|2,0:0|0:0,0:0:0:0:
264,144,99805,1,8,0:0:0:0:
368,144,99971,1,0,0:0:0:0:
136,144,100138,6,0,P|68:128|28:28,1,175,4|0,0:0|0:0,0:0:0:0:
201,38,100638,2,0,P|172:118|92:144,1,175,2|0,0:3|0:0,0:0:0:0:
284,144,101138,6,0,P|372:236|288:312,1,262.5,2|0,0:3|0:0,0:0:0:0:
124,312,101805,1,8,0:0:0:0:
292,228,102138,2,0,L|412:168,1,131.25,2|2,0:0|0:0,0:0:0:0:
456,144,102471,1,2,0:0:0:0:
352,144,102638,1,8,0:0:0:0:
176,144,102805,6,0,L|88:144,2,87.5,4|8|2,0:0|0:0|0:0,0:0:0:0:
264,144,103305,1,2,0:0:0:0:
432,144,103471,2,0,L|440:56,1,87.5,8|2,0:0|0:0,0:0:0:0:
324,56,103805,1,8,0:0:0:0:
428,56,103971,1,8,0:0:0:0:
252,56,104138,6,0,L|156:56,1,87.5,4|0,0:0|0:0,0:0:0:0:
340,144,104471,2,0,L|388:144,2,43.75,8|8|8,0:0|0:0|0:0,0:0:0:0:
96,144,104805,2,0,P|16:216|100:320,1,262.5,2|0,0:3|0:0,0:0:0:0:
360,320,105471,6,0,B|448:320|448:320|464:232,1,175,4|0,0:0|0:0,0:0:0:0:
376,232,105971,1,2,0:0:0:0:
200,232,106138,2,0,P|139:182|191:124,1,175,8|2,0:0|0:0,0:0:0:0:
356,124,106638,6,0,P|436:92|460:4,1,175,2|2,0:0|0:0,0:0:0:0:
372,8,107138,2,0,L|296:52,1,87.5,2|0,0:0|0:0,0:0:0:0:
472,52,107471,1,8,0:0:0:0:
296,51,107805,2,0,L|372:95,1,87.5,2|2,0:0|0:0,0:0:0:0:
144,92,108138,6,0,P|65:124|34:203,1,175,4|0,0:0|0:0,0:0:0:0:
121,204,108638,1,2,0:0:0:0:
281,204,108805,1,8,0:0:0:0:
141,204,109138,1,2,0:0:0:0:
301,204,109305,6,0,P|270:124|191:92,1,175,2|2,0:0|0:0,0:0:0:0:
280,96,109805,2,0,L|357:140,1,87.5,2|2,0:0|0:0,0:0:0:0:
188,204,110138,2,0,L|180:296,1,87.5,8|0,0:0|0:0,0:0:0:0:
364,292,110471,2,0,L|412:292,2,43.75,8|8|8,0:0|0:0|0:0,0:0:0:0:
124,292,110805,6,0,P|60:256|136:124,1,262.5,4|2,0:0|0:0,0:0:0:0:
300,124,111471,2,0,L|384:164,2,87.5,8|0|2,0:0|0:0|0:0,0:0:0:0:
144,124,111971,6,0,P|136:172|228:248,1,175,2|2,0:0|0:0,0:0:0:0:
312,248,112471,1,2,0:0:0:0:
228,248,112638,1,0,0:0:0:0:
48,248,112805,1,8,0:0:0:0:
196,248,113138,2,0,L|116:292,1,87.5,2|2,0:0|0:0,0:0:0:0:
348,328,113471,6,0,P|400:312|340:168,1,262.5,4|0,0:0|0:0,0:0:0:0:
178,168,114138,2,0,L|254:212,1,87.5,2|2,0:0|0:0,0:0:0:0:
100,168,114471,2,0,P|48:184|108:328,1,262.5,4|0,0:0|0:0,0:0:0:0:
248,328,115138,2,0,L|320:272,1,87.5,2|0,0:3|0:0,0:0:0:0:
140,244,115471,5,8,0:0:0:0:
112,244,115555,1,8,0:0:0:0:
84,244,115638,1,8,0:0:0:0:
260,332,115805,1,8,0:0:0:0:
288,332,115888,1,8,0:0:0:0:
316,332,115971,1,8,0:0:0:0:
88,336,116138,6,0,B|88:248|88:248|176:232,1,175,4|0,0:0|0:0,0:0:0:0:
260,232,116638,1,2,0:0:0:0:
84,232,116805,2,0,P|32:184|92:124,1,175,8|2,0:0|0:0,0:0:0:0:
252,128,117305,6,0,P|220:208|132:232,1,175,2|2,0:0|0:0,0:0:0:0:
228,232,117805,2,0,L|304:276,1,87.5,2|0,0:0|0:0,0:0:0:0:
480,280,118138,1,8,0:0:0:0:
268,320,118471,2,0,L|344:364,1,87.5,2|2,0:0|0:0,0:0:0:0:
112,356,118805,6,0,P|72:292|116:212,1,175,4|0,0:0|0:0,0:0:0:0:
204,212,119305,1,2,0:0:0:0:
364,212,119471,1,8,0:0:0:0:
224,212,119805,1,2,0:0:0:0:
384,212,119971,6,0,P|376:280|288:324,1,175,2|2,0:0|0:0,0:0:0:0:
204,324,120471,2,0,L|128:280,1,87.5,2|2,0:0|0:0,0:0:0:0:
300,216,120805,2,0,L|308:124,1,87.5,8|0,0:0|0:0,0:0:0:0:
132,128,121138,1,8,0:0:0:0:
28,128,121305,1,8,0:0:0:0:
256,128,121471,6,0,P|320:164|244:296,1,262.5,4|2,0:0|0:0,0:0:0:0:
80,296,122138,2,0,L|-4:256,2,87.5,8|0|2,0:0|0:0|0:0,0:0:0:0:
236,296,122638,6,0,P|244:248|152:172,1,175,2|2,0:0|0:0,0:0:0:0:
68,172,123138,1,2,0:0:0:0:
152,172,123305,1,0,0:0:0:0:
328,172,123471,2,0,L|420:172,1,87.5,8|0,0:0|0:0,0:0:0:0:
240,172,123805,2,0,L|160:128,1,87.5,2|2,0:0|0:0,0:0:0:0:
412,92,124138,6,0,P|464:108|404:252,1,262.5,4|0,0:0|0:0,0:0:0:0:
240,252,124805,2,0,L|152:252,1,87.5,2|2,0:0|0:0,0:0:0:0:
400,192,125138,2,0,P|388:320|276:364,1,262.5,4|0,0:0|0:0,0:0:0:0:
156,248,125805,2,0,L|76:208,1,87.5,2|0,0:0|0:0,0:0:0:0:
236,164,126138,6,0,L|248:68,1,87.5,8|2,0:0|0:0,0:0:0:0:
72,76,126471,1,8,0:0:0:0:
44,76,126555,1,8,0:0:0:0:
16,76,126638,1,8,0:0:0:0:
246,77,126805,6,0,L|422:77,1,175,4|0,0:0|0:0,0:0:0:0:
334,149,127305,1,2,0:0:0:0:
166,149,127471,2,0,P|114:197|174:257,1,175,8|2,0:0|0:0,0:0:0:0:
340,256,127971,6,0,P|314:176|232:152,1,175,2|2,0:0|0:0,0:0:0:0:
320,152,128471,2,0,L|397:108,1,87.5,2|0,0:0|0:0,0:0:0:0:
220,108,128805,2,0,L|124:108,2,87.5,8|0|2,0:0|0:0|0:0,0:0:0:0:
308,108,129305,1,2,0:0:0:0:
72,28,129471,6,0,P|32:92|76:172,1,175,4|2,0:0|0:0,0:0:0:0:
164,172,129971,1,2,0:0:0:0:
324,172,130138,1,8,0:0:0:0:
184,172,130471,1,2,0:0:0:0:
344,172,130638,6,0,P|336:104|240:64,1,175,2|2,0:0|0:0,0:0:0:0:
336,64,131138,2,0,L|413:108,1,87.5,2|2,0:0|0:0,0:0:0:0:
248,104,131471,2,0,L|164:152,1,87.5,8|2,0:0|0:0,0:0:0:0:
340,192,131805,2,0,L|388:192,2,43.75,8|8|8,0:0|0:0|0:0,0:0:0:0:
108,192,132138,6,0,L|20:192,2,87.5,4|8|0,0:0|0:0|0:0,0:0:0:0:
196,192,132638,1,2,0:0:0:0:
372,192,132805,2,0,L|444:144,1,87.5,8|2,0:0|0:0,0:0:0:0:
204,112,133138,6,0,P|132:144|208:272,1,262.5,4|0,0:0|0:0,0:0:0:0:
284,272,133805,2,0,L|204:226,1,87.5,2|2,0:0|0:0,0:0:0:0:
384,228,134138,2,0,L|476:228,2,87.5,8|0|2,0:0|0:0|0:0,0:0:0:0:
296,228,134638,1,0,0:0:0:0:
100,228,134805,6,0,B|100:140|100:140|180:100,1,175,4|0,0:0|0:0,0:0:0:0:
264,100,135305,1,2,0:0:0:0:
72,104,135471,2,0,L|3:47,1,87.5,8|2,0:0|0:0,0:0:0:0:
244,24,135805,6,0,P|296:76|180:168,1,262.5,4|0,0:0|0:0,0:0:0:0:
88,172,136471,1,2,0:0:0:0:
173,170,136638,1,2,0:0:0:0:
368,172,136805,2,0,L|444:216,1,87.5,8|0,0:0|0:0,0:0:0:0:
272,216,137138,1,8,0:0:0:0:
236,216,137221,1,8,0:0:0:0:
200,216,137305,1,8,0:0:0:0:
435,215,137471,5,4,0:0:0:0:
504,160,137638,2,0,P|496:88|436:56,1,140,8|2,0:0|0:0,0:0:0:0:
300,56,138138,2,0,L|224:56,1,70,8|2,0:0|0:0,0:0:0:0:
400,136,138471,6,0,P|468:176|472:300,1,210,4|0,0:0|0:0,0:0:0:0:
388,296,139138,1,2,0:0:0:0:
304,296,139305,1,2,0:0:0:0:
460,220,139471,2,0,L|476:144,1,70,8|0,0:0|0:0,0:0:0:0:
388,152,139805,2,0,L|312:152,1,70,2|2,0:3|0:0,0:0:0:0:
160,152,140138,5,4,0:0:0:0:
84,188,140305,2,0,P|96:248|164:284,1,140,8|2,0:0|0:0,0:0:0:0:
320,284,140805,2,0,L|240:284,1,70,8|2,0:0|0:0,0:0:0:0:
80,280,141138,6,0,P|36:212|112:124,1,210,4|0,0:0|0:0,0:0:0:0:
192,124,141805,2,0,L|264:124,1,70,2|2,0:0|0:0,0:0:0:0:
108,124,142138,2,0,L|100:208,1,70,8|0,0:0|0:0,0:0:0:0:
260,196,142471,1,8,0:0:0:0:
296,196,142555,1,8,0:0:0:0:
332,196,142638,1,8,0:0:0:0:
88,196,142805,5,4,0:0:0:0:
19,251,142971,2,0,P|27:323|87:355,1,140,8|2,0:0|0:0,0:0:0:0:
223,355,143471,2,0,L|299:355,1,70,8|2,0:0|0:0,0:0:0:0:
122,274,143805,6,0,P|96:184|180:116,1,210,4|0,0:0|0:0,0:0:0:0:
260,116,144471,1,2,0:0:0:0:
176,116,144638,1,2,0:0:0:0:
332,192,144805,2,0,L|348:268,1,70,8|0,0:0|0:0,0:0:0:0:
260,260,145138,2,0,L|184:260,1,70,2|0,0:3|0:0,0:0:0:0:
436,260,145471,5,4,0:0:0:0:
504,192,145638,2,0,P|480:132|412:108,1,140,8|2,0:0|0:0,0:0:0:0:
252,108,146138,2,0,L|176:108,1,70,8|2,0:0|0:0,0:0:0:0:
428,192,146471,6,0,P|504:264|436:328,1,210,4|0,0:0|0:0,0:0:0:0:
364,324,147138,2,0,L|436:324,1,70,2|2,0:0|0:0,0:0:0:0:
292,324,147471,2,0,L|224:280,1,70,8|0,0:0|0:0,0:0:0:0:
396,240,147805,2,0,L|440:240,2,35,8|8|8,0:0|0:0|0:0,0:0:0:0:
152,236,148138,5,4,0:0:0:0:
76,192,148305,2,0,P|84:120|144:88,1,140,8|2,0:0|0:0,0:0:0:0:
280,88,148805,2,0,L|356:88,1,70,8|2,0:0|0:0,0:0:0:0:
179,169,149138,6,0,P|73:235|49:311,1,210,4|0,0:0|0:0,0:0:0:0:
133,311,149805,1,2,0:0:0:0:
217,311,149971,1,2,0:0:0:0:
49,239,150138,2,0,L|33:163,1,70,8|0,0:0|0:0,0:0:0:0:
121,171,150471,2,0,L|197:171,1,70,2|0,0:3|0:0,0:0:0:0:
437,175,150805,5,4,0:0:0:0:
504,224,150971,2,0,P|492:284|424:320,1,140,8|2,0:0|0:0,0:0:0:0:
264,320,151471,2,0,L|344:320,1,70,8|0,0:0|0:0,0:0:0:0:
192,320,151805,2,0,L|156:257,1,70,2|0,0:0|0:0,0:0:0:0:
324,260,152138,6,0,P|376:196|324:136,1,175,2|2,0:3|0:0,0:0:0:0:
248,136,152638,1,2,0:0:0:0:
116,136,152805,2,0,L|28:136,1,70,8|2,0:0|0:0,0:0:0:0:
128,48,153138,1,8,0:0:0:0:
164,48,153221,1,8,0:0:0:0:
200,48,153305,1,8,0:0:0:0:
444,48,153471,5,4,0:0:0:0:
444,48,154471,5,12,0:0:0:0:
216,164,154638,2,0,P|136:132|112:44,1,175,2|2,0:0|0:0,0:0:0:0:
200,48,155138,2,0,L|276:92,1,87.5,2|2,0:0|0:0,0:0:0:0:
108,92,155471,1,8,0:0:0:0:
275,91,155805,2,0,L|351:135,1,87.5,2|2,0:0|0:0,0:0:0:0:
120,132,156138,6,0,P|41:164|10:243,1,175,4|0,0:0|0:0,0:0:0:0:
97,244,156638,1,2,0:0:0:0:
257,244,156805,1,8,0:0:0:0:
117,244,157138,1,2,0:0:0:0:
277,244,157305,6,0,P|246:164|167:132,1,175,2|2,0:0|0:0,0:0:0:0:
256,136,157805,2,0,L|333:180,1,87.5,2|2,0:0|0:0,0:0:0:0:
164,244,158138,2,0,L|156:336,1,87.5,8|0,0:0|0:0,0:0:0:0:
340,332,158471,2,0,L|388:332,2,43.75,8|8|8,0:0|0:0|0:0,0:0:0:0:
100,332,158805,6,0,P|36:296|112:164,1,262.5,4|2,0:0|0:0,0:0:0:0:
276,164,159471,2,0,L|360:204,1,87.5,8|0,0:0|0:0,0:0:0:0:
240,200,159805,1,2,0:0:0:0:
360,288,159971,6,0,P|368:240|276:164,1,175,2|2,0:0|0:0,0:0:0:0:
192,164,160471,1,2,0:0:0:0:
276,164,160638,1,0,0:0:0:0:
456,164,160805,1,8,0:0:0:0:
300,164,161138,2,0,L|380:120,1,87.5,2|2,0:0|0:0,0:0:0:0:
148,84,161471,6,0,P|96:100|156:244,1,262.5,4|0,0:0|0:0,0:0:0:0:
318,244,162138,2,0,L|241:200,1,87.5,2|2,0:0|0:0,0:0:0:0:
396,244,162471,2,0,P|448:228|388:84,1,262.5,4|0,0:0|0:0,0:0:0:0:
248,84,163138,2,0,L|176:140,1,87.5,2|0,0:3|0:0,0:0:0:0:
356,168,163471,5,8,0:0:0:0:
384,168,163555,1,8,0:0:0:0:
412,168,163638,1,8,0:0:0:0:
236,80,163805,1,8,0:0:0:0:
200,80,163888,1,8,0:0:0:0:
164,80,163971,1,8,0:0:0:0:
408,80,164138,6,0,B|493:95|493:95|493:183,1,175,4|0,0:0|0:0,0:0:0:0:
405,183,164638,1,2,0:0:0:0:
240,184,164805,2,0,P|188:232|248:292,1,175,8|2,0:0|0:0,0:0:0:0:
408,288,165305,6,0,P|376:208|288:184,1,175,2|2,0:0|0:0,0:0:0:0:
208,184,165805,2,0,L|284:140,1,87.5,2|0,0:0|0:0,0:0:0:0:
460,136,166138,1,8,0:0:0:0:
196,140,166471,2,0,L|120:96,1,87.5,2|2,0:0|0:0,0:0:0:0:
352,56,166805,6,0,P|392:120|348:200,1,175,4|0,0:0|0:0,0:0:0:0:
260,200,167305,1,2,0:0:0:0:
428,200,167471,1,8,0:0:0:0:
260,200,167805,1,2,0:0:0:0:
88,200,167971,6,0,P|112:132|200:88,1,175,2|2,0:0|0:0,0:0:0:0:
304,88,168471,2,0,L|228:132,1,87.5,2|2,0:0|0:0,0:0:0:0:
392,196,168805,2,0,L|400:288,1,87.5,8|2,0:0|0:0,0:0:0:0:
224,284,169138,1,8,0:0:0:0:
120,284,169305,1,8,0:0:0:0:
348,284,169471,6,0,P|412:248|336:116,1,262.5,4|2,0:0|0:0,0:0:0:0:
172,116,170138,2,0,L|88:156,2,87.5,8|0|2,0:0|0:0|0:0,0:0:0:0:
328,116,170638,6,0,P|320:172|224:240,1,175,2|2,0:0|0:0,0:0:0:0:
146,239,171138,1,2,0:0:0:0:
230,239,171305,1,0,0:0:0:0:
406,239,171471,2,0,L|412:152,1,87.5,8|0,0:0|0:0,0:0:0:0:
252,152,171805,2,0,L|156:152,1,87.5,2|2,0:0|0:0,0:0:0:0:
414,312,172138,6,0,P|466:296|406:152,1,262.5,4|0,0:0|0:0,0:0:0:0:
252,152,172805,2,0,L|333:200,1,87.5,2|2,0:0|0:0,0:0:0:0:
150,318,173138,2,0,P|137:197|251:151,1,262.5,4|0,0:0|0:0,0:0:0:0:
340,152,173805,2,0,L|420:192,1,87.5,2|0,0:3|0:0,0:0:0:0:
260,236,174138,6,0,L|248:332,1,87.5,8|2,0:0|0:0,0:0:0:0:
424,324,174471,1,8,0:0:0:0:
452,324,174555,1,8,0:0:0:0:
480,324,174638,1,8,0:0:0:0:
232,324,174805,6,0,L|56:324,1,175,4|0,0:0|0:0,0:0:0:0:
144,252,175305,1,2,0:0:0:0:
312,252,175471,2,0,P|364:204|304:144,1,175,8|2,0:0|0:0,0:0:0:0:
138,145,175971,6,0,P|164:225|246:249,1,175,2|2,0:0|0:0,0:0:0:0:
331,250,176471,2,0,L|408:294,1,87.5,2|0,0:0|0:0,0:0:0:0:
231,294,176805,2,0,L|135:294,2,87.5,8|0|2,0:0|0:0|0:0,0:0:0:0:
319,294,177305,1,2,0:0:0:0:
75,294,177471,6,0,P|83:222|159:162,1,175,4|0,0:0|0:0,0:0:0:0:
248,164,177971,1,2,0:0:0:0:
80,164,178138,1,10,0:0:0:0:
255,163,178471,1,2,0:0:0:0:
432,144,178638,6,0,L|276:52,1,175,2|2,0:0|0:0,0:0:0:0:
187,50,179138,2,0,L|264:94,1,87.5,2|2,0:0|0:0,0:0:0:0:
431,158,179471,2,0,P|411:234|303:266,1,175,8|8,0:0|0:0,0:0:0:0:
239,270,179971,1,8,0:0:0:0:
468,216,180138,6,0,P|488:120|416:92,1,175,4|0,0:0|0:0,0:0:0:0:
344,92,180638,1,2,0:0:0:0:
168,88,180805,2,0,L|96:40,2,87.5,8|2|2,0:0|0:0|0:0,0:0:0:0:
328,92,181305,1,8,0:0:0:0:
188,92,181638,5,8,0:0:0:0:
364,92,181805,2,0,L|444:138,1,87.5,2|2,0:0|0:0,0:0:0:0:
264,136,182138,2,0,L|172:136,2,87.5,8|0|2,0:0|0:0|0:0,0:0:0:0:
352,136,182638,1,0,0:0:0:0:
124,136,182805,6,0,P|72:76|120:4,1,175,4|0,0:0|0:0,0:0:0:0:
204,4,183305,1,2,0:0:0:0:
372,4,183471,2,0,P|432:16|480:116,1,175,8|2,0:0|0:0,0:0:0:0:
392,108,183971,1,8,0:0:0:0:
236,108,184305,5,8,0:0:0:0:
412,108,184471,2,0,L|464:180,1,87.5,2|2,0:0|0:0,0:0:0:0:
288,180,184805,2,0,L|200:180,1,87.5,8|2,0:0|0:0,0:0:0:0:
360,180,185138,2,0,L|412:252,1,87.5,2|2,0:0|0:0,0:0:0:0:
180,268,185471,6,0,B|112:268|112:268|112:196,1,140,4|0,0:0|0:0,0:0:0:0:
196,196,185971,1,2,0:0:0:0:
340,196,186138,2,0,L|416:196,2,70,8|0|2,0:0|0:0|0:0,0:0:0:0:
184,196,186638,1,8,0:0:0:0:
324,196,186971,5,8,0:0:0:0:
232,196,187138,2,0,L|152:244,2,70,2|2|8,0:0|0:0|0:0,0:0:0:0:
324,196,187638,1,0,0:0:0:0:
480,196,187805,2,0,L|408:196,1,70,2|0,0:0|0:0,0:0:0:0:
176,196,188138,6,0,P|132:152|176:104,1,140,4|0,0:0|0:0,0:0:0:0:
260,104,188638,1,2,0:0:0:0:
102,100,188805,2,0,P|110:160|178:196,1,140,8|2,0:0|0:0,0:0:0:0:
344,196,189305,1,8,0:0:0:0:
212,196,189638,5,8,0:0:0:0:
388,196,189805,2,0,L|460:196,1,70,2|2,0:0|0:0,0:0:0:0:
292,280,190138,2,0,L|216:280,2,70,8|0|2,0:0|0:0|0:0,0:0:0:0:
468,280,190638,2,0,L|500:204,1,70,8|0,0:0|0:0,0:0:0:0:
260,192,190971,5,4,0:0:0:0:
136,192,191138,2,0,L|60:192,1,70,2|0,0:0|0:0,0:0:0:0:
232,104,191471,2,0,L|308:104,2,70,8|0|2,0:0|0:0|0:0,0:0:0:0:
64,104,191971,2,0,L|36:80,2,35,8|2|2,0:0|0:0|0:0,0:0:0:0:
164,104,192305,5,8,0:0:0:0:
260,104,192471,2,0,L|340:104,1,70,2|2,0:0|0:0,0:0:0:0:
158,192,192805,2,0,L|82:192,2,70,8|0|2,0:0|0:0|0:0,0:0:0:0:
242,192,193305,1,2,0:0:0:0:
474,192,193471,5,4,0:0:0:0:
256,192,193638,12,0,198805,0:0:0:0:
