osu file format v14

[General]
AudioFilename: audio.mp3
AudioLeadIn: 0
PreviewTime: 207016
Countdown: 0
SampleSet: Soft
StackLeniency: 0.9
Mode: 0
LetterboxInBreaks: 0
WidescreenStoryboard: 1

[Editor]
DistanceSpacing: 1.3
BeatDivisor: 8
GridSize: 16
TimelineZoom: 1.7

[Metadata]
Title:Uta ni Katachi wa Nai keredo
TitleUnicode:歌に形はないけれど
Artist:Hanatan
ArtistUnicode:花たん
Creator:Keqing
Version:Remorse
Source:
Tags:iljaaz きりたんP KiritanP Vocaloid Hatsune Miku utaite ユリカ YURiCa Yurika japanese pop jpop female vocal
BeatmapID:2764432
BeatmapSetID:1334370

[Difficulty]
HPDrainRate:5
CircleSize:4
OverallDifficulty:8
ApproachRate:9
SliderMultiplier:2.44
SliderTickRate:1

[Events]
//Background and Video events
0,0,"hanatan.jpg",0,0
//Break Periods
2,34716,52590
//Storyboard Layer 0 (Background)
//Storyboard Layer 1 (Fail)
//Storyboard Layer 2 (Pass)
//Storyboard Layer 3 (Foreground)
//Storyboard Layer 4 (Overlay)
//Storyboard Sound Samples

[TimingPoints]
2680,612.244897959184,4,2,4,50,1,0
2680,-135.135135135135,4,2,4,50,0,0
11251,-96.1538461538461,4,2,4,70,0,0
30231,-156.25,4,2,4,70,0,0
53190,-156.25,4,2,4,50,0,0
73700,-119.047619047619,4,2,4,60,0,0
93292,582.52427184466,4,2,4,60,1,0
94516,612.244897959184,4,2,4,70,1,0
94516,-96.1538461538461,4,2,4,70,0,0
95740,612.244897959184,4,2,4,80,1,0
95740,-80.6451612903226,4,2,4,80,0,0
134924,-106.382978723404,4,2,4,70,0,0
144720,-87.7192982456139,4,2,4,80,0,0
183903,-156.25,4,2,4,50,0,0
198597,-119.047619047619,4,2,4,60,0,0
203510,612.244897959184,4,2,4,60,1,0
203822,600,4,2,4,60,1,0
204098,631.578947368421,4,2,4,70,1,0
204388,685.714285714286,4,2,4,70,1,0
204726,600,4,2,4,80,1,0
205030,500,4,2,4,80,1,0
205300,600,4,2,4,80,1,0
205604,705.882352941176,4,2,4,80,1,0
205948,612.244897959184,4,2,4,80,1,0
208396,-80.6451612903226,4,2,4,80,0,0
247580,-74.6268656716418,4,2,4,90,0,1
267172,-96.1538461538461,4,2,4,70,0,0
286764,-96.1538461538461,4,2,4,80,0,0
304825,-227.272727272727,4,2,4,40,0,0

[Colours]
Combo1 : 237,183,249
Combo2 : 179,179,255
Combo3 : 134,207,251

[HitObjects]
89,78,1761,5,2,0:0:0:0:
157,47,2067,1,2,0:0:0:0:
207,104,2373,1,2,0:0:0:0:
264,203,2680,6,0,P|254:246|250:298,2,90.2800022041016,6|0|0,3:2|0:0|0:0,0:0:0:0:
166,326,3598,6,0,P|237:313|310:401,1,180.560004408203,2|0,0:0|0:0,0:0:0:0:
168,231,4516,1,2,0:0:0:0:
418,76,4975,5,2,0:0:0:0:
433,80,5052,1,2,0:0:0:0:
445,84,5128,1,2,0:0:0:0:
511,60,5435,2,0,P|460:55|446:94,1,90.2800022041016
338,199,6047,6,0,B|242:176|259:259|161:228,1,180.560004408203,2|0,0:0|3:2,0:0:0:0:
338,199,6965,5,10,0:0:0:0:
259,116,7118,1,8,0:0:0:0:
316,66,7271,2,0,L|328:5,1,45.1400011020508,0|0,3:2|0:0,0:0:0:0:
147,137,7577,6,0,P|159:180|163:247,1,90.2800022041016,2|0,3:2|0:0,0:0:0:0:
258,304,8190,1,2,0:0:0:0:
133,350,8496,5,2,0:0:0:0:
271,278,8802,1,2,0:0:0:0:
430,384,9108,5,2,0:0:0:0:
246,264,9414,1,2,0:0:0:0:
444,135,9720,1,2,0:0:0:0:
246,264,10026,6,0,L|147:285,1,90.2800022041016,8|0,3:0|0:0,0:0:0:0:
48,365,10486,1,8,0:3:0:0:
9,302,10639,6,0,L|21:245,1,45.1400011020508,2|0,0:0|0:0,0:0:0:0:
143,356,10945,2,0,L|194:370,1,45.1400011020508,8|0,0:0|0:0,0:0:0:0:
310,213,11251,5,8,0:0:0:0:
157,282,11404,1,8,0:0:0:0:
335,288,11557,5,0,3:2:0:0:
381,347,11710,1,0,3:2:0:0:
218,214,11863,6,0,P|198:152|273:50,1,190.319998838379,12|0,0:0|0:0,0:0:0:0:
327,6,12475,6,0,P|339:38|338:80,1,63.439999612793,4|0,3:1|0:0,0:0:0:0:
397,120,12782,2,0,P|394:154|372:185,1,63.439999612793,2|0,0:0|0:0,0:0:0:0:
217,302,13088,2,0,L|157:282,1,63.439999612793,8|0,0:0|0:0,0:0:0:0:
300,362,13394,6,0,P|255:290|130:299,1,190.319998838379,4|0,3:2|0:0,0:0:0:0:
26,154,14006,2,0,P|38:184|40:216,1,63.439999612793,0|0,3:2|0:0,0:0:0:0:
262,54,14312,2,0,P|230:103|240:180,1,126.879999225586,8|2,0:0|3:2,0:0:0:0:
131,58,14771,1,2,0:0:0:0:
241,174,14924,6,0,P|274:172|312:146,1,63.439999612793,4|0,3:2|0:0,0:0:0:0:
380,145,15231,2,0,P|399:121|409:85,1,63.439999612793,2|0,0:0|0:0,0:0:0:0:
405,336,15537,2,0,L|325:305,1,63.439999612793,8|0,0:0|0:0,0:0:0:0:
300,157,15843,6,0,B|311:213|277:270|277:270|302:232|356:232,1,190.319998838379,4|0,3:2|0:2,0:2:0:0:
238,345,16455,2,0,L|157:363,1,63.439999612793,0|0,3:2|0:0,0:0:0:0:
336,233,16761,5,10,0:0:0:0:
413,347,16914,1,0,3:0:0:0:
269,281,17067,5,8,3:0:0:0:
412,184,17220,1,8,3:0:0:0:
478,230,17373,6,0,L|491:300,1,63.439999612793,6|0,3:2|0:0,0:0:0:0:
315,95,17680,2,0,L|299:164,1,63.439999612793,2|0,0:0|0:0,0:0:0:0:
113,370,17986,6,0,L|191:355,1,63.439999612793,10|0,0:0|0:0,0:0:0:0:
300,156,18292,2,0,B|251:151|218:104|218:104|244:166|209:207,1,190.319998838379,4|0,3:2|0:0,0:0:0:0:
151,152,18904,2,0,P|118:148|99:122,1,63.439999612793,0|0,3:2|0:0,0:0:0:0:
286,239,19210,2,0,L|298:309,1,63.439999612793,8|0,0:0|0:0,0:0:0:0:
462,155,19516,1,8,3:0:0:0:
482,82,19669,1,0,3:2:0:0:
395,188,19822,6,0,P|456:183|502:243,1,126.879999225586,4|0,3:2|0:0,0:0:0:0:
358,93,20282,1,0,3:2:0:0:
500,236,20435,2,0,P|471:253|424:258,1,63.439999612793,8|0,0:0|0:0,0:0:0:0:
285,371,20741,2,0,L|171:348,1,95.1599994191894,2|0,3:2|0:0,0:0:0:0:
165,342,21047,5,10,0:0:0:0:
286,239,21200,1,8,0:0:0:0:
181,199,21353,5,0,3:2:0:0:
285,371,21506,1,8,3:0:0:0:
181,199,21659,6,0,L|165:66,1,126.879999225586,4|0,3:2|3:0,0:0:0:0:
66,161,22118,1,8,3:0:0:0:
237,20,22271,6,0,P|252:50|249:89,1,63.439999612793,4|0,3:2|0:0,0:0:0:0:
66,161,22577,2,0,L|-14:142,1,63.439999612793,2|0,0:0|0:0,0:0:0:0:
270,308,22884,6,0,P|280:338|282:383,1,63.439999612793,8|0,0:0|0:0,0:0:0:0:
317,222,23190,6,0,P|263:260|291:375,1,190.319998838379,4|0,3:2|0:0,0:0:0:0:
443,151,23802,2,0,L|429:77,1,63.439999612793,0|0,3:2|0:0,0:0:0:0:
512,276,24108,6,0,B|472:264|472:264|454:241|454:241|383:220,1,126.879999225586,8|2,0:0|3:2,0:0:0:0:
251,79,24567,1,8,3:0:0:0:
345,3,24720,6,0,L|324:78,1,63.439999612793,4|0,3:2|0:0,0:0:0:0:
357,133,25026,1,2,0:0:0:0:
212,258,25180,1,0,3:2:0:0:
272,307,25333,2,0,L|284:377,1,63.439999612793,8|0,0:0|0:0,0:0:0:0:
102,148,25639,6,0,B|73:133|88:95|141:79|209:112|196:182,1,190.319998838379,4|0,3:2|0:0,0:0:0:0:
109,310,26251,2,0,L|36:330,1,63.439999612793,0|0,3:2|0:0,0:0:0:0:
212,258,26557,5,8,0:0:0:0:
360,384,26710,1,8,0:0:0:0:
282,370,26863,5,8,3:0:0:0:
390,270,27016,1,8,3:0:0:0:
499,361,27169,6,0,L|418:338,1,63.439999612793,4|0,3:2|0:0,0:0:0:0:
300,164,27475,2,0,L|312:228,1,63.439999612793,2|0,0:0|0:0,0:0:0:0:
509,138,27782,6,0,P|473:102|420:118,1,95.1599994191894,10|0,0:2|0:0,0:0:0:0:
432,107,28088,6,0,P|406:171|298:162,1,190.319998838379,4|0,3:2|0:0,0:0:0:0:
183,18,28700,2,0,L|203:107,1,63.439999612793,0|0,3:2|0:0,0:0:0:0:
29,267,29006,5,8,0:0:0:0:
177,193,29210,5,8,3:0:0:0:
299,353,29414,5,8,3:0:0:0:
177,193,29618,6,0,P|137:244|156:316,1,126.879999225586,4|0,3:2|0:2,0:2:0:0:
330,118,30231,2,0,L|312:26,1,78.08,2|0,0:0|0:0,0:0:0:0:
458,197,30843,2,0,L|547:222,1,78.08,2|0,0:0|0:0,0:0:0:0:
420,120,31455,5,8,0:0:0:0:
280,245,31761,1,0,3:2:0:0:
438,384,32067,5,0,3:2:0:0:
399,310,32373,1,2,0:0:0:0:
280,245,32680,5,2,0:0:0:0:
305,175,32986,1,2,0:0:0:0:
305,175,33904,5,8,0:0:0:0:
399,310,34057,1,8,0:0:0:0:
332,277,34210,1,0,3:2:0:0:
452,127,34516,5,2,0:0:0:0:
129,42,53190,5,2,0:0:0:0:
129,42,53496,2,0,P|162:94|224:77,1,117.12,2|0,0:0|0:0,0:0:0:0:
262,29,54108,6,0,P|249:102|239:200,1,156.16,2|0,3:2|0:0,0:0:0:0:
302,230,55026,1,2,0:0:0:0:
141,378,55333,2,0,P|171:358|229:352,1,78.08,2|2,0:0|0:0,0:0:0:0:
71,207,55945,2,0,P|108:217|145:248,1,78.08,2|2,0:0|0:0,0:0:0:0:
330,384,56557,6,0,L|302:225,1,156.16,2|0,3:2|0:0,0:0:0:0:
415,119,57475,1,2,0:0:0:0:
483,157,57782,2,0,L|496:63,1,78.08,2|0,0:0|0:0,0:0:0:0:
302,230,58394,6,0,P|264:276|198:262,1,117.12,2|0,0:0|0:0,0:0:0:0:
207,264,59006,6,0,B|295:247|264:322|371:302,1,156.16,0|0,3:2|0:0,0:0:0:0:
406,252,59924,1,2,0:0:0:0:
248,360,60231,1,2,0:0:0:0:
406,252,60537,6,0,L|422:171,1,78.08,2|2,0:0|0:0,0:0:0:0:
282,71,61149,1,2,0:0:0:0:
324,1,61455,6,0,P|292:46|196:38,1,156.16,2|0,3:2|0:0,0:0:0:0:
136,1,62373,1,2,0:0:0:0:
23,187,62680,2,0,P|60:173|106:163,1,78.08,2|4,3:2|0:0,0:0:0:0:
31,94,63292,1,8,3:0:0:0:
198,225,63598,1,8,0:3:0:0:
106,360,63904,6,0,P|92:324|104:273,1,78.08,4|2,3:2|0:0,0:0:0:0:
296,146,64516,2,0,L|280:242,1,78.08,2|2,0:0|0:0,0:0:0:0:
427,355,65128,2,0,P|444:318|424:273,1,78.08,2|0,0:0|0:0,0:0:0:0:
468,217,65588,1,2,0:0:0:0:
296,146,66047,6,0,L|244:159,1,39.04,2|0,0:0|0:0,0:0:0:0:
186,176,66353,1,2,3:2:0:0:
354,44,66659,1,2,0:0:0:0:
282,15,66965,5,2,0:0:0:0:
391,207,67271,1,2,0:0:0:0:
512,149,67577,6,0,P|474:117|405:120,1,117.12,2|0,0:0|0:0,0:0:0:0:
341,150,68190,1,0,0:0:0:0:
216,351,68496,5,2,0:0:0:0:
266,294,68802,2,0,L|245:183,2,78.08,2|0|0,3:2|0:0|0:0,0:0:0:0:
71,115,69720,5,2,0:0:0:0:
128,165,70026,2,0,L|113:253,1,78.08,2|2,0:0|0:0,0:0:0:0:
266,94,70639,1,2,0:0:0:0:
180,25,70945,2,0,L|188:69,1,39.04,2|2,0:0|0:0,0:0:0:0:
204,137,71251,5,0,3:2:0:0:
4,11,71710,5,0,3:2:0:0:
4,11,71863,2,0,L|13:62,1,39.04,2|0,0:0|0:0,0:0:0:0:
204,137,72169,2,0,L|142:156,1,39.04,0|0,3:2|0:0,0:0:0:0:
0,230,72475,5,8,0:0:0:0:
113,82,72628,1,8,0:0:0:0:
46,121,72782,1,2,0:0:0:0:
145,272,72935,1,0,3:2:0:0:
204,137,73088,5,8,3:0:0:0:
202,127,73394,1,2,0:0:0:0:
328,24,73700,6,0,B|395:5|395:5|457:33|424:87,1,153.719995308838,4|0,3:2|0:0,0:0:0:0:
428,147,74312,2,0,B|370:130|394:125|327:108,1,102.479996872559,8|0,0:0|0:0,0:0:0:0:
209,218,74771,1,0,0:0:0:0:
270,267,74924,2,0,P|296:228|286:175,1,102.479996872559,2|2,0:0|3:2,0:0:0:0:
95,49,75537,2,0,L|107:113,1,51.2399984362793,10|0,0:0|0:0,0:0:0:0:
250,0,75843,2,0,L|240:54,1,51.2399984362793,2|0,0:0|0:0,0:0:0:0:
418,155,76149,6,0,B|453:165|453:165|466:177|466:177|525:193,2,102.479996872559,2|0|10,3:2|0:0|0:0,0:0:0:0:
271,263,77067,1,2,0:0:0:0:
344,295,77220,1,2,0:0:0:0:
441,341,77373,1,2,0:0:0:0:
377,226,77526,5,8,0:0:0:0:
225,337,77680,2,0,L|161:350,1,51.2399984362793,0|0,3:2|0:0,0:0:0:0:
21,233,77986,2,0,P|67:225|104:276,1,102.479996872559,8|8,3:0|3:0,3:0:0:0:
7,369,78445,1,2,0:0:0:0:
102,262,78598,6,0,L|124:140,1,102.479996872559,6|2,3:2|0:0,0:0:0:0:
30,22,79210,2,0,P|72:70|104:65,1,102.479996872559,10|2,0:0|0:0,0:0:0:0:
228,3,79669,1,10,0:0:0:0:
284,55,79822,2,0,L|336:69,1,51.2399984362793
437,182,80128,1,2,3:2:0:0:
507,75,80435,6,0,L|494:17,1,51.2399984362793,10|0,0:0|0:0,0:0:0:0:
299,202,80741,2,0,L|311:134,1,51.2399984362793,2|0,0:0|0:0,0:0:0:0:
503,250,81047,6,0,P|454:309|378:279,1,153.719995308838,2|0,3:2|0:0,0:0:0:0:
299,202,81659,2,0,L|177:175,1,102.479996872559,8|2,0:0|0:0,0:0:0:0:
83,283,82118,1,10,0:0:0:0:
160,307,82271,1,2,0:0:0:0:
44,215,82424,1,8,0:0:0:0:
0,359,82577,1,0,3:2:0:0:
198,179,82884,6,0,P|198:128|179:62,1,102.479996872559,8|8,0:0|3:0,0:0:0:0:
300,220,83343,1,8,3:0:0:0:
399,172,83496,6,0,P|382:219|380:293,1,102.479996872559,4|2,3:2|0:0,0:0:0:0:
218,383,84108,2,0,P|255:354|320:362,1,102.479996872559,10|2,0:0|0:0,0:0:0:0:
369,308,84567,1,2,0:0:0:0:
211,195,84720,1,0,3:2:0:0:
411,17,85026,6,0,L|398:74,1,51.2399984362793,2|0,3:2|0:0,0:0:0:0:
211,195,85333,2,0,L|268:181,1,51.2399984362793,10|0,0:0|0:0,0:0:0:0:
418,322,85639,2,0,L|355:304,1,51.2399984362793,2|0,0:0|0:0,0:0:0:0:
218,383,85945,5,2,3:2:0:0:
399,172,86251,1,2,0:0:0:0:
138,14,86557,6,0,P|152:60|160:125,1,102.479996872559,12|2,0:0|0:0,0:0:0:0:
291,254,87016,1,2,0:0:0:0:
237,143,87169,5,2,3:2:0:0:
100,277,87322,1,8,0:0:0:0:
56,213,87475,6,0,P|64:189|71:154,1,51.2399984362793,0|0,3:2|0:0,0:0:0:0:
181,344,87782,2,0,P|189:289|202:244,1,102.479996872559,8|2,0:0|3:2,0:0:0:0:
89,364,88241,1,2,0:0:0:0:
214,237,88394,6,0,P|272:225|324:304,1,153.719995308838,4|0,3:2|0:0,0:0:0:0:
488,119,89006,2,0,L|358:143,1,102.479996872559,8|2,0:0|3:2,0:0:0:0:
500,267,89618,6,0,P|510:246|510:207,1,51.2399984362793,2|0,0:0|0:0,0:0:0:0:
362,71,89924,2,0,L|373:131,1,51.2399984362793,2|0,0:0|0:0,0:0:0:0:
511,26,90231,6,0,P|487:12|449:11,1,51.2399984362793,10|0,0:0|0:0,0:0:0:0:
384,143,90537,2,0,L|395:203,1,51.2399984362793,2|0,0:0|0:0,0:0:0:0:
256,352,90843,6,0,P|203:353|175:300,1,102.479996872559,2|0,3:2|0:0,0:0:0:0:
40,118,91455,2,0,L|163:146,1,102.479996872559,8|0,0:0|3:2,0:0:0:0:
39,215,91914,1,2,0:0:0:0:
195,82,92067,2,0,L|178:16,2,51.2399984362793,2|0|0,0:0|0:0|0:0,0:0:0:0:
115,0,92680,5,8,0:0:0:0:
284,135,92833,1,8,0:0:0:0:
139,140,92986,5,8,3:0:0:0:
39,215,93139,1,8,3:0:0:0:
182,344,93292,5,6,3:2:0:0:
184,333,93389,2,0,L|178:292,1,40.6666666666667,2|2,0:2|0:0,0:0:0:0:
276,362,93583,5,2,0:0:0:0:
277,351,93680,2,0,L|270:310,1,40.6666666666667,2|2,0:0|0:0,0:0:0:0:
321,241,93874,5,2,0:0:0:0:
345,237,93971,1,2,0:0:0:0:
361,255,94068,1,2,0:0:0:0:
400,322,94165,5,2,0:0:0:0:
420,337,94262,1,2,0:0:0:0:
444,335,94359,2,0,L|457:289,1,40.6666666666667,2|2,0:0|0:0,0:0:0:0:
476,225,94516,5,8,0:0:0:0:
300,121,94669,2,0,B|279:196|336:166|320:250,1,126.879999225586,8|0,0:0|3:2,0:0:0:0:
266,301,95128,5,12,0:0:0:0:
416,138,95281,1,0,3:2:0:0:
366,82,95434,2,0,L|357:8,1,63.439999612793,2|0,0:0|0:0,0:0:0:0:
501,119,95740,6,0,P|467:146|411:140,1,75.6399969991456,4|0,3:1|0:0,0:0:0:0:
266,301,96046,2,0,L|141:323,1,113.459995498718,2|0,0:0|0:0,0:0:0:0:
90,361,96352,2,0,B|72:330|72:330|86:285,1,75.6399969991456,8|0,0:0|0:0,0:0:0:0:
269,219,96658,2,0,B|323:234|323:234|338:266|338:266|406:288,1,151.279993998291,2|0,0:0|0:0,0:0:0:0:
394,284,97271,6,0,L|381:203,1,75.6399969991456,0|0,3:2|0:0,0:0:0:0:
197,25,97577,2,0,P|155:54|172:120,1,113.459995498718,8|0,0:0|0:0,0:0:0:0:
182,125,97883,2,0,P|214:110|261:100,1,75.6399969991456,0|0,3:2|0:0,0:0:0:0:
100,218,98189,2,0,P|93:253|82:295,1,75.6399969991456,2|0,3:2|0:0,0:0:0:0:
7,171,98495,1,2,0:0:0:0:
7,171,98801,6,0,P|35:149|88:150,1,75.6399969991456,8|0,0:0|0:0,0:0:0:0:
255,325,99107,2,0,B|215:322|180:279|180:279|205:308|205:352,1,151.279993998291,2|0,0:0|0:0,0:0:0:0:
147,384,99567,1,0,0:0:0:0:
258,241,99720,6,0,P|282:213|281:164,1,75.6399969991456,2|0,3:2|0:0,0:0:0:0:
431,300,100026,1,8,0:0:0:0:
279,169,100332,6,0,L|268:92,1,75.6399969991456,2|0,3:2|0:0,0:0:0:0:
409,6,100638,2,0,P|481:31|471:101,1,151.279993998291,4|0,3:2|0:0,0:0:0:0:
512,163,101097,1,2,0:0:0:0:
325,27,101250,2,0,L|241:8,1,75.6399969991456,8|0,0:0|0:0,0:0:0:0:
76,161,101556,2,0,B|99:122|147:129|147:129|163:165|213:168,1,151.279993998291,2|0,0:0|0:0,0:0:0:0:
199,166,102169,6,0,L|182:81,1,75.6399969991456,0|0,3:2|0:0,0:0:0:0:
398,180,102475,2,0,B|391:252|364:219|356:298,1,113.459995498718,8|0,0:0|0:0,0:0:0:0:
305,335,102781,2,0,P|336:359|384:343,1,75.6399969991456,2|0,3:2|0:0,0:0:0:0:
277,187,103087,6,0,B|190:178|217:239|115:219,1,151.279993998291,2|2,3:2|0:0,0:0:0:0:
351,52,103546,1,2,0:0:0:0:
283,15,103699,2,0,P|265:46|271:92,1,75.6399969991456,8|0,0:0|0:0,0:0:0:0:
398,180,104005,2,0,L|481:203,1,75.6399969991456,2|0,0:0|0:0,0:0:0:0:
305,335,104311,1,2,0:0:0:0:
305,335,104618,6,0,P|286:304|300:255,1,75.6399969991456,0|0,3:2|0:0,0:0:0:0:
447,92,104924,2,0,L|334:124,1,113.459995498718,8|0,0:0|0:0,0:0:0:0:
321,129,105230,1,2,0:0:0:0:
470,200,105383,1,2,3:2:0:0:
303,334,105536,6,0,B|353:328|379:294|379:294|353:328|362:368,1,151.279993998291,4|0,3:2|0:0,0:0:0:0:
435,351,105995,1,0,0:0:0:0:
299,243,106148,2,0,B|254:232|254:232|245:222|245:222|184:207,1,113.459995498718,8|0,0:0|0:0,0:0:0:0:
171,203,106454,1,2,0:0:0:0:
35,323,106607,1,2,0:0:0:0:
99,371,106760,6,0,P|118:339|111:281,1,75.6399969991456,2|0,0:0|0:0,0:0:0:0:
18,181,107067,2,0,L|4:98,1,75.6399969991456,0|0,3:2|0:0,0:0:0:0:
173,6,107373,2,0,P|185:71|123:120,1,151.279993998291,8|2,0:0|3:2,0:0:0:0:
124,119,107985,6,0,L|207:99,1,75.6399969991456,2|0,3:2|0:0,0:0:0:0:
400,244,108291,1,2,0:0:0:0:
324,263,108444,1,0,0:0:0:0:
284,196,108597,2,0,P|295:115|332:48,1,151.279993998291,8|2,0:0|0:0,0:0:0:0:
393,12,109056,1,2,0:0:0:0:
197,101,109209,1,2,0:0:0:0:
197,101,109516,6,0,L|287:127,1,75.6399969991456,0|0,3:2|0:0,0:0:0:0:
486,328,109822,2,0,P|411:313|361:367,1,151.279993998291,8|2,0:0|3:2,0:0:0:0:
483,241,110281,1,2,0:0:0:0:
352,372,110434,6,0,B|270:352|310:308|220:289,1,151.279993998291,4|0,3:2|0:0,0:0:0:0:
95,190,110893,1,0,0:0:0:0:
41,247,111046,2,0,P|51:283|58:323,1,75.6399969991456,8|0,0:0|0:0,0:0:0:0:
218,165,111352,2,0,P|237:131|242:87,1,75.6399969991456,2|0,0:0|0:0,0:0:0:0:
138,0,111658,1,2,0:0:0:0:
138,0,111964,6,0,L|154:85,1,75.6399969991456,0|0,3:2|0:0,0:0:0:0:
298,267,112271,2,0,P|265:287|206:285,1,75.6399969991456,8|0,0:0|0:0,0:0:0:0:
359,121,112577,2,0,P|413:115|454:160,1,113.459995498718,2|0,3:2|0:0,0:0:0:0:
461,170,112883,6,0,L|443:256,1,75.6399969991456,2|0,3:2|0:0,0:0:0:0:
512,354,113189,1,0,0:0:0:0:
512,354,113495,6,0,L|397:377,1,113.459995498718,8|0,0:0|0:0,0:0:0:0:
378,383,113801,1,10,0:0:0:0:
216,213,113954,2,0,B|208:178|176:165|176:165|231:165|241:227,1,151.279993998291,2|0,3:2|0:0,0:0:0:0:
96,322,114413,5,0,3:2:0:0:
26,346,114567,1,0,3:2:0:0:
158,160,114720,5,12,0:0:0:0:
331,278,114873,2,0,L|311:172,1,75.6399969991456,8|0,0:0|0:0,0:0:0:0:
454,47,115179,5,2,0:0:0:0:
460,56,115255,1,2,0:0:0:0:
465,67,115332,6,0,P|436:93|390:93,1,75.6399969991456,4|0,3:1|0:0,0:0:0:0:
231,178,115638,2,0,L|149:157,1,75.6399969991456,2|0,0:0|0:0,0:0:0:0:
331,278,115944,1,8,0:0:0:0:
331,278,116250,6,0,P|358:229|346:158,1,113.459995498718,2|0,0:0|0:0,0:0:0:0:
338,159,116556,2,0,L|324:82,1,75.6399969991456
487,227,116862,1,0,3:2:0:0:
512,159,117016,1,2,0:0:0:0:
331,278,117169,2,0,B|288:286|288:286|277:297|277:297|209:314,1,113.459995498718,8|0,0:0|0:0,0:0:0:0:
165,357,117475,2,0,B|145:325|145:325|156:276,1,75.6399969991456,2|0,3:2|0:0,0:0:0:0:
13,139,117781,6,0,L|29:219,1,75.6399969991456,2|0,0:0|0:0,0:0:0:0:
252,59,118087,2,0,P|211:20|150:37,1,113.459995498718,2|0,0:0|0:0,0:0:0:0:
156,40,118393,2,0,P|129:69|83:73,1,75.6399969991456,8|0,0:0|0:0,0:0:0:0:
257,261,118699,2,0,L|360:284,1,75.6399969991456,2|0,0:0|0:0,0:0:0:0:
165,357,119005,1,0,0:0:0:0:
165,357,119311,6,0,B|145:325|145:325|156:276,1,75.6399969991456,2|0,3:2|0:0,0:0:0:0:
395,180,119618,2,0,L|412:298,1,113.459995498718,10|0,0:0|0:0,0:0:0:0:
414,314,119924,1,2,3:2:0:0:
313,192,120077,1,0,0:0:0:0:
472,236,120230,6,0,B|386:229|415:290|304:274,1,151.279993998291,6|0,3:2|0:0,0:0:0:0:
159,113,120689,1,2,0:0:0:0:
226,78,120842,2,0,P|239:111|238:158,1,75.6399969991456,8|0,0:0|0:0,0:0:0:0:
58,289,121148,2,0,P|126:277|174:336,1,151.279993998291,2|0,0:0|0:0,0:0:0:0:
173,335,121760,6,0,L|90:361,1,75.6399969991456,0|0,3:2|0:0,0:0:0:0:
239,150,122067,2,0,P|243:188|257:230,1,75.6399969991456,8|0,0:0|0:0,0:0:0:0:
87,35,122373,6,0,P|126:32|162:70,1,75.6399969991456,2|0,3:2|0:0,0:0:0:0:
261,233,122679,2,0,P|324:242|364:163,1,151.279993998291,2|2,3:2|0:0,0:0:0:0:
490,79,123138,1,2,0:0:0:0:
429,32,123291,2,0,P|411:62|412:109,1,75.6399969991456,10|0,0:0|0:0,0:0:0:0:
512,229,123597,2,0,L|427:252,1,75.6399969991456,2|0,0:0|0:0,0:0:0:0:
348,383,123903,1,2,0:0:0:0:
348,383,124209,6,0,P|368:349|364:305,1,75.6399969991456,2|0,3:2|0:0,0:0:0:0:
196,151,124516,2,0,P|169:199|173:275,1,113.459995498718,8|0,0:0|0:0,0:0:0:0:
178,273,124822,1,2,3:2:0:0:
345,143,124975,1,8,3:0:0:0:
298,83,125128,6,0,L|324:241,1,151.279993998291,4|0,3:2|0:2,0:2:0:0:
196,151,125587,1,0,0:0:0:0:
26,316,125740,2,0,L|49:186,1,113.459995498718,8|0,0:0|0:0,0:0:0:0:
52,184,126046,1,2,0:0:0:0:
178,273,126199,1,2,0:0:0:0:
311,158,126352,6,0,L|297:66,1,75.6399969991456,2|0,0:0|0:0,0:0:0:0:
178,273,126658,2,0,P|217:280|252:308,1,75.6399969991456,0|0,3:2|0:2,0:2:0:0:
91,94,126964,2,0,P|160:101|209:33,1,151.279993998291,10|2,0:0|3:2,0:0:0:0:
207,42,127577,6,0,P|184:73|191:125,1,75.6399969991456,2|0,3:2|0:0,0:0:0:0:
322,250,127883,2,0,L|413:224,1,75.6399969991456,2|0,0:0|0:0,0:0:0:0:
185,357,128189,6,0,B|145:344|145:344|135:328|135:328|72:308,1,113.459995498718,10|0,0:0|0:0,0:0:0:0:
65,303,128495,1,2,0:0:0:0:
247,155,128648,1,2,0:0:0:0:
183,108,128801,6,0,P|164:141|170:196,1,75.6399969991456,2|0,0:0|0:0,0:0:0:0:
336,324,129107,2,0,L|319:238,1,75.6399969991456,0|0,3:2|0:0,0:0:0:0:
503,57,129413,6,0,P|461:41|402:117,1,151.279993998291,10|2,0:0|3:2,0:0:0:0:
337,155,129873,1,2,0:0:0:0:
485,285,130026,6,0,B|426:264|372:167|492:107|535:197|495:222,1,226.919990997437,4|0,3:2|0:0,0:0:0:0:
336,324,130638,2,0,L|246:342,1,75.6399969991456,8|0,0:0|0:0,0:0:0:0:
80,133,130944,2,0,P|132:130|163:178,1,113.459995498718,2|0,0:0|0:0,0:0:0:0:
172,191,131250,2,0,L|158:267,1,75.6399969991456,2|0,0:0|0:0,0:0:0:0:
339,93,131556,2,0,L|357:173,1,75.6399969991456,2|0,3:2|0:0,0:0:0:0:
485,285,131862,6,0,L|405:260,1,75.6399969991456,10|0,0:0|0:0,0:0:0:0:
251,100,132169,2,0,L|265:20,1,75.6399969991456,2|0,3:2|0:0,0:0:0:0:
53,300,132475,6,0,B|98:288|98:288|111:274|111:274|166:263,1,113.459995498718,4|0,3:2|0:0,0:0:0:0:
209,211,132781,2,0,P|234:241|221:292,1,75.6399969991456,10|0,3:2|0:2,0:2:0:0:
512,164,133087,6,0,B|467:152|467:152|454:138|454:138|399:127,1,113.459995498718,8|0,3:2|0:0,0:0:0:0:
356,75,133393,2,0,P|331:105|344:156,1,75.6399969991456,10|0,3:2|0:2,0:2:0:0:
478,362,133699,6,0,B|424:257|314:285|373:366|417:339|441:282,1,226.919990997437,4|0,3:2|0:0,0:0:0:0:
493,186,134311,5,4,3:2:0:0:
490,171,134413,1,8,0:3:0:0:
438,122,134516,5,8,0:3:0:0:
441,107,134618,1,8,0:3:0:0:
510,68,134720,5,8,3:0:0:0:
504,53,134822,1,8,3:0:0:0:
449,0,134924,6,0,P|407:-4|374:35,1,86.0099986875916,4|0,3:2|0:0,0:0:0:0:
364,40,135230,2,0,L|289:55,1,57.3399991250611,2|0,0:0|0:0,0:0:0:0:
98,189,135536,2,0,P|141:237|187:222,1,114.679998250122,10|2,0:0|0:0,0:0:0:0:
183,225,136148,6,0,L|172:160,1,57.3399991250611,2|0,3:2|0:0,0:0:0:0:
332,283,136454,1,2,3:2:0:0:
264,318,136607,1,2,0:0:0:0:
354,201,136760,2,0,L|458:231,1,86.0099986875916,8|0,0:0|0:0,0:0:0:0:
467,206,137067,2,0,P|458:236|452:265,1,57.3399991250611,2|0,0:0|0:0,0:0:0:0:
293,106,137373,6,0,P|302:78|309:39,2,57.3399991250611,0|0|2,3:2|0:0|0:0,0:0:0:0:
154,247,137832,1,0,3:2:0:0:
208,303,137985,2,0,P|238:309|277:324,1,57.3399991250611,8|0,0:0|0:0,0:0:0:0:
98,189,138291,2,0,P|69:200|34:203,1,57.3399991250611,2|0,0:0|0:0,0:0:0:0:
165,42,138597,6,0,P|210:82|192:146,1,114.679998250122,2|0,3:2|3:2,0:0:0:0:
258,190,139056,1,0,0:0:0:0:
407,331,139209,2,0,L|387:214,1,114.679998250122,8|2,0:0|3:2,0:0:0:0:
263,317,139669,1,2,0:0:0:0:
140,238,139822,6,0,P|177:233|209:268,1,86.0099986875916,4|0,3:2|0:2,0:2:0:0:
263,317,140128,2,0,L|327:334,1,57.3399991250611,2|0,0:0|0:0,0:0:0:0:
492,180,140434,2,0,B|447:190|447:190|433:205|433:205|364:224,1,114.679998250122,8|2,0:0|0:0,0:0:0:0:
480,268,140893,1,2,0:0:0:0:
376,129,141046,6,0,L|388:34,1,86.0099986875916,2|0,3:2|0:0,0:0:0:0:
391,25,141352,1,14,0:0:0:0:
204,140,141505,1,2,0:0:0:0:
171,69,141658,5,8,3:0:0:0:
283,149,141811,1,8,3:0:0:0:
146,229,141964,1,0,3:2:0:0:
305,378,142271,6,0,B|320:293|235:325|263:223,1,172.019997375183,4|0,3:2|0:0,0:0:0:0:
283,149,142883,1,0,0:0:0:0:
283,149,143495,1,0,0:0:0:0:
440,25,143801,6,0,L|452:128,1,86.0099986875916,2|0,0:2|0:0,0:0:0:0:
452,132,144107,1,8,0:2:0:0:
284,26,144260,1,8,0:0:0:0:
229,79,144413,5,8,3:0:0:0:
60,146,144567,1,8,3:0:0:0:
31,82,144720,6,0,P|87:68|157:156,1,173.849997877808,4|0,3:1|0:0,0:0:0:0:
172,159,145178,1,2,0:2:0:0:
259,262,145332,2,0,L|248:343,1,69.5399991511231,8|0,0:0|0:0,0:0:0:0:
186,370,145638,1,2,0:2:0:0:
363,266,145791,1,2,0:2:0:0:
234,190,145944,5,0,3:2:0:0:
259,262,146097,1,0,0:2:0:0:
403,352,146250,5,0,3:2:0:0:
329,384,146403,1,2,0:2:0:0:
436,188,146556,6,0,P|473:191|510:255,1,104.309998726685,8|0,0:2|0:2,0:2:0:0:
511,264,146862,2,0,L|429:287,1,69.5399991511231,2|0,0:2|0:2,0:2:0:0:
299,106,147169,6,0,P|309:137|316:187,1,69.5399991511231,2|0,3:2|0:2,0:2:0:0:
446,59,147475,1,2,0:2:0:0:
376,25,147628,1,0,3:2:0:0:
501,168,147781,2,0,P|466:175|420:195,1,69.5399991511231,10|0,0:2|0:2,0:2:0:0:
376,243,148087,1,0,0:2:0:0:
217,341,148240,5,2,0:2:0:0:
160,287,148393,2,0,P|156:212|205:162,1,139.079998302246,0|0,3:2|3:2,0:2:0:0:
238,106,148852,1,2,0:2:0:0:
271,132,148929,1,2,0:2:0:0:
269,175,149005,1,10,0:1:0:0:
149,299,149158,2,0,L|61:317,1,69.5399991511231,2|0,0:1|3:2,0:2:0:0:
58,320,149388,1,2,0:1:0:0:
269,175,149618,6,0,B|319:186|319:186|335:211|335:211|401:226,1,139.079998302246,2|0,3:1|0:2,0:2:0:0:
461,183,150077,1,0,0:2:0:0:
312,298,150230,1,8,0:2:0:0:
390,127,150383,5,2,0:2:0:0:
413,52,150536,1,2,0:2:0:0:
391,223,150689,5,2,0:2:0:0:
481,312,150842,2,0,P|440:304|395:378,1,139.079998302246,2|0,3:2|3:2,0:2:0:0:
512,238,151301,1,2,0:2:0:0:
269,175,151454,6,0,L|143:199,1,104.309998726685,10|0,0:2|0:2,0:2:0:0:
146,200,151760,1,2,0:2:0:0:
335,29,151964,6,0,L|330:63,1,23.179999717041,2|2,0:1|0:2,0:2:0:0:
325,41,152067,6,0,B|237:29|276:79|176:65,1,139.079998302246,2|0,3:2|0:2,0:2:0:0:
346,166,152526,1,2,0:2:0:0:
154,262,152679,2,0,L|167:191,1,69.5399991511231,8|0,0:2|0:2,0:2:0:0:
372,345,152985,2,0,L|355:231,1,104.309998726685,2|0,0:2|0:2,0:2:0:0:
346,166,153291,1,0,3:2:0:0:
59,383,153597,5,2,0:2:0:0:
59,383,153903,6,0,L|72:311,1,69.5399991511231,10|0,0:1|0:2,0:2:0:0:
131,269,154132,2,0,L|122:192,1,69.5399991511231,2|0,0:1|0:2,0:2:0:0:
68,151,154362,1,2,3:1:0:0:
183,27,154516,6,0,P|230:17|266:65,1,104.309998726685,4|0,3:2|0:2,0:2:0:0:
277,73,154822,2,0,L|359:97,1,69.5399991511231,2|0,0:2|0:2,0:2:0:0:
512,222,155128,5,10,0:1:0:0:
343,92,155332,5,2,0:1:0:0:
310,294,155536,5,2,0:1:0:0:
237,251,155740,6,0,L|126:274,1,104.309998726685,2|0,3:2|0:2,0:2:0:0:
115,278,156046,1,0,3:2:0:0:
269,355,156199,1,2,0:2:0:0:
310,294,156352,2,0,P|358:288|408:329,1,104.309998726685,8|0,0:2|0:2,0:2:0:0:
413,335,156658,1,2,0:2:0:0:
213,121,156964,5,2,3:2:0:0:
194,48,157118,1,2,0:2:0:0:
286,90,157271,5,2,0:2:0:0:
153,173,157424,1,0,3:2:0:0:
286,90,157577,6,0,B|326:101|326:101|334:109|334:109|392:126,1,104.309998726685,10|0,0:2|0:2,0:2:0:0:
402,130,157883,1,2,3:2:0:0:
499,249,158189,6,0,P|446:245|418:299,1,104.309998726685,4|0,3:2|0:2,0:2:0:0:
413,298,158495,1,2,3:2:0:0:
260,383,158648,1,2,0:2:0:0:
177,227,158801,5,8,0:2:0:0:
251,212,158954,1,2,0:2:0:0:
315,261,159107,1,2,3:2:0:0:
322,335,159260,1,2,0:2:0:0:
177,227,159413,6,0,P|152:173|168:92,1,139.079998302246,4|0,3:2|0:2,0:2:0:0:
215,42,159873,1,0,0:2:0:0:
116,167,160026,6,0,P|69:192|18:195,2,92.7199988681641,10|2|2,0:1|0:1|0:1,0:2:0:0:
215,42,160638,2,0,P|272:39|315:77,1,104.309998726685,2|0,3:2|0:2,0:2:0:0:
319,82,160944,2,0,L|401:104,1,69.5399991511231,2|0,3:2|0:2,0:2:0:0:
497,22,161250,5,10,0:1:0:0:
319,82,161454,1,2,0:1:0:0:
401,246,161658,1,2,0:1:0:0:
468,205,161862,6,0,P|485:158|471:90,1,104.309998726685,4|0,3:2|0:2,0:2:0:0:
467,88,162169,2,0,L|391:106,1,69.5399991511231,2|0,0:2|0:2,0:2:0:0:
235,290,162475,2,0,L|316:308,1,69.5399991511231,10|0,0:2|0:2,0:2:0:0:
188,99,162781,2,0,P|150:141|168:193,1,104.309998726685,2|0,3:2|0:2,0:2:0:0:
172,196,163087,1,4,3:2:0:0:
102,326,163393,5,8,0:0:0:0:
291,213,163546,1,8,0:0:0:0:
115,117,163699,5,8,0:0:0:0:
291,213,163852,1,8,0:0:0:0:
335,140,164005,5,8,3:0:0:0:
447,92,164158,1,8,3:0:0:0:
512,211,164311,6,0,P|462:220|413:144,1,139.079998302246,4|0,3:2|0:0,0:0:0:0:
447,92,164771,1,2,0:0:0:0:
262,19,164924,2,0,L|282:94,1,69.5399991511231,8|0,0:0|0:0,0:0:0:0:
90,191,165230,1,2,0:0:0:0:
115,117,165383,1,2,0:0:0:0:
299,294,165536,6,0,P|261:328|194:316,1,104.309998726685,2|0,3:2|0:0,0:0:0:0:
201,319,165842,2,0,L|213:248,1,69.5399991511231,0|0,3:2|0:0,0:0:0:0:
132,37,166148,6,0,P|94:3|27:15,1,104.309998726685,10|0,0:2|0:0,0:0:0:0:
34,12,166454,2,0,L|46:83,1,69.5399991511231,0|0,3:2|0:0,0:0:0:0:
0,235,166760,6,0,B|80:221|38:192|137:176,1,139.079998302246,2|0,3:2|0:0,0:0:0:0:
280,105,167220,1,2,0:0:0:0:
239,1,167373,6,0,P|218:28|220:73,1,69.5399991511231,10|0,0:0|0:0,0:0:0:0:
354,204,167679,2,0,L|432:225,1,69.5399991511231,2|0,0:0|0:0,0:0:0:0:
499,239,167985,1,2,0:0:0:0:
499,239,168291,6,0,P|486:207|481:159,1,69.5399991511231,0|0,3:2|0:0,0:0:0:0:
250,341,168597,2,0,P|264:293|266:233,1,104.309998726685,8|0,0:0|0:0,0:0:0:0:
262,227,168903,2,0,L|189:205,1,69.5399991511231,0|0,3:2|0:0,0:0:0:0:
10,324,169209,6,0,B|53:323|96:271|96:271|48:328|71:371,1,208.619997453369,4|0,3:2|0:0,0:0:0:0:
3,218,169822,2,0,P|1:185|33:154,1,69.5399991511231,8|0,0:0|0:0,0:0:0:0:
149,15,170128,1,2,0:0:0:0:
78,39,170281,1,2,0:0:0:0:
186,138,170434,6,0,L|196:213,1,69.5399991511231,2|0,0:0|0:0,0:0:0:0:
377,343,170740,2,0,P|393:309|385:268,1,69.5399991511231,0|0,3:2|0:0,0:0:0:0:
509,99,171046,2,0,L|430:120,1,69.5399991511231,8|0,0:0|0:0,0:0:0:0:
372,143,171352,1,0,3:2:0:0:
372,143,171658,6,0,P|424:137|478:198,1,139.079998302246,2|0,3:2|0:0,0:0:0:0:
356,55,172118,1,0,0:0:0:0:
195,206,172271,2,0,L|208:99,1,104.309998726685,10|0,0:0|0:0,0:0:0:0:
161,42,172577,2,0,P|132:71|143:118,1,69.5399991511231,2|0,3:2|0:2,0:2:0:0:
302,245,172883,5,8,0:0:0:0:
109,336,173036,2,0,B|161:326|161:326|179:298|179:298|251:284,1,139.079998302246,4|0,3:2|0:0,0:0:0:0:
108,189,173495,5,10,0:0:0:0:
306,354,173648,1,8,0:0:0:0:
229,384,173801,5,8,3:0:0:0:
302,245,173954,1,8,3:0:0:0:
225,77,174107,6,0,P|192:137|196:212,1,139.079998302246,4|0,3:2|0:0,0:0:0:0:
155,274,174567,1,0,0:0:0:0:
339,156,174720,2,0,L|445:138,1,104.309998726685,8|0,0:0|0:0,0:0:0:0:
464,135,175026,1,2,0:0:0:0:
329,29,175179,1,2,0:0:0:0:
396,0,175332,6,0,P|412:31|406:76,1,69.5399991511231,2|0,0:0|0:0,0:0:0:0:
194,205,175638,2,0,L|121:182,1,69.5399991511231,2|0,3:2|0:0,0:0:0:0:
306,354,175944,2,0,P|335:308|322:253,1,104.309998726685,8|0,0:0|0:0,0:0:0:0:
312,243,176250,1,0,3:2:0:0:
124,362,176403,1,8,0:0:0:0:
92,293,176556,6,0,P|138:283|206:356,1,139.079998302246,4|0,3:2|0:0,0:0:0:0:
52,223,177016,1,0,3:2:0:0:
207,136,177169,2,0,L|193:206,1,69.5399991511231,8|0,0:0|0:0,0:0:0:0:
50,93,177475,2,0,P|75:61|140:74,1,104.309998726685,0|0,3:2|0:0,0:0:0:0:
152,87,177781,6,0,B|201:97|201:97|219:119|219:119|294:135,1,139.079998302246,4|0,3:2|0:0,0:0:0:0:
330,71,178189,5,8,0:0:0:0:
376,63,178291,1,8,0:0:0:0:
411,95,178393,2,0,L|394:167,1,46.359999434082,8|8,0:3|0:3,0:0:0:0:
444,202,178597,1,8,0:3:0:0:
451,219,178699,2,0,L|434:274,1,46.359999434082,8|8,3:0|3:0,0:0:0:0:
489,320,178903,1,8,3:0:0:0:
495,307,179005,6,0,P|444:291|391:351,1,139.079998302246,4|0,3:2|0:0,0:0:0:0:
256,224,179464,1,0,3:2:0:0:
50,356,179618,6,0,P|95:369|145:297,1,139.079998302246,12|2,0:0|0:0,0:0:0:0:
256,224,180077,1,2,0:0:0:0:
209,161,180230,6,0,L|130:143,1,69.5399991511231,2|0,0:0|0:0,0:0:0:0:
299,297,180536,2,0,L|313:377,1,69.5399991511231,2|0,3:2|0:0,0:0:0:0:
453,186,180842,2,0,L|477:74,1,104.309998726685,8|0,0:0|0:0,0:0:0:0:
487,11,181148,2,0,P|449:9|416:42,1,69.5399991511231,2|0,3:2|0:0,0:0:0:0:
243,127,181454,6,0,L|128:147,1,104.309998726685,4|0,3:2|0:0,0:0:0:0:
121,150,181760,5,8,3:2:0:0:
349,1,182067,5,8,3:2:0:0:
421,293,182373,5,8,3:2:0:0:
349,1,182679,6,0,L|324:123,1,104.309998726685,4|0,3:2|0:0,0:0:0:0:
325,125,182985,1,0,3:2:0:0:
433,57,183138,1,0,0:0:0:0:
267,0,183291,5,8,0:0:0:0:
398,160,183444,1,8,0:0:0:0:
322,206,183597,5,8,3:0:0:0:
297,277,183750,1,8,3:0:0:0:
363,381,183903,5,4,3:2:0:0:
363,381,184515,1,0,0:0:0:0:
382,308,185127,5,2,0:0:0:0:
382,308,185740,1,0,0:0:0:0:
224,178,186352,5,2,3:2:0:0:
224,178,186964,1,0,0:0:0:0:
210,104,187576,5,2,0:0:0:0:
265,52,187882,1,0,0:0:0:0:
210,104,188188,2,0,P|256:95|302:172,1,136.64,2|0,0:0|0:0,0:0:0:0:
319,177,188801,6,0,L|308:259,1,78.08,2|0,3:2|0:2,0:2:0:0:
140,369,189413,1,2,0:0:0:0:
140,369,190025,6,0,L|126:274,1,78.08,2|0,0:0|0:0,0:0:0:0:
319,177,190637,1,0,0:0:0:0:
512,384,191250,6,0,B|448:369|479:346|399:332,1,117.12,2|0,3:2|0:0,0:0:0:0:
349,374,191862,1,0,0:0:0:0:
488,276,192168,6,0,L|494:228,1,39.04,2|0,0:0|0:0,0:0:0:0:
506,166,192474,1,0,3:2:0:0:
324,35,192780,5,2,0:0:0:0:
506,166,193086,1,8,0:3:0:0:
375,257,193393,1,8,3:0:0:0:
399,96,193699,6,0,L|420:9,2,78.08,2|0|0,3:2|0:2|0:2,0:2:0:0:
375,166,194617,1,2,0:0:0:0:
169,288,194923,6,0,L|190:375,2,78.08,2|0|0,0:2|0:2|0:2,0:2:0:0:
143,220,195841,1,2,0:0:0:0:
37,82,196148,6,0,P|63:113|106:114,1,78.08,2|0,3:2|0:0,0:0:0:0:
323,0,196760,2,0,L|292:7,1,19.52,2|0,0:0|0:0,0:0:0:0:
237,143,197066,6,0,B|321:154|278:184|361:198,1,136.64,4|0,3:2|0:0,0:0:0:0:
367,189,197678,6,0,L|373:210,1,13.0133333333333,0|8,3:0|3:0,0:0:0:0:
465,256,197984,5,8,0:0:0:0:
357,111,198137,1,8,0:0:0:0:
465,256,198291,6,0,L|452:323,1,58.56,0|0,3:0|0:0,0:0:0:0:
418,377,198597,6,0,P|384:363|398:294,1,102.479996872559,6|2,3:2|0:0,0:0:0:0:
207,67,199209,2,0,L|222:169,1,102.479996872559,10|2,0:0|0:0,0:0:0:0:
110,263,199668,1,2,0:0:0:0:
57,157,199821,6,0,L|113:177,1,51.2399984362793,0|0,3:2|0:0,0:0:0:0:
217,323,200127,1,0,0:0:0:0:
217,323,200433,6,0,L|125:342,1,76.859997654419,8|0,0:0|0:0,0:0:0:0:
119,345,200740,1,0,3:2:0:0:
351,106,201046,6,0,P|396:101|435:152,1,102.479996872559,6|2,3:2|0:0,0:0:0:0:
492,191,201505,1,0,0:0:0:0:
384,288,201658,2,0,L|374:349,2,51.2399984362793,2|0|2,3:2|0:0|0:0,0:0:0:0:
338,231,202117,1,0,0:0:0:0:
440,384,202270,5,0,3:2:0:0:
247,95,202576,1,8,0:0:0:0:
416,219,202882,5,0,3:2:0:0:
230,304,203035,1,8,0:0:0:0:
333,148,203188,5,8,3:0:0:0:
230,304,203342,1,8,3:0:0:0:
162,257,203510,6,0,L|151:208,1,40.6666666666667,6|2,3:2|0:0,0:0:0:0:
148,196,203714,1,2,0:0:0:0:
219,138,203822,6,0,L|228:92,2,40.6666666666667,2|2|2,0:0|0:0|0:0,0:0:0:0:
172,29,204098,5,2,0:0:0:0:
132,23,204203,1,2,0:0:0:0:
110,54,204308,1,2,0:0:0:0:
96,83,204388,2,0,L|51:96,1,40.6666666666667,2|2,0:0|0:0,0:0:0:0:
212,195,204616,5,2,0:0:0:0:
224,187,204726,2,0,L|273:200,1,40.6666666666667,2|2,0:0|0:0,0:0:0:0:
168,301,204926,5,2,0:0:0:0:
159,317,205030,6,0,L|71:331,1,81.3333333333333,2|0,3:2|0:0,0:0:0:0:
25,375,205300,5,10,0:0:0:0:
0,339,205400,1,2,0:0:0:0:
20,291,205500,1,2,0:0:0:0:
95,254,205604,5,2,0:0:0:0:
131,209,205721,1,2,0:0:0:0:
113,163,205839,1,2,0:0:0:0:
39,181,205948,5,6,3:2:0:0:
39,181,207172,5,8,0:0:0:0:
188,384,207325,2,0,P|155:344|176:296,1,91.5,8|0,0:0|0:0,0:0:0:0:
179,294,207631,1,0,3:2:0:0:
309,130,207784,5,10,0:0:0:0:
150,196,207937,2,0,L|214:211,1,61,2|0,3:2|0:0,0:0:0:0:
263,265,208243,1,0,0:0:0:0:
168,52,208396,6,0,P|141:80|147:128,1,75.6399969991456,4|0,3:1|0:0,0:0:0:0:
263,265,208703,2,0,L|389:236,1,113.459995498718,2|0,0:0|0:0,0:0:0:0:
448,259,209009,2,0,P|452:221|423:181,1,75.6399969991456,10|0,0:0|0:0,0:0:0:0:
221,119,209315,2,0,B|130:108|166:168|55:148,1,151.279993998291,2|0,0:0|0:0,0:0:0:0:
77,151,209927,6,0,P|76:191|94:239,1,75.6399969991456,0|0,3:2|0:0,0:0:0:0:
335,46,210233,2,0,P|307:98|308:173,1,113.459995498718,8|0,0:0|0:0,0:0:0:0:
312,170,210539,1,2,3:2:0:0:
448,259,210692,1,0,0:0:0:0:
501,205,210845,6,0,P|490:170|485:120,1,75.6399969991456,2|0,3:2|0:0,0:0:0:0:
348,244,211152,2,0,L|329:326,1,75.6399969991456,2|0,0:0|0:0,0:0:0:0:
376,384,211458,1,8,0:0:0:0:
376,384,211764,6,0,P|342:339|245:348,1,151.279993998291,2|0,0:0|0:0,0:0:0:0:
191,384,212223,1,0,0:0:0:0:
84,259,212376,2,0,L|104:142,1,113.459995498718,2|0,3:2|0:0,0:0:0:0:
148,86,212682,2,0,P|178:114|166:163,1,75.6399969991456,10|0,0:0|0:0,0:0:0:0:
7,293,212988,2,0,L|89:269,1,75.6399969991456,2|0,3:2|0:0,0:0:0:0:
376,384,213294,6,0,P|322:353|334:254,1,151.279993998291,6|0,3:2|0:0,0:0:0:0:
177,146,213754,1,2,0:0:0:0:
364,4,213907,2,0,L|379:87,1,75.6399969991456,8|0,0:0|0:0,0:0:0:0:
512,230,214213,2,0,B|429:218|475:172|377:163,1,151.279993998291,2|0,0:0|0:0,0:0:0:0:
381,163,214825,6,0,L|399:246,1,75.6399969991456,0|0,3:2|0:0,0:0:0:0:
177,146,215131,2,0,P|171:91|224:70,1,113.459995498718,8|0,0:0|0:0,0:0:0:0:
271,14,215437,2,0,P|291:47|282:99,1,75.6399969991456,2|0,3:2|0:0,0:0:0:0:
164,256,215743,6,0,B|108:240|108:240|93:205|93:205|28:187,1,151.279993998291,2|2,3:2|0:0,0:0:0:0:
217,68,216203,1,2,0:0:0:0:
86,0,216356,2,0,L|96:79,1,75.6399969991456,8|0,0:0|0:0,0:0:0:0:
274,173,216662,2,0,L|354:197,1,75.6399969991456,2|0,0:0|0:0,0:0:0:0:
160,360,216968,2,0,P|123:316|158:265,1,113.459995498718,2|0,0:0|0:0,0:0:0:0:
164,256,217274,6,0,L|179:181,1,75.6399969991456,0|0,3:2|0:0,0:0:0:0:
385,300,217580,2,0,P|327:294|292:340,1,113.459995498718,8|0,0:0|0:0,0:0:0:0:
289,350,217886,1,2,0:0:0:0:
427,215,218039,1,8,3:0:0:0:
512,260,218192,6,0,L|486:97,1,151.279993998291,6|0,3:2|0:0,0:0:0:0:
347,213,218652,1,0,0:0:0:0:
229,7,218805,2,0,L|212:129,1,113.459995498718,8|0,0:0|0:0,0:0:0:0:
211,142,219111,1,2,0:0:0:0:
345,46,219264,1,2,0:0:0:0:
396,98,219417,6,0,P|369:124|303:122,1,75.6399969991456,2|0,0:0|0:0,0:0:0:0:
202,32,219723,2,0,P|163:24|132:-12,1,75.6399969991456,0|0,3:2|0:0,0:0:0:0:
0,194,220029,1,8,0:0:0:0:
0,194,220335,2,0,L|96:174,1,75.6399969991456,0|0,3:2|0:0,0:0:0:0:
239,349,220641,6,0,B|248:292|202:308|221:237,1,113.459995498718,2|0,3:2|0:0,0:0:0:0:
225,222,220948,1,2,0:0:0:0:
327,372,221101,1,2,0:0:0:0:
87,355,221254,6,0,L|175:336,1,75.6399969991456,8|0,0:0|0:0,0:0:0:0:
305,248,221560,1,2,0:0:0:0:
378,276,221713,1,2,0:0:0:0:
239,147,221866,2,0,L|225:70,1,75.6399969991456,2|0,0:0|0:0,0:0:0:0:
262,6,222172,1,0,3:2:0:0:
262,6,222478,6,0,P|230:50|123:32,1,151.279993998291,8|2,0:0|3:2,0:0:0:0:
254,164,222937,1,2,0:2:0:0:
44,292,223090,6,0,P|99:277|161:350,1,151.279993998291,4|0,3:2|0:0,0:0:0:0:
305,248,223550,1,0,0:0:0:0:
253,189,223703,2,0,L|161:213,1,75.6399969991456,8|0,0:0|0:0,0:0:0:0:
323,339,224009,2,0,L|412:363,1,75.6399969991456,2|0,0:0|0:0,0:0:0:0:
512,160,224315,2,0,P|453:154|427:201,1,113.459995498718,2|0,0:0|0:0,0:0:0:0:
419,209,224621,2,0,L|432:296,1,75.6399969991456,2|0,3:2|0:0,0:0:0:0:
270,115,224927,2,0,L|252:193,1,75.6399969991456,8|0,0:0|0:0,0:0:0:0:
86,362,225233,1,0,3:2:0:0:
86,362,225539,6,0,P|131:323|125:227,1,151.279993998291,2|0,3:2|0:0,0:0:0:0:
72,183,225999,1,0,0:0:0:0:
221,18,226152,2,0,L|96:49,1,113.459995498718,8|0,0:0|0:0,0:0:0:0:
89,55,226458,1,10,0:0:0:0:
251,187,226611,2,0,L|340:207,2,75.6399969991456,2|0|0,3:2|0:0|0:0,0:0:0:0:
342,122,227070,5,2,3:2:0:0:
262,278,227223,1,0,3:2:0:0:
413,352,227376,5,8,0:0:0:0:
251,187,227529,1,8,0:0:0:0:
398,261,227682,1,2,3:2:0:0:
249,369,227835,1,2,3:2:0:0:
249,369,227912,1,2,3:2:0:0:
249,369,227988,6,0,P|200:364|160:309,1,113.459995498718,4|0,3:1|0:0,0:0:0:0:
148,304,228294,2,0,L|164:218,1,75.6399969991456,2|0,0:0|0:0,0:0:0:0:
318,94,228601,2,0,L|298:9,1,75.6399969991456,10|0,0:0|0:0,0:0:0:0:
493,222,228907,2,0,P|438:234|395:158,1,151.279993998291,2|0,0:0|0:0,0:0:0:0:
394,162,229519,6,0,L|484:141,1,75.6399969991456,0|0,3:2|0:0,0:0:0:0:
178,325,229825,2,0,B|111:309|143:299|71:285,1,113.459995498718,8|0,0:0|0:0,0:0:0:0:
27,224,230131,2,0,P|0:251|8:304,1,75.6399969991456,2|0,3:2|0:0,0:0:0:0:
184,88,230437,6,0,L|172:1,1,75.6399969991456,2|0,3:2|0:0,0:0:0:0:
274,90,230743,1,2,0:0:0:0:
124,185,230896,1,0,0:0:0:0:
181,242,231050,2,0,L|263:265,1,75.6399969991456,8|0,0:0|0:0,0:0:0:0:
184,88,231356,2,0,B|102:77|114:133|35:114,1,151.279993998291,2|0,0:0|0:0,0:0:0:0:
39,115,231968,6,0,L|61:31,1,75.6399969991456,2|0,3:2|0:0,0:0:0:0:
253,262,232274,2,0,L|265:361,1,75.6399969991456,10|0,0:0|0:0,0:0:0:0:
512,98,232580,2,0,P|461:87|422:134,1,113.459995498718,2|0,3:2|0:0,0:0:0:0:
411,145,232886,6,0,B|325:137|351:181|261:170,1,151.279993998291,4|0,3:2|0:0,0:0:0:0:
419,251,233345,1,0,0:0:0:0:
262,337,233499,2,0,P|301:344|339:366,1,75.6399969991456,8|0,0:0|0:0,0:0:0:0:
180,258,233805,1,2,0:0:0:0:
180,258,234111,6,0,P|146:282|87:285,1,75.6399969991456,2|0,0:0|0:0,0:0:0:0:
264,170,234417,2,0,L|280:93,1,75.6399969991456,0|0,3:2|0:0,0:0:0:0:
90,1,234723,2,0,P|77:56|125:96,1,113.459995498718,8|0,0:0|0:0,0:0:0:0:
123,99,235029,2,0,L|202:81,1,75.6399969991456,2|0,3:2|0:0,0:0:0:0:
421,217,235335,6,0,B|388:227|343:186|343:186|369:221|359:264,1,151.279993998291,2|2,3:2|0:0,0:0:0:0:
493,123,235794,1,2,0:0:0:0:
433,71,235948,2,0,P|409:101|416:148,1,75.6399969991456,8|0,0:0|0:0,0:0:0:0:
512,277,236254,2,0,L|499:191,1,75.6399969991456,2|0,0:0|0:0,0:0:0:0:
273,326,236560,2,0,P|324:316|395:378,1,151.279993998291,2|0,0:0|3:2,0:0:0:0:
394,376,237172,6,0,L|377:292,1,75.6399969991456,8|0,0:0|0:0,0:0:0:0:
213,129,237478,1,2,3:2:0:0:
342,209,237631,1,8,3:0:0:0:
166,321,237784,6,0,P|113:327|80:237,1,151.279993998291,4|0,3:2|0:0,0:0:0:0:
25,190,238243,1,0,0:0:0:0:
207,3,238396,2,0,P|230:49|220:118,1,113.459995498718,8|0,0:0|0:0,0:0:0:0:
213,129,238703,1,2,0:0:0:0:
98,0,238856,1,2,0:0:0:0:
55,59,239009,6,0,P|66:89|74:137,1,75.6399969991456,2|0,0:0|0:0,0:0:0:0:
184,248,239315,2,0,P|173:286|165:337,1,75.6399969991456,0|0,3:2|0:0,0:0:0:0:
336,181,239621,2,0,P|392:184|421:237,1,113.459995498718,8|0,0:0|0:0,0:0:0:0:
435,245,239927,1,2,3:2:0:0:
506,371,240080,5,2,0:0:0:0:
507,363,240157,1,2,0:0:0:0:
509,354,240233,6,0,L|420:372,1,75.6399969991456,2|0,3:2|0:0,0:0:0:0:
245,157,240539,2,0,P|258:194|263:244,1,75.6399969991456,2|0,0:0|0:0,0:0:0:0:
454,131,240845,2,0,P|488:98|459:34,1,113.459995498718,8|0,0:0|0:0,0:0:0:0:
453,29,241152,1,2,3:2:0:0:
314,95,241305,1,2,0:0:0:0:
440,221,241458,6,0,P|478:208|521:202,1,75.6399969991456,2|0,0:0|0:0,0:0:0:0:
320,360,241764,2,0,P|269:337|207:329,1,113.459995498718,0|0,3:2|0:0,0:0:0:0:
140,361,242070,6,0,P|187:377|240:302,1,151.279993998291,8|2,0:0|3:2,0:0:0:0:
101,151,242529,1,2,0:0:0:0:
226,31,242682,6,0,L|203:189,1,151.279993998291,4|0,3:2|0:0,0:0:0:0:
56,277,243141,1,0,0:0:0:0:
308,151,243294,6,0,B|350:75|496:107|458:204|393:130,1,226.919990997437,12|0,0:0|0:0,0:0:0:0:
226,31,243907,2,0,L|130:13,1,75.6399969991456,2|0,3:2|0:0,0:0:0:0:
31,165,244213,2,0,P|67:169|111:136,1,75.6399969991456,2|0,3:2|0:0,0:0:0:0:
287,295,244519,2,0,L|176:267,1,113.459995498718,10|0,0:0|0:0,0:0:0:0:
156,263,244825,1,2,0:0:0:0:
308,151,244978,1,10,0:0:0:0:
226,31,245131,6,0,P|194:73|196:170,1,151.279993998291,4|0,3:2|0:0,0:0:0:0:
361,316,245590,1,0,3:2:0:0:
494,218,245743,6,0,P|441:213|410:268,1,113.459995498718,2|0,0:0|0:0,0:0:0:0:
361,316,246050,2,0,L|264:333,1,75.6399969991456,2|0,3:2|0:0,0:0:0:0:
128,205,246356,2,0,P|160:248|236:250,1,113.459995498718,8|0,0:0|0:0,0:0:0:0:
276,209,246662,5,8,0:0:0:0:
140,373,246815,1,8,0:0:0:0:
195,168,246968,5,0,3:2:0:0:
286,329,247121,1,0,3:2:0:0:
225,283,247274,5,8,0:3:0:0:
257,218,247427,1,8,0:3:0:0:
118,94,247580,6,0,P|64:86|9:177,1,163.479992267029,4|0,3:1|0:0,0:0:0:0:
164,26,248039,1,0,0:0:0:0:
320,147,248192,2,0,B|394:173|394:173|456:139|415:85,1,163.479992267029,12|2,0:0|0:0,0:0:0:0:
257,218,248652,1,0,0:0:0:0:
381,383,248805,6,0,L|360:254,1,122.609994200272
404,197,249111,2,0,P|436:221|425:280,1,81.7399961335146,0|0,3:2|0:0,0:0:0:0:
271,363,249417,2,0,B|198:346|231:331|154:314,1,122.609994200272,8|0,0:0|0:0,0:0:0:0:
110,257,249723,2,0,P|79:292|93:340,1,81.7399961335146,2|0,3:2|0:0,0:0:0:0:
321,145,250029,6,0,L|305:56,1,81.7399961335146,2|0,3:2|0:0,0:0:0:0:
471,156,250335,1,2,0:0:0:0:
404,197,250488,1,2,0:0:0:0:
300,60,250641,5,8,0:0:0:0:
225,37,250794,1,2,0:0:0:0:
168,91,250948,2,0,P|164:156|194:217,1,122.609994200272,2|0,0:0|0:0,0:0:0:0:
200,220,251254,2,0,L|292:240,1,81.7399961335146,2|0,0:0|0:0,0:0:0:0:
145,383,251560,6,0,P|135:347|167:308,1,81.7399961335146,2|0,3:2|0:0,0:0:0:0:
290,241,251866,2,0,B|360:227|324:212|415:194,1,122.609994200272,8|0,0:0|0:0,0:0:0:0:
464,146,252172,2,0,P|490:184|469:228,1,81.7399961335146,2|0,3:2|0:0,0:0:0:0:
272,318,252478,6,0,L|299:137,1,163.479992267029,4|0,3:2|0:0,0:0:0:0:
196,49,252937,1,2,0:0:0:0:
294,2,253090,6,0,P|265:29|207:32,1,81.7399961335146,8|0,0:0|0:0,0:0:0:0:
58,183,253396,2,0,B|98:186|139:146|139:146|108:179|117:228,1,163.479992267029,2|0,0:0|0:0,0:0:0:0:
115,211,254009,6,0,P|146:240|193:239,1,81.7399961335146,0|0,3:2|0:0,0:0:0:0:
344,354,254315,2,0,P|404:356|432:296,1,122.609994200272,8|0,0:0|0:0,0:0:0:0:
445,293,254621,2,0,L|429:205,1,81.7399961335146,2|0,3:2|0:0,0:0:0:0:
269,25,254927,5,2,3:2:0:0:
214,78,255080,1,2,0:0:0:0:
245,147,255233,1,2,0:0:0:0:
362,269,255386,5,2,0:0:0:0:
208,384,255539,2,0,P|184:351|196:303,1,81.7399961335146,10|0,0:0|0:0,0:0:0:0:
402,169,255845,2,0,L|489:196,1,81.7399961335146,2|0,0:0|0:0,0:0:0:0:
269,25,256152,1,2,0:0:0:0:
269,25,256458,6,0,L|285:115,1,81.7399961335146,0|0,3:2|0:0,0:0:0:0:
155,225,256764,2,0,P|188:285|278:287,1,163.479992267029,8|2,0:0|3:2,0:0:0:0:
120,124,257223,1,8,3:0:0:0:
275,288,257376,6,0,B|182:271|208:338|96:312,1,163.479992267029,4|0,3:2|0:0,0:0:0:0:
240,192,257835,1,0,0:0:0:0:
34,89,257988,2,0,L|49:175,1,81.7399961335146,8|0,0:0|0:0,0:0:0:0:
183,27,258294,1,2,0:0:0:0:
112,1,258448,1,2,0:0:0:0:
240,192,258601,2,0,P|298:192|344:138,1,122.609994200272,2|0,0:0|0:0,0:0:0:0:
347,133,258907,2,0,P|343:93|334:44,1,81.7399961335146,0|0,3:2|0:0,0:0:0:0:
512,189,259213,2,0,P|502:231|498:277,1,81.7399961335146,8|0,0:0|0:0,0:0:0:0:
373,384,259519,1,2,3:2:0:0:
442,360,259672,1,2,0:0:0:0:
279,262,259825,6,0,B|206:247|242:224|161:213,1,122.609994200272,2|0,3:2|0:2,0:2:0:0:
115,158,260131,2,0,P|87:191|99:238,1,81.7399961335146,2|0,0:0|0:0,0:0:0:0:
264,98,260437,2,0,B|352:88|309:38|419:18,1,163.479992267029,10|2,0:0|0:0,0:0:0:0:
512,132,260896,1,2,0:0:0:0:
454,181,261050,2,0,P|412:176|366:149,1,81.7399961335146,2|0,0:0|0:0,0:0:0:0:
235,19,261356,2,0,P|190:12|127:68,1,122.609994200272,0|0,3:2|0:0,0:0:0:0:
125,70,261662,2,0,L|141:155,1,81.7399961335146,8|0,0:0|0:0,0:0:0:0:
0,316,261968,2,0,P|-9:271|66:225,1,122.609994200272,2|0,3:2|0:0,0:0:0:0:
57,213,262274,6,0,B|142:202|116:273|227:262,1,163.479992267029,4|0,3:2|0:0,0:0:0:0:
344,369,262733,1,0,0:0:0:0:
398,315,262886,2,0,P|389:277|382:224,1,81.7399961335146,8|0,0:0|0:0,0:0:0:0:
258,337,263192,2,0,L|173:361,1,81.7399961335146,2|0,0:0|0:0,0:0:0:0:
393,225,263499,6,0,P|426:177|397:103,1,122.609994200272,2|0,0:0|0:0,0:0:0:0:
407,102,263805,2,0,L|313:76,1,81.7399961335146,0|0,3:2|0:0,0:0:0:0:
168,13,264111,1,10,0:0:0:0:
245,0,264264,1,0,0:0:0:0:
128,152,264417,2,0,P|103:120|125:65,1,81.7399961335146,2|0,3:2|0:0,0:0:0:0:
308,204,264723,6,0,L|292:331,1,122.609994200272,4|0,3:2|0:0,0:0:0:0:
290,345,265029,5,8,3:2:0:0:
512,124,265335,5,8,3:2:0:0:
168,13,265641,5,8,3:2:0:0:
402,230,265948,6,0,P|388:187|381:132,1,81.7399961335146,4|0,3:2|0:0,0:0:0:0:
167,320,266254,2,0,P|185:278|192:193,1,122.609994200272,2|0,0:0|0:0,0:0:0:0:
182,187,266560,6,0,L|130:173,2,54.4933307556764,10|8|8,0:0|3:0|3:0,0:0:0:0:
244,141,266866,2,0,P|254:117|252:84,1,54.4933307556764,8|8,3:0|3:0,0:0:0:0:
205,32,267070,1,8,3:0:0:0:
244,141,267172,6,0,B|321:132|278:105|382:95,1,126.879999225586,4|2,3:2|0:0,0:0:0:0:
484,180,267631,1,0,0:0:0:0:
441,244,267784,2,0,L|370:223,1,63.439999612793,8|0,0:0|0:0,0:0:0:0:
452,38,268090,2,0,P|470:64|468:101,1,63.439999612793,2|0,0:0|0:0,0:0:0:0:
306,238,268396,6,0,L|181:268,1,126.879999225586,2|2,3:2|3:2,0:0:0:0:
65,378,268856,1,2,0:0:0:0:
22,312,269009,2,0,L|39:238,1,63.439999612793,8|0,0:0|0:0,0:0:0:0:
190,355,269315,2,0,L|174:276,1,63.439999612793,2|0,0:0|0:0,0:0:0:0:
259,150,269621,6,0,P|312:178|290:250,1,126.879999225586,2|2,3:2|0:0,0:0:0:0:
305,237,270233,2,0,L|317:314,1,63.439999612793,10|0,0:0|0:0,0:0:0:0:
158,107,270539,2,0,L|141:186,1,63.439999612793,2|0,0:0|0:0,0:0:0:0:
299,52,270845,2,0,B|352:41|326:32|405:17,1,95.1599994191894,2|0,3:2|0:0,0:0:0:0:
402,24,271152,2,0,P|421:52|413:100,1,63.439999612793,0|0,3:2|0:0,0:0:0:0:
512,212,271458,2,0,B|459:201|485:192|406:177,1,95.1599994191894,8|0,0:2|0:0,0:0:0:0:
409,184,271765,2,0,P|390:212|398:260,1,63.439999612793,0|0,3:2|0:0,0:0:0:0:
272,364,272070,6,0,P|316:327|392:341,1,126.879999225586,4|2,3:2|0:0,0:0:0:0:
442,383,272529,1,0,0:0:0:0:
305,237,272682,2,0,L|224:216,1,63.439999612793,10|0,0:0|0:0,0:0:0:0:
67,335,272988,1,2,0:0:0:0:
126,383,273141,2,0,P|156:331|146:259,1,126.879999225586,2|0,0:0|0:0,0:0:0:0:
21,165,273601,2,0,P|6:197|7:233,1,63.439999612793,2|0,3:2|0:0,0:0:0:0:
191,99,273907,2,0,B|139:86|165:76|91:58,1,95.1599994191894,8|0,0:0|0:0,0:0:0:0:
68,42,274213,2,0,L|141:23,1,63.439999612793,2|0,0:0|0:0,0:0:0:0:
339,205,274519,6,0,P|279:211|249:157,1,126.879999225586,2|0,3:2|0:0,0:0:0:0:
404,44,274978,1,0,3:2:0:0:
340,0,275131,2,0,L|322:82,1,63.439999612793,10|0,0:0|0:0,0:0:0:0:
461,175,275437,1,2,0:0:0:0:
510,117,275590,2,0,L|495:48,1,63.439999612793,2|0,0:0|0:0,0:0:0:0:
255,213,276050,6,0,L|233:318,1,95.1599994191894,2|0,3:2|0:0,0:0:0:0:
246,321,276356,2,0,L|319:302,1,63.439999612793,10|0,0:0|0:0,0:0:0:0:
171,172,276662,2,0,L|93:154,1,63.439999612793,0|0,3:2|0:0,0:0:0:0:
315,0,276968,6,0,P|363:29|354:102,1,126.879999225586,4|2,3:2|0:0,0:0:0:0:
303,147,277427,1,0,0:0:0:0:
160,12,277580,2,0,L|170:92,1,63.439999612793,8|0,0:0|0:0,0:0:0:0:
39,187,277886,1,2,0:0:0:0:
109,157,278039,1,2,0:0:0:0:
238,311,278192,2,0,P|192:314|164:267,1,95.1599994191894,0|0,3:2|0:0,0:0:0:0:
163,267,278499,2,0,L|177:198,1,63.439999612793,2|0,3:2|0:0,0:0:0:0:
360,93,278805,2,0,L|434:74,1,63.439999612793,10|0,0:0|0:0,0:0:0:0:
512,209,279111,2,0,P|467:211|438:172,1,95.1599994191894,2|0,0:0|0:0,0:0:0:0:
430,165,279417,6,0,L|413:241,1,63.439999612793,2|0,3:2|0:0,0:0:0:0:
290,59,279723,1,2,0:0:0:0:
360,93,279876,1,0,3:2:0:0:
175,204,280029,2,0,P|161:160|175:96,1,95.1599994191894,8|0,0:0|0:0,0:0:0:0:
179,103,280335,2,0,L|247:121,1,63.439999612793,2|0,0:0|0:0,0:0:0:0:
299,180,280641,1,0,3:2:0:0:
299,180,280948,6,0,L|277:313,1,126.879999225586,12|8,0:0|0:0,0:0:0:0:
167,112,281407,1,8,3:0:0:0:
315,209,281560,1,8,3:0:0:0:
162,310,281713,1,0,3:2:0:0:
234,234,281866,6,0,P|279:228|386:325,1,190.319998838379,4|0,3:2|0:0,0:0:0:0:
439,366,282478,1,2,0:0:0:0:
439,366,283090,1,0,0:0:0:0:
439,366,283703,1,0,0:0:0:0:
439,366,284315,6,0,L|455:258,1,95.1599994191894,4|0,3:2|0:0,0:0:0:0:
499,213,284621,2,0,L|487:134,1,63.439999612793,8|0,0:0|0:0,0:0:0:0:
312,32,284927,2,0,P|345:67|401:54,1,95.1599994191894,8|0,0:0|0:0,0:0:0:0:
447,17,285233,2,0,L|514:3,1,63.439999612793,0|0,3:2|0:0,0:0:0:0:
357,159,285539,5,12,0:0:0:0:
312,32,285692,1,8,3:0:0:0:
396,80,285845,1,0,3:2:0:0:
253,166,285999,1,0,3:2:0:0:
421,212,286152,5,8,0:0:0:0:
245,83,286305,1,0,3:2:0:0:
139,190,286458,5,8,3:0:0:0:
245,83,286611,1,8,3:0:0:0:
421,212,286764,6,0,B|349:200|385:170|299:159,1,126.879999225586,4|0,3:2|0:0,0:0:0:0:
91,34,287223,1,0,0:0:0:0:
155,0,287376,2,0,P|176:50|175:137,1,126.879999225586,8|2,0:0|0:0,0:0:0:0:
20,246,287835,1,2,0:0:0:0:
78,294,287988,2,0,P|110:308|157:312,1,63.439999612793,0|0,3:2|0:0,0:0:0:0:
83,174,288294,2,0,L|66:107,1,63.439999612793,0|0,3:2|0:0,0:0:0:0:
268,222,288601,2,0,L|245:351,1,126.879999225586,8|2,0:0|0:0,0:0:0:0:
439,189,289060,1,2,0:0:0:0:
332,123,289213,6,0,L|348:204,1,63.439999612793,2|0,3:2|0:0,0:0:0:0:
487,284,289519,2,0,L|503:356,1,63.439999612793,2|0,0:0|0:0,0:0:0:0:
268,222,289825,6,0,L|334:207,1,63.439999612793,10|0,0:0|0:0,0:0:0:0:
450,61,290131,2,0,L|517:42,1,63.439999612793,2|0,0:0|0:0,0:0:0:0:
415,152,290437,6,0,P|367:151|325:110,1,95.1599994191894,0|0,3:2|0:0,0:0:0:0:
325,108,290743,2,0,L|339:32,1,63.439999612793,0|0,3:2|0:0,0:0:0:0:
137,168,291050,2,0,L|160:299,1,126.879999225586,8|2,0:0|3:2,0:0:0:0:
30,153,291509,1,2,0:0:0:0:
226,326,291662,6,0,P|173:314|119:369,1,126.879999225586,4|0,3:2|0:0,0:0:0:0:
279,239,292121,1,0,0:0:0:0:
406,309,292274,2,0,P|414:244|434:168,1,126.879999225586,8|2,0:0|0:0,0:0:0:0:
279,239,292733,1,2,0:0:0:0:
225,168,292886,6,0,P|256:160|301:143,1,63.439999612793,2|0,3:2|0:0,0:0:0:0:
385,328,293192,2,0,P|353:315|314:308,1,63.439999612793,0|0,3:2|0:0,0:0:0:0:
446,168,293499,2,0,P|495:190|484:266,1,126.879999225586,8|2,0:0|0:0,0:0:0:0:
369,108,293958,1,2,0:0:0:0:
484,31,294111,6,0,P|453:44|408:51,1,63.439999612793,2|0,3:2|0:0,0:0:0:0:
285,149,294417,2,0,P|251:144|211:119,1,63.439999612793,2|0,0:0|3:2,0:0:0:0:
77,7,294723,2,0,P|100:38|102:102,1,95.1599994191894,8|0,0:0|0:0,0:0:0:0:
96,111,295029,2,0,L|29:132,1,63.439999612793,0|0,3:2|0:0,0:0:0:0:
262,269,295335,6,0,P|306:237|287:168,1,126.879999225586,4|0,3:2|0:0,0:0:0:0:
192,49,295794,1,0,3:2:0:0:
326,81,295948,5,8,0:0:0:0:
155,190,296101,1,8,0:0:0:0:
292,172,296254,5,8,3:0:0:0:
396,247,296407,1,8,3:0:0:0:
281,382,296560,6,0,P|254:343|275:252,1,126.879999225586,4|0,3:2|0:0,0:0:0:0:
442,149,297019,1,2,0:0:0:0:
499,204,297172,2,0,P|469:243|382:238,1,126.879999225586,8|2,0:0|0:0,0:0:0:0:
253,106,297631,1,2,0:0:0:0:
369,19,297784,6,0,P|358:51|354:97,1,63.439999612793,0|0,3:2|0:0,0:0:0:0:
155,190,298090,2,0,P|167:162|173:116,1,63.439999612793,0|0,3:2|0:0,0:0:0:0:
395,246,298396,6,0,P|346:235|296:292,1,126.879999225586,8|2,0:0|0:0,0:0:0:0:
90,138,298856,1,2,0:0:0:0:
164,52,299009,6,0,P|181:83|174:122,1,63.439999612793,0|0,3:2|0:0,0:0:0:0:
79,239,299315,1,0,0:0:0:0:
5,217,299468,1,0,3:2:0:0:
135,369,299621,2,0,P|151:341|144:296,1,63.439999612793,8|0,0:0|0:0,0:0:0:0:
311,112,299927,2,0,L|332:214,1,95.1599994191894,2|0,3:2|0:2,0:2:0:0:
395,246,300233,6,0,P|346:235|296:292,1,126.879999225586,4|2,3:2|0:0,0:0:0:0:
227,338,300641,1,8,0:0:0:0:
181,347,300743,1,8,0:0:0:0:
150,310,300845,2,0,L|164:260,1,42.2933330751953,8|8,0:0|0:0,0:0:0:0:
130,197,301050,1,8,3:0:0:0:
124,182,301152,2,0,L|141:130,1,42.2933330751953,8|8,3:0|3:0,0:0:0:0:
108,71,301356,1,0,3:2:0:0:
98,62,301458,6,0,P|43:90|51:157,1,126.879999225586,4|0,3:2|3:2,0:0:0:0:
161,269,301917,1,0,0:0:0:0:
16,346,302070,6,0,P|41:330|86:328,1,63.439999612793,12|0,0:0|0:0,0:0:0:0:
252,224,302376,2,0,P|301:231|338:279,1,95.1599994191894,2|0,0:0|0:0,0:0:0:0:
340,277,302682,6,0,L|326:348,1,63.439999612793,0|0,3:2|0:0,0:0:0:0:
180,151,302988,2,0,L|193:83,1,63.439999612793,0|0,3:2|0:0,0:0:0:0:
398,64,303294,5,8,0:0:0:0:
252,224,303448,1,8,0:0:0:0:
300,82,303601,1,8,3:0:0:0:
434,162,303754,1,8,3:0:0:0:
339,276,303907,6,0,B|300:317|365:359|428:317|418:206|331:249|351:149,1,253.759998451172,4|0,3:2|0:0,0:0:0:0:
399,94,304825,2,0,L|390:35,2,53.6800016381836,2|0|0,0:0|0:0|0:0,0:0:0:0:
466,129,305743,1,2,0:0:0:0:
198,310,306356,6,0,L|136:294,1,53.6800016381836,2|0,0:0|0:0,0:0:0:0:
74,323,306968,1,0,0:0:0:0:
186,189,307274,6,0,B|95:177|124:243|23:224,1,161.040004914551,2|0,0:0|0:0,0:0:0:0:
186,189,308499,6,0,L|191:225,1,26.8400008190918
329,305,308805,2,0,L|343:243,1,53.6800016381836,2|0,0:0|0:0,0:0:0:0:
244,348,309417,1,2,0:0:0:0:
433,279,309723,6,0,L|408:109,1,161.040004914551,2|2,0:0|0:0,0:0:0:0:
463,60,310794,2,0,P|484:79|487:108,1,53.6800016381836,2|0,0:0|0:0,0:0:0:0:
395,199,311254,6,0,L|335:178,2,53.6800016381836,2|0|0,0:0|0:0|0:0,0:0:0:0:
443,260,312172,1,2,0:0:0:0:
208,16,312784,5,2,0:0:0:0:
145,58,313090,2,0,L|129:119,1,53.6800016381836,2|0,0:0|0:0,0:0:0:0:
225,200,313703,1,0,0:0:0:0:
35,366,314927,5,2,0:0:0:0:
80,274,315233,5,2,0:0:0:0:
251,196,315539,5,2,0:0:0:0:
432,325,315845,5,2,0:0:0:0:
366,380,316152,6,0,P|359:348|359:315,2,53.6800016381836,2|0|0,0:0|0:0|0:0,0:0:0:0:
251,196,317070,6,0,P|265:146|273:89,1,107.360003276367,2|0,0:0|0:0,0:0:0:0:
327,36,317988,1,0,0:0:0:0:
472,157,318294,6,0,L|437:166,1,26.8400008190918,2|0,0:0|0:0,0:0:0:0:
286,280,318601,2,0,L|224:265,2,53.6800016381836,2|0|0,0:0|0:0|0:0,0:0:0:0:
157,148,319519,2,0,P|133:117|162:57,1,107.360003276367,2|0,0:0|0:0,0:0:0:0:
157,59,320437,5,2,0:0:0:0:
46,141,320590,2,0,L|33:199,1,53.6800016381836,2|0,0:0|0:0,0:0:0:0:
82,252,321050,1,0,0:0:0:0:
0,338,321356,1,0,0:0:0:0:
156,204,321662,5,2,0:0:0:0:
262,340,321968,2,0,P|303:348|336:281,1,120.780003685913,2|0,0:0|0:0,0:0:0:0:
461,147,322886,6,0,L|455:98,2,40.2600012286377,2|2|2,0:0|0:0|0:0,0:0:0:0:
512,200,323499,1,2,0:0:0:0:
