osu file format v14

[General]
AudioFilename: Hanatan - Uta ni Katachi wa Nai Keredo.mp3
AudioLeadIn: 1500
PreviewTime: 207172
Countdown: 0
SampleSet: Soft
StackLeniency: 0.7
Mode: 0
LetterboxInBreaks: 0
WidescreenStoryboard: 0

[Editor]
DistanceSpacing: 1.2
BeatDivisor: 6
GridSize: 32
TimelineZoom: 2.999998

[Metadata]
Title:Uta ni Katachi wa Nai keredo
TitleUnicode:歌に形はないけれど
Artist:Hanatan
ArtistUnicode:花たん
Creator:Asahina Momoko
Version:Recollection
Source:
Tags:doriko きりたんP KiritanP Vocaloid Hatsune Miku utaite Flower ユリカ YURiCa Yurika mokori m_o_k_o_r_i
BeatmapID:870855
BeatmapSetID:400208

[Difficulty]
HPDrainRate:6
CircleSize:4
OverallDifficulty:7.5
ApproachRate:8.3
SliderMultiplier:2.2
SliderTickRate:1

[Events]
//Background and Video events
0,0,"hanatan_bg.jpg",0,0
//Break Periods
2,188807,191868
//Storyboard Layer 0 (Background)
//Storyboard Layer 1 (Fail)
//Storyboard Layer 2 (Pass)
//Storyboard Layer 3 (Foreground)
//Storyboard Sound Samples

[TimingPoints]
236,612.244897959184,4,2,1,70,1,0
1766,-166.666666666667,4,2,28,50,0,0
2072,-166.666666666667,4,2,35,50,0,0
2378,-166.666666666667,4,2,34,50,0,0
2684,-125,4,2,34,40,0,0
2991,-125,4,2,21,40,0,0
3297,-125,4,2,24,50,0,0
3603,-125,4,2,25,50,0,0
4521,-125,4,2,26,50,0,0
5133,-125,4,2,14,50,0,0
5440,-125,4,2,18,50,0,0
5746,-125,4,2,21,50,0,0
6052,-125,4,2,22,50,0,0
6664,-125,4,2,23,50,0,0
6970,-125,4,2,30,50,0,0
7582,-125,4,2,31,50,0,0
7889,-125,4,2,19,50,0,0
8195,-125,4,2,22,60,0,0
8501,-125,4,2,23,70,0,0
8807,-125,4,2,24,80,0,0
9113,-125,4,2,38,90,0,0
9419,-125,4,2,37,80,0,0
9725,-125,4,2,36,80,0,0
10031,-100,4,2,35,80,0,0
10338,-100,4,2,35,30,0,0
10491,-100,4,2,16,60,0,0
10644,-100,4,2,18,60,0,0
10950,-100,4,2,21,60,0,0
11256,-100,4,2,1,60,0,0
11409,-83.3333333333333,4,2,1,60,0,0
11868,-83.3333333333333,4,2,28,60,0,0
12480,-100,4,2,29,80,0,0
12787,-100,4,2,26,80,0,0
13093,-100,4,2,33,80,0,0
13399,-100,4,2,32,80,0,0
14011,-100,4,2,18,80,0,0
14317,-100,4,2,21,80,0,0
14623,-100,4,2,32,80,0,0
14776,-100,4,2,31,80,0,0
14929,-100,4,2,30,80,0,0
15542,-100,4,2,32,80,0,0
15848,-100,4,2,31,80,0,0
16460,-100,4,2,26,80,0,0
16766,-100,4,2,31,90,0,0
16919,-100,4,2,30,90,0,0
17378,-100,4,2,29,80,0,0
17684,-100,4,2,26,80,0,0
17991,-100,4,2,33,80,0,0
18297,-100,4,2,32,80,0,0
18909,-100,4,2,28,80,0,0
19215,-100,4,2,35,80,0,0
19521,-100,4,2,34,80,0,0
19827,-100,4,2,33,80,0,0
20440,-100,4,2,19,80,0,0
20746,-100,4,2,22,80,0,0
21052,-100,4,2,38,90,0,0
21358,-100,4,2,37,90,0,0
21664,-100,4,2,36,90,0,0
21970,-100,4,2,35,90,0,0
22276,-100,4,2,29,80,0,0
22582,-100,4,2,26,80,0,0
22889,-100,4,2,33,80,0,0
23195,-100,4,2,32,80,0,0
23807,-100,4,2,18,80,0,0
24113,-100,4,2,21,80,0,0
24419,-100,4,2,32,80,0,0
24572,-100,4,2,31,80,0,0
24725,-100,4,2,30,80,0,0
25031,-100,4,2,26,80,0,0
25338,-100,4,2,32,80,0,0
25644,-100,4,2,31,80,0,0
26562,-100,4,2,31,80,0,0
26715,-100,4,2,30,80,0,0
27174,-100,4,2,29,80,0,0
27480,-100,4,2,26,80,0,0
27787,-100,4,2,33,80,0,0
28093,-100,4,2,32,80,0,0
28705,-100,4,2,21,80,0,0
29011,-100,4,2,32,80,0,0
29215,-100,4,2,31,80,0,0
29419,-100,4,2,30,80,0,0
29623,-125,4,2,31,70,0,0
29929,-125,4,2,14,70,0,0
30236,-125,4,2,17,70,0,0
30542,-125,4,2,25,70,0,0
31154,-125,4,2,26,80,0,0
31460,-125,4,2,25,80,0,0
31766,-125,4,2,24,80,0,0
32072,-125,4,2,28,90,0,0
32378,-125,4,2,32,90,0,0
32684,-125,4,2,30,90,0,0
32991,-125,4,2,31,80,0,0
33909,-125,4,2,25,60,0,0
34521,-166.666666666667,4,2,26,70,0,0
35440,-166.666666666667,4,2,1,70,0,0
36970,-166.666666666667,4,2,25,70,0,0
39419,-166.666666666667,4,2,24,70,0,0
41868,-166.666666666667,4,2,23,70,0,0
44317,-166.666666666667,4,2,24,70,0,0
45542,-166.666666666667,4,2,23,70,0,0
47991,-166.666666666667,4,2,24,70,0,0
49215,-166.666666666667,4,2,22,70,0,0
51664,-166.666666666667,4,2,24,70,0,0
52889,-166.666666666667,4,2,23,70,0,0
53501,-125,4,2,1,70,0,0
53960,-125,4,2,1,10,0,0
54113,-125,4,2,26,70,0,0
54725,-125,4,2,25,70,0,0
56256,-125,4,2,21,70,0,0
56562,-125,4,2,23,70,0,0
57174,-125,4,2,25,70,0,0
58399,-90.9090909090909,4,2,23,90,0,0
58705,-90.9090909090909,4,2,11,60,0,0
59011,-90.9090909090909,4,2,24,80,0,0
59623,-125,4,2,25,70,0,0
61154,-125,4,2,19,70,0,0
61460,-125,4,2,23,70,0,0
62072,-125,4,2,25,70,0,0
62991,-90.9090909090909,4,2,1,60,0,0
63297,-90.9090909090909,4,2,1,40,0,0
63909,-125,4,2,24,70,0,0
64521,-125,4,2,25,70,0,0
65133,-125,4,2,23,60,0,0
66358,-90.9090909090909,4,2,25,90,0,0
66970,-111.111111111111,4,2,23,75,0,0
67582,-166.666666666667,4,2,24,60,0,0
68195,-166.666666666667,4,2,25,60,0,0
68807,-125,4,2,22,60,0,0
70031,-125,4,2,21,60,0,0
70644,-125,4,2,25,60,0,0
71256,-125,4,2,12,60,0,0
71562,-125,4,2,14,60,0,0
71868,-90.9090909090909,4,2,17,70,0,0
72174,-90.9090909090909,4,2,18,75,0,0
72480,-90.9090909090909,4,2,19,80,0,0
72787,-90.9090909090909,4,2,21,85,0,0
73093,-142.857142857143,4,2,24,90,0,0
73131,-142.857142857143,4,2,0,90,0,0
73169,-142.857142857143,4,2,0,25,0,0
73207,-142.857142857143,4,2,0,30,0,0
73246,-142.857142857143,4,2,0,35,0,0
73284,-142.857142857143,4,2,0,40,0,0
73322,-142.857142857143,4,2,0,45,0,0
73361,-142.857142857143,4,2,0,50,0,0
73399,-142.857142857143,4,2,26,95,0,0
73437,-142.857142857143,4,2,0,60,0,0
73475,-142.857142857143,4,2,0,70,0,0
73514,-142.857142857143,4,2,0,80,0,0
73552,-142.857142857143,4,2,0,90,0,0
73705,-100,4,2,13,80,0,0
74011,-100,4,2,24,80,0,0
74317,-100,4,2,27,80,0,0
74623,-100,4,2,20,80,0,0
74929,-100,4,2,21,80,0,0
75236,-100,4,2,21,80,0,0
75542,-100,4,2,23,80,0,0
75848,-100,4,2,20,80,0,0
76154,-100,4,2,19,80,0,0
76460,-100,4,2,23,80,0,0
76766,-100,4,2,26,80,0,0
77072,-100,4,2,16,80,0,0
77378,-100,4,2,24,80,0,0
77684,-100,4,2,23,80,0,0
77991,-100,4,2,22,80,0,0
78297,-100,4,2,17,80,0,0
78603,-100,4,2,13,80,0,0
78909,-100,4,2,17,80,0,0
79215,-100,4,2,22,80,0,0
79521,-100,4,2,20,80,0,0
79674,-100,4,2,21,80,0,0
79827,-100,4,2,23,80,0,0
80133,-100,4,2,25,80,0,0
80440,-100,4,2,24,80,0,0
80746,-100,4,2,25,80,0,0
81052,-100,4,2,22,80,0,0
81358,-100,4,2,19,80,0,0
81664,-100,4,2,22,80,0,0
81970,-100,4,2,26,80,0,0
82276,-100,4,2,31,80,0,0
82582,-100,4,2,30,80,0,0
82889,-100,4,2,29,80,0,0
83195,-100,4,2,24,80,0,0
83501,-100,4,2,22,80,0,0
83807,-100,4,2,17,80,0,0
84113,-100,4,2,20,80,0,0
84419,-100,4,2,22,80,0,0
84725,-100,4,2,21,80,0,0
85031,-100,4,2,21,80,0,0
85338,-100,4,2,23,80,0,0
85644,-100,4,2,20,80,0,0
85950,-100,4,2,19,80,0,0
86256,-100,4,2,21,80,0,0
86562,-100,4,2,23,80,0,0
86868,-100,4,2,26,80,0,0
87021,-100,4,2,30,80,0,0
87174,-100,4,2,31,80,0,0
87327,-100,4,2,26,80,0,0
87480,-100,4,2,30,80,0,0
87787,-100,4,2,26,80,0,0
88093,-100,4,2,25,80,0,0
88399,-100,4,2,22,80,0,0
88705,-100,4,2,15,80,0,0
89011,-100,4,2,18,80,0,0
89317,-100,4,2,20,80,0,0
89623,-100,4,2,22,80,0,0
89929,-100,4,2,20,80,0,0
90236,-100,4,2,24,80,0,0
90542,-100,4,2,27,80,0,0
90848,-100,4,2,15,80,0,0
91154,-100,4,2,18,80,0,0
91460,-100,4,2,22,80,0,0
91766,-100,4,2,24,80,0,0
92072,-100,4,2,23,80,0,0
92378,-100,4,2,18,80,0,0
92684,-100,4,2,21,80,0,0
92991,-100,4,2,23,80,0,0
93297,582.52427184466,4,2,21,60,1,0
93394,-100,4,2,22,60,0,0
93491,-100,4,2,23,60,0,0
93588,-83.3333333333333,4,2,22,70,0,0
93685,-83.3333333333333,4,2,23,70,0,0
93782,-83.3333333333333,4,2,24,70,0,0
93879,-71.4285714285714,4,2,23,80,0,0
93976,-71.4285714285714,4,2,24,80,0,0
94073,-71.4285714285714,4,2,25,80,0,0
94170,-55.5555555555556,4,2,23,90,0,0
94267,-62.5,4,2,24,90,0,0
94364,-62.5,4,2,25,90,0,0
94474,800,4,2,28,100,1,0
94474,-62.5,4,2,28,100,0,0
94674,612.244897959184,4,2,1,80,1,0
95133,-100,4,2,25,80,0,0
95745,612.244897959184,4,2,83,85,1,1
95745,-83.3333333333333,4,2,83,85,0,1
96051,-83.3333333333333,4,2,14,85,0,1
96357,-83.3333333333333,4,2,17,85,0,1
96663,-83.3333333333333,4,2,18,85,0,1
96816,-83.3333333333333,4,2,19,85,0,1
96969,-83.3333333333333,4,2,21,85,0,1
97275,-83.3333333333333,4,2,24,85,0,1
97581,-83.3333333333333,4,2,26,85,0,1
97887,-83.3333333333333,4,2,28,85,0,1
98193,-83.3333333333333,4,2,21,85,0,1
98500,-83.3333333333333,4,2,25,85,0,1
99112,-83.3333333333333,4,2,28,85,0,1
99418,-83.3333333333333,4,2,23,85,0,1
99571,-83.3333333333333,4,2,25,85,0,1
99724,-83.3333333333333,4,2,28,85,0,1
100030,-83.3333333333333,4,2,26,85,0,1
100336,-83.3333333333333,4,2,30,85,0,1
100642,-83.3333333333333,4,2,31,75,0,1
100949,-83.3333333333333,4,2,19,60,0,1
101255,-83.3333333333333,4,2,22,70,0,1
101561,-83.3333333333333,4,2,23,80,0,1
101867,-83.3333333333333,4,2,24,90,0,1
102173,-83.3333333333333,4,2,31,100,0,1
102479,-83.3333333333333,4,2,30,100,0,1
102785,-83.3333333333333,4,2,29,100,0,1
103091,-83.3333333333333,4,2,28,95,0,1
103398,-83.3333333333333,4,2,19,85,0,1
103551,-83.3333333333333,4,2,21,85,0,1
103704,-83.3333333333333,4,2,23,85,0,1
104010,-83.3333333333333,4,2,25,85,0,1
104316,-83.3333333333333,4,2,19,85,0,1
104622,-83.3333333333333,4,2,32,100,0,1
104928,-83.3333333333333,4,2,31,100,0,1
105234,-83.3333333333333,4,2,30,100,0,1
105540,-83.3333333333333,4,2,17,85,0,1
105847,-83.3333333333333,4,2,20,85,0,1
106153,-83.3333333333333,4,2,22,85,0,1
106459,-83.3333333333333,4,2,20,85,0,1
106612,-83.3333333333333,4,2,22,85,0,1
106765,-83.3333333333333,4,2,21,85,0,1
107071,-83.3333333333333,4,2,18,85,0,1
107224,-83.3333333333333,4,2,21,85,0,1
107377,-83.3333333333333,4,2,23,85,0,1
107683,-83.3333333333333,4,2,20,85,0,1
107989,-83.3333333333333,4,2,19,85,0,1
108296,-83.3333333333333,4,2,16,85,0,1
108449,-83.3333333333333,4,2,18,85,0,1
108602,-83.3333333333333,4,2,23,85,0,1
108908,-83.3333333333333,4,2,19,85,0,1
109061,-83.3333333333333,4,2,23,85,0,1
109214,-83.3333333333333,4,2,24,85,0,1
109520,-83.3333333333333,4,2,23,85,0,1
109826,-83.3333333333333,4,2,22,85,0,1
110132,-83.3333333333333,4,2,15,85,0,1
110285,-83.3333333333333,4,2,17,85,0,1
110438,-83.3333333333333,4,2,22,85,0,1
111051,-83.3333333333333,4,2,18,85,0,1
111357,-83.3333333333333,4,2,20,85,0,1
111663,-83.3333333333333,4,2,22,85,0,1
112275,-83.3333333333333,4,2,24,85,0,1
112581,-83.3333333333333,4,2,27,85,0,1
112887,-83.3333333333333,4,2,14,85,0,1
113193,-83.3333333333333,4,2,18,85,0,1
113500,-83.3333333333333,4,2,22,85,0,1
113806,-83.3333333333333,4,2,18,95,0,1
113959,-83.3333333333333,4,2,21,95,0,1
114112,-83.3333333333333,4,2,23,95,0,1
114418,-83.3333333333333,4,2,21,95,0,1
114571,-83.3333333333333,4,2,23,95,0,1
114724,-83.3333333333333,4,2,25,95,0,0
114877,-83.3333333333333,4,2,23,95,0,0
115030,-83.3333333333333,4,2,25,95,0,0
115183,-83.3333333333333,4,2,27,95,0,0
115336,-83.3333333333333,4,2,83,85,0,1
115642,-83.3333333333333,4,2,17,85,0,1
115796,-83.3333333333333,4,2,18,85,0,1
115949,-83.3333333333333,4,2,19,85,0,1
116255,-83.3333333333333,4,2,21,85,0,1
116561,-83.3333333333333,4,2,24,85,0,1
116867,-83.3333333333333,4,2,25,85,0,1
117173,-83.3333333333333,4,2,26,85,0,1
117479,-83.3333333333333,4,2,24,85,0,1
117785,-83.3333333333333,4,2,21,85,0,1
118091,-83.3333333333333,4,2,25,85,0,1
118704,-83.3333333333333,4,2,28,85,0,1
118857,-83.3333333333333,4,2,23,85,0,1
119010,-83.3333333333333,4,2,25,85,0,1
119316,-83.3333333333333,4,2,23,85,0,1
119622,-83.3333333333333,4,2,24,85,0,1
119928,-83.3333333333333,4,2,31,85,0,1
120234,-83.3333333333333,4,2,29,75,0,1
120540,-83.3333333333333,4,2,19,60,0,1
120847,-83.3333333333333,4,2,22,70,0,1
121153,-83.3333333333333,4,2,23,80,0,1
121459,-83.3333333333333,4,2,24,90,0,1
121765,-83.3333333333333,4,2,31,100,0,1
122071,-83.3333333333333,4,2,30,100,0,1
122377,-83.3333333333333,4,2,29,100,0,1
122683,-83.3333333333333,4,2,28,85,0,1
122989,-83.3333333333333,4,2,16,85,0,1
123142,-83.3333333333333,4,2,19,85,0,1
123296,-83.3333333333333,4,2,21,85,0,1
123602,-83.3333333333333,4,2,22,85,0,1
123908,-83.3333333333333,4,2,19,85,0,1
124214,-83.3333333333333,4,2,32,100,0,1
124520,-83.3333333333333,4,2,31,100,0,1
124826,-83.3333333333333,4,2,30,100,0,1
125132,-83.3333333333333,4,2,17,85,0,1
125438,-83.3333333333333,4,2,20,85,0,1
125745,-83.3333333333333,4,2,22,85,0,1
126051,-83.3333333333333,4,2,20,85,0,1
126204,-83.3333333333333,4,2,22,85,0,1
126357,-83.3333333333333,4,2,21,85,0,1
126663,-83.3333333333333,4,2,18,85,0,1
126816,-83.3333333333333,4,2,21,85,0,1
126969,-83.3333333333333,4,2,23,85,0,1
127275,-83.3333333333333,4,2,18,85,0,1
127428,-83.3333333333333,4,2,20,85,0,1
127581,-83.3333333333333,4,2,19,85,0,1
127887,-83.3333333333333,4,2,16,85,0,1
128040,-83.3333333333333,4,2,19,85,0,1
128193,-83.3333333333333,4,2,23,85,0,1
128500,-83.3333333333333,4,2,19,85,0,1
128653,-83.3333333333333,4,2,23,85,0,1
128806,-83.3333333333333,4,2,24,85,0,1
129112,-83.3333333333333,4,2,23,85,0,1
129418,-83.3333333333333,4,2,22,85,0,1
129724,-83.3333333333333,4,2,15,85,0,1
130030,-83.3333333333333,4,2,17,85,0,1
130336,-83.3333333333333,4,2,15,85,0,1
130642,-83.3333333333333,4,2,18,85,0,1
130949,-83.3333333333333,4,2,20,85,0,1
131255,-83.3333333333333,4,2,22,85,0,1
131561,-83.3333333333333,4,2,20,85,0,1
131867,-83.3333333333333,4,2,24,85,0,1
132173,-83.3333333333333,4,2,27,85,0,1
132479,-83.3333333333333,4,2,14,75,0,1
132785,-83.3333333333333,4,2,18,70,0,1
133091,-83.3333333333333,4,2,20,80,0,1
133398,-83.3333333333333,4,2,22,85,0,1
133704,-83.3333333333333,4,2,23,90,0,1
134010,-83.3333333333333,4,2,21,90,0,1
134316,-83.3333333333333,4,2,25,100,0,1
134520,-83.3333333333333,4,2,24,100,0,1
134724,-83.3333333333333,4,2,23,100,0,1
134928,-83.3333333333333,4,2,22,85,0,1
135234,-83.3333333333333,4,2,17,85,0,1
135540,-83.3333333333333,4,2,20,85,0,1
135847,-83.3333333333333,4,2,22,85,0,1
136153,-83.3333333333333,4,2,21,85,0,1
136612,-83.3333333333333,4,2,23,85,0,1
137071,-83.3333333333333,4,2,25,85,0,1
137377,-83.3333333333333,4,2,22,85,0,1
137683,-83.3333333333333,4,2,19,85,0,1
137836,-83.3333333333333,4,2,22,85,0,1
137989,-83.3333333333333,4,2,23,85,0,1
138296,-83.3333333333333,4,2,24,85,0,1
138602,-83.3333333333333,4,2,26,85,0,1
138908,-83.3333333333333,4,2,19,85,0,1
139061,-83.3333333333333,4,2,24,85,0,1
139214,-83.3333333333333,4,2,23,85,0,1
139520,-83.3333333333333,4,2,19,85,0,1
139673,-83.3333333333333,4,2,24,85,0,1
139826,-83.3333333333333,4,2,20,85,0,1
140132,-83.3333333333333,4,2,17,85,0,1
140438,-83.3333333333333,4,2,22,85,0,1
140745,-83.3333333333333,4,2,24,85,0,1
140898,-83.3333333333333,4,2,27,85,0,1
141051,-83.3333333333333,4,2,28,85,0,1
141357,-66.6666666666667,4,2,21,85,0,1
141510,-66.6666666666667,4,2,23,85,0,1
141663,-66.6666666666667,4,2,25,85,0,1
141816,-66.6666666666667,4,2,18,85,0,1
141969,-66.6666666666667,4,2,21,85,0,1
142122,-66.6666666666667,4,2,23,85,0,1
142275,-125,4,2,24,85,0,1
143806,-83.3333333333333,4,2,28,85,0,1
144112,-83.3333333333333,4,2,31,85,0,1
144418,-83.3333333333333,4,2,32,85,0,1
144724,-100,4,2,33,95,0,0
145183,-100,4,2,29,95,0,0
145336,-100,4,2,27,95,0,0
145642,-100,4,2,29,95,0,0
145796,-100,4,2,33,95,0,0
145949,-100,4,2,32,95,0,0
146255,-100,4,2,28,95,0,0
146408,-100,4,2,31,95,0,0
146714,-100,4,2,26,95,0,0
146867,-100,4,2,30,95,0,0
147479,-100,4,2,31,95,0,0
147632,-100,4,2,26,95,0,0
147785,-100,4,2,32,95,0,0
147938,-100,4,2,30,95,0,0
148245,-100,4,2,25,95,0,0
148321,-100,4,2,26,95,0,0
148398,-100,4,2,29,95,0,0
148551,-100,4,2,22,95,0,0
148704,-100,4,2,24,95,0,0
149010,-83.3333333333333,4,2,31,95,0,0
149214,-83.3333333333333,4,2,30,95,0,0
149418,-83.3333333333333,4,2,28,95,0,0
149622,-100,4,2,29,95,0,0
149928,-100,4,2,17,95,0,0
150081,-100,4,2,20,95,0,0
150234,-100,4,2,22,95,0,0
150387,-100,4,2,29,95,0,0
150540,-100,4,2,33,95,0,0
150693,-100,4,2,32,95,0,0
150847,-100,4,2,33,95,0,0
151000,-100,4,2,25,95,0,0
151153,-100,4,2,28,95,0,0
151306,-100,4,2,32,95,0,0
151612,-100,4,2,28,95,0,0
151765,-100,4,2,35,95,0,0
151918,-100,4,2,31,95,0,0
151995,-100,4,2,34,95,0,0
152071,-100,4,2,35,95,0,0
152377,-100,4,2,28,95,0,0
152530,-100,4,2,34,95,0,0
152836,-100,4,2,28,95,0,0
152989,-100,4,2,33,95,0,0
153296,-100,4,2,28,95,0,0
153908,-100,4,2,33,95,0,0
154112,-100,4,2,32,95,0,0
154316,-100,4,2,31,95,0,0
154520,-100,4,2,27,95,0,0
154826,-100,4,2,45,95,0,0
155336,-100,4,2,44,95,0,0
155540,-100,4,2,43,95,0,0
155745,-100,4,2,42,95,0,0
156051,-100,4,2,32,95,0,0
156204,-100,4,2,36,95,0,0
156510,-100,4,2,33,95,0,0
156663,-100,4,2,37,95,0,0
156969,-100,4,2,33,95,0,0
157122,-100,4,2,34,95,0,0
157275,-100,4,2,33,95,0,0
157428,-100,4,2,32,95,0,0
157581,-100,4,2,31,95,0,0
157887,-100,4,2,30,95,0,0
158193,-100,4,2,22,95,0,0
158347,-100,4,2,29,95,0,0
158500,-100,4,2,26,95,0,0
158653,-100,4,2,24,95,0,0
158806,-100,4,2,29,95,0,0
158959,-100,4,2,30,95,0,0
159112,-100,4,2,31,95,0,0
159265,-100,4,2,32,95,0,0
159418,-100,4,2,31,95,0,0
159724,-100,4,2,25,95,0,0
159877,-100,4,2,27,95,0,0
160030,-100,4,2,31,95,0,0
160234,-100,4,2,30,95,0,0
160438,-100,4,2,31,95,0,0
160642,-100,4,2,32,95,0,0
160949,-100,4,2,28,95,0,0
161102,-100,4,2,25,95,0,0
161255,-100,4,2,32,95,0,0
161459,-100,4,2,31,95,0,0
161663,-100,4,2,30,95,0,0
161867,-100,4,2,31,95,0,0
162173,-100,4,2,14,70,0,0
162479,-100,4,2,17,80,0,0
162785,-100,4,2,18,90,0,0
163091,-100,4,2,19,100,0,0
163398,-100,4,2,21,100,0,0
163704,-100,4,2,24,95,0,0
163857,-100,4,2,25,95,0,0
164010,-100,4,2,26,95,0,0
164163,-100,4,2,28,95,0,0
164316,-100,4,2,20,95,0,0
164775,-100,4,2,24,95,0,0
164928,-100,4,2,29,95,0,0
165234,-100,4,2,28,95,0,0
165387,-100,4,2,29,95,0,0
165540,-100,4,2,14,95,0,0
166000,-100,4,2,18,95,0,0
166153,-100,4,2,23,95,0,0
166765,-100,4,2,15,95,0,0
167071,-100,4,2,19,95,0,0
167224,-100,4,2,22,95,0,0
167377,-100,4,2,23,95,0,0
167683,-100,4,2,15,95,0,0
167836,-100,4,2,23,95,0,0
167989,-100,4,2,22,95,0,0
168602,-100,4,2,22,95,0,0
168908,-100,4,2,21,95,0,0
169214,-100,4,2,20,95,0,0
169520,-100,4,2,24,95,0,0
169673,-100,4,2,27,95,0,0
169826,-100,4,2,29,95,0,0
170132,-100,4,2,28,95,0,0
170285,-100,4,2,29,95,0,0
170438,-100,4,2,21,95,0,0
170745,-100,4,2,23,95,0,0
171051,-100,4,2,21,95,0,0
171357,-100,4,2,20,95,0,0
171663,-100,4,2,22,95,0,0
171969,-100,4,2,26,95,0,0
172275,-100,4,2,22,95,0,0
172581,-100,4,2,24,95,0,0
172887,-100,4,2,31,95,0,0
173193,-100,4,2,30,95,0,0
173500,-100,4,2,29,95,0,0
173653,-100,4,2,26,95,0,0
173806,-100,4,2,24,95,0,0
173959,-100,4,2,21,95,0,0
174112,-100,4,2,20,95,0,0
174418,-100,4,2,17,95,0,0
174571,-100,4,2,20,95,0,0
174724,-100,4,2,22,95,0,0
175030,-100,4,2,25,95,0,0
175183,-100,4,2,26,95,0,0
175336,-100,4,2,25,95,0,0
175642,-100,4,2,24,95,0,0
175949,-100,4,2,23,95,0,0
176255,-100,4,2,24,95,0,0
176561,-90.9090909090909,4,2,28,95,0,0
176867,-90.9090909090909,4,2,21,95,0,0
177173,-111.111111111111,4,2,27,95,0,0
177479,-111.111111111111,4,2,28,95,0,0
177785,-142.857142857143,4,2,26,95,0,0
178091,-142.857142857143,4,2,26,45,0,0
178398,-142.857142857143,4,2,22,95,0,0
178704,-142.857142857143,4,2,22,45,0,0
179010,-100,4,2,17,95,0,0
179316,-100,4,2,20,95,0,0
179622,-100,4,2,24,95,0,0
179928,-100,4,2,23,95,0,0
180081,-100,4,2,24,95,0,0
180234,-100,4,2,23,95,0,0
180540,-100,4,2,18,95,0,0
180847,-100,4,2,21,95,0,0
181153,-100,4,2,23,95,0,0
181459,-100,4,2,24,95,0,0
181765,-100,4,2,14,50,0,0
182071,-100,4,2,17,60,0,0
182377,-100,4,2,18,70,0,0
182683,-100,4,2,19,80,0,0
182989,-100,4,2,21,90,0,0
183296,-100,4,2,24,100,0,0
183602,-100,4,2,26,100,0,0
183908,-100,4,2,22,55,0,0
188193,-100,4,2,22,25,0,0
192785,-100,4,2,31,80,0,0
193091,-100,4,2,30,80,0,0
193398,-100,4,2,28,80,0,0
193704,-100,4,2,22,60,0,0
194010,-100,4,2,17,70,0,0
194316,-100,4,2,20,80,0,0
194622,-100,4,2,22,90,0,0
194928,-100,4,2,14,70,0,0
195234,-100,4,2,18,80,0,0
195540,-100,4,2,23,90,0,0
195847,-100,4,2,20,80,0,0
196153,-100,4,2,19,70,0,0
196459,-100,4,2,24,70,0,0
196765,-100,4,2,23,70,0,0
197071,-100,4,2,22,70,0,0
197683,-100,4,2,15,70,0,0
197989,-100,4,2,17,70,0,0
198296,-100,4,2,15,70,0,0
198602,-100,4,2,22,70,0,0
198908,-100,4,2,15,70,0,0
199214,-100,4,2,18,70,0,0
199520,-100,4,2,20,70,0,0
199826,-100,4,2,22,70,0,0
200132,-100,4,2,18,70,0,0
200438,-100,4,2,20,70,0,0
200745,-100,4,2,15,70,0,0
201051,-100,4,2,14,70,0,0
201357,-100,4,2,18,70,0,0
201663,-100,4,2,20,70,0,0
201969,-100,4,2,21,70,0,0
202275,-100,4,2,22,70,0,0
202581,-100,4,2,18,70,0,0
202887,-100,4,2,22,70,0,0
203193,-100,4,2,24,70,0,0
203510,612.244897959184,4,2,21,60,1,0
203612,-100,4,2,22,60,0,0
203714,-100,4,2,23,60,0,0
203822,600,4,2,22,60,1,0
203922,-100,4,2,23,60,0,0
204022,-100,4,2,24,60,0,0
204098,631.578947368421,4,2,23,70,1,0
204098,-83.3333333333333,4,2,23,70,0,0
204203,-83.3333333333333,4,2,24,70,0,0
204308,-83.3333333333333,4,2,25,70,0,0
204388,685.714285714286,4,2,23,70,1,0
204388,-83.3333333333333,4,2,23,70,0,0
204502,-83.3333333333333,4,2,24,70,0,0
204616,-83.3333333333333,4,2,25,70,0,0
204726,600,4,2,28,80,1,0
204726,-71.4285714285714,4,2,28,80,0,0
204826,-71.4285714285714,4,2,29,80,0,0
204926,-71.4285714285714,4,2,30,80,0,0
205030,500,4,2,29,80,1,0
205030,-71.4285714285714,4,2,29,80,0,0
205113,-71.4285714285714,4,2,30,80,0,0
205196,-71.4285714285714,4,2,31,80,0,0
205300,600,4,2,30,90,1,0
205300,-62.5,4,2,30,90,0,0
205400,-62.5,4,2,31,90,0,0
205500,-62.5,4,2,32,90,0,0
205604,705.882352941176,4,2,30,90,1,0
205604,-62.5,4,2,30,90,0,0
205721,-62.5,4,2,31,90,0,0
205839,-62.5,4,2,32,90,0,0
205948,612.244897959184,4,2,1,100,1,0
205948,-62.5,4,2,35,100,0,0
207784,-62.5,4,2,23,65,0,0
208396,-83.3333333333333,4,2,83,85,0,1
208703,-83.3333333333333,4,2,14,85,0,1
209009,-83.3333333333333,4,2,17,85,0,1
209315,-83.3333333333333,4,2,18,85,0,1
209468,-83.3333333333333,4,2,19,85,0,1
209621,-83.3333333333333,4,2,21,85,0,1
209927,-83.3333333333333,4,2,24,85,0,1
210233,-83.3333333333333,4,2,26,85,0,1
210539,-83.3333333333333,4,2,28,85,0,1
210845,-83.3333333333333,4,2,21,85,0,1
211152,-83.3333333333333,4,2,25,85,0,1
211764,-83.3333333333333,4,2,28,85,0,1
212070,-83.3333333333333,4,2,23,85,0,1
212223,-83.3333333333333,4,2,25,85,0,1
212376,-83.3333333333333,4,2,28,85,0,1
212682,-83.3333333333333,4,2,26,85,0,1
212988,-83.3333333333333,4,2,31,85,0,1
213294,-83.3333333333333,4,2,29,85,0,1
213601,-83.3333333333333,4,2,19,60,0,1
213907,-83.3333333333333,4,2,22,70,0,1
214213,-83.3333333333333,4,2,23,80,0,1
214519,-83.3333333333333,4,2,24,90,0,1
214825,-83.3333333333333,4,2,31,100,0,1
215131,-83.3333333333333,4,2,30,100,0,1
215437,-83.3333333333333,4,2,29,100,0,1
215743,-83.3333333333333,4,2,28,85,0,1
216050,-83.3333333333333,4,2,19,85,0,1
216203,-83.3333333333333,4,2,21,85,0,1
216356,-83.3333333333333,4,2,23,85,0,1
216662,-83.3333333333333,4,2,29,85,0,1
216968,-83.3333333333333,4,2,28,85,0,1
217274,-83.3333333333333,4,2,32,100,0,1
217580,-83.3333333333333,4,2,31,100,0,1
217886,-83.3333333333333,4,2,30,100,0,1
218192,-83.3333333333333,4,2,17,85,0,1
218499,-83.3333333333333,4,2,20,85,0,1
218805,-83.3333333333333,4,2,22,85,0,1
219111,-83.3333333333333,4,2,20,85,0,1
219264,-83.3333333333333,4,2,22,85,0,1
219417,-83.3333333333333,4,2,21,85,0,1
219723,-83.3333333333333,4,2,18,85,0,1
219876,-83.3333333333333,4,2,21,85,0,1
220029,-83.3333333333333,4,2,23,85,0,1
220335,-83.3333333333333,4,2,20,85,0,1
220641,-83.3333333333333,4,2,19,85,0,1
220948,-83.3333333333333,4,2,16,85,0,1
221101,-83.3333333333333,4,2,18,85,0,1
221254,-83.3333333333333,4,2,23,85,0,1
221560,-83.3333333333333,4,2,19,85,0,1
221713,-83.3333333333333,4,2,23,85,0,1
221866,-83.3333333333333,4,2,24,85,0,1
222172,-83.3333333333333,4,2,23,85,0,1
222478,-83.3333333333333,4,2,22,85,0,1
222784,-83.3333333333333,4,2,19,85,0,1
223090,-83.3333333333333,4,2,22,85,0,1
223396,-83.3333333333333,4,2,15,85,0,1
223703,-83.3333333333333,4,2,17,85,0,1
224009,-83.3333333333333,4,2,20,85,0,1
224315,-83.3333333333333,4,2,22,85,0,1
224621,-83.3333333333333,4,2,20,85,0,1
224927,-83.3333333333333,4,2,24,85,0,1
225233,-83.3333333333333,4,2,27,85,0,1
225539,-83.3333333333333,4,2,14,85,0,1
225845,-83.3333333333333,4,2,18,85,0,1
226152,-83.3333333333333,4,2,22,85,0,1
226458,-83.3333333333333,4,2,18,95,0,1
226611,-83.3333333333333,4,2,21,95,0,1
226764,-83.3333333333333,4,2,23,95,0,1
227070,-83.3333333333333,4,2,21,95,0,1
227223,-83.3333333333333,4,2,23,95,0,1
227376,-83.3333333333333,4,2,25,95,0,0
227529,-83.3333333333333,4,2,23,95,0,0
227682,-83.3333333333333,4,2,25,95,0,0
227835,-83.3333333333333,4,2,27,95,0,0
227988,-83.3333333333333,4,2,17,85,0,1
228294,-83.3333333333333,4,2,14,85,0,1
228448,-83.3333333333333,4,2,17,85,0,1
228601,-83.3333333333333,4,2,18,85,0,1
228907,-83.3333333333333,4,2,19,85,0,1
229213,-83.3333333333333,4,2,21,85,0,1
229519,-83.3333333333333,4,2,19,85,0,1
229825,-83.3333333333333,4,2,24,85,0,1
230131,-83.3333333333333,4,2,26,85,0,1
230437,-83.3333333333333,4,2,21,85,0,1
230743,-83.3333333333333,4,2,18,85,0,1
230896,-83.3333333333333,4,2,21,85,0,1
231050,-83.3333333333333,4,2,23,85,0,1
231356,-83.3333333333333,4,2,25,85,0,1
231662,-83.3333333333333,4,2,28,85,0,1
231968,-83.3333333333333,4,2,23,85,0,1
232274,-83.3333333333333,4,2,26,85,0,1
232580,-83.3333333333333,4,2,31,85,0,1
232886,-83.3333333333333,4,2,29,85,0,1
233192,-83.3333333333333,4,2,19,60,0,1
233345,-83.3333333333333,4,2,22,60,0,1
233499,-83.3333333333333,4,2,23,70,0,1
233805,-83.3333333333333,4,2,24,80,0,1
234111,-83.3333333333333,4,2,22,90,0,1
234417,-83.3333333333333,4,2,31,100,0,1
234723,-83.3333333333333,4,2,30,100,0,1
235029,-83.3333333333333,4,2,29,100,0,1
235335,-83.3333333333333,4,2,28,85,0,1
235641,-83.3333333333333,4,2,16,85,0,1
235794,-83.3333333333333,4,2,19,85,0,1
235948,-83.3333333333333,4,2,21,85,0,1
236254,-83.3333333333333,4,2,22,85,0,1
236560,-83.3333333333333,4,2,21,85,0,1
236866,-83.3333333333333,4,2,32,100,0,1
237172,-83.3333333333333,4,2,31,100,0,1
237478,-83.3333333333333,4,2,30,100,0,1
237784,-83.3333333333333,4,2,17,85,0,1
238090,-83.3333333333333,4,2,20,85,0,1
238396,-83.3333333333333,4,2,22,85,0,1
238703,-83.3333333333333,4,2,20,85,0,1
238856,-83.3333333333333,4,2,22,85,0,1
239009,-83.3333333333333,4,2,21,85,0,1
239315,-83.3333333333333,4,2,18,85,0,1
239468,-83.3333333333333,4,2,21,85,0,1
239621,-83.3333333333333,4,2,23,85,0,1
239927,-83.3333333333333,4,2,18,85,0,1
240080,-83.3333333333333,4,2,20,85,0,1
240233,-83.3333333333333,4,2,19,85,0,1
240539,-83.3333333333333,4,2,16,85,0,1
240692,-83.3333333333333,4,2,19,85,0,1
240845,-83.3333333333333,4,2,23,85,0,1
241152,-83.3333333333333,4,2,19,85,0,1
241305,-83.3333333333333,4,2,23,85,0,1
241458,-83.3333333333333,4,2,24,85,0,1
241764,-83.3333333333333,4,2,23,85,0,1
242070,-83.3333333333333,4,2,22,85,0,1
242376,-83.3333333333333,4,2,17,85,0,1
242529,-83.3333333333333,4,2,18,85,0,1
242682,-83.3333333333333,4,2,22,85,0,1
242988,-83.3333333333333,4,2,15,85,0,1
243294,-83.3333333333333,4,2,17,85,0,1
243601,-83.3333333333333,4,2,20,85,0,1
243907,-83.3333333333333,4,2,22,85,0,1
244213,-83.3333333333333,4,2,20,85,0,1
244519,-83.3333333333333,4,2,24,85,0,1
244825,-83.3333333333333,4,2,20,85,0,1
245131,-83.3333333333333,4,2,22,85,0,1
245437,-83.3333333333333,4,2,18,95,0,1
245590,-83.3333333333333,4,2,20,95,0,1
245743,-83.3333333333333,4,2,22,95,0,1
246050,-83.3333333333333,4,2,18,95,0,1
246203,-83.3333333333333,4,2,21,95,0,1
246356,-83.3333333333333,4,2,23,95,0,1
246662,-83.3333333333333,4,2,18,85,0,1
246968,-83.3333333333333,4,2,22,85,0,0
247580,-71.4285714285714,4,2,55,85,0,1
247886,-71.4285714285714,4,2,52,85,0,1
248039,-71.4285714285714,4,2,55,85,0,1
248192,-71.4285714285714,4,2,56,85,0,1
248499,-71.4285714285714,4,2,57,85,0,1
248652,-71.4285714285714,4,2,55,85,0,1
248805,-71.4285714285714,4,2,59,85,0,1
249111,-71.4285714285714,4,2,57,85,0,1
249417,-71.4285714285714,4,2,59,85,0,1
249723,-71.4285714285714,4,2,62,85,0,1
250029,-71.4285714285714,4,2,59,85,0,1
250335,-71.4285714285714,4,2,52,85,0,1
250488,-71.4285714285714,4,2,54,85,0,1
250641,-71.4285714285714,4,2,56,85,0,1
250948,-71.4285714285714,4,2,59,85,0,1
251254,-71.4285714285714,4,2,61,85,0,1
251560,-71.4285714285714,4,2,52,85,0,1
251866,-71.4285714285714,4,2,56,85,0,1
252172,-71.4285714285714,4,2,57,85,0,1
252478,-71.4285714285714,4,2,53,80,0,1
252784,-71.4285714285714,4,2,50,70,0,1
253090,-71.4285714285714,4,2,53,80,0,1
253396,-71.4285714285714,4,2,55,90,0,1
253703,-71.4285714285714,4,2,57,90,0,1
254009,-71.4285714285714,4,2,69,100,0,1
254315,-71.4285714285714,4,2,68,100,0,1
254621,-71.4285714285714,4,2,67,100,0,1
254927,-71.4285714285714,4,2,59,90,0,1
255233,-71.4285714285714,4,2,54,85,0,1
255386,-71.4285714285714,4,2,56,85,0,1
255539,-71.4285714285714,4,2,59,85,0,1
255845,-71.4285714285714,4,2,67,85,0,1
255999,-71.4285714285714,4,2,61,85,0,1
256152,-71.4285714285714,4,2,66,85,0,1
256458,-71.4285714285714,4,2,70,100,0,1
256764,-71.4285714285714,4,2,69,100,0,1
257070,-71.4285714285714,4,2,68,100,0,1
257223,-71.4285714285714,4,2,64,85,0,1
257376,-71.4285714285714,4,2,60,85,0,1
257682,-71.4285714285714,4,2,55,85,0,1
257835,-71.4285714285714,4,2,58,85,0,1
257988,-71.4285714285714,4,2,60,85,0,1
258294,-71.4285714285714,4,2,59,85,0,1
258448,-71.4285714285714,4,2,61,85,0,1
258601,-71.4285714285714,4,2,63,85,0,1
258907,-71.4285714285714,4,2,56,85,0,1
259213,-71.4285714285714,4,2,59,85,0,1
259519,-71.4285714285714,4,2,58,85,0,1
259825,-71.4285714285714,4,2,57,85,0,1
260131,-71.4285714285714,4,2,54,85,0,1
260284,-71.4285714285714,4,2,56,85,0,1
260437,-71.4285714285714,4,2,59,85,0,1
260743,-71.4285714285714,4,2,61,85,0,1
261050,-71.4285714285714,4,2,69,85,0,1
261356,-71.4285714285714,4,2,68,85,0,1
261662,-71.4285714285714,4,2,64,85,0,1
261968,-71.4285714285714,4,2,61,85,0,1
262274,-71.4285714285714,4,2,60,85,0,1
262580,-71.4285714285714,4,2,53,85,0,1
262733,-71.4285714285714,4,2,55,85,0,1
262886,-71.4285714285714,4,2,58,85,0,1
263192,-71.4285714285714,4,2,60,85,0,1
263499,-71.4285714285714,4,2,63,85,0,1
263805,-71.4285714285714,4,2,60,85,0,1
264111,-71.4285714285714,4,2,62,85,0,1
264417,-71.4285714285714,4,2,65,85,0,1
264723,-71.4285714285714,4,2,59,85,0,1
265029,-71.4285714285714,4,2,56,60,0,1
265335,-71.4285714285714,4,2,59,70,0,1
265641,-71.4285714285714,4,2,60,80,0,1
265948,-71.4285714285714,4,2,61,90,0,1
266254,-71.4285714285714,4,2,66,90,0,1
266560,-71.4285714285714,4,2,70,100,0,1
266764,-71.4285714285714,4,2,69,100,0,1
266968,-71.4285714285714,4,2,68,100,0,1
267172,-71.4285714285714,4,2,58,85,0,1
267478,-71.4285714285714,4,2,62,85,0,1
267784,-71.4285714285714,4,2,65,85,0,1
268090,-71.4285714285714,4,2,60,85,0,1
268396,-71.4285714285714,4,2,59,85,0,1
268703,-71.4285714285714,4,2,61,85,0,1
268856,-71.4285714285714,4,2,63,85,0,1
269009,-71.4285714285714,4,2,66,85,0,1
269315,-71.4285714285714,4,2,61,85,0,1
269468,-71.4285714285714,4,2,57,85,0,1
269621,-71.4285714285714,4,2,60,85,0,1
269927,-71.4285714285714,4,2,57,85,0,1
270233,-71.4285714285714,4,2,62,85,0,1
270539,-71.4285714285714,4,2,60,85,0,1
270845,-71.4285714285714,4,2,67,85,0,1
271152,-71.4285714285714,4,2,62,85,0,1
271305,-71.4285714285714,4,2,64,85,0,1
271458,-71.4285714285714,4,2,61,85,0,1
271611,-71.4285714285714,4,2,63,85,0,1
271764,-71.4285714285714,4,2,57,85,0,1
271917,-71.4285714285714,4,2,61,85,0,1
271993,-71.4285714285714,4,2,63,85,0,1
272070,-71.4285714285714,4,2,62,85,0,1
272376,-71.4285714285714,4,2,55,85,0,1
272529,-71.4285714285714,4,2,58,85,0,1
272682,-71.4285714285714,4,2,60,85,0,1
272988,-71.4285714285714,4,2,62,85,0,1
273141,-71.4285714285714,4,2,58,85,0,1
273294,-71.4285714285714,4,2,59,85,0,1
273448,-71.4285714285714,4,2,56,85,0,1
273601,-71.4285714285714,4,2,61,85,0,1
273907,-71.4285714285714,4,2,62,85,0,1
274213,-71.4285714285714,4,2,66,85,0,1
274366,-71.4285714285714,4,2,63,85,0,1
274519,-71.4285714285714,4,2,63,85,0,1
274825,-71.4285714285714,4,2,56,85,0,1
274978,-71.4285714285714,4,2,57,85,0,1
275131,-71.4285714285714,4,2,60,85,0,1
275437,-71.4285714285714,4,2,63,85,0,1
275590,-71.4285714285714,4,2,64,85,0,1
275743,-71.4285714285714,4,2,69,95,0,1
276050,-71.4285714285714,4,2,68,95,0,1
276356,-71.4285714285714,4,2,67,95,0,1
276662,-71.4285714285714,4,2,66,95,0,1
276968,-71.4285714285714,4,2,58,85,0,1
277274,-71.4285714285714,4,2,53,85,0,1
277427,-71.4285714285714,4,2,55,85,0,1
277580,-71.4285714285714,4,2,58,85,0,1
277886,-71.4285714285714,4,2,58,85,0,1
278039,-71.4285714285714,4,2,61,85,0,1
278345,-71.4285714285714,4,2,56,85,0,1
278499,-71.4285714285714,4,2,56,85,0,1
278805,-71.4285714285714,4,2,59,85,0,1
279111,-71.4285714285714,4,2,57,85,0,1
279417,-71.4285714285714,4,2,53,85,0,1
279723,-71.4285714285714,4,2,54,85,0,1
279876,-71.4285714285714,4,2,57,85,0,1
280029,-71.4285714285714,4,2,60,85,0,1
280335,-71.4285714285714,4,2,62,85,0,1
280641,-71.4285714285714,4,2,64,85,0,1
280794,-71.4285714285714,4,2,57,85,0,1
280948,-71.4285714285714,4,2,60,85,0,1
281101,-71.4285714285714,4,2,62,85,0,1
281254,-71.4285714285714,4,2,67,85,0,1
281407,-71.4285714285714,4,2,62,85,0,1
281560,-71.4285714285714,4,2,64,85,0,1
281713,-71.4285714285714,4,2,59,85,0,1
281866,-142.857142857143,4,2,52,70,0,0
283090,-142.857142857143,4,2,54,70,0,0
284315,-83.3333333333334,4,2,55,75,0,1
284621,-83.3333333333334,4,2,62,75,0,1
284927,-83.3333333333334,4,2,55,75,0,1
285233,-83.3333333333334,4,2,56,75,0,1
285539,-83.3333333333334,4,2,57,85,0,1
285692,-83.3333333333334,4,2,55,85,0,1
285845,-83.3333333333334,4,2,57,85,0,1
285999,-83.3333333333334,4,2,59,85,0,1
286152,-83.3333333333334,4,2,62,85,0,1
286305,-83.3333333333334,4,2,59,85,0,1
286458,-83.3333333333334,4,2,62,85,0,1
286611,-83.3333333333334,4,2,64,85,0,1
286764,-83.3333333333333,4,2,21,80,0,0
287070,-83.3333333333333,4,2,10,80,0,0
294570,-83.3333333333333,4,2,57,80,0,0
294723,-83.3333333333333,4,2,59,80,0,0
295029,-83.3333333333333,4,2,61,80,0,0
295335,-83.3333333333333,4,2,62,80,0,0
295948,-83.3333333333333,4,2,62,80,0,0
296254,-83.3333333333333,4,2,61,80,0,0
296560,-83.3333333333333,4,2,62,80,0,0
297172,-83.3333333333333,4,2,10,80,0,0
299927,-83.3333333333333,4,2,63,80,0,0
300233,-83.3333333333333,4,2,62,80,0,0
300539,-83.3333333333333,4,2,66,95,0,0
300845,-83.3333333333333,4,2,73,95,0,0
301152,-83.3333333333333,4,2,72,95,0,0
301458,-83.3333333333333,4,2,71,80,0,0
302070,-83.3333333333333,4,2,70,80,0,0
302376,-83.3333333333333,4,2,69,80,0,0
302682,-83.3333333333333,4,2,68,80,0,0
303294,-83.3333333333333,4,2,70,80,0,0
303907,-83.3333333333333,4,2,62,70,0,0
304213,-83.3333333333333,4,2,52,70,0,0
304519,-83.3333333333333,4,2,55,85,0,0
304825,-83.3333333333333,4,2,56,85,0,0
305131,-83.3333333333333,4,2,57,70,0,0
305743,-125,4,2,25,40,0,0
314927,-125,4,2,76,70,0,0
315233,-125,4,2,75,70,0,0
315539,-125,4,2,74,70,0,0
315845,-125,4,2,73,70,0,0
316152,-125,4,2,71,50,0,0
317070,-125,4,2,70,50,0,0
319519,-125,4,2,69,50,0,0
321968,-125,4,2,68,50,0,0
323499,-125,4,2,69,60,0,0
323805,-125,4,2,52,60,0,0
324111,-125,4,2,55,60,0,0
324417,-125,4,2,56,60,0,0
324723,-125,4,2,57,60,0,0
325029,-125,4,2,55,60,0,0
325335,-125,4,2,59,70,0,0
325641,-125,4,2,62,80,0,0
325948,-125,4,2,66,90,0,0
326254,-125,4,2,70,90,0,0
326560,-125,4,2,68,90,0,0
326866,-125,4,2,69,70,0,0

[Colours]
Combo1 : 207,224,3
Combo2 : 239,18,239
Combo3 : 0,245,255
Combo4 : 72,109,236

[HitObjects]
334,230,1766,5,2,0:0:0:0:
399,116,2072,2,0,P|411:162|413:200,1,65.9999979858399,2|2,0:0|0:0,0:0:0:0:
387,303,2684,6,0,P|343:321|297:310,1,88,2|2,0:0|0:0,0:0:0:0:
201,232,3297,1,2,0:0:0:0:
154,299,3603,2,0,P|272:272|238:159,1,264,2|2,0:0|0:0,0:0:0:0:
22,219,5133,5,2,0:0:0:0:
129,189,5440,2,0,P|172:200|207:254,1,88,2|2,0:0|0:0,0:0:0:0:
71,315,6052,2,0,P|58:232|129:189,1,176,2|0,0:0|0:0,0:0:0:0:
270,323,6970,1,2,0:0:0:0:
270,323,7123,2,0,P|241:322|201:311,1,44
130,264,7582,5,2,0:0:0:0:
314,149,7889,2,0,L|410:158,2,88,2|2|2,0:0|0:0|0:0,0:0:0:0:
294,270,8807,1,2,0:0:0:0:
333,27,9113,1,2,0:0:0:0:
314,149,9419,1,2,0:0:0:0:
294,270,9725,1,2,0:0:0:0:
385,358,10031,6,0,P|402:311|462:300,1,110,2|8,0:0|0:3,0:0:0:0:
469,203,10491,1,2,0:0:0:0:
469,203,10644,2,0,P|469:175|462:148,1,55,2|0,0:0|0:0,0:0:0:0:
365,55,10950,2,0,P|358:81|358:109,1,55,2|0,0:0|0:0,0:0:0:0:
368,218,11256,5,2,0:0:0:0:
267,174,11409,2,0,B|220:149|173:157|173:157|199:184,1,131.99999597168,2|0,0:0|0:0,0:0:0:0:
247,317,11868,2,0,P|244:258|219:327,1,197.99999395752,6|0,0:0|0:0,0:0:0:0:
324,332,12480,6,0,L|440:317,1,110,2|2,0:0|0:0,0:0:0:0:
456,152,13093,1,2,1:2:0:0:
408,233,13399,2,0,P|360:141|452:58,1,220,6|2,0:0|0:0,0:0:0:0:
456,152,14317,1,2,1:2:0:0:
300,248,14623,5,2,0:0:0:0:
300,248,14776,1,2,0:0:0:0:
300,248,14929,2,0,P|246:224|170:236,1,110,6|0,0:0|0:0,0:0:0:0:
45,328,15542,1,2,1:2:0:0:
23,240,15848,2,0,B|132:223|112:343|247:304,1,220,6|2,0:0|0:0,0:0:0:0:
350,173,16766,5,2,1:2:0:0:
266,151,16919,2,0,P|218:176|196:225,1,110,2|0,0:0|0:0,0:0:0:0:
221,309,17378,6,0,P|262:331|329:323,1,110,6|2,0:0|0:0,0:0:0:0:
450,242,17991,1,2,1:2:0:0:
350,171,18297,2,0,P|333:109|344:47,1,110,6|0,0:0|0:0,0:0:0:0:
364,247,18909,1,2,0:0:0:0:
229,160,19215,1,2,1:2:0:0:
429,112,19521,1,2,0:0:0:0:
277,279,19827,6,0,B|201:252|185:338|96:279,1,165,6|0,0:0|0:0,0:0:0:0:
49,222,20440,1,2,1:2:0:0:
235,25,20746,2,0,P|243:60|244:81,1,55,2|0,0:0|0:0,0:0:0:0:
146,144,21052,2,0,P|182:148|219:162,1,55,2|0,0:0|0:0,0:0:0:0:
352,168,21358,2,0,P|319:184|289:209,1,55,2|0,0:0|0:0,0:0:0:0:
190,229,21664,2,0,P|211:258|225:295,1,55,2|0,1:2|0:0,0:0:0:0:
300,269,21970,2,0,P|288:303|285:342,1,55,2|0,1:2|1:2,0:0:0:0:
213,352,22276,5,6,0:0:0:0:
255,187,22582,2,0,P|256:133|224:91,1,110,2|2,0:0|1:2,0:0:0:0:
213,352,23195,2,0,L|329:343,1,110,6|0,0:0|0:0,0:0:0:0:
453,248,23807,1,2,0:0:0:0:
256,188,24113,1,2,1:2:0:0:
358,338,24419,5,2,0:0:0:0:
358,338,24572,1,2,0:0:0:0:
358,338,24725,2,0,P|371:272|364:222,1,110,6|2,0:0|0:0,0:0:0:0:
313,73,25338,1,2,1:2:0:0:
193,185,25644,2,0,B|122:225|62:187|62:187|121:227|115:320,1,275,6|0,0:0|0:0,0:0:0:0:
115,306,26562,5,2,1:2:0:0:
217,337,26715,2,0,P|277:329|313:270,1,110,2|0,0:0|0:0,0:0:0:0:
434,248,27174,6,0,P|396:209|343:205,1,110,6|2,0:0|0:0,0:0:0:0:
231,257,27787,1,2,1:2:0:0:
260,83,28093,2,0,P|217:114|206:167,1,110,6|0,0:0|0:0,0:0:0:0:
296,329,28705,1,2,0:0:0:0:
92,246,29011,2,0,P|69:215|62:155,2,73.3333333333333,2|2|2,1:2|0:0|0:0,0:0:0:0:
158,304,29623,5,6,0:0:0:0:
239,251,29929,1,2,0:0:0:0:
296,329,30236,1,2,0:0:0:0:
377,276,30542,2,0,L|472:288,1,88,2|0,0:0|0:0,0:0:0:0:
435,113,31154,5,2,0:0:0:0:
335,169,31460,1,10,0:0:0:0:
377,276,31766,1,2,0:0:0:0:
252,193,32072,5,2,0:0:0:0:
395,21,32378,1,2,0:0:0:0:
469,151,32684,1,2,0:0:0:0:
379,104,32991,2,0,B|345:188|413:197|373:282,1,176,2|0,0:0|0:0,0:0:0:0:
255,243,33909,5,8,0:0:0:0:
255,243,34062,1,8,0:0:0:0:
255,243,34215,2,0,P|226:249|192:265,1,44,0|0,3:0|0:0,0:0:0:0:
251,347,34521,5,2,0:0:0:0:
304,53,35440,1,0,0:0:0:0:
239,177,35746,2,0,P|172:177|152:164,2,65.9999979858399
335,133,36664,1,0,0:0:0:0:
398,216,36970,6,0,P|435:164|433:99,1,131.99999597168,2|0,0:0|0:0,0:0:0:0:
266,36,37889,1,0,0:0:0:0:
276,215,38195,2,0,P|337:238|398:216,1,131.99999597168
335,133,39419,5,2,0:0:0:0:
234,341,40338,1,0,0:0:0:0:
102,257,40644,2,0,L|94:327,2,65.9999979858399
213,208,41562,1,0,0:0:0:0:
127,153,41868,6,0,P|176:112|241:109,1,131.99999597168,2|0,0:0|0:0,0:0:0:0:
315,272,42787,1,0,0:0:0:0:
137,275,43093,2,0,P|111:216|126:152,1,131.99999597168
213,208,44317,5,2,0:0:0:0:
321,145,44623,2,0,L|399:152,2,65.9999979858399
213,208,45542,2,0,P|171:216|143:212,1,65.9999979858399,2|0,0:0|0:0,0:0:0:0:
66,146,46001,2,0,P|97:118|164:111,1,98.9999969787599
306,205,46766,5,2,0:0:0:0:
249,356,47072,2,0,P|238:325|250:263,1,65.9999979858399
353,309,47684,1,0,0:0:0:0:
427,223,47991,2,0,P|369:194|306:206,1,131.99999597168,2|0,0:0|0:0,0:0:0:0:
163,302,49215,5,2,0:0:0:0:
248,210,49521,2,0,P|242:177|212:128,1,65.9999979858399
127,72,50133,1,0,0:0:0:0:
127,72,50746,1,0,0:0:0:0:
238,128,51052,1,0,0:0:0:0:
99,196,51358,1,0,0:0:0:0:
258,126,51664,6,0,P|302:119|395:123,1,131.99999597168,2|0,0:0|0:0,0:0:0:0:
389,122,52582,1,0,0:0:0:0:
292,41,52889,1,2,0:0:0:0:
332,247,53195,1,0,0:0:0:0:
332,247,53501,2,0,B|390:253|440:232|440:232|403:281,1,132
373,331,54113,5,2,0:0:0:0:
140,180,54725,1,8,0:0:0:0:
93,346,55031,1,0,0:0:0:0:
248,253,55338,5,0,0:0:0:0:
273,346,55644,1,0,0:0:0:0:
118,262,55950,1,0,0:0:0:0:
140,180,56256,1,2,0:0:0:0:
248,253,56562,6,0,B|325:281|395:240|395:240|342:233,1,176,2|8,0:0|0:0,0:0:0:0:
175,209,57480,1,0,0:0:0:0:
175,209,57787,1,0,0:0:0:0:
291,351,58093,5,0,0:0:0:0:
365,282,58399,2,0,P|324:258|291:253,1,60.5000018463135,2|0,0:0|0:0,0:0:0:0:
221,282,58705,2,0,P|194:320|187:353,2,60.5000018463135,2|0|2,0:0|0:0|0:0,0:0:0:0:
436,172,59623,5,8,0:0:0:0:
252,104,59929,1,0,0:0:0:0:
368,43,60236,5,0,0:0:0:0:
332,193,60542,1,0,0:0:0:0:
336,64,60848,5,0,0:0:0:0:
363,178,61154,1,2,0:0:0:0:
237,128,61460,2,0,P|156:112|52:116,1,176,2|8,0:0|0:0,0:0:0:0:
62,114,62378,1,0,0:0:0:0:
214,204,62684,1,0,0:0:0:0:
53,285,62991,6,0,P|100:274|141:282,1,60.5000018463135
262,311,63297,1,4,3:0:0:0:
269,334,63603,1,8,3:0:0:0:
274,357,63909,5,2,0:0:0:0:
421,248,64215,2,0,P|372:232|341:198,1,88,0|8,0:0|0:0,0:0:0:0:
335,84,64827,1,0,0:0:0:0:
446,70,65133,2,0,P|442:121|416:159,1,88,2|0,0:0|0:0,0:0:0:0:
346,207,65593,2,0,L|293:201,1,44
213,73,66052,1,0,0:0:0:0:
142,186,66358,6,0,L|130:330,1,121.000003692627,2|0,0:0|0:0,0:0:0:0:
190,198,66970,6,0,L|198:298,1,98.9999969787599,10|0,0:0|0:0,0:0:0:0:
237,205,67582,6,0,L|253:281,1,65.9999979858399,2|0,0:0|0:0,0:0:0:0:
292,358,68195,1,0,0:0:0:0:
388,338,68501,5,0,0:0:0:0:
388,338,68654,1,0,0:0:0:0:
388,338,68807,2,0,P|328:268|226:283,1,176,2|8,0:0|0:0,0:0:0:0:
90,342,69725,2,0,L|82:283,1,44
44,226,70031,2,0,P|67:177|66:134,1,88,2|0,0:0|0:0,0:0:0:0:
169,52,70644,2,0,P|172:95|192:134,1,88,8|0,0:0|0:0,0:0:0:0:
299,211,71103,1,0,0:0:0:0:
321,209,71256,2,0,L|420:200,1,88,2|2,0:0|0:0,0:0:0:0:
387,68,71868,6,0,P|371:101|369:129,1,60.5000018463135,2|0,0:0|0:0,0:0:0:0:
395,283,72174,2,0,P|362:300|334:303,1,60.5000018463135,2|0,0:0|0:0,0:0:0:0:
218,245,72480,1,2,1:2:0:0:
204,233,72633,2,0,B|192:192|192:136|192:136,2,60.5000018463135,0|2|0,3:0|0:0|3:2,0:0:0:0:
128,303,73093,2,0,L|116:305,12,9.62499970626832,2|2|2|2|2|2|2|2|2|2|2|2|2,0:0|0:0|0:0|0:0|0:0|0:0|0:0|0:0|0:0|0:0|0:0|0:0|0:0,0:0:0:0:
69,334,73705,6,0,L|202:342,1,110,6|2,0:0|0:0,0:0:0:0:
366,241,74317,1,2,1:2:0:0:
217,189,74623,5,2,0:0:0:0:
326,155,74776,1,0,0:0:0:0:
206,193,74929,1,2,0:0:0:0:
437,118,75236,1,2,0:0:0:0:
383,351,75542,1,2,1:2:0:0:
269,201,75848,2,0,P|230:189|194:190,1,55,2|0,0:0|0:0,0:0:0:0:
140,246,76154,6,0,P|60:250|22:211,2,110,2|2|2,0:0|0:0|1:2,0:0:0:0:
269,50,77072,2,0,P|282:89|286:136,1,55,2|0,0:0|0:0,0:0:0:0:
287,209,77378,5,2,0:0:0:0:
194,257,77531,1,0,1:2:0:0:
300,205,77684,2,0,L|360:209,1,55,2|0,0:0|0:0,0:0:0:0:
429,135,77991,2,0,P|402:116|373:106,1,55,2|0,1:2|0:0,0:0:0:0:
317,289,78297,2,0,P|279:312|255:317,1,55,2|0,0:0|0:0,0:0:0:0:
118,278,78603,6,0,L|113:138,1,110,6|2,0:0|0:0,0:0:0:0:
270,47,79215,1,2,1:2:0:0:
352,234,79521,5,2,0:0:0:0:
404,135,79674,1,2,0:0:0:0:
345,243,79827,1,2,0:0:0:0:
232,51,80133,2,0,P|207:39|180:32,1,55,2|0,0:0|0:0,0:0:0:0:
137,168,80440,2,0,P|139:195|146:221,1,55,2|0,1:2|0:0,0:0:0:0:
282,194,80746,2,0,P|304:178|323:158,1,55,2|0,0:0|0:0,0:0:0:0:
221,139,81052,6,0,L|228:253,1,110,2|2,0:0|0:0,0:0:0:0:
414,346,81664,1,2,1:2:0:0:
480,235,81970,2,0,P|450:220|421:216,1,55,2|0,0:0|0:0,0:0:0:0:
314,263,82276,1,2,0:0:0:0:
246,304,82429,1,0,1:2:0:0:
166,301,82582,2,0,P|127:292|100:278,1,55,2|0,0:0|0:0,0:0:0:0:
210,148,82889,1,2,1:2:0:0:
317,347,83195,5,2,0:0:0:0:
317,347,83348,1,0,0:0:0:0:
317,347,83501,2,0,P|341:284|328:218,1,110,6|2,0:0|0:0,0:0:0:0:
434,70,84113,1,2,1:2:0:0:
198,141,84419,5,2,0:0:0:0:
307,107,84572,1,0,0:0:0:0:
187,145,84725,1,2,0:0:0:0:
262,346,85031,2,0,P|313:326|335:304,1,55,2|0,0:0|0:0,0:0:0:0:
349,169,85338,2,0,P|340:223|346:253,1,55,2|0,1:2|0:0,0:0:0:0:
455,338,85644,2,0,P|412:303|383:292,1,55,2|0,0:0|0:0,0:0:0:0:
250,256,85950,5,2,0:0:0:0:
479,188,86256,1,2,0:0:0:0:
316,122,86562,1,2,1:2:0:0:
241,352,86868,2,0,P|232:321|232:277,1,55,2|2,0:0|0:0,0:0:0:0:
261,206,87174,5,2,0:0:0:0:
153,246,87327,1,2,1:2:0:0:
270,201,87480,1,2,0:0:0:0:
141,348,87787,1,2,1:2:0:0:
176,134,88093,5,2,0:0:0:0:
176,134,88246,1,0,0:0:0:0:
176,134,88399,2,0,P|235:94|291:102,1,110,6|2,0:0|0:0,0:0:0:0:
466,216,89011,1,2,1:2:0:0:
294,304,89317,1,2,0:0:0:0:
364,145,89623,5,2,0:0:0:0:
396,322,89929,1,2,0:0:0:0:
242,221,90236,1,2,1:2:0:0:
226,352,90542,1,2,0:0:0:0:
370,242,90848,6,0,L|486:221,2,110,2|2|2,0:0|0:0|1:2,0:0:0:0:
231,179,91766,1,2,0:0:0:0:
129,326,92072,2,0,P|101:266|107:208,1,110,2|2,0:0|0:0,0:0:0:0:
240,116,92684,5,2,1:2:0:0:
294,170,92838,1,0,1:2:0:0:
260,240,92991,1,2,0:0:0:0:
183,227,93144,1,0,0:0:0:0:
171,151,93297,6,0,P|157:126|142:107,2,36.6666666666667,2|2|2,0:0|0:0|0:0,0:0:0:0:
69,204,93588,6,0,P|44:208|16:220,2,43.9999986572266,2|2|2,0:0|0:0|0:0,0:0:0:0:
85,318,93879,6,0,P|81:343|85:381,2,51.3333317667644,2|2|2,0:0|0:0|0:0,0:0:0:0:
200,337,94170,6,0,P|222:348|288:352,2,65.9999979858399,2|2|2,0:0|0:0|0:0,0:0:0:0:
250,240,94474,6,0,P|264:190|260:144,1,88,2|0,0:0|3:0,0:0:0:0:
241,21,94827,6,0,P|233:53|234:99,1,55
379,101,95133,2,0,P|352:120|309:136,1,55,8|0,0:0|0:0,0:0:0:0:
130,158,95439,2,0,P|156:177|199:193,1,55
356,210,95745,5,6,0:0:0:0:
120,345,96051,2,0,P|106:312|108:267,1,65.9999979858399,2|0,0:0|0:0,0:0:0:0:
147,84,96357,1,2,1:2:0:0:
120,345,96662,2,0,P|164:323|212:326,1,65.9999979858399,2|2,0:0|0:0,0:0:0:0:
329,351,96969,1,2,0:0:0:0:
119,191,97275,1,2,0:0:0:0:
278,128,97581,2,0,P|260:181|260:210,1,65.9999979858399,2|0,1:2|0:0,0:0:0:0:
329,351,97888,2,0,P|323:318|310:288,1,65.9999979858399,2|0,0:0|0:0,0:0:0:0:
120,345,98194,5,2,0:0:0:0:
376,225,98500,2,0,P|410:296|422:374,1,131.99999597168,2|0,0:0|1:2,0:0:0:0:
217,285,99112,2,0,P|224:240|240:211,1,65.9999979858399,2|0,0:0|0:0,0:0:0:0:
291,132,99418,5,2,0:0:0:0:
164,157,99571,1,2,0:0:0:0:
303,129,99724,1,2,0:0:0:0:
201,26,100030,6,0,P|215:56|220:88,1,65.9999979858399,2|0,1:2|0:0,0:0:0:0:
379,232,100337,2,0,P|346:229|315:217,1,65.9999979858399,2|0,0:0|0:0,0:0:0:0:
111,272,100643,2,0,P|129:244|155:224,1,65.9999979858399,2|0,0:0|0:0,0:0:0:0:
305,357,100949,5,2,0:0:0:0:
194,298,101255,1,2,1:2:0:0:
377,211,101561,1,2,0:0:0:0:
151,131,101867,1,2,0:0:0:0:
393,36,102172,1,2,0:0:0:0:
393,36,102325,1,0,0:0:0:0:
393,36,102479,2,0,P|383:108|386:126,1,65.9999979858399,2|0,1:2|0:0,0:0:0:0:
479,219,102786,2,0,P|411:191|397:180,1,65.9999979858399,2|0,0:0|0:0,0:0:0:0:
282,61,103092,1,2,0:0:0:0:
473,114,103398,5,2,0:0:0:0:
326,189,103551,1,2,0:0:0:0:
482,107,103704,1,2,1:2:0:0:
312,196,104010,6,0,P|256:208|230:210,1,65.9999979858399,2|0,0:0|0:0,0:0:0:0:
84,137,104316,1,2,0:0:0:0:
280,52,104622,1,2,0:0:0:0:
247,208,104928,1,2,1:2:0:0:
213,363,105235,1,2,0:0:0:0:
303,318,105388,1,0,0:0:0:0:
185,276,105541,6,0,P|113:274|66:310,2,131.99999597168,6|2|2,0:0|0:0|1:2,0:0:0:0:
420,336,106459,2,0,P|428:293|428:266,1,65.9999979858399,2|2,0:0|0:0,0:0:0:0:
358,94,106765,1,2,0:0:0:0:
205,261,107071,5,2,0:0:0:0:
344,290,107224,1,2,0:0:0:0:
188,257,107377,1,2,1:2:0:0:
257,97,107683,6,0,P|279:141|284:177,1,65.9999979858399,2|0,0:0|0:0,0:0:0:0:
261,325,107990,1,2,0:0:0:0:
390,227,108296,1,2,0:0:0:0:
390,227,108449,1,2,0:0:0:0:
390,227,108602,1,2,1:2:0:0:
131,125,108908,2,0,P|122:156|123:189,1,65.9999979858399,2|2,0:0|0:0,0:0:0:0:
172,333,109214,5,2,0:0:0:0:
390,227,109520,2,0,P|352:241|317:242,1,65.9999979858399,2|0,0:0|0:0,0:0:0:0:
202,166,109826,1,2,1:2:0:0:
301,24,110132,2,0,P|330:52|346:83,1,65.9999979858399,2|2,0:0|0:0,0:0:0:0:
326,242,110439,6,0,L|188:249,1,131.99999597168,6|0,0:0|0:0,0:0:0:0:
194,248,111051,1,2,1:2:0:0:
406,314,111357,1,2,0:0:0:0:
365,130,111663,2,0,P|319:188|336:258,1,131.99999597168,2|0,0:0|0:0,0:0:0:0:
406,314,112275,1,2,1:2:0:0:
229,238,112581,1,2,0:0:0:0:
403,208,112888,5,2,0:0:0:0:
258,334,113194,1,2,0:0:0:0:
418,199,113500,1,2,1:2:0:0:
224,131,113806,1,2,1:2:0:0:
185,200,113959,1,2,1:2:0:0:
198,277,114112,1,2,0:0:0:0:
376,130,114418,5,2,1:2:0:0:
300,108,114571,1,2,0:0:0:0:
224,131,114724,1,2,1:2:0:0:
185,200,114877,1,2,1:2:0:0:
198,277,115030,2,0,P|209:337|208:358,1,65.9999979858399,2|2,0:0|0:0,0:0:0:0:
78,330,115337,5,6,0:0:0:0:
302,227,115643,2,0,P|348:237|379:251,1,65.9999979858399,2|2,0:0|0:0,0:0:0:0:
457,339,115949,1,2,1:2:0:0:
302,227,116255,2,0,P|317:181|335:152,1,65.9999979858399,2|0,0:0|0:0,0:0:0:0:
427,64,116561,1,2,0:0:0:0:
234,138,116867,1,2,0:0:0:0:
433,281,117173,2,0,P|444:250|449:217,1,65.9999979858399,2|0,1:2|0:0,0:0:0:0:
309,102,117479,2,0,P|314:134|325:165,1,65.9999979858399,2|0,0:0|0:0,0:0:0:0:
467,139,117785,5,2,0:0:0:0:
216,86,118092,2,0,P|230:177|251:226,1,131.99999597168,2|0,0:0|1:2,0:0:0:0:
371,340,118704,2,0,P|321:338|301:330,1,65.9999979858399,2|0,0:0|0:0,0:0:0:0:
244,213,119010,1,2,0:0:0:0:
94,358,119316,6,0,P|97:301|106:280,1,65.9999979858399,2|0,0:0|0:0,0:0:0:0:
38,207,119622,2,0,P|88:181|111:178,1,65.9999979858399,2|0,1:2|0:0,0:0:0:0:
129,78,119928,2,0,P|176:109|190:127,1,65.9999979858399,2|0,0:0|0:0,0:0:0:0:
251,231,120235,1,6,0:0:0:0:
219,353,120541,5,2,0:0:0:0:
347,298,120847,1,2,1:2:0:0:
170,216,121153,1,2,0:0:0:0:
402,140,121459,1,2,0:0:0:0:
126,43,121765,1,2,0:0:0:0:
126,43,121918,1,0,0:0:0:0:
126,43,122071,2,0,P|147:74|161:129,1,65.9999979858399,2|0,1:2|0:0,0:0:0:0:
262,139,122377,2,0,P|241:170|227:225,1,65.9999979858399,2|0,0:0|0:0,0:0:0:0:
111,323,122683,1,2,0:0:0:0:
412,294,122990,5,2,0:0:0:0:
257,310,123143,1,2,0:0:0:0:
427,292,123296,1,2,1:2:0:0:
214,210,123602,6,0,P|216:178|224:146,1,65.9999979858399,2|0,0:0|0:0,0:0:0:0:
443,91,123908,1,2,0:0:0:0:
286,35,124214,1,2,0:0:0:0:
313,190,124520,1,2,1:2:0:0:
342,345,124826,1,2,0:0:0:0:
252,300,124979,1,0,0:0:0:0:
370,258,125132,6,0,P|442:256|489:292,2,131.99999597168,6|2|2,0:0|0:0|1:2,0:0:0:0:
177,312,126051,2,0,P|120:306|102:294,1,65.9999979858399,2|2,0:0|0:0,0:0:0:0:
57,114,126357,1,2,0:0:0:0:
282,161,126663,5,2,0:0:0:0:
156,228,126816,1,2,0:0:0:0:
297,153,126969,1,2,1:2:0:0:
362,337,127275,2,0,P|377:303|377:251,1,65.9999979858399,2|2,0:0|0:0,0:0:0:0:
362,88,127581,5,2,0:0:0:0:
150,140,127888,1,2,0:0:0:0:
150,140,128041,1,2,0:0:0:0:
150,140,128194,2,0,P|190:147|226:165,1,65.9999979858399,2|0,1:2|0:0,0:0:0:0:
348,231,128500,2,0,P|308:238|272:256,1,65.9999979858399,2|2,0:0|0:0,0:0:0:0:
214,336,128806,1,2,0:0:0:0:
418,353,129112,6,0,P|378:346|342:328,1,65.9999979858399,2|0,0:0|0:0,0:0:0:0:
292,154,129418,1,2,1:2:0:0:
115,264,129724,2,0,P|155:257|191:239,1,65.9999979858399,2|0,0:0|0:0,0:0:0:0:
241,65,130030,1,6,0:0:0:0:
358,222,130337,6,0,L|496:200,1,131.99999597168,2|2,0:0|1:2,0:0:0:0:
488,201,130949,1,2,0:0:0:0:
377,102,131255,1,2,0:0:0:0:
367,300,131561,1,2,0:0:0:0:
227,129,131867,1,2,1:2:0:0:
245,290,132173,1,2,0:0:0:0:
109,152,132479,5,2,0:0:0:0:
93,282,132786,1,2,0:0:0:0:
196,232,133092,1,2,1:2:0:0:
29,175,133398,1,2,0:0:0:0:
155,64,133704,1,6,0:0:0:0:
196,232,134010,2,0,P|213:198|219:166,1,65.9999979858399,2|0,0:0|0:0,0:0:0:0:
235,78,134316,6,0,P|232:43|228:30,2,43.9999986572266,2|0|2,0:0|0:0|0:0,0:0:0:0:
299,166,134622,2,0,P|302:201|306:214,2,43.9999986572266,0|2|0,0:0|0:0|0:0,0:0:0:0:
361,85,134928,5,6,0:0:0:0:
428,290,135235,1,2,0:0:0:0:
428,290,135388,1,0,0:0:0:0:
428,290,135541,2,0,P|398:258|369:239,1,65.9999979858399,2|0,1:2|0:0,0:0:0:0:
239,154,135847,2,0,P|229:213|238:253,1,65.9999979858399,2|0,0:0|0:0,0:0:0:0:
255,327,136153,2,0,P|151:324|112:330,1,131.99999597168,2|0,0:0|0:0,0:0:0:0:
107,331,136612,1,2,0:0:0:0:
91,336,136765,1,0,1:2:0:0:
142,98,137071,2,0,P|152:157|143:197,1,65.9999979858399,2|0,0:0|0:0,0:0:0:0:
104,246,137377,5,2,0:0:0:0:
287,296,137683,1,2,0:0:0:0:
287,296,137837,1,2,0:0:0:0:
287,296,137990,1,2,1:2:0:0:
137,346,138296,1,2,0:0:0:0:
220,177,138602,1,2,0:0:0:0:
137,346,138908,2,0,P|101:353|51:346,2,65.9999979858399,2|2|2,0:0|0:0|1:2,0:0:0:0:
281,117,139520,2,0,P|296:145|304:177,1,65.9999979858399,2|2,0:0|0:0,0:0:0:0:
288,312,139826,5,6,0:0:0:0:
399,241,140132,1,2,0:0:0:0:
235,212,140439,2,0,P|144:190|92:185,1,131.99999597168,2|2,1:2|0:0,0:0:0:0:
99,262,140898,2,0,P|154:246|177:232,1,65.9999979858399,2|2,0:0|0:0,0:0:0:0:
253,58,141357,6,0,P|295:62|350:96,1,82.5000031471254,6|2,0:0|0:0,0:0:0:0:
357,184,141663,1,2,3:2:0:0:
345,201,141816,1,2,3:2:0:0:
336,219,141969,1,2,3:2:0:0:
331,239,142122,1,2,3:2:0:0:
329,260,142275,6,0,P|381:317|475:301,2,176,2|0|0,0:0|0:0|0:0,0:0:0:0:
382,148,143806,5,2,0:0:0:0:
290,51,144112,2,0,P|252:38|219:38,1,65.9999979858399,2|0,1:2|1:2,0:0:0:0:
208,186,144418,2,0,P|170:199|137:199,1,65.9999979858399,2|0,3:2|3:2,0:0:0:0:
57,112,144724,5,6,0:0:0:0:
363,320,145183,2,0,L|424:312,1,55,2|2,0:0|1:2,0:0:0:0:
369,203,145643,1,2,0:0:0:0:
287,213,145796,1,2,0:0:0:0:
250,287,145949,6,0,P|183:311|124:283,1,110,2|2,0:0|0:0,0:0:0:0:
71,249,146408,2,0,P|50:213|46:165,2,55,2|0|2,0:0|1:2|0:0,0:0:0:0:
171,196,146867,2,0,L|182:116,1,55,2|0,0:0|0:0,0:0:0:0:
143,37,147173,5,2,0:0:0:0:
71,249,147479,2,0,P|92:265|136:280,1,55,2|2,0:0|0:0,0:0:0:0:
252,324,147786,1,2,1:2:0:0:
252,324,147939,2,0,P|274:309|314:296,1,55,2|0,0:0|0:0,0:0:0:0:
438,275,148245,2,0,L|475:289,2,27.5,2|2|2,0:0|0:0|0:0,0:0:0:0:
339,202,148551,5,2,0:0:0:0:
339,202,148704,2,0,P|312:200|272:186,1,55,2|0,0:0|0:0,0:0:0:0:
212,125,149010,2,0,P|160:125|89:159,2,87.9999973144532,2|2|2,1:2|0:0|0:0,0:0:0:0:
339,202,149622,1,2,0:0:0:0:
137,322,149928,2,0,P|117:325|53:321,2,55,2|2|2,0:0|0:0|1:2,0:0:0:0:
271,269,150387,5,2,0:0:0:0:
164,227,150541,1,2,0:0:0:0:
284,274,150693,1,2,0:0:0:0:
149,221,150847,6,0,P|144:197|145:149,1,55,2|2,0:0|0:0,0:0:0:0:
309,36,151153,1,2,0:0:0:0:
309,36,151306,2,0,P|308:63|302:90,1,55,2|0,0:0|1:2,0:0:0:0:
341,215,151612,1,2,0:0:0:0:
341,215,151765,2,0,P|316:226|289:233,1,55,2|2,0:0|0:0,0:0:0:0:
230,176,151995,6,0,L|221:139,1,27.5,2|2,0:0|0:0,0:0:0:0:
78,297,152377,1,2,0:0:0:0:
78,297,152530,2,0,P|123:285|148:286,1,55,2|0,0:0|1:2,0:0:0:0:
340,337,152837,1,2,0:0:0:0:
340,337,152990,2,0,P|314:327|286:324,1,55,2|0,0:0|0:0,0:0:0:0:
187,350,153296,5,2,0:0:0:0:
276,172,153602,2,0,P|308:180|363:182,1,55,2|0,0:0|0:0,0:0:0:0:
450,219,153908,2,0,P|459:170|459:131,2,73.3333333333333,2|2|2,1:2|0:0|0:0,0:0:0:0:
340,337,154520,5,6,0:0:0:0:
201,122,154826,2,0,P|192:158|194:205,1,55,2|0,0:0|0:0,0:0:0:0:
168,278,155132,2,0,P|129:287|76:286,2,73.3333333333333,2|2|2,1:2|0:0|0:0,0:0:0:0:
313,213,155745,5,2,0:0:0:0:
104,153,156051,1,2,0:0:0:0:
104,153,156204,2,0,P|110:106|114:93,1,55,2|0,0:0|1:2,0:0:0:0:
255,39,156510,1,2,0:0:0:0:
256,40,156663,2,0,P|262:66|264:94,1,55,2|0,0:0|0:0,0:0:0:0:
219,183,156969,5,2,0:0:0:0:
313,220,157122,1,2,0:0:0:0:
225,265,157275,1,2,0:0:0:0:
320,302,157428,1,2,0:0:0:0:
232,347,157581,5,2,1:2:0:0:
307,132,157888,1,2,0:0:0:0:
460,261,158194,2,0,P|462:233|455:198,2,55,6|2|2,0:0|0:0|0:0,0:0:0:0:
427,350,158653,1,2,0:0:0:0:
427,350,158806,2,0,L|353:338,1,55,2|2,1:2|0:0,0:0:0:0:
225,265,159112,2,0,L|299:253,1,55,2|2,1:2|0:0,0:0:0:0:
385,160,159418,5,6,0:0:0:0:
214,14,159724,2,0,P|204:53|201:95,1,55,2|2,0:0|0:0,0:0:0:0:
224,149,160030,2,0,L|328:152,2,73.3333333333333,2|2|2,1:2|0:0|0:0,0:0:0:0:
106,226,160643,5,2,0:0:0:0:
272,367,160949,2,0,P|282:328|285:286,1,55,2|2,0:0|0:0,0:0:0:0:
268,232,161255,2,0,L|164:229,2,73.3333333333333,2|2|2,1:2|0:0|0:0,0:0:0:0:
321,138,161867,1,6,0:0:0:0:
259,336,162173,5,2,3:2:0:0:
375,286,162479,1,2,1:2:0:0:
187,196,162786,1,2,1:2:0:0:
409,108,163092,1,6,0:0:0:0:
144,35,163398,2,0,P|136:84|137:106,1,55,2|0,1:2|0:0,0:0:0:0:
187,196,163704,5,2,1:2:0:0:
208,199,163857,1,2,1:2:0:0:
229,202,164010,1,2,3:2:0:0:
250,205,164163,1,2,3:2:0:0:
271,208,164316,6,0,L|416:194,1,110,6|0,0:0|0:0,0:0:0:0:
390,202,164775,1,2,0:0:0:0:
399,207,164928,1,2,1:2:0:0:
251,127,165235,2,0,P|207:116|191:116,1,55,2|2,0:0|0:0,0:0:0:0:
111,242,165541,2,0,P|167:277|224:230,1,110,2|0,0:0|0:0,0:0:0:0:
271,208,166000,1,2,0:0:0:0:
330,151,166153,2,0,P|386:116|443:163,1,110,2|2,1:2|0:0,0:0:0:0:
412,334,166765,6,0,L|258:324,1,110,2|2,0:0|0:0,0:0:0:0:
242,269,167224,1,2,0:0:0:0:
312,225,167377,2,0,L|421:232,1,110,2|2,1:2|0:0,0:0:0:0:
481,290,167837,1,2,0:0:0:0:
412,334,167990,2,0,L|258:324,1,110,2|0,0:0|0:0,0:0:0:0:
143,155,168602,2,0,P|131:188|132:221,1,55,2|0,1:2|0:0,0:0:0:0:
213,346,168908,2,0,P|210:318|200:293,1,55,2|0,0:0|0:0,0:0:0:0:
130,207,169214,6,0,P|135:145|157:93,1,110,6|2,0:0|0:0,0:0:0:0:
208,40,169673,1,2,0:0:0:0:
267,97,169826,2,0,L|405:84,1,110,2|2,1:2|0:0,0:0:0:0:
346,188,170286,1,2,0:0:0:0:
346,188,170439,2,0,P|328:263|354:302,1,110,2|2,0:0|0:0,0:0:0:0:
468,360,171051,2,0,P|484:308|463:258,1,110,2|2,1:2|0:0,0:0:0:0:
346,188,171663,5,2,0:0:0:0:
269,345,171969,1,2,0:0:0:0:
385,267,172275,1,2,1:2:0:0:
170,186,172581,1,2,3:2:0:0:
409,60,172888,5,2,1:2:0:0:
450,125,173041,1,0,1:2:0:0:
443,201,173194,1,2,3:2:0:0:
275,332,173500,5,2,1:2:0:0:
241,327,173653,1,2,1:2:0:0:
206,322,173806,1,2,3:2:0:0:
172,317,173959,1,2,3:2:0:0:
138,312,174112,6,0,P|73:272|28:264,1,110,6|2,0:0|0:0,0:0:0:0:
154,220,174571,1,2,0:0:0:0:
154,220,174724,2,0,P|206:204|251:172,1,110,2|2,1:2|0:0,0:0:0:0:
226,46,175183,1,2,0:0:0:0:
226,46,175337,6,0,P|247:87|250:109,1,55,2|0,0:0|0:0,0:0:0:0:
340,101,175643,2,0,P|319:142|316:164,1,55,2|0,0:0|0:0,0:0:0:0:
114,114,175949,2,0,P|149:104|177:105,1,55,2|0,1:2|0:0,0:0:0:0:
385,28,176255,2,0,P|358:19|331:17,1,55,2|0,0:0|1:2,0:0:0:0:
250,172,176561,6,0,L|262:316,1,121.000003692627,10|2,0:0|0:0,0:0:0:0:
202,184,177173,6,0,L|194:284,1,98.9999969787599,10|2,0:0|0:0,0:0:0:0:
155,191,177786,6,0,L|138:272,1,76.9999976501466,10|4,0:0|0:3,0:0:0:0:
124,338,178194,6,0,L|133:366,1,25.6666658833822,0|8,0:0|0:3,0:0:0:0:
223,291,178398,2,0,L|232:259,2,25.6666658833822,2|0|0,0:0|0:0|0:0,0:0:0:0:
322,325,178704,2,0,L|332:355,2,25.6666658833822,8|0|8,0:3|0:0|0:3,0:0:0:0:
417,276,179010,6,0,L|396:143,1,110,6|2,0:0|0:0,0:0:0:0:
397,39,179622,2,0,P|342:84|289:70,1,110,2|2,1:2|0:0,0:0:0:0:
200,36,180081,1,2,0:0:0:0:
200,36,180235,2,0,L|191:178,1,110,2|2,0:0|0:0,0:0:0:0:
187,261,180847,1,2,1:2:0:0:
78,213,181153,1,2,0:0:0:0:
261,179,181459,1,6,0:0:0:0:
197,354,181765,5,2,3:2:0:0:
320,295,182071,1,2,3:2:0:0:
171,236,182377,1,2,3:2:0:0:
380,174,182683,2,0,P|334:155|312:154,1,55,2|0,1:2|0:0,0:0:0:0:
100,111,182990,2,0,P|146:92|168:91,1,55,2|0,1:2|0:0,0:0:0:0:
264,22,183296,6,0,P|273:65|268:97,1,55,2|0,1:2|1:2,0:0:0:0:
238,174,183602,2,0,P|229:217|234:249,1,55,2|0,3:2|0:0,0:0:0:0:
264,326,183908,5,6,0:0:0:0:
256,192,184061,12,2,188194,0:3:0:0:
354,133,192785,5,2,1:2:0:0:
273,257,193091,1,2,0:0:0:0:
257,319,193397,1,2,0:0:0:0:
270,356,193703,5,2,0:0:0:0:
376,316,194009,1,2,0:0:0:0:
192,238,194315,1,10,0:0:0:0:
390,116,194621,1,2,0:0:0:0:
298,278,194927,5,2,0:0:0:0:
192,238,195233,1,2,0:0:0:0:
376,160,195539,1,10,0:0:0:0:
178,38,195847,1,2,0:0:0:0:
164,228,196152,6,0,P|111:239|68:207,1,110,2|2,0:0|0:0,0:0:0:0:
68,208,196764,1,10,0:0:0:0:
167,118,197070,2,0,P|259:169|263:274,1,220,2|2,3:2|0:0,0:0:0:0:
90,301,197989,5,2,1:2:0:0:
183,332,198142,1,0,1:2:0:0:
264,275,198295,1,2,3:2:0:0:
439,179,198601,5,6,0:0:0:0:
234,145,198907,2,0,P|238:176|256:207,1,55,2|0,0:0|0:0,0:0:0:0:
337,321,199213,2,0,P|348:296|351:268,1,55,10|0,0:0|0:0,0:0:0:0:
340,163,199519,1,2,0:0:0:0:
340,163,199672,2,0,L|332:86,1,55,0|2,0:0|0:0,0:0:0:0:
234,145,199978,1,0,0:0:0:0:
234,145,200131,2,0,L|226:68,1,55,2|0,0:0|0:0,0:0:0:0:
130,126,200438,1,10,0:0:0:0:
309,279,200744,1,2,0:0:0:0:
108,350,201050,5,2,0:0:0:0:
183,205,201356,2,0,P|200:243|204:276,1,55,2|0,0:0|0:0,0:0:0:0:
312,360,201662,2,0,P|338:352|362:340,1,55,10|0,0:0|0:0,0:0:0:0:
427,210,201968,1,2,0:0:0:0:
427,199,202121,1,0,0:0:0:0:
427,188,202274,1,2,0:0:0:0:
427,177,202427,1,0,0:0:0:0:
428,166,202580,2,0,L|408:97,1,55,6|0,0:0|0:0,0:0:0:0:
301,48,202887,5,10,0:0:0:0:
207,85,203040,1,0,0:0:0:0:
295,130,203193,1,2,0:0:0:0:
200,167,203346,1,0,0:0:0:0:
288,212,203510,6,0,L|341:223,2,36.6666666666667,2|2|2,0:0|0:0|0:0,0:0:0:0:
207,246,203822,2,0,L|156:257,2,36.6666666666667,2|2|2,0:0|0:0|0:0,0:0:0:0:
311,313,204098,6,0,L|372:328,2,43.9999986572266,2|2|2,0:0|0:0|0:0,0:0:0:0:
203,336,204388,2,0,L|140:349,2,43.9999986572266,2|2|2,0:0|0:0|0:0,0:0:0:0:
323,220,204726,6,0,L|378:209,2,51.3333317667644,2|2|2,0:0|0:0|0:0,0:0:0:0:
193,174,205030,2,0,L|133:159,2,51.3333317667644,2|2|2,0:0|0:0|0:0,0:0:0:0:
338,124,205300,6,0,L|405:110,2,58.6666666666667,2|2|2,0:0|0:0|0:0,0:0:0:0:
172,70,205604,2,0,L|99:52,2,58.6666666666667,2|2|2,0:0|0:0|0:0,0:0:0:0:
355,27,205948,5,6,0:0:0:0:
270,92,207172,5,0,1:2:0:0:
323,220,207325,1,0,3:2:0:0:
323,220,207631,5,0,0:0:0:0:
410,177,207785,2,0,P|382:142|336:124,1,88,2|0,1:2|1:2,0:0:0:0:
242,245,208090,1,0,3:2:0:0:
258,276,208244,1,0,3:2:0:0:
281,291,208397,6,0,P|349:302|394:261,1,131.99999597168,6|2,0:0|0:0,0:0:0:0:
304,40,209009,1,2,1:2:0:0:
161,175,209315,2,0,P|217:187|241:186,1,65.9999979858399,2|2,0:0|0:0,0:0:0:0:
358,141,209621,1,2,0:0:0:0:
202,275,209927,1,2,0:0:0:0:
351,349,210234,2,0,P|345:316|332:286,1,65.9999979858399,2|0,1:2|0:0,0:0:0:0:
244,124,210540,2,0,P|226:177|226:206,1,65.9999979858399,2|0,0:0|0:0,0:0:0:0:
245,344,210846,5,2,0:0:0:0:
123,196,211152,2,0,P|133:130|158:70,1,131.99999597168,2|0,0:0|1:2,0:0:0:0:
312,185,211764,2,0,P|324:215|327:248,1,65.9999979858399,2|0,0:0|0:0,0:0:0:0:
259,341,212070,5,2,0:0:0:0:
398,314,212223,1,2,0:0:0:0:
245,344,212376,1,2,0:0:0:0:
289,97,212682,6,0,P|245:127|227:154,1,65.9999979858399,2|0,1:2|0:0,0:0:0:0:
118,119,212989,2,0,P|122:172|136:201,1,65.9999979858399,2|0,0:0|0:0,0:0:0:0:
52,276,213295,2,0,P|100:298|132:300,1,65.9999979858399,6|0,0:0|0:0,0:0:0:0:
300,354,213601,5,2,0:0:0:0:
191,282,213907,1,2,1:2:0:0:
377,211,214213,1,2,0:0:0:0:
151,131,214519,1,2,0:0:0:0:
393,36,214824,1,2,0:0:0:0:
393,36,214977,1,0,0:0:0:0:
393,36,215131,2,0,L|402:124,1,65.9999979858399,2|0,1:2|0:0,0:0:0:0:
261,237,215438,2,0,L|267:171,1,65.9999979858399,2|0,0:0|0:0,0:0:0:0:
280,51,215744,1,2,0:0:0:0:
341,252,216050,5,2,0:0:0:0:
179,220,216203,1,2,0:0:0:0:
352,252,216356,1,2,1:2:0:0:
229,361,216662,6,0,P|230:328|237:295,1,65.9999979858399,2|0,0:0|0:0,0:0:0:0:
366,178,216968,1,2,0:0:0:0:
280,52,217274,1,2,0:0:0:0:
480,193,217580,1,2,1:2:0:0:
339,302,217886,1,2,3:2:0:0:
260,337,218040,1,0,0:0:0:0:
175,325,218193,6,0,P|104:303|78:240,1,131.99999597168,6|2,0:0|0:0,0:0:0:0:
77,242,218652,1,0,0:0:0:0:
80,229,218805,1,2,1:2:0:0:
188,47,219111,2,0,P|199:77|201:110,1,65.9999979858399,2|2,0:0|0:0,0:0:0:0:
164,239,219417,1,2,0:0:0:0:
320,128,219723,5,2,0:0:0:0:
349,267,219876,1,2,0:0:0:0:
316,111,220029,1,2,1:2:0:0:
414,329,220335,6,0,P|370:351|334:356,1,65.9999979858399,2|0,0:0|0:0,0:0:0:0:
150,294,220642,1,2,0:0:0:0:
342,172,220948,1,2,0:0:0:0:
342,172,221101,1,2,0:0:0:0:
342,172,221254,1,2,1:2:0:0:
240,313,221560,2,0,P|241:280|232:248,1,65.9999979858399,2|2,0:0|0:0,0:0:0:0:
158,135,221866,5,2,0:0:0:0:
86,278,222172,2,0,P|124:292|159:293,1,65.9999979858399,2|0,0:0|0:0,0:0:0:0:
284,150,222478,1,2,1:2:0:0:
113,55,222784,2,0,P|84:83|68:114,1,65.9999979858399,2|0,0:0|0:0,0:0:0:0:
86,278,223091,6,0,L|224:285,1,131.99999597168,6|2,0:0|0:0,0:0:0:0:
217,284,223703,1,2,1:2:0:0:
116,172,224009,1,2,0:0:0:0:
150,326,224315,2,0,P|209:366|274:340,1,131.99999597168,2|2,0:0|0:0,0:0:0:0:
338,196,224927,1,2,1:2:0:0:
473,289,225233,1,2,0:0:0:0:
326,315,225540,5,2,0:0:0:0:
490,184,225846,1,2,0:0:0:0:
297,111,226152,1,2,1:2:0:0:
242,302,226458,1,2,0:0:0:0:
158,289,226611,1,2,1:2:0:0:
74,276,226764,1,2,0:0:0:0:
410,328,227070,5,2,1:2:0:0:
326,315,227223,1,2,0:0:0:0:
242,302,227376,1,2,1:2:0:0:
158,289,227529,1,2,1:2:0:0:
74,276,227682,2,0,L|62:194,1,65.9999979858399,2|2,3:2|3:2,0:0:0:0:
109,104,227988,5,6,0:0:0:0:
319,238,228294,2,0,P|358:236|400:215,1,65.9999979858399,2|2,0:0|0:0,0:0:0:0:
449,110,228601,1,2,1:2:0:0:
248,194,228907,2,0,P|238:225|234:258,1,65.9999979858399,2|0,0:0|0:0,0:0:0:0:
285,359,229213,1,2,0:0:0:0:
141,256,229519,1,2,0:0:0:0:
362,196,229825,2,0,P|358:163|347:131,1,65.9999979858399,2|0,1:2|0:0,0:0:0:0:
233,258,230131,2,0,P|222:289|218:322,1,65.9999979858399,2|0,0:0|0:0,0:0:0:0:
381,325,230437,5,2,0:0:0:0:
165,195,230744,2,0,P|149:223|140:255,1,65.9999979858399,2|2,0:0|0:0,0:0:0:0:
138,355,231050,1,2,1:2:0:0:
300,185,231356,2,0,P|298:152|287:121,1,65.9999979858399,2|0,0:0|0:0,0:0:0:0:
184,34,231662,5,2,0:0:0:0:
297,270,231968,1,2,0:0:0:0:
470,106,232274,6,0,P|441:89|409:82,1,65.9999979858399,2|0,1:2|0:0,0:0:0:0:
240,210,232580,2,0,P|268:193|300:186,1,65.9999979858399,2|0,0:0|0:0,0:0:0:0:
468,307,232886,2,0,P|439:290|407:283,1,65.9999979858399,6|0,0:2|0:0,0:0:0:0:
194,358,233193,6,0,P|226:350|254:334,1,65.9999979858399,2|2,0:0|0:0,0:0:0:0:
327,229,233499,1,2,1:2:0:0:
169,151,233805,1,2,0:0:0:0:
192,267,234111,1,2,0:0:0:0:
241,37,234417,1,2,0:0:0:0:
241,37,234570,1,0,0:0:0:0:
241,37,234723,2,0,P|255:73|280:96,1,65.9999979858399,2|0,1:2|0:0,0:0:0:0:
358,132,235029,2,0,P|395:142|428:136,1,65.9999979858399,2|0,0:0|0:0,0:0:0:0:
493,87,235336,1,2,0:0:0:0:
411,219,235642,5,2,0:0:0:0:
395,64,235795,1,2,0:0:0:0:
413,234,235948,1,2,1:2:0:0:
270,144,236254,6,0,P|240:131|207:128,1,65.9999979858399,2|0,0:0|0:0,0:0:0:0:
55,167,236560,1,2,0:0:0:0:
220,208,236866,1,2,0:0:0:0:
121,93,237172,1,2,1:2:0:0:
189,281,237478,1,2,0:0:0:0:
267,316,237631,1,0,0:0:0:0:
352,312,237784,6,0,P|409:296|445:209,2,131.99999597168,6|2|2,0:0|0:0|1:2,0:0:0:0:
243,147,238703,2,0,P|269:198|268:219,1,65.9999979858399,2|2,0:0|0:0,0:0:0:0:
217,361,239009,1,2,0:0:0:0:
51,248,239315,5,2,0:0:0:0:
187,206,239468,1,2,0:0:0:0:
34,252,239621,1,2,1:2:0:0:
292,330,239927,2,0,P|307:296|307:244,1,65.9999979858399,2|2,0:0|0:0,0:0:0:0:
207,127,240233,5,2,0:0:0:0:
396,189,240540,1,2,0:0:0:0:
396,189,240693,1,2,0:0:0:0:
396,189,240846,2,0,P|436:182|472:164,1,65.9999979858399,2|0,1:2|0:0,0:0:0:0:
294,35,241152,2,0,P|286:74|291:114,1,65.9999979858399,2|2,0:0|0:0,0:0:0:0:
310,267,241458,1,2,0:0:0:0:
459,171,241764,6,0,P|406:154|365:153,1,65.9999979858399,2|0,0:0|0:0,0:0:0:0:
214,194,242070,1,2,1:2:0:0:
335,347,242376,1,2,0:0:0:0:
335,347,242529,1,2,0:0:0:0:
335,347,242682,2,0,L|228:338,1,65.9999979858399,6|0,0:0|0:0,0:0:0:0:
186,277,242989,6,0,P|247:237|315:248,1,131.99999597168,2|6,0:0|0:0,0:0:0:0:
415,355,243601,1,2,0:0:0:0:
429,167,243907,1,2,0:0:0:0:
303,242,244213,1,2,0:0:0:0:
466,274,244519,1,2,1:2:0:0:
313,145,244825,1,2,0:0:0:0:
313,145,244978,1,0,1:2:0:0:
313,145,245131,1,2,0:0:0:0:
235,334,245438,5,2,0:0:0:0:
197,256,245591,1,2,0:0:0:0:
226,175,245744,1,2,1:2:0:0:
359,270,246050,2,0,P|294:276|281:271,1,65.9999979858399,2|2,0:0|1:2,0:0:0:0:
112,156,246356,1,2,1:2:0:0:
233,48,246662,5,2,1:2:0:0:
233,48,246815,1,0,0:0:0:0:
233,48,246968,1,2,1:2:0:0:
342,89,247121,1,0,1:2:0:0:
241,146,247274,1,0,3:2:0:0:
350,187,247427,1,0,3:2:0:0:
249,244,247580,5,6,0:0:0:0:
123,41,247887,1,2,0:0:0:0:
123,41,248040,1,2,0:0:0:0:
123,41,248193,2,0,P|136:85|130:130,1,76.9999976501466,2|0,1:2|0:0,0:0:0:0:
92,248,248499,2,0,P|135:227|208:228,1,76.9999976501466,2|0,0:0|0:0,0:0:0:0:
311,248,248805,1,2,0:0:0:0:
245,98,249111,1,2,0:0:0:0:
400,294,249417,2,0,P|410:241|406:210,1,76.9999976501466,2|0,1:2|0:0,0:0:0:0:
231,305,249723,2,0,P|274:337|303:347,1,76.9999976501466,2|0,0:0|0:0,0:0:0:0:
492,286,250029,5,2,0:0:0:0:
311,248,250336,1,2,0:0:0:0:
248,180,250489,1,2,0:0:0:0:
261,88,250642,1,2,1:2:0:0:
463,182,250948,2,0,P|416:182|385:168,1,76.9999976501466,2|0,0:0|0:0,0:0:0:0:
261,88,251254,2,0,P|214:88|183:102,1,76.9999976501466,2|0,0:0|0:0,0:0:0:0:
213,278,251560,6,0,P|236:237|239:203,1,76.9999976501466,2|0,0:0|0:0,0:0:0:0:
72,133,251866,2,0,P|95:173|123:193,1,76.9999976501466,2|0,1:2|0:0,0:0:0:0:
328,160,252172,1,2,0:0:0:0:
318,346,252478,5,6,0:0:0:0:
189,277,252785,1,2,0:0:0:0:
373,230,253091,1,2,1:2:0:0:
148,122,253397,2,0,P|205:172|288:157,1,153.999995300293,2|2,0:0|0:0,0:0:0:0:
388,32,254009,5,2,0:0:0:0:
347,196,254315,1,2,1:2:0:0:
306,360,254621,1,2,0:0:0:0:
164,272,254927,1,2,0:0:0:0:
347,196,255234,5,2,0:0:0:0:
160,152,255387,1,2,0:0:0:0:
360,198,255540,1,2,1:2:0:0:
247,348,255846,2,0,P|234:304|242:262,1,76.9999976501466,2|2,0:0|0:0,0:0:0:0:
271,81,256152,1,2,0:0:0:0:
119,139,256458,1,2,0:0:0:0:
352,214,256764,1,2,1:2:0:0:
149,312,257070,5,2,0:0:0:0:
352,352,257223,1,2,0:0:0:0:
136,310,257376,1,6,0:0:0:0:
342,168,257682,5,2,0:0:0:0:
164,205,257835,1,2,0:0:0:0:
355,166,257988,1,2,1:2:0:0:
155,42,258295,5,2,0:0:0:0:
358,82,258448,1,2,0:0:0:0:
142,40,258601,1,2,0:0:0:0:
205,287,258907,2,0,P|254:226|210:128,2,153.999995300293,2|2|2,0:0|1:2|0:0,0:0:0:0:
89,216,259672,1,2,0:0:0:0:
89,216,259825,6,0,P|150:202|167:205,1,76.9999976501466,2|0,0:0|0:0,0:0:0:0:
364,301,260131,1,2,0:0:0:0:
364,301,260284,1,2,0:0:0:0:
364,301,260437,2,0,P|384:238|377:202,1,76.9999976501466,2|0,1:2|0:0,0:0:0:0:
225,39,260743,1,2,0:0:0:0:
225,39,260896,1,0,0:0:0:0:
225,39,261051,6,0,P|240:103|264:130,1,76.9999976501466,2|0,0:0|0:0,0:0:0:0:
371,144,261356,2,0,P|337:157|305:189,1,76.9999976501466,2|0,0:0|0:0,0:0:0:0:
143,180,261662,2,0,P|177:193|209:225,1,76.9999976501466,2|0,1:2|0:0,0:0:0:0:
269,360,261968,2,0,P|286:325|289:287,1,76.9999976501466,2|0,0:0|0:0,0:0:0:0:
245,111,262274,5,6,0:0:0:0:
442,236,262580,1,2,0:0:0:0:
442,236,262734,1,2,0:0:0:0:
442,236,262887,2,0,P|400:256|347:245,1,76.9999976501466,2|0,1:2|0:0,0:0:0:0:
206,220,263193,1,2,0:0:0:0:
294,35,263499,2,0,L|304:212,1,153.999995300293,2|2,0:0|0:0,0:0:0:0:
201,344,264111,1,2,1:2:0:0:
63,219,264417,1,2,0:0:0:0:
159,150,264723,5,2,0:0:0:0:
138,265,265029,1,2,0:0:0:0:
282,114,265336,1,2,1:2:0:0:
302,300,265642,1,2,1:2:0:0:
450,66,265948,1,2,1:2:0:0:
429,329,266254,1,2,1:2:0:0:
348,170,266560,6,0,P|321:145|299:131,1,51.3333317667644,2|0,0:0|0:0,0:0:0:0:
186,106,266764,2,0,P|177:141|176:167,1,51.3333317667644,2|0,0:0|0:0,0:0:0:0:
212,282,266968,2,0,P|247:271|270:259,1,51.3333317667644,2|0,0:0|0:0,0:0:0:0:
248,182,267172,6,0,L|74:193,2,153.999995300293,6|2|2,0:0|0:0|1:2,0:0:0:0:
357,46,268091,2,0,P|382:82|397:126,1,76.9999976501466,2|0,0:0|0:0,0:0:0:0:
375,271,268397,2,0,L|275:264,1,76.9999976501466,2|0,0:0|0:0,0:0:0:0:
190,239,268703,1,2,0:0:0:0:
190,239,268856,1,2,0:0:0:0:
190,239,269009,2,0,P|191:284|211:339,1,76.9999976501466,2|0,1:2|0:0,0:0:0:0:
467,321,269315,2,0,P|476:283|476:245,1,76.9999976501466,2|2,0:0|0:0,0:0:0:0:
394,82,269621,5,2,0:0:0:0:
332,261,269927,1,2,0:0:0:0:
475,164,270234,1,2,1:2:0:0:
293,145,270540,1,2,0:0:0:0:
366,334,270846,5,2,0:0:0:0:
396,140,271152,2,0,P|379:202|361:221,1,76.9999976501466,2|2,0:0|0:0,0:0:0:0:
282,339,271458,2,0,P|258:309|248:273,1,76.9999976501466,2|2,1:2|0:0,0:0:0:0:
293,145,271764,1,2,0:0:0:0:
186,185,271917,2,0,L|138:177,2,38.4999988250733,2|2|6,0:0|0:0|0:0,0:0:0:0:
395,139,272376,6,0,P|387:102|364:71,1,76.9999976501466,2|2,0:0|0:0,0:0:0:0:
201,26,272682,2,0,P|178:94|186:127,1,76.9999976501466,2|0,1:2|0:0,0:0:0:0:
209,260,272989,1,2,0:0:0:0:
209,260,273142,1,2,0:0:0:0:
209,260,273295,2,0,P|237:235|293:230,1,76.9999976501466,2|2,0:0|0:0,0:0:0:0:
400,323,273601,2,0,P|391:285|367:256,1,76.9999976501466,2|0,0:0|0:0,0:0:0:0:
287,339,273907,1,2,1:2:0:0:
357,69,274213,2,0,P|344:118|349:164,1,76.9999976501466,2|2,0:0|0:0,0:0:0:0:
367,256,274519,5,2,0:0:0:0:
470,130,274825,1,2,0:0:0:0:
470,130,274978,1,2,0:0:0:0:
470,130,275131,1,2,1:2:0:0:
261,55,275438,1,2,0:0:0:0:
257,77,275591,1,2,0:0:0:0:
253,99,275744,6,0,P|267:158|264:186,1,76.9999976501466,2|0,0:0|0:0,0:0:0:0:
136,261,276050,2,0,P|187:229|215:223,1,76.9999976501466,2|0,3:2|0:0,0:0:0:0:
398,251,276356,2,0,P|338:241|313:228,1,76.9999976501466,2|0,1:2|0:0,0:0:0:0:
244,358,276662,2,0,P|245:320|258:284,1,76.9999976501466,2|0,0:0|0:0,0:0:0:0:
367,345,276968,5,6,0:0:0:0:
459,165,277274,2,0,P|429:151|370:152,1,76.9999976501466,2|2,0:0|0:0,0:0:0:0:
196,204,277580,2,0,P|187:175|189:116,1,76.9999976501466,2|0,1:2|0:0,0:0:0:0:
300,74,277887,1,2,0:0:0:0:
300,74,278040,2,0,P|300:112|290:149,1,76.9999976501466,2|0,0:0|0:0,0:0:0:0:
239,308,278346,1,2,0:0:0:0:
239,308,278499,2,0,L|142:299,1,76.9999976501466,2|0,0:0|0:0,0:0:0:0:
69,269,278805,1,2,1:2:0:0:
335,248,279111,2,0,P|352:293|354:350,1,76.9999976501466,2|0,0:0|0:0,0:0:0:0:
162,300,279417,6,0,P|167:262|182:226,1,76.9999976501466,2|0,0:0|0:0,0:0:0:0:
286,132,279723,1,2,0:0:0:0:
314,142,279876,1,2,0:0:0:0:
343,151,280029,2,0,L|438:140,1,76.9999976501466,2|0,1:2|0:0,0:0:0:0:
488,280,280336,2,0,L|411:271,1,76.9999976501466,2|0,0:0|0:0,0:0:0:0:
280,324,280642,1,2,0:0:0:0:
280,324,280795,1,2,0:0:0:0:
280,324,280948,2,0,P|277:284|261:242,1,76.9999976501466,6|2,0:0|0:0,0:0:0:0:
155,110,281254,5,2,1:2:0:0:
288,79,281407,1,2,1:2:0:0:
198,182,281560,1,2,3:2:0:0:
210,45,281713,1,2,3:2:0:0:
281,163,281866,1,6,0:0:0:0:
310,250,283091,5,2,0:0:0:0:
343,337,284315,5,6,0:0:0:0:
214,295,284621,1,2,1:2:0:0:
332,207,284927,1,2,1:2:0:0:
133,139,285234,1,2,1:2:0:0:
326,27,285540,1,2,3:2:0:0:
326,27,285693,1,2,3:2:0:0:
326,27,285846,2,0,P|335:65|328:111,1,65.9999979858399,2|2,3:2|0:0,0:0:0:0:
205,277,286152,5,2,1:2:0:0:
270,155,286305,1,2,1:2:0:0:
289,292,286458,1,2,3:2:0:0:
194,194,286611,1,2,3:2:0:0:
328,217,286764,1,6,0:0:0:0:
441,76,287070,6,0,P|410:88|367:86,1,65.9999979858399
264,28,287376,2,0,P|252:100|282:173,1,131.99999597168,2|0,0:0|0:0,0:0:0:0:
289,292,287836,1,0,0:0:0:0:
289,292,287989,2,0,P|208:269|130:274,2,131.99999597168,0|0|2,0:0|0:0|0:0,0:0:0:0:
173,359,288907,2,0,P|140:357|105:341,1,65.9999979858399
240,218,289213,6,0,P|270:205|365:244,1,131.99999597168
358,235,289825,1,2,0:0:0:0:
160,271,290131,2,0,P|148:241|146:207,1,65.9999979858399
193,89,290438,2,0,L|45:74,2,131.99999597168,0|0|2,0:0|0:0|0:0,0:0:0:0:
367,145,291356,5,0,0:0:0:0:
367,145,291509,1,0,0:0:0:0:
367,145,291662,2,0,P|329:204|340:268,1,131.99999597168,4|0,0:0|0:0,0:0:0:0:
468,257,292121,2,0,P|435:229|397:221,1,65.9999979858399,0|2,0:0|0:0,0:0:0:0:
226,244,292580,5,0,0:0:0:0:
226,244,292734,1,0,0:0:0:0:
225,243,292887,2,0,L|223:131,1,65.9999979858399
233,34,293193,1,0,0:0:0:0:
233,34,293499,6,0,L|226:99,1,65.9999979858399,2|0,0:0|0:0,0:0:0:0:
226,244,293805,1,0,0:0:0:0:
226,244,293958,1,0,0:0:0:0:
226,244,294111,2,0,P|151:280|69:259,1,131.99999597168
110,117,294570,1,2,0:0:0:0:
110,117,294723,2,0,P|136:163|141:186,1,65.9999979858399,10|0,0:0|0:0,0:0:0:0:
178,317,295029,2,0,P|208:338|261:336,1,65.9999979858399,2|0,0:0|0:0,0:0:0:0:
415,324,295336,6,0,L|427:181,1,131.99999597168,2|0,0:0|0:0,0:0:0:0:
381,55,295795,1,0,0:0:0:0:
381,55,295948,2,0,L|397:144,1,65.9999979858399,10|0,3:2|0:0,0:0:0:0:
373,254,296254,2,0,P|309:262|285:254,1,65.9999979858399,2|0,2:2|0:0,0:0:0:0:
214,128,296560,6,0,P|140:114|85:158,1,131.99999597168,6|0,0:0|0:0,0:0:0:0:
64,210,297019,1,0,0:0:0:0:
64,210,297172,1,2,0:0:0:0:
243,291,297478,2,0,P|236:345|224:367,1,65.9999979858399
76,274,297785,2,0,P|65:242|64:210,1,65.9999979858399
214,128,298091,2,0,P|140:114|85:158,1,131.99999597168,0|2,0:0|0:0,0:0:0:0:
161,306,298703,5,0,0:0:0:0:
161,306,298856,1,0,0:0:0:0:
161,306,299009,2,0,L|293:319,1,131.99999597168
382,306,299468,1,0,0:0:0:0:
382,306,299621,1,2,0:0:0:0:
305,77,299927,2,0,P|291:123|298:156,1,65.9999979858399,2|0,0:0|0:0,0:0:0:0:
313,223,300234,6,0,L|422:215,1,87.9999973144532,2|0,0:0|0:0,0:0:0:0:
478,209,300540,2,0,L|488:163,2,43.9999986572266,2|0|0,0:0|0:0|0:0,0:0:0:0:
366,295,300846,2,0,L|376:341,2,43.9999986572266,2|0|0,0:0|0:0|0:0,0:0:0:0:
292,140,301152,2,0,L|302:94,2,43.9999986572266,2|0|0,0:0|0:0|0:0,0:0:0:0:
208,239,301458,6,0,P|134:251|67:237,1,131.99999597168,2|0,0:0|0:0,0:0:0:0:
148,34,302070,1,2,1:2:0:0:
309,196,302376,2,0,P|361:212|379:213,1,65.9999979858399,2|0,0:0|0:0,0:0:0:0:
473,156,302682,1,2,0:0:0:0:
258,34,302989,2,0,P|251:76|255:112,1,65.9999979858399,0|0,3:2|0:0,0:0:0:0:
309,196,303295,1,2,1:2:0:0:
312,212,303448,1,0,1:2:0:0:
313,228,303601,1,0,3:2:0:0:
313,245,303754,1,0,3:2:0:0:
312,261,303907,1,6,0:0:0:0:
236,350,304213,5,2,0:0:0:0:
394,258,304519,1,2,0:0:0:0:
169,190,304825,1,2,0:0:0:0:
252,102,305131,1,2,0:0:0:0:
252,102,305744,6,0,L|252:191,1,88
212,301,306356,6,0,P|157:324|109:311,1,88,8|0,0:0|0:0,0:0:0:0:
35,234,306968,1,0,0:0:0:0:
125,130,307274,2,0,P|236:181|212:301,1,264,8|0,0:0|0:0,0:0:0:0:
108,239,308499,2,0,P|128:230|150:226,1,44
288,272,308805,6,0,P|345:297|402:279,1,88,8|0,0:0|0:0,0:0:0:0:
466,103,309417,1,0,0:0:0:0:
360,44,309723,2,0,B|315:129|402:153|331:235,1,176,8|0,0:0|0:0,0:0:0:0:
327,353,310642,1,0,0:0:0:0:
327,353,310794,2,0,P|286:329|230:328,1,88,8|0,0:0|0:0,0:0:0:0:
110,355,311254,6,0,P|90:312|95:257,1,88,8|0,0:0|0:0,0:0:0:0:
134,115,311866,1,0,0:0:0:0:
44,171,312172,2,0,P|176:157|224:161,1,176,8|0,0:0|0:0,0:0:0:0:
346,230,313091,1,0,0:0:0:0:
224,272,313397,1,0,0:0:0:0:
367,312,313703,2,0,P|428:209|322:147,1,264,8|8,0:0|0:0,0:0:0:0:
234,71,314927,5,2,0:0:0:0:
135,206,315234,1,2,0:0:0:0:
317,298,315540,1,2,0:0:0:0:
176,354,315846,1,2,0:0:0:0:
239,252,316152,6,0,P|249:203|226:143,1,88,10|0,0:0|0:0,0:0:0:0:
188,46,316764,1,0,0:0:0:0:
108,88,317070,2,0,P|219:132|275:20,1,264,10|0,0:0|0:0,0:0:0:0:
314,232,318295,2,0,L|368:245,1,44
402,316,318601,6,0,L|500:306,2,88,10|0|0,0:0|0:0|0:0,0:0:0:0:
293,308,319519,2,0,P|210:281|114:273,1,176,10|0,0:0|0:0,0:0:0:0:
122,272,320438,5,0,0:0:0:0:
61,202,320591,2,0,P|101:185|145:183,1,88
288,220,321050,6,0,L|297:116,2,88,10|0|0,0:0|0:0|0:0,0:0:0:0:
380,124,321968,2,0,P|316:47|229:78,1,176,10|0,0:0|0:0,0:0:0:0:
184,172,322887,2,0,P|147:171|102:156,2,58.6666666666667
295,132,323499,5,10,0:0:0:0:
252,353,323805,1,2,0:0:0:0:
363,288,324111,2,0,P|310:264|267:264,1,88,2|2,0:0|0:0,0:0:0:0:
136,221,324723,2,0,P|188:197|231:197,1,88,2|2,0:0|0:0,0:0:0:0:
200,294,325336,1,2,0:0:0:0:
168,108,325642,1,2,0:0:0:0:
315,221,325948,5,2,0:0:0:0:
347,35,326254,1,2,0:0:0:0:
435,173,326560,1,2,0:0:0:0:
422,85,326866,5,2,0:0:0:0:
