osu file format v14

[General]
AudioFilename: Hanatan - Uta ni Katachi wa Nai Keredo.mp3
AudioLeadIn: 0
PreviewTime: 207174
Countdown: 0
SampleSet: Soft
StackLeniency: 0.7
Mode: 3
LetterboxInBreaks: 0
SpecialStyle: 0
WidescreenStoryboard: 1

[Editor]
DistanceSpacing: 1.6
BeatDivisor: 6
GridSize: 4
TimelineZoom: 1

[Metadata]
Title:Uta ni Katachi wa Nai keredo
TitleUnicode:歌に形はないけれど
Artist:Hanatan
ArtistUnicode:花たん
Creator:1164530434
Version:4K HD - Amorphous
Source:
Tags:Vocaloid Hatsune Miku
BeatmapID:514938
BeatmapSetID:219993

[Difficulty]
HPDrainRate:8
CircleSize:4
OverallDifficulty:8
ApproachRate:5
SliderMultiplier:1.4
SliderTickRate:1

[Events]
//Background and Video events
0,0,"women_vocaloid_dress_hatsune_m_2560x1440.jpg",0,0
//Break Periods
//Storyboard Layer 0 (Background)
//Storyboard Layer 1 (Fail)
//Storyboard Layer 2 (Pass)
//Storyboard Layer 3 (Foreground)
//Storyboard Sound Samples

[TimingPoints]
236,612.244897959184,4,2,0,30,1,0
12480,-100,4,2,0,35,0,0
73093,-66.6666666666667,4,2,0,35,0,0
73399,-76.9230769230769,4,2,0,35,0,0
73705,-100,4,2,0,35,0,0
95746,-100,4,2,0,35,0,1
115184,-100,4,2,0,35,0,0
115338,-100,4,2,0,35,0,1
133552,-100,4,2,0,75,0,1
133858,-100,4,2,0,35,0,1
144725,-100,4,2,0,35,0,0
207021,-100,4,2,0,70,0,0
207327,-100,4,2,0,10,0,0
208399,-100,4,2,0,10,0,1
227838,-100,4,2,0,10,0,0
227991,-100,4,2,0,10,0,1
247429,-100,4,2,0,50,0,0
247582,-100,4,2,0,45,0,1
267174,-100,4,2,0,50,0,0
306358,-100,4,2,0,50,0,0

[HitObjects]
64,192,1766,5,0,0:0:0:40:bass.wav
448,192,1919,1,0,0:0:0:40:tom02.wav
192,192,2072,1,0,0:0:0:50:snare.wav
320,192,2225,1,0,0:0:0:50:snare.wav
192,192,2378,1,0,0:0:0:50:tom01.wav
64,192,2378,1,0,0:0:0:70:hihat01.wav
448,192,2684,1,0,0:0:0:70:cymbol.wav
64,192,2684,1,0,0:0:0:50:bass.wav
320,192,2991,1,0,0:0:0:70:hihat.wav
448,192,3297,1,0,0:0:0:50:hihat03.wav
192,192,3297,1,0,0:0:0:0:
64,192,3603,1,0,0:0:0:70:hihat.wav
320,192,3909,1,0,0:0:0:0:
64,192,4215,1,0,0:0:0:70:hihat.wav
448,192,4215,1,0,0:0:0:50:snare.wav
192,192,4521,1,0,0:0:0:0:
448,192,4521,1,0,0:0:0:50:hihat03.wav
320,192,4827,1,0,0:0:0:70:hihat.wav
64,192,5133,1,0,0:0:0:0:
320,192,5440,1,0,0:0:0:70:hihat.wav
64,192,5746,1,0,0:0:0:0:
448,192,5746,1,0,0:0:0:50:hihat03.wav
320,192,6052,1,0,0:0:0:70:hihat.wav
64,192,6358,1,0,0:0:0:0:
192,192,6664,1,0,0:0:0:70:hihat.wav
320,192,6664,1,0,0:0:0:50:bass.wav
64,192,6970,1,0,0:0:0:0:
448,192,6970,1,0,0:0:0:50:snare.wav
192,192,7123,1,0,0:0:0:50:snare.wav
448,192,7276,1,0,0:0:0:50:bass.wav
320,192,7276,1,0,0:0:0:70:hihat01.wav
448,192,7582,1,0,0:0:0:50:bass.wav
192,192,7582,1,0,0:0:0:70:cymbol.wav
192,192,7889,1,0,0:0:0:70:hihat.wav
64,192,8195,1,0,0:0:0:0:
448,192,8195,1,0,0:0:0:50:hihat03.wav
320,192,8501,1,0,0:0:0:70:hihat.wav
64,192,8807,1,0,0:0:0:0:
320,192,9113,1,0,0:0:0:50:snare.wav
192,192,9113,1,0,0:0:0:70:hihat.wav
64,192,9419,1,0,0:0:0:0:
448,192,9419,1,0,0:0:0:50:hihat03.wav
320,192,9725,1,0,0:0:0:70:hihat.wav
64,192,10031,1,0,0:0:0:40:tom01.wav
448,192,10031,1,0,0:0:0:70:bass.wav
192,192,10184,1,0,0:0:0:40:tom02.wav
320,192,10338,1,0,0:0:0:30:bass.wav
64,192,10491,1,0,0:0:0:70:hihat.wav
448,192,10644,1,0,0:0:0:50:hihat02.wav
192,192,10950,1,0,0:0:0:70:hihat01.wav
448,192,10950,1,0,0:0:0:50:tom02.wav
320,192,11256,1,0,0:0:0:50:snare.wav
64,192,11409,1,0,0:0:0:50:hihat02.wav
192,192,11409,1,0,0:0:0:50:snare.wav
448,192,11562,1,0,0:0:0:50:tom01.wav
192,192,11715,1,0,0:0:0:50:tom02.wav
320,192,11868,1,0,0:0:0:50:snare.wav
64,192,11868,1,0,0:0:0:70:cymbol.wav
320,192,12480,1,0,0:0:0:50:cymbol.wav
448,192,12480,1,0,0:0:0:50:bass.wav
64,192,12480,1,0,0:0:0:50:cymbol.wav
192,192,12787,1,0,0:0:0:0:
64,192,13093,1,0,0:0:0:70:hihat.wav
448,192,13093,1,0,0:0:0:50:snare.wav
320,192,13399,1,0,0:0:0:50:bass.wav
192,192,13399,1,0,0:0:0:70:cymbol.wav
64,192,13705,1,0,0:0:0:70:hihat.wav
448,192,14011,1,0,0:0:0:50:bass.wav
192,192,14011,1,0,0:0:0:0:
64,192,14317,1,0,0:0:0:70:hihat.wav
320,192,14317,1,0,0:0:0:50:snare.wav
192,192,14623,1,0,0:0:0:0:
448,192,14623,1,0,0:0:0:50:bass.wav
320,192,14776,1,0,0:0:0:40:tom01.wav
64,192,14929,1,0,0:0:0:50:bass.wav
192,192,14929,1,0,0:0:0:70:cymbol.wav
64,192,15236,1,0,0:0:0:0:
448,192,15236,1,0,0:0:0:50:bass.wav
448,192,15542,1,0,0:0:0:50:snare.wav
192,192,15542,1,0,0:0:0:70:hihat.wav
320,192,15848,1,0,0:0:0:50:bass.wav
64,192,15848,1,0,0:0:0:70:cymbol.wav
192,192,16154,1,0,0:0:0:70:hihat.wav
448,192,16460,1,0,0:0:0:50:bass.wav
64,192,16460,1,0,0:0:0:0:
320,192,16766,1,0,0:0:0:50:snare.wav
192,192,16766,1,0,0:0:0:70:hihat.wav
448,192,17072,1,0,0:0:0:50:bass.wav
64,192,17072,1,0,0:0:0:0:
320,192,17225,1,0,0:0:0:70:snare.wav
192,192,17378,1,0,0:0:0:50:bass.wav
448,192,17378,1,0,0:0:0:70:cymbol.wav
64,192,17684,1,0,0:0:0:0:
448,192,17684,1,0,0:0:0:50:bass.wav
64,192,17991,1,0,0:0:0:70:hihat.wav
320,192,17991,1,0,0:0:0:50:snare.wav
192,192,18297,1,0,0:0:0:70:cymbol.wav
448,192,18297,1,0,0:0:0:50:bass.wav
320,192,18603,1,0,0:0:0:70:hihat.wav
64,192,18909,1,0,0:0:0:0:
448,192,18909,1,0,0:0:0:50:bass.wav
192,192,19215,1,0,0:0:0:70:hihat.wav
448,192,19215,1,0,0:0:0:50:snare.wav
64,192,19521,1,0,0:0:0:50:bass.wav
448,192,19521,1,0,0:0:0:50:tom01.wav
320,192,19827,1,0,0:0:0:70:cymbol.wav
192,192,19827,1,0,0:0:0:50:bass.wav
64,192,20133,1,0,0:0:0:0:
448,192,20287,1,0,0:0:0:50:bass.wav
320,192,20440,1,0,0:0:0:50:snare.wav
64,192,20440,1,0,0:0:0:70:hihat.wav
192,192,20746,1,0,0:0:0:70:hihat01.wav
64,192,21052,1,0,0:0:0:50:snare.wav
448,192,21205,1,0,0:0:0:50:snare.wav
192,192,21358,1,0,0:0:0:50:snare.wav
320,192,21511,1,0,0:0:0:50:tom01.wav
448,192,21664,1,0,0:0:0:50:tom02.wav
64,192,21664,1,0,0:0:0:70:cymbol.wav
192,192,21970,1,0,0:0:0:40:tom02.wav
448,192,22123,1,0,0:0:0:50:tom01.wav
192,192,22276,1,0,0:0:0:40:bass.wav
64,192,22276,1,0,0:0:0:70:cymbol.wav
192,192,22582,1,0,0:0:0:0:
320,192,22582,1,0,0:0:0:50:bass.wav
448,192,22889,1,0,0:0:0:50:snare.wav
64,192,22889,1,0,0:0:0:70:hihat.wav
448,192,23195,1,0,0:0:0:50:bass.wav
192,192,23195,1,0,0:0:0:70:cymbol.wav
64,192,23501,1,0,0:0:0:70:hihat.wav
448,192,23807,1,0,0:0:0:50:bass.wav
192,192,23807,1,0,0:0:0:0:
320,192,24113,1,0,0:0:0:50:snare.wav
64,192,24113,1,0,0:0:0:70:hihat.wav
448,192,24419,1,0,0:0:0:50:bass.wav
64,192,24419,1,0,0:0:0:0:
320,192,24572,1,0,0:0:0:40:tom01.wav
448,192,24725,1,0,0:0:0:50:bass.wav
192,192,24725,1,0,0:0:0:70:cymbol.wav
64,192,25031,1,0,0:0:0:0:
448,192,25184,1,0,0:0:0:50:bass.wav
64,192,25338,1,0,0:0:0:50:snare.wav
192,192,25338,1,0,0:0:0:70:hihat.wav
448,192,25644,1,0,0:0:0:50:bass.wav
320,192,25644,1,0,0:0:0:70:cymbol.wav
192,192,25950,1,0,0:0:0:70:hihat.wav
64,192,26256,1,0,0:0:0:40:tom02.wav
448,192,26409,1,0,0:0:0:50:bass.wav
320,192,26562,1,0,0:0:0:50:snare.wav
64,192,26715,1,0,0:0:0:50:snare.wav
448,192,26868,1,0,0:0:0:50:tom01.wav
192,192,27021,1,0,0:0:0:50:tom02.wav
64,192,27174,1,0,0:0:0:0:
448,192,27174,1,0,0:0:0:70:cymbol.wav
320,192,27480,1,0,0:0:0:0:
192,192,27633,1,0,0:0:0:50:bass.wav
448,192,27787,1,0,0:0:0:50:snare.wav
64,192,27787,1,0,0:0:0:70:hihat.wav
320,192,28093,1,0,0:0:0:50:bass.wav
192,192,28093,1,0,0:0:0:70:cymbol.wav
448,192,28399,1,0,0:0:0:70:hihat.wav
320,192,28705,1,0,0:0:0:50:tom02.wav
64,192,28705,1,0,0:0:0:0:
192,192,28858,1,0,0:0:0:50:bass.wav
448,192,29011,1,0,0:0:0:50:snare.wav
64,192,29215,1,0,0:0:0:40:tom01.wav
448,192,29419,1,0,0:0:0:40:tom01.wav
64,192,29547,1,0,0:0:0:40:tom02.wav
448,192,29623,1,0,0:0:0:70:cymbol.wav
320,192,29623,1,0,0:0:0:50:bass.wav
192,192,29929,1,0,0:0:0:70:hihat.wav
64,192,30236,1,0,0:0:0:50:hihat03.wav
320,192,30542,1,0,0:0:0:70:hihat.wav
64,192,30848,1,0,0:0:0:50:hihat03.wav
448,192,31154,1,0,0:0:0:70:hihat.wav
64,192,31460,1,0,0:0:0:50:snare.wav
192,192,31460,1,0,0:0:0:70:hihat01.wav
448,192,31766,1,0,0:0:0:50:bass.wav
64,192,31919,1,0,0:0:0:50:snare.wav
192,192,32072,128,0,32684:0:0:0:30:4.ogg
448,192,32072,1,0,0:0:0:50:bass.wav
320,192,32072,1,0,0:0:0:70:ride.wav
448,192,32378,1,0,0:0:0:40:5.ogg
64,192,32684,1,0,0:0:0:30:6.ogg
320,192,32952,1,0,0:0:0:70:blank.wav
448,192,32991,1,0,0:0:0:70:blank.wav
192,192,33029,1,0,0:0:0:70:blank.wav
64,192,33067,1,0,0:0:0:40:7.ogg
64,192,33909,1,0,0:0:0:50:snare.wav
448,192,34062,1,0,0:0:0:50:snare.wav
192,192,34215,1,0,0:0:0:70:hihat02.wav
320,192,34215,1,0,0:0:0:0:
64,192,34521,128,0,35746:0:0:0:70:blank.wav
448,192,34521,1,0,0:0:0:70:blank.wav
192,192,34521,128,0,36970:0:0:0:70:blank.wav
320,192,35440,1,0,0:0:0:70:blank.wav
448,192,35746,1,0,0:0:0:70:blank.wav
320,192,36052,1,0,0:0:0:70:blank.wav
64,192,36358,1,0,0:0:0:70:blank.wav
320,192,36664,1,0,0:0:0:70:blank.wav
64,192,36970,128,0,39419:0:0:0:70:blank.wav
448,192,36970,128,0,37582:0:0:0:70:blank.wav
192,192,37582,1,0,0:0:0:70:blank.wav
320,192,37889,1,0,0:0:0:70:blank.wav
448,192,38195,128,0,39419:0:0:0:70:blank.wav
192,192,38807,1,0,0:0:0:70:blank.wav
192,192,39419,128,0,41868:0:0:0:70:blank.wav
320,192,39419,1,0,0:0:0:70:blank.wav
448,192,40338,1,0,0:0:0:70:blank.wav
64,192,40644,1,0,0:0:0:70:blank.wav
320,192,40950,1,0,0:0:0:70:blank.wav
448,192,41256,1,0,0:0:0:70:blank.wav
64,192,41562,1,0,0:0:0:70:blank.wav
320,192,41868,128,0,42787:0:0:0:70:blank.wav
448,192,41868,128,0,44317:0:0:0:70:blank.wav
64,192,42480,1,0,0:0:0:70:blank.wav
192,192,42787,1,0,0:0:0:70:blank.wav
64,192,43093,128,0,44317:0:0:0:70:blank.wav
320,192,43705,128,0,44317:0:0:0:70:blank.wav
192,192,44317,128,0,45542:0:0:0:70:blank.wav
448,192,44623,1,0,0:0:0:70:blank.wav
64,192,44929,1,0,0:0:0:70:blank.wav
64,192,45236,1,0,0:0:0:70:blank.wav
448,192,45542,128,0,46766:0:0:0:70:blank.wav
320,192,45542,1,0,0:0:0:70:blank.wav
64,192,45848,1,0,0:0:0:70:blank.wav
192,192,46001,1,0,0:0:0:70:blank.wav
320,192,46154,1,0,0:0:0:70:blank.wav
64,192,46460,1,0,0:0:0:70:blank.wav
192,192,46766,128,0,47991:0:0:0:70:blank.wav
320,192,46766,1,0,0:0:0:70:blank.wav
64,192,47072,1,0,0:0:0:70:blank.wav
448,192,47225,1,0,0:0:0:70:blank.wav
320,192,47378,1,0,0:0:0:70:blank.wav
64,192,47684,1,0,0:0:0:70:blank.wav
448,192,47991,128,0,49215:0:0:0:70:blank.wav
320,192,47991,1,0,0:0:0:70:blank.wav
192,192,48603,1,0,0:0:0:70:blank.wav
320,192,48909,1,0,0:0:0:70:blank.wav
64,192,49215,128,0,50440:0:0:0:70:blank.wav
192,192,49215,1,0,0:0:0:70:blank.wav
448,192,49521,1,0,0:0:0:70:blank.wav
192,192,49827,1,0,0:0:0:70:blank.wav
320,192,50133,128,0,50440:0:0:0:70:blank.wav
448,192,50746,1,0,0:0:0:70:blank.wav
192,192,50746,1,0,0:0:0:70:blank.wav
64,192,51052,1,0,0:0:0:70:blank.wav
320,192,51052,1,0,0:0:0:70:blank.wav
448,192,51358,1,0,0:0:0:70:blank.wav
320,192,51511,1,0,0:0:0:70:blank.wav
192,192,51588,1,0,0:0:0:70:blank.wav
64,192,51664,128,0,52889:0:0:0:70:blank.wav
448,192,51664,128,0,52889:0:0:0:70:blank.wav
192,192,52582,128,0,52889:0:0:0:70:blank.wav
320,192,52889,1,0,0:0:0:70:blank.wav
64,192,53195,1,0,0:0:0:0:
448,192,53195,1,0,0:0:0:70:hihat.wav
192,192,53501,1,0,0:0:0:35:hihat01.wav
320,192,53501,1,0,0:0:0:35:hihat01.wav
64,192,53807,128,0,54113:0:0:0:70:blank.wav
448,192,53960,1,0,0:0:0:70:blank.wav
320,192,54037,1,0,0:0:0:70:blank.wav
192,192,54113,128,0,56562:0:0:0:50:bass.wav
448,192,54725,1,0,0:0:0:70:hihat03.wav
64,192,54725,1,0,0:0:0:0:
320,192,55031,1,0,0:0:0:70:hihat.wav
64,192,55644,1,0,0:0:0:70:hihat.wav
448,192,55950,1,0,0:0:0:70:hihat03.wav
320,192,56256,1,0,0:0:0:70:hihat.wav
64,192,56409,1,0,0:0:0:70:hihat.wav
320,192,56562,1,0,0:0:0:50:bass.wav
448,192,56562,128,0,58399:0:0:0:70:blank.wav
320,192,57021,1,0,0:0:0:70:hihat.wav
64,192,57174,1,0,0:0:0:70:hihat03.wav
192,192,57480,1,0,0:0:0:70:hihat.wav
64,192,57787,1,0,0:0:0:70:hihat.wav
320,192,57787,1,0,0:0:0:70:blank.wav
192,192,58093,1,0,0:0:0:70:hihat.wav
64,192,58399,128,0,58705:0:0:0:70:hihat01.wav
320,192,58399,128,0,58705:0:0:0:70:blank.wav
192,192,58705,128,0,59929:0:0:0:70:blank.wav
448,192,59011,1,0,0:0:0:50:bass.wav
320,192,59470,1,0,0:0:0:70:hihat.wav
64,192,59623,1,0,0:0:0:70:hihat03.wav
448,192,59929,128,0,61154:0:0:0:70:blank.wav
320,192,59929,1,0,0:0:0:70:hihat.wav
320,192,60542,1,0,0:0:0:70:hihat.wav
192,192,60695,1,0,0:0:0:70:hihat.wav
64,192,60848,1,0,0:0:0:70:hihat03.wav
320,192,61154,128,0,62072:0:0:0:70:blank.wav
192,192,61154,1,0,0:0:0:70:hihat.wav
64,192,61460,1,0,0:0:0:50:bass.wav
448,192,61919,1,0,0:0:0:70:hihat.wav
64,192,62072,1,0,0:0:0:70:hihat03.wav
192,192,62378,1,0,0:0:0:70:hihat.wav
64,192,62684,1,0,0:0:0:70:hihat.wav
192,192,62684,1,0,0:0:0:50:bass.wav
448,192,62684,1,0,0:0:0:0:
448,192,62991,1,0,0:0:0:70:hihat01.wav
64,192,63297,1,0,0:0:0:70:hihat.wav
320,192,63297,1,0,0:0:0:40:bass.wav
448,192,63450,1,0,0:0:0:30:tom01.wav
192,192,63603,1,0,0:0:0:40:tom01.wav
64,192,63756,1,0,0:0:0:40:tom02.wav
320,192,63909,1,0,0:0:0:70:ride.wav
448,192,63909,128,0,65133:0:0:0:70:blank.wav
192,192,63909,1,0,0:0:0:40:bass.wav
64,192,64215,1,0,0:0:0:0:
320,192,64368,1,0,0:0:0:70:hihat.wav
64,192,64521,1,0,0:0:0:70:hihat03.wav
192,192,64521,1,0,0:0:0:0:
320,192,64827,1,0,0:0:0:70:hihat.wav
64,192,65133,128,0,66358:0:0:0:70:blank.wav
192,192,65133,1,0,0:0:0:0:
320,192,65440,1,0,0:0:0:70:hihat.wav
192,192,65593,1,0,0:0:0:0:
448,192,65746,1,0,0:0:0:70:hihat03.wav
320,192,66052,1,0,0:0:0:70:hihat.wav
448,192,66358,128,0,66970:0:0:0:70:blank.wav
192,192,66358,128,0,66970:0:0:0:50:bass.wav
320,192,66970,128,0,67582:0:0:0:70:blank.wav
64,192,66970,1,0,0:0:0:70:hihat03.wav
64,192,67582,128,0,68195:0:0:0:0:
448,192,67582,128,0,68195:0:0:0:70:blank.wav
192,192,67889,1,0,0:0:0:70:hihat.wav
320,192,68195,1,0,0:0:0:70:hihat03.wav
64,192,68501,1,0,0:0:0:70:hihat.wav
320,192,68654,1,0,0:0:0:70:blank.wav
192,192,68730,1,0,0:0:0:70:blank.wav
448,192,68807,128,0,70031:0:0:0:70:blank.wav
64,192,68807,1,0,0:0:0:50:bass.wav
192,192,69113,1,0,0:0:0:70:hihat.wav
64,192,69419,1,0,0:0:0:70:hihat03.wav
320,192,69419,1,0,0:0:0:0:
192,192,69725,1,0,0:0:0:70:hihat.wav
320,192,69878,1,0,0:0:0:0:
64,192,70031,128,0,71256:0:0:0:70:blank.wav
192,192,70031,128,0,71256:0:0:0:70:hihat.wav
320,192,70338,1,0,0:0:0:0:
448,192,70644,1,0,0:0:0:70:hihat03.wav
320,192,70950,1,0,0:0:0:70:hihat.wav
448,192,71256,128,0,71868:0:0:0:50:bass.wav
320,192,71562,1,0,0:0:0:70:hihat.wav
64,192,71562,1,0,0:0:0:0:
192,192,71715,1,0,0:0:0:50:bass.wav
64,192,71868,1,0,0:0:0:70:hihat01.wav
320,192,72021,1,0,0:0:0:70:hihat.wav
192,192,72174,1,0,0:0:0:70:bass.wav
64,192,72327,1,0,0:0:0:70:hihat.wav
448,192,72480,1,0,0:0:0:100:hihat01.wav
64,192,72633,1,0,0:0:0:70:snare.wav
448,192,72787,1,0,0:0:0:70:bass.wav
192,192,72940,1,0,0:0:0:70:tom02.wav
448,192,73093,128,0,73705:0:0:0:40:cymbol.wav
64,192,73093,128,0,73705:0:0:0:40:cymbol.wav
192,192,73705,1,0,0:0:0:40:bass.wav
320,192,73705,1,0,0:0:0:70:cymbol.wav
192,192,74011,1,0,0:0:0:70:hihat.wav
64,192,74317,1,0,0:0:0:70:snare.wav
320,192,74317,1,0,0:0:0:0:
192,192,74623,1,0,0:0:0:50:bass.wav
448,192,74776,1,0,0:0:0:70:snare.wav
320,192,74929,1,0,0:0:0:50:bass.wav
64,192,74929,1,0,0:0:0:0:
192,192,75236,1,0,0:0:0:50:bass.wav
64,192,75389,1,0,0:0:0:50:bass.wav
448,192,75542,1,0,0:0:0:70:snare.wav
320,192,75542,1,0,0:0:0:0:
192,192,75848,1,0,0:0:0:0:
448,192,76154,1,0,0:0:0:0:
64,192,76154,1,0,0:0:0:50:bass.wav
192,192,76460,1,0,0:0:0:50:bass.wav
320,192,76766,1,0,0:0:0:70:snare.wav
64,192,76766,1,0,0:0:0:0:
448,192,77072,1,0,0:0:0:50:bass.wav
64,192,77225,1,0,0:0:0:70:snare.wav
192,192,77378,1,0,0:0:0:50:bass.wav
448,192,77378,1,0,0:0:0:0:
320,192,77531,1,0,0:0:0:70:snare.wav
64,192,77684,1,0,0:0:0:70:hihat01.wav
192,192,77991,1,0,0:0:0:70:snare.wav
320,192,77991,1,0,0:0:0:70:hihat.wav
448,192,77991,1,0,0:0:0:0:
64,192,78297,1,0,0:0:0:60:tom02.wav
320,192,78297,1,0,0:0:0:50:bass.wav
448,192,78603,1,0,0:0:0:70:cymbol.wav
64,192,78603,1,0,0:0:0:70:cymbol.wav
192,192,78909,1,0,0:0:0:70:hihat.wav
448,192,79215,1,0,0:0:0:70:snare.wav
64,192,79215,1,0,0:0:0:0:
192,192,79521,1,0,0:0:0:50:bass.wav
448,192,79674,1,0,0:0:0:70:snare.wav
320,192,79827,1,0,0:0:0:50:bass.wav
64,192,79827,1,0,0:0:0:0:
448,192,80133,1,0,0:0:0:50:bass.wav
448,192,80440,1,0,0:0:0:70:snare.wav
64,192,80440,1,0,0:0:0:0:
320,192,80746,1,0,0:0:0:50:bass.wav
64,192,80746,1,0,0:0:0:0:
192,192,81052,1,0,0:0:0:50:bass.wav
448,192,81052,1,0,0:0:0:0:
64,192,81358,1,0,0:0:0:0:
448,192,81664,1,0,0:0:0:70:snare.wav
192,192,81664,1,0,0:0:0:0:
64,192,81970,1,0,0:0:0:50:bass.wav
448,192,82123,1,0,0:0:0:70:snare.wav
192,192,82276,1,0,0:0:0:70:snare.wav
320,192,82429,1,0,0:0:0:50:bass.wav
192,192,82582,1,0,0:0:0:70:hihat01.wav
64,192,82736,1,0,0:0:0:50:bass.wav
448,192,82889,1,0,0:0:0:50:tom01.wav
192,192,83042,1,0,0:0:0:50:tom01.wav
320,192,83195,1,0,0:0:0:50:tom02.wav
64,192,83348,1,0,0:0:0:50:tom02.wav
448,192,83501,1,0,0:0:0:70:cymbol.wav
320,192,83501,1,0,0:0:0:50:bass.wav
64,192,83807,1,0,0:0:0:0:
320,192,83807,1,0,0:0:0:50:bass.wav
448,192,84113,1,0,0:0:0:70:snare.wav
192,192,84113,1,0,0:0:0:0:
64,192,84419,1,0,0:0:0:0:
448,192,84419,1,0,0:0:0:50:bass.wav
320,192,84572,1,0,0:0:0:70:snare.wav
192,192,84725,1,0,0:0:0:50:bass.wav
64,192,84725,1,0,0:0:0:0:
320,192,85031,1,0,0:0:0:0:
448,192,85031,1,0,0:0:0:50:bass.wav
64,192,85338,1,0,0:0:0:0:
320,192,85338,1,0,0:0:0:70:snare.wav
192,192,85644,1,0,0:0:0:50:bass.wav
64,192,85644,1,0,0:0:0:0:
448,192,85644,1,0,0:0:0:70:hihat01.wav
320,192,85797,1,0,0:0:0:70:snare.wav
64,192,85950,1,0,0:0:0:0:
448,192,85950,1,0,0:0:0:70:cymbol.wav
192,192,86256,1,0,0:0:0:50:bass.wav
448,192,86562,1,0,0:0:0:70:cymbol.wav
192,192,86562,1,0,0:0:0:0:
448,192,86868,1,0,0:0:0:50:bass.wav
320,192,87174,1,0,0:0:0:50:cymbol.wav
192,192,87174,1,0,0:0:0:50:cymbol.wav
64,192,87327,1,0,0:0:0:70:snare.wav
192,192,87480,1,0,0:0:0:70:snare.wav
448,192,87633,1,0,0:0:0:70:snare.wav
64,192,87787,1,0,0:0:0:50:bass.wav
320,192,87940,1,0,0:0:0:50:tom01.wav
192,192,88093,1,0,0:0:0:50:tom02.wav
320,192,88246,1,0,0:0:0:50:tom02.wav
64,192,88399,1,0,0:0:0:50:cymbol.wav
448,192,88399,1,0,0:0:0:50:cymbol.wav
192,192,88705,1,0,0:0:0:70:ride.wav
320,192,88705,1,0,0:0:0:50:bass.wav
448,192,89011,1,0,0:0:0:70:snare.wav
64,192,89011,1,0,0:0:0:70:ride.wav
64,192,89317,1,0,0:0:0:70:ride.wav
320,192,89317,1,0,0:0:0:50:bass.wav
192,192,89623,1,0,0:0:0:70:ride.wav
64,192,89929,1,0,0:0:0:70:ride.wav
320,192,89929,1,0,0:0:0:50:bass.wav
448,192,90236,1,0,0:0:0:70:ride.wav
320,192,90236,1,0,0:0:0:70:snare.wav
64,192,90542,1,0,0:0:0:70:ride.wav
192,192,90542,1,0,0:0:0:50:bass.wav
320,192,90695,1,0,0:0:0:70:snare.wav
64,192,90848,1,0,0:0:0:70:ride.wav
448,192,90848,1,0,0:0:0:50:bass.wav
192,192,91154,1,0,0:0:0:70:ride.wav
448,192,91154,1,0,0:0:0:50:bass.wav
64,192,91460,1,0,0:0:0:70:ride.wav
320,192,91460,1,0,0:0:0:70:snare.wav
64,192,91766,1,0,0:0:0:70:ride.wav
448,192,91766,1,0,0:0:0:50:bass.wav
320,192,92072,1,0,0:0:0:70:ride.wav
448,192,92378,1,0,0:0:0:50:bass.wav
64,192,92378,1,0,0:0:0:70:ride.wav
64,192,92684,1,0,0:0:0:70:snare.wav
448,192,92838,1,0,0:0:0:70:snare.wav
192,192,92991,1,0,0:0:0:50:tom01.wav
320,192,93144,1,0,0:0:0:50:tom02.wav
192,192,93297,1,0,0:0:0:70:cymbol.wav
64,192,93297,1,0,0:0:0:70:bass.wav
448,192,93450,1,0,0:0:0:70:blank.wav
64,192,93603,1,0,0:0:0:70:blank.wav
448,192,93756,1,0,0:0:0:70:blank.wav
192,192,93909,1,0,0:0:0:70:blank.wav
320,192,93909,1,0,0:0:0:70:hihat03.wav
64,192,94062,1,0,0:0:0:70:blank.wav
448,192,94215,1,0,0:0:0:70:blank.wav
64,192,94368,1,0,0:0:0:70:blank.wav
320,192,94521,1,0,0:0:0:50:bass.wav
192,192,94521,1,0,0:0:0:70:hihat01.wav
448,192,94674,1,0,0:0:0:70:blank.wav
64,192,94674,1,0,0:0:0:70:snare.wav
192,192,94827,1,0,0:0:0:70:blank.wav
448,192,94980,1,0,0:0:0:70:blank.wav
192,192,95133,1,0,0:0:0:30:cymbol.wav
320,192,95210,1,0,0:0:0:30:cymbol.wav
448,192,95287,1,0,0:0:0:30:cymbol.wav
64,192,95363,1,0,0:0:0:30:cymbol.wav
192,192,95440,1,0,0:0:0:30:cymbol.wav
448,192,95516,1,0,0:0:0:30:cymbol.wav
64,192,95593,1,0,0:0:0:30:cymbol.wav
192,192,95669,1,0,0:0:0:30:cymbol.wav
320,192,95746,1,0,0:0:0:30:cymbol.wav
448,192,95746,1,0,0:0:0:30:cymbol.wav
64,192,96052,1,0,0:0:0:0:
448,192,96052,1,0,0:0:0:50:bass.wav
320,192,96205,1,0,0:0:0:50:bass.wav
64,192,96358,1,0,0:0:0:70:hihat.wav
192,192,96358,1,0,0:0:0:70:snare.wav
192,192,96664,1,0,0:0:0:0:
320,192,96664,1,0,0:0:0:70:bass.wav
64,192,96970,1,0,0:0:0:70:hihat.wav
448,192,97123,1,0,0:0:0:50:bass.wav
64,192,97276,1,0,0:0:0:0:
320,192,97429,1,0,0:0:0:50:bass.wav
64,192,97582,1,0,0:0:0:70:hihat.wav
448,192,97582,1,0,0:0:0:0:
192,192,97582,1,0,0:0:0:70:snare.wav
64,192,97889,1,0,0:0:0:0:
448,192,97889,1,0,0:0:0:50:bass.wav
320,192,98042,1,0,0:0:0:50:bass.wav
192,192,98195,1,0,0:0:0:70:hihat.wav
64,192,98195,1,0,0:0:0:70:bass.wav
448,192,98501,1,0,0:0:0:0:
64,192,98501,1,0,0:0:0:50:bass.wav
192,192,98654,1,0,0:0:0:50:bass.wav
64,192,98807,1,0,0:0:0:70:hihat.wav
320,192,98807,1,0,0:0:0:70:snare.wav
64,192,99113,1,0,0:0:0:0:
320,192,99113,1,0,0:0:0:70:bass.wav
192,192,99419,1,0,0:0:0:70:hihat.wav
448,192,99572,1,0,0:0:0:50:bass.wav
64,192,99725,1,0,0:0:0:0:
448,192,99878,1,0,0:0:0:50:bass.wav
64,192,100031,1,0,0:0:0:70:hihat.wav
320,192,100031,1,0,0:0:0:70:snare.wav
448,192,100338,1,0,0:0:0:70:bass.wav
64,192,100338,1,0,0:0:0:0:
448,192,100644,1,0,0:0:0:50:cymbol.wav
192,192,100644,1,0,0:0:0:50:cymbol.wav
64,192,100950,1,0,0:0:0:50:bass.wav
320,192,100950,1,0,0:0:0:0:
192,192,101103,1,0,0:0:0:50:bass.wav
448,192,101256,1,0,0:0:0:70:snare.wav
320,192,101256,1,0,0:0:0:70:hihat.wav
320,192,101562,1,0,0:0:0:50:bass.wav
64,192,101562,1,0,0:0:0:0:
320,192,101868,1,0,0:0:0:70:hihat.wav
64,192,102021,1,0,0:0:0:50:bass.wav
448,192,102174,1,0,0:0:0:0:
192,192,102327,1,0,0:0:0:50:bass.wav
320,192,102480,1,0,0:0:0:70:snare.wav
448,192,102480,1,0,0:0:0:0:
64,192,102480,1,0,0:0:0:70:hihat.wav
192,192,102787,1,0,0:0:0:50:bass.wav
64,192,102787,1,0,0:0:0:0:
320,192,102940,1,0,0:0:0:50:bass.wav
448,192,103093,1,0,0:0:0:50:bass.wav
64,192,103093,1,0,0:0:0:70:hihat.wav
448,192,103399,1,0,0:0:0:50:bass.wav
64,192,103399,1,0,0:0:0:0:
320,192,103552,1,0,0:0:0:50:bass.wav
192,192,103705,1,0,0:0:0:70:snare.wav
64,192,103705,1,0,0:0:0:70:hihat.wav
320,192,104011,1,0,0:0:0:50:bass.wav
192,192,104011,1,0,0:0:0:0:
64,192,104317,1,0,0:0:0:70:hihat.wav
448,192,104470,1,0,0:0:0:50:bass.wav
64,192,104623,1,0,0:0:0:0:
448,192,104776,1,0,0:0:0:50:bass.wav
320,192,104929,1,0,0:0:0:70:snare.wav
192,192,105082,1,0,0:0:0:50:bass.wav
64,192,105236,1,0,0:0:0:50:bass.wav
320,192,105236,1,0,0:0:0:70:tom01.wav
448,192,105389,1,0,0:0:0:70:tom02.wav
192,192,105542,1,0,0:0:0:70:cymbol.wav
64,192,105542,1,0,0:0:0:50:bass.wav
448,192,105848,1,0,0:0:0:50:bass.wav
64,192,105848,1,0,0:0:0:0:
320,192,106001,1,0,0:0:0:50:bass.wav
192,192,106154,1,0,0:0:0:70:snare.wav
64,192,106154,1,0,0:0:0:70:hihat.wav
448,192,106460,1,0,0:0:0:50:bass.wav
64,192,106460,1,0,0:0:0:0:
192,192,106613,1,0,0:0:0:50:bass.wav
320,192,106766,1,0,0:0:0:50:bass.wav
64,192,106766,1,0,0:0:0:70:hihat.wav
448,192,106919,1,0,0:0:0:70:snare.wav
192,192,107072,1,0,0:0:0:50:bass.wav
64,192,107072,1,0,0:0:0:0:
320,192,107225,1,0,0:0:0:50:bass.wav
448,192,107378,1,0,0:0:0:70:snare.wav
64,192,107378,1,0,0:0:0:70:hihat.wav
320,192,107684,1,0,0:0:0:50:bass.wav
64,192,107684,1,0,0:0:0:0:
192,192,107838,1,0,0:0:0:70:snare.wav
320,192,107991,1,0,0:0:0:50:bass.wav
448,192,107991,1,0,0:0:0:70:hihat.wav
320,192,108297,1,0,0:0:0:50:bass.wav
64,192,108297,1,0,0:0:0:0:
448,192,108603,1,0,0:0:0:70:snare.wav
192,192,108603,1,0,0:0:0:70:hihat.wav
448,192,108909,1,0,0:0:0:50:bass.wav
64,192,108909,1,0,0:0:0:0:
192,192,109062,1,0,0:0:0:50:bass.wav
320,192,109215,1,0,0:0:0:50:bass.wav
64,192,109215,1,0,0:0:0:70:hihat.wav
448,192,109368,1,0,0:0:0:70:snare.wav
192,192,109521,1,0,0:0:0:50:bass.wav
64,192,109521,1,0,0:0:0:0:
448,192,109674,1,0,0:0:0:50:bass.wav
320,192,109827,1,0,0:0:0:70:snare.wav
64,192,109827,1,0,0:0:0:70:hihat.wav
192,192,110133,1,0,0:0:0:50:bass.wav
448,192,110133,1,0,0:0:0:70:cymbol.wav
320,192,110440,1,0,0:0:0:50:cymbol.wav
192,192,110440,1,0,0:0:0:50:cymbol.wav
448,192,110746,1,0,0:0:0:50:bass.wav
64,192,110746,1,0,0:0:0:0:
320,192,110899,1,0,0:0:0:50:bass.wav
192,192,111052,1,0,0:0:0:70:snare.wav
64,192,111052,1,0,0:0:0:70:hihat.wav
448,192,111358,1,0,0:0:0:50:bass.wav
192,192,111358,1,0,0:0:0:0:
320,192,111511,1,0,0:0:0:70:snare.wav
64,192,111664,1,0,0:0:0:70:hihat.wav
448,192,111817,1,0,0:0:0:50:bass.wav
64,192,111970,1,0,0:0:0:0:
320,192,112123,1,0,0:0:0:50:bass.wav
192,192,112276,1,0,0:0:0:70:snare.wav
448,192,112276,1,0,0:0:0:0:
64,192,112276,1,0,0:0:0:70:hihat.wav
448,192,112582,1,0,0:0:0:50:bass.wav
64,192,112582,1,0,0:0:0:0:
192,192,112736,1,0,0:0:0:50:bass.wav
320,192,112889,1,0,0:0:0:50:bass.wav
448,192,112889,1,0,0:0:0:70:hihat.wav
320,192,113194,1,0,0:0:0:50:bass.wav
64,192,113195,1,0,0:0:0:0:
192,192,113348,1,0,0:0:0:50:bass.wav
448,192,113500,1,0,0:0:0:70:snare.wav
64,192,113501,1,0,0:0:0:70:hihat.wav
320,192,113806,1,0,0:0:0:50:bass.wav
64,192,113807,1,0,0:0:0:0:
192,192,113960,1,0,0:0:0:40:hihat01.wav
448,192,113960,1,0,0:0:0:40:hihat01.wav
64,192,114419,1,0,0:0:0:70:tom01.wav
320,192,114572,1,0,0:0:0:70:tom02.wav
448,192,114725,1,0,0:0:0:70:cymbol.wav
192,192,114725,1,0,0:0:0:70:snare.wav
320,192,114878,1,0,0:0:0:50:bass.wav
64,192,115031,1,0,0:0:0:70:snare.wav
448,192,115184,1,0,0:0:0:70:snare.wav
320,192,115338,1,0,0:0:0:50:cymbol.wav
64,192,115338,1,0,0:0:0:50:cymbol.wav
448,192,115644,1,0,0:0:0:50:bass.wav
192,192,115644,1,0,0:0:0:0:
64,192,115797,1,0,0:0:0:50:bass.wav
320,192,115950,1,0,0:0:0:70:hihat.wav
448,192,115950,1,0,0:0:0:70:snare.wav
320,192,116256,1,0,0:0:0:50:bass.wav
192,192,116256,1,0,0:0:0:0:
64,192,116562,1,0,0:0:0:70:hihat.wav
320,192,116715,1,0,0:0:0:50:bass.wav
64,192,116868,1,0,0:0:0:0:
448,192,117021,1,0,0:0:0:50:bass.wav
320,192,117174,1,0,0:0:0:70:snare.wav
192,192,117174,1,0,0:0:0:0:
64,192,117174,1,0,0:0:0:70:hihat.wav
64,192,117480,1,0,0:0:0:0:
448,192,117480,1,0,0:0:0:50:bass.wav
320,192,117633,1,0,0:0:0:50:bass.wav
64,192,117786,1,0,0:0:0:70:hihat.wav
192,192,117787,1,0,0:0:0:50:bass.wav
320,192,118092,1,0,0:0:0:50:bass.wav
448,192,118093,1,0,0:0:0:0:
192,192,118246,1,0,0:0:0:50:bass.wav
448,192,118398,1,0,0:0:0:70:snare.wav
64,192,118398,1,0,0:0:0:70:hihat.wav
192,192,118705,1,0,0:0:0:50:bass.wav
448,192,118705,1,0,0:0:0:0:
64,192,119010,1,0,0:0:0:70:hihat.wav
448,192,119164,1,0,0:0:0:50:bass.wav
192,192,119317,1,0,0:0:0:0:
448,192,119470,1,0,0:0:0:50:bass.wav
320,192,119623,1,0,0:0:0:70:snare.wav
64,192,119623,1,0,0:0:0:70:hihat.wav
64,192,119929,1,0,0:0:0:0:
448,192,119930,1,0,0:0:0:50:bass.wav
192,192,120236,1,0,0:0:0:50:cymbol.wav
448,192,120236,1,0,0:0:0:50:cymbol.wav
192,192,120542,1,0,0:0:0:50:bass.wav
64,192,120542,1,0,0:0:0:0:
320,192,120695,1,0,0:0:0:50:bass.wav
448,192,120848,1,0,0:0:0:70:snare.wav
64,192,120848,1,0,0:0:0:70:hihat.wav
320,192,121154,1,0,0:0:0:50:bass.wav
192,192,121154,1,0,0:0:0:0:
448,192,121460,1,0,0:0:0:70:hihat.wav
64,192,121613,1,0,0:0:0:50:bass.wav
448,192,121766,1,0,0:0:0:0:
192,192,121919,1,0,0:0:0:50:bass.wav
448,192,122072,1,0,0:0:0:70:snare.wav
320,192,122072,1,0,0:0:0:0:
64,192,122072,1,0,0:0:0:70:hihat.wav
64,192,122378,1,0,0:0:0:0:
448,192,122378,1,0,0:0:0:50:bass.wav
192,192,122531,1,0,0:0:0:50:bass.wav
320,192,122684,1,0,0:0:0:70:hihat.wav
448,192,122684,1,0,0:0:0:50:bass.wav
448,192,122991,1,0,0:0:0:50:bass.wav
192,192,122991,1,0,0:0:0:0:
64,192,123144,1,0,0:0:0:50:bass.wav
448,192,123297,1,0,0:0:0:70:snare.wav
320,192,123297,1,0,0:0:0:70:hihat.wav
320,192,123603,1,0,0:0:0:50:bass.wav
64,192,123603,1,0,0:0:0:0:
192,192,123909,1,0,0:0:0:70:hihat.wav
320,192,124062,1,0,0:0:0:50:bass.wav
64,192,124215,1,0,0:0:0:0:
448,192,124368,1,0,0:0:0:50:bass.wav
320,192,124521,1,0,0:0:0:70:snare.wav
64,192,124674,1,0,0:0:0:50:bass.wav
192,192,124827,1,0,0:0:0:50:bass.wav
320,192,124828,1,0,0:0:0:70:tom01.wav
448,192,124981,1,0,0:0:0:70:tom02.wav
64,192,125133,1,0,0:0:0:50:bass.wav
192,192,125134,1,0,0:0:0:70:cymbol.wav
448,192,125440,1,0,0:0:0:50:bass.wav
192,192,125440,1,0,0:0:0:0:
320,192,125593,1,0,0:0:0:50:bass.wav
448,192,125746,1,0,0:0:0:70:snare.wav
64,192,125746,1,0,0:0:0:70:hihat.wav
448,192,126052,1,0,0:0:0:50:bass.wav
64,192,126052,1,0,0:0:0:0:
320,192,126205,1,0,0:0:0:50:bass.wav
192,192,126358,1,0,0:0:0:50:bass.wav
64,192,126358,1,0,0:0:0:70:hihat.wav
320,192,126511,1,0,0:0:0:70:snare.wav
448,192,126664,1,0,0:0:0:50:bass.wav
64,192,126664,1,0,0:0:0:0:
192,192,126817,1,0,0:0:0:50:bass.wav
320,192,126970,1,0,0:0:0:70:snare.wav
64,192,126970,1,0,0:0:0:70:hihat.wav
192,192,127123,1,0,0:0:0:50:bass.wav
448,192,127276,1,0,0:0:0:50:bass.wav
64,192,127276,1,0,0:0:0:0:
192,192,127582,1,0,0:0:0:50:bass.wav
448,192,127582,1,0,0:0:0:70:hihat.wav
448,192,127889,1,0,0:0:0:50:bass.wav
64,192,127889,1,0,0:0:0:0:
320,192,128042,1,0,0:0:0:50:bass.wav
192,192,128195,1,0,0:0:0:70:snare.wav
64,192,128195,1,0,0:0:0:70:hihat.wav
448,192,128501,1,0,0:0:0:50:bass.wav
64,192,128501,1,0,0:0:0:0:
192,192,128654,1,0,0:0:0:50:bass.wav
320,192,128807,1,0,0:0:0:50:bass.wav
448,192,128807,1,0,0:0:0:70:hihat.wav
192,192,128960,1,0,0:0:0:70:snare.wav
64,192,129113,1,0,0:0:0:50:bass.wav
448,192,129113,1,0,0:0:0:0:
192,192,129266,1,0,0:0:0:50:bass.wav
64,192,129419,1,0,0:0:0:70:snare.wav
448,192,129419,1,0,0:0:0:70:hihat.wav
320,192,129572,1,0,0:0:0:50:bass.wav
192,192,129725,1,0,0:0:0:70:cymbol.wav
64,192,130031,1,0,0:0:0:50:cymbol.wav
320,192,130031,1,0,0:0:0:50:cymbol.wav
192,192,130338,1,0,0:0:0:50:bass.wav
64,192,130338,1,0,0:0:0:0:
448,192,130491,1,0,0:0:0:50:bass.wav
320,192,130644,1,0,0:0:0:70:snare.wav
64,192,130644,1,0,0:0:0:70:hihat.wav
448,192,130950,1,0,0:0:0:50:bass.wav
64,192,130950,1,0,0:0:0:0:
192,192,131103,1,0,0:0:0:70:snare.wav
448,192,131256,1,0,0:0:0:50:bass.wav
320,192,131256,1,0,0:0:0:70:hihat.wav
192,192,131409,1,0,0:0:0:70:snare.wav
64,192,131562,1,0,0:0:0:0:
448,192,131715,1,0,0:0:0:50:bass.wav
320,192,131868,1,0,0:0:0:70:snare.wav
64,192,131868,1,0,0:0:0:70:hihat.wav
192,192,132021,1,0,0:0:0:70:bass.wav
448,192,132174,1,0,0:0:0:70:snare.wav
320,192,132327,1,0,0:0:0:70:snare.wav
192,192,132480,1,0,0:0:0:50:cymbol.wav
448,192,132480,1,0,0:0:0:50:cymbol.wav
64,192,132480,1,0,0:0:0:50:bass.wav
192,192,132787,1,0,0:0:0:50:bass.wav
64,192,132787,1,0,0:0:0:30:tom02.wav
320,192,133093,1,0,0:0:0:50:bass.wav
64,192,133093,1,0,0:0:0:40:tom02.wav
192,192,133399,1,0,0:0:0:50:tom02.wav
448,192,133399,1,0,0:0:0:50:bass.wav
64,192,133705,1,0,0:0:0:50:cymbol.wav
320,192,133705,1,4,0:0:0:0:
192,192,134317,1,0,0:0:0:70:bass.wav
64,192,134317,1,0,0:0:0:40:tom01.wav
448,192,134419,1,0,0:0:0:40:tom02.wav
320,192,134521,1,0,0:0:0:40:tom01.wav
192,192,134623,1,0,0:0:0:40:tom01.wav
64,192,134725,1,0,0:0:0:40:tom02.wav
320,192,134827,1,0,0:0:0:50:tom02.wav
448,192,134929,1,0,0:0:0:70:cymbol.wav
192,192,134929,1,0,0:0:0:50:bass.wav
64,192,135236,1,0,0:0:0:70:hihat03.wav
320,192,135389,1,0,0:0:0:70:hihat.wav
64,192,135542,1,0,0:0:0:70:hihat.wav
192,192,135542,1,0,0:0:0:50:bass.wav
448,192,135695,1,0,0:0:0:70:hihat.wav
64,192,135848,1,0,0:0:0:70:hihat03.wav
192,192,136001,1,0,0:0:0:70:hihat.wav
448,192,136154,1,0,0:0:0:70:hihat.wav
64,192,136154,1,0,0:0:0:50:bass.wav
320,192,136307,1,0,0:0:0:70:hihat.wav
64,192,136460,1,0,0:0:0:70:hihat03.wav
192,192,136460,1,0,0:0:0:50:bass.wav
320,192,136613,1,0,0:0:0:70:hihat.wav
448,192,136766,1,0,0:0:0:70:hihat.wav
64,192,136766,1,0,0:0:0:70:snare.wav
192,192,136919,1,0,0:0:0:70:hihat.wav
320,192,137072,1,0,0:0:0:70:hihat02.wav
448,192,137378,1,0,0:0:0:70:hihat.wav
64,192,137378,1,0,0:0:0:50:bass.wav
192,192,137684,1,0,0:0:0:70:hihat03.wav
64,192,137838,1,0,0:0:0:50:bass.wav
448,192,137991,1,0,0:0:0:70:snare.wav
320,192,138144,1,0,0:0:0:70:hihat.wav
64,192,138297,1,0,0:0:0:70:hihat03.wav
448,192,138450,1,0,0:0:0:70:hihat.wav
192,192,138603,1,0,0:0:0:70:hihat.wav
64,192,138603,1,0,0:0:0:50:bass.wav
320,192,138756,1,0,0:0:0:70:hihat.wav
64,192,138909,1,0,0:0:0:70:hihat02.wav
448,192,138909,1,0,0:0:0:50:bass.wav
320,192,139215,1,0,0:0:0:70:snare.wav
448,192,139521,1,0,0:0:0:70:tom02.wav
192,192,139521,1,0,0:0:0:50:bass.wav
320,192,139827,1,0,0:0:0:50:cymbol.wav
64,192,139827,1,0,0:0:0:50:cymbol.wav
64,192,140133,1,0,0:0:0:70:hihat03.wav
448,192,140133,1,0,0:0:0:50:bass.wav
192,192,140440,1,0,0:0:0:70:snare.wav
64,192,140746,1,0,0:0:0:70:hihat03.wav
448,192,140746,1,0,0:0:0:50:bass.wav
320,192,141052,1,0,0:0:0:60:tom02.wav
192,192,141052,1,0,0:0:0:50:bass.wav
64,192,141358,1,0,0:0:0:70:snare.wav
448,192,141358,1,0,0:0:0:70:cymbol.wav
192,192,141511,1,0,0:0:0:70:snare.wav
448,192,141664,1,0,0:0:0:50:bass.wav
64,192,141817,1,0,0:0:0:40:tom01.wav
320,192,141970,1,0,0:0:0:40:tom02.wav
448,192,142276,1,0,0:0:0:50:cymbol.wav
192,192,142276,1,0,0:0:0:50:cymbol.wav
64,192,142276,1,0,0:0:0:50:bass.wav
64,192,142889,1,0,0:0:0:70:hihat01.wav
448,192,143501,1,0,0:0:0:70:hihat01.wav
64,192,143807,1,0,0:0:0:70:tom02.wav
192,192,143807,1,0,0:0:0:70:bass.wav
448,192,144113,1,0,0:0:0:70:snare.wav
192,192,144266,1,0,0:0:0:70:snare.wav
320,192,144419,1,0,0:0:0:70:tom01.wav
64,192,144572,1,0,0:0:0:70:tom02.wav
320,192,144725,1,0,0:0:0:50:bass.wav
448,192,144725,1,0,0:0:0:70:cymbol.wav
64,192,145031,1,0,0:0:0:70:hihat03.wav
320,192,145184,1,0,0:0:0:50:bass.wav
448,192,145338,1,0,0:0:0:70:snare.wav
192,192,145338,1,0,0:0:0:0:
320,192,145491,1,0,0:0:0:70:hihat.wav
64,192,145644,1,0,0:0:0:70:hihat03.wav
192,192,145797,1,0,0:0:0:50:bass.wav
448,192,145950,1,0,0:0:0:50:bass.wav
192,192,146103,1,0,0:0:0:50:bass.wav
448,192,146256,1,0,0:0:0:70:hihat03.wav
320,192,146256,1,0,0:0:0:70:snare.wav
192,192,146409,1,0,0:0:0:50:bass.wav
64,192,146409,1,0,0:0:0:70:hihat.wav
320,192,146562,1,0,0:0:0:70:snare.wav
448,192,146715,1,0,0:0:0:0:
64,192,146868,1,0,0:0:0:70:hihat01.wav
320,192,147174,1,0,0:0:0:70:hihat.wav
192,192,147174,1,0,0:0:0:50:bass.wav
448,192,147480,1,0,0:0:0:70:hihat03.wav
64,192,147633,1,0,0:0:0:50:bass.wav
192,192,147787,1,0,0:0:0:70:snare.wav
320,192,147787,1,0,0:0:0:0:
448,192,147940,1,0,0:0:0:70:hihat.wav
192,192,148093,1,0,0:0:0:70:hihat03.wav
320,192,148246,1,0,0:0:0:70:snare.wav
64,192,148399,1,0,0:0:0:50:bass.wav
448,192,148552,1,0,0:0:0:70:snare.wav
64,192,148705,1,0,0:0:0:50:bass.wav
192,192,148705,1,0,0:0:0:70:hihat01.wav
192,192,149011,1,0,0:0:0:70:hihat.wav
320,192,149011,1,0,0:0:0:70:snare.wav
448,192,149317,1,0,0:0:0:70:hihat03.wav
192,192,149317,1,0,0:0:0:50:bass.wav
64,192,149623,1,0,0:0:0:50:bass.wav
448,192,149623,1,0,0:0:0:70:hihat03.wav
320,192,149623,1,0,0:0:0:70:cymbol.wav
448,192,149929,1,0,0:0:0:70:hihat03.wav
192,192,149929,1,0,0:0:0:50:bass.wav
320,192,150236,1,0,0:0:0:70:snare.wav
64,192,150542,1,0,0:0:0:50:bass.wav
448,192,150542,1,0,0:0:0:70:hihat03.wav
320,192,150695,1,0,0:0:0:50:bass.wav
192,192,150848,1,0,0:0:0:50:snare.wav
448,192,151001,1,0,0:0:0:50:bass.wav
64,192,151154,1,0,0:0:0:50:bass.wav
320,192,151154,1,0,0:0:0:70:hihat03.wav
448,192,151307,1,0,0:0:0:50:bass.wav
192,192,151460,1,0,0:0:0:70:snare.wav
320,192,151613,1,0,0:0:0:0:
64,192,151766,1,0,0:0:0:70:hihat01.wav
448,192,152072,1,0,0:0:0:50:bass.wav
64,192,152378,1,0,0:0:0:70:hihat03.wav
192,192,152531,1,0,0:0:0:50:bass.wav
448,192,152684,1,0,0:0:0:70:snare.wav
192,192,152838,1,0,0:0:0:50:bass.wav
64,192,152991,1,0,0:0:0:70:hihat01.wav
448,192,153144,1,0,0:0:0:70:snare.wav
320,192,153297,1,0,0:0:0:50:cymbol.wav
192,192,153297,1,0,0:0:0:50:bass.wav
448,192,153603,1,0,0:0:0:50:cymbol.wav
64,192,153603,1,0,0:0:0:50:hihat01.wav
448,192,153909,1,0,0:0:0:50:cymbol.wav
192,192,153909,1,0,0:0:0:50:bass.wav
64,192,154215,1,0,0:0:0:50:tom01.wav
320,192,154368,1,0,0:0:0:50:tom02.wav
192,192,154521,1,0,0:0:0:50:cymbol.wav
448,192,154521,1,0,0:0:0:50:cymbol.wav
64,192,154827,1,0,0:0:0:70:hihat03.wav
320,192,154827,1,0,0:0:0:50:bass.wav
192,192,155133,1,0,0:0:0:70:snare.wav
448,192,155440,1,0,0:0:0:50:bass.wav
64,192,155440,1,0,0:0:0:70:hihat03.wav
320,192,155593,1,0,0:0:0:70:snare.wav
192,192,155746,1,0,0:0:0:50:bass.wav
448,192,155899,1,0,0:0:0:70:snare.wav
64,192,156052,1,0,0:0:0:50:bass.wav
192,192,156052,1,0,0:0:0:70:hihat03.wav
448,192,156205,1,0,0:0:0:50:bass.wav
320,192,156358,1,0,0:0:0:70:snare.wav
320,192,156664,1,0,0:0:0:70:hihat01.wav
64,192,156664,1,0,0:0:0:50:bass.wav
448,192,156970,1,0,0:0:0:70:hihat.wav
64,192,156970,1,0,0:0:0:50:bass.wav
320,192,157123,1,0,0:0:0:50:bass.wav
64,192,157276,1,0,0:0:0:70:hihat03.wav
192,192,157276,1,0,0:0:0:70:snare.wav
448,192,157429,1,0,0:0:0:50:bass.wav
320,192,157582,1,0,0:0:0:70:cymbol.wav
192,192,157582,1,0,0:0:0:70:snare.wav
64,192,157889,1,0,0:0:0:70:hihat03.wav
320,192,157889,1,0,0:0:0:50:bass.wav
448,192,158195,1,0,0:0:0:70:cymbol.wav
320,192,158195,1,0,0:0:0:70:snare.wav
192,192,158501,1,0,0:0:0:50:bass.wav
320,192,158501,1,0,0:0:0:70:tom02.wav
64,192,158501,1,0,0:0:0:70:hihat01.wav
192,192,158807,1,0,0:0:0:70:snare.wav
448,192,158960,1,0,0:0:0:50:tom01.wav
64,192,159113,1,0,0:0:0:50:tom01.wav
320,192,159266,1,0,0:0:0:50:tom02.wav
192,192,159419,1,0,0:0:0:50:bass.wav
448,192,159419,1,0,0:0:0:70:cymbol.wav
64,192,159419,1,0,0:0:0:0:
192,192,159725,1,0,0:0:0:70:hihat03.wav
448,192,159725,1,0,0:0:0:50:bass.wav
64,192,160031,1,0,0:0:0:70:hihat.wav
320,192,160031,1,0,0:0:0:40:snare.wav
192,192,160338,1,0,0:0:0:70:hihat03.wav
448,192,160338,1,0,0:0:0:50:bass.wav
320,192,160491,1,0,0:0:0:70:snare.wav
64,192,160644,1,0,0:0:0:70:hihat.wav
448,192,160644,1,0,0:0:0:50:bass.wav
192,192,160950,1,0,0:0:0:70:hihat03.wav
448,192,160950,1,0,0:0:0:50:bass.wav
64,192,161256,1,0,0:0:0:70:hihat.wav
320,192,161256,1,0,0:0:0:70:snare.wav
192,192,161562,1,0,0:0:0:70:hihat01.wav
448,192,161868,1,0,0:0:0:70:cymbol.wav
320,192,161868,1,0,0:0:0:70:bass.wav
192,192,162174,1,0,0:0:0:50:bass.wav
448,192,162174,1,0,0:0:0:40:tom02.wav
64,192,162174,1,0,0:0:0:70:hihat03.wav
320,192,162480,1,0,0:0:0:70:snare.wav
64,192,162480,1,0,0:0:0:40:tom02.wav
448,192,162787,1,0,0:0:0:50:bass.wav
192,192,162787,1,0,0:0:0:40:tom02.wav
320,192,162787,1,0,0:0:0:70:hihat01.wav
192,192,163093,1,0,0:0:0:70:bass.wav
64,192,163093,1,0,0:0:0:40:tom02.wav
448,192,163093,1,0,0:0:0:70:cymbol.wav
448,192,163399,1,0,0:0:0:70:snare.wav
192,192,163552,1,0,0:0:0:70:snare.wav
448,192,163705,1,0,0:0:0:70:snare.wav
64,192,163705,1,0,0:0:0:50:bass.wav
320,192,163858,1,0,0:0:0:50:tom01.wav
192,192,164011,1,0,0:0:0:50:tom02.wav
448,192,164164,1,0,0:0:0:50:tom02.wav
192,192,164317,1,0,0:0:0:50:cymbol.wav
64,192,164317,1,0,0:0:0:50:bass.wav
320,192,164317,1,0,0:0:0:50:cymbol.wav
448,192,164623,1,0,0:0:0:50:ride.wav
448,192,164929,1,0,0:0:0:50:ride.wav
64,192,164929,1,0,0:0:0:70:snare.wav
320,192,165236,1,0,0:0:0:50:ride.wav
192,192,165236,1,0,0:0:0:70:bass.wav
448,192,165542,1,0,0:0:0:50:ride.wav
64,192,165542,1,2,0:0:0:0:
448,192,165848,1,0,0:0:0:50:ride.wav
192,192,165848,1,0,0:0:0:70:bass.wav
320,192,166154,1,0,0:0:0:50:ride.wav
64,192,166154,1,0,0:0:0:70:snare.wav
448,192,166460,1,0,0:0:0:50:ride.wav
192,192,166460,1,0,0:0:0:70:bass.wav
192,192,166766,1,0,0:0:0:70:bass.wav
448,192,166766,1,0,0:0:0:50:ride.wav
448,192,167072,1,0,0:0:0:50:ride.wav
64,192,167072,1,2,0:0:0:0:
320,192,167378,1,0,0:0:0:50:ride.wav
192,192,167378,1,0,0:0:0:70:snare.wav
448,192,167684,1,0,0:0:0:50:ride.wav
64,192,167684,1,0,0:0:0:70:bass.wav
448,192,167991,1,0,0:0:0:50:ride.wav
64,192,167991,1,2,0:0:0:0:
320,192,168297,1,0,0:0:0:50:ride.wav
192,192,168297,1,0,0:0:0:70:bass.wav
448,192,168603,1,0,0:0:0:50:ride.wav
64,192,168603,1,0,0:0:0:70:snare.wav
448,192,168909,1,0,0:0:0:50:ride.wav
192,192,168909,1,0,0:0:0:70:bass.wav
192,192,169215,1,0,0:0:0:50:cymbol.wav
448,192,169215,1,0,0:0:0:50:cymbol.wav
64,192,169215,1,0,0:0:0:70:bass.wav
320,192,169521,1,0,0:0:0:50:ride.wav
320,192,169827,1,0,0:0:0:50:ride.wav
64,192,169827,1,0,0:0:0:50:snare.wav
448,192,170133,1,0,0:0:0:50:ride.wav
192,192,170133,1,0,0:0:0:50:bass.wav
448,192,170440,1,0,0:0:0:50:ride.wav
64,192,170440,1,2,0:0:0:0:
192,192,170746,1,0,0:0:0:50:ride.wav
320,192,170746,1,0,0:0:0:50:bass.wav
448,192,171052,1,0,0:0:0:50:ride.wav
64,192,171052,1,0,0:0:0:50:snare.wav
448,192,171358,1,0,0:0:0:50:ride.wav
192,192,171358,1,0,0:0:0:50:bass.wav
448,192,171664,1,0,0:0:0:50:ride.wav
192,192,171664,1,0,0:0:0:50:bass.wav
320,192,171970,1,0,0:0:0:50:ride.wav
64,192,171970,1,2,0:0:0:0:
448,192,172276,1,0,0:0:0:50:ride.wav
192,192,172276,1,0,0:0:0:50:snare.wav
320,192,172582,1,0,0:0:0:50:bass.wav
448,192,172736,1,0,0:0:0:50:snare.wav
64,192,172889,1,0,0:0:0:50:bass.wav
448,192,173042,1,0,0:0:0:50:cymbol.wav
192,192,173042,1,0,0:0:0:70:bass.wav
320,192,173501,1,0,0:0:0:70:snare.wav
64,192,173501,1,0,0:0:0:70:cymbol.wav
192,192,173654,1,0,0:0:0:70:snare.wav
448,192,173807,1,0,0:0:0:70:tom01.wav
64,192,173960,1,0,0:0:0:70:tom02.wav
320,192,174113,1,0,0:0:0:70:cymbol.wav
192,192,174113,1,0,0:0:0:70:bass.wav
448,192,174419,1,0,0:0:0:50:ride.wav
448,192,174725,1,0,0:0:0:50:ride.wav
64,192,174725,1,0,0:0:0:70:snare.wav
448,192,175031,1,0,0:0:0:50:ride.wav
320,192,175031,1,0,0:0:0:70:bass.wav
192,192,175184,1,0,0:0:0:70:snare.wav
448,192,175338,1,0,0:0:0:50:ride.wav
64,192,175338,1,0,0:0:0:70:bass.wav
192,192,175644,1,0,0:0:0:70:bass.wav
448,192,175644,1,0,0:0:0:50:ride.wav
320,192,175797,1,0,0:0:0:70:bass.wav
448,192,175950,1,0,0:0:0:50:ride.wav
64,192,175950,1,0,0:0:0:70:snare.wav
192,192,176256,1,0,0:0:0:70:bass.wav
448,192,176256,1,0,0:0:0:50:ride.wav
64,192,176409,1,0,0:0:0:70:snare.wav
192,192,176562,1,0,0:0:0:70:bass.wav
320,192,176562,1,0,0:0:0:70:cymbol.wav
320,192,176868,1,0,0:0:0:70:bass.wav
192,192,177021,1,0,0:0:0:70:bass.wav
64,192,177174,1,0,0:0:0:70:snare.wav
448,192,177174,1,0,0:0:0:70:cymbol.wav
320,192,177480,1,0,0:0:0:70:bass.wav
64,192,177633,1,0,0:0:0:70:bass.wav
448,192,177787,1,0,0:0:0:70:cymbol.wav
192,192,177787,1,0,0:0:0:70:cymbol.wav
64,192,178195,1,0,0:0:0:70:snare.wav
192,192,178297,1,0,0:0:0:70:snare.wav
448,192,178399,1,0,0:0:0:70:snare.wav
64,192,178399,1,0,0:0:0:70:bass.wav
320,192,178501,1,0,0:0:0:70:tom01.wav
64,192,178603,1,0,0:0:0:70:tom01.wav
448,192,178705,1,0,0:0:0:70:tom01.wav
192,192,178807,1,0,0:0:0:70:tom02.wav
448,192,178909,1,0,0:0:0:70:tom02.wav
320,192,179011,1,0,0:0:0:70:cymbol.wav
64,192,179011,1,0,0:0:0:70:cymbol.wav
192,192,179011,1,0,0:0:0:70:bass.wav
320,192,179317,1,0,0:0:0:70:bass.wav
448,192,179317,1,0,0:0:0:50:ride.wav
192,192,179470,1,0,0:0:0:70:bass.wav
448,192,179623,1,0,0:0:0:70:cymbol.wav
64,192,179623,1,0,0:0:0:70:snare.wav
192,192,179929,1,0,0:0:0:70:bass.wav
448,192,179929,1,0,0:0:0:50:ride.wav
320,192,180082,1,0,0:0:0:70:snare.wav
192,192,180236,1,0,0:0:0:70:bass.wav
64,192,180236,1,0,0:0:0:50:ride.wav
192,192,180542,1,0,0:0:0:70:bass.wav
448,192,180542,1,0,0:0:0:50:ride.wav
448,192,180848,1,0,0:0:0:70:snare.wav
64,192,180848,1,0,0:0:0:50:ride.wav
320,192,181154,1,0,0:0:0:70:bass.wav
64,192,181154,1,0,0:0:0:50:ride.wav
192,192,181307,1,0,0:0:0:70:snare.wav
320,192,181460,1,0,0:0:0:70:bass.wav
448,192,181460,1,0,0:0:0:70:cymbol.wav
64,192,181766,1,0,0:0:0:70:snare.wav
448,192,181766,1,0,0:0:0:70:tom02.wav
192,192,182072,1,0,0:0:0:70:bass.wav
320,192,182072,1,0,0:0:0:70:tom02.wav
448,192,182225,1,0,0:0:0:70:snare.wav
320,192,182378,1,0,0:0:0:70:tom02.wav
64,192,182378,1,0,0:0:0:70:snare.wav
192,192,182531,1,0,0:0:0:70:tom01.wav
448,192,182684,1,0,0:0:0:70:cymbol.wav
320,192,182684,1,0,0:0:0:70:bass.wav
64,192,182838,1,0,0:0:0:70:snare.wav
448,192,182991,1,0,0:0:0:70:hihat02.wav
192,192,182991,1,0,0:0:0:50:bass.wav
320,192,183144,1,0,0:0:0:70:snare.wav
192,192,183297,1,0,0:0:0:70:snare.wav
448,192,183297,1,0,0:0:0:50:bass.wav
64,192,183297,1,0,0:0:0:70:cymbol.wav
320,192,183450,1,0,0:0:0:70:snare.wav
64,192,183603,1,0,0:0:0:70:tom01.wav
192,192,183756,1,0,0:0:0:70:tom02.wav
320,192,183909,1,0,0:0:0:70:cymbol.wav
64,192,183909,1,0,0:0:0:50:bass.wav
448,192,183909,128,0,185133:0:0:0:70:cymbol.wav
64,192,184521,1,0,0:0:0:70:hihat03.wav
320,192,184827,1,0,0:0:0:70:blank.wav
64,192,184980,1,0,0:0:0:70:blank.wav
192,192,185133,1,0,0:0:0:70:blank.wav
320,192,185133,128,0,186358:0:0:0:70:blank.wav
64,192,185746,1,0,0:0:0:70:hihat03.wav
192,192,186052,1,0,0:0:0:70:blank.wav
448,192,186358,1,0,0:0:0:40:bass.wav
64,192,186358,128,0,187276:0:0:0:70:ride.wav
192,192,186664,1,0,0:0:0:70:blank.wav
448,192,186817,1,0,0:0:0:70:blank.wav
192,192,186970,1,0,0:0:0:70:hihat03.wav
448,192,187276,1,0,0:0:0:70:blank.wav
320,192,187276,128,0,187582:0:0:0:70:blank.wav
192,192,187582,128,0,187889:0:0:0:70:blank.wav
64,192,187889,1,0,0:0:0:70:hihat03.wav
448,192,188195,1,0,0:0:0:70:hihat01.wav
192,192,188501,1,0,0:0:0:70:blank.wav
448,192,188654,1,0,0:0:0:70:blank.wav
320,192,188807,1,0,0:0:0:70:ride.wav
64,192,188807,128,0,190031:0:0:0:70:bass.wav
192,192,189113,1,0,0:0:0:70:blank.wav
448,192,189419,1,0,0:0:0:70:hihat03.wav
448,192,189725,1,0,0:0:0:70:blank.wav
192,192,189878,1,0,0:0:0:70:blank.wav
320,192,190031,1,0,0:0:0:70:blank.wav
448,192,190031,128,0,191256:0:0:0:70:blank.wav
192,192,190184,1,0,0:0:0:70:blank.wav
64,192,190338,1,0,0:0:0:70:blank.wav
64,192,190644,1,0,0:0:0:70:hihat03.wav
320,192,190644,1,0,0:0:0:70:blank.wav
192,192,190950,1,0,0:0:0:70:blank.wav
320,192,191256,128,0,192174:0:0:0:40:bass.wav
64,192,191256,128,0,191868:0:0:0:70:ride.wav
192,192,191868,1,0,0:0:0:70:hihat03.wav
448,192,192174,1,0,0:0:0:70:blank.wav
64,192,192327,1,0,0:0:0:70:blank.wav
192,192,192480,128,0,193093:0:0:0:70:blank.wav
448,192,192480,128,0,193093:0:0:0:50:bass.wav
64,192,192787,1,0,0:0:0:70:hihat01.wav
320,192,193093,1,0,0:0:0:40:tom01.wav
448,192,193399,1,0,0:0:0:70:blank.wav
64,192,193399,1,0,0:0:0:50:tom02.wav
320,192,193552,1,0,0:0:0:70:blank.wav
192,192,193705,1,0,0:0:0:70:ride.wav
64,192,193705,128,0,194011:0:0:0:70:blank.wav
192,192,194011,128,0,194317:0:0:0:70:blank.wav
448,192,194011,1,0,0:0:0:70:hihat.wav
320,192,194317,128,0,194623:0:0:0:70:blank.wav
64,192,194317,1,0,0:0:0:50:hihat03.wav
64,192,194623,1,0,0:0:0:70:hihat.wav
448,192,194623,128,0,194929:0:0:0:70:blank.wav
192,192,194776,1,0,0:0:0:70:blank.wav
320,192,194929,1,0,0:0:0:70:blank.wav
64,192,194929,128,0,195236:0:0:0:70:blank.wav
320,192,195236,128,0,195542:0:0:0:70:blank.wav
192,192,195236,1,0,0:0:0:70:hihat.wav
448,192,195542,128,0,195848:0:0:0:70:hihat03.wav
64,192,195848,128,0,196154:0:0:0:70:blank.wav
192,192,195848,1,0,0:0:0:70:hihat.wav
320,192,196154,128,0,196460:0:0:0:50:bass.wav
448,192,196154,1,0,0:0:0:70:ride.wav
192,192,196460,128,0,196766:0:0:0:70:blank.wav
64,192,196460,1,0,0:0:0:70:hihat.wav
448,192,196766,128,0,197072:0:0:0:70:blank.wav
64,192,196766,128,0,197072:0:0:0:70:hihat03.wav
192,192,197072,128,0,197684:0:0:0:70:blank.wav
320,192,197072,128,0,197684:0:0:0:70:hihat01.wav
64,192,197684,1,0,0:0:0:70:tom01.wav
448,192,197838,1,0,0:0:0:70:tom02.wav
192,192,197991,1,0,0:0:0:70:snare.wav
64,192,197991,1,0,0:0:0:70:bass.wav
320,192,198144,1,0,0:0:0:70:snare.wav
448,192,198297,1,0,0:0:0:70:tom01.wav
64,192,198297,1,0,0:0:0:70:bass.wav
192,192,198450,1,0,0:0:0:70:tom02.wav
448,192,198603,1,0,0:0:0:70:bass.wav
320,192,198603,1,0,0:0:0:70:cymbol.wav
64,192,198756,1,0,0:0:0:70:hihat03.wav
448,192,198909,1,0,0:0:0:70:hihat02.wav
192,192,199062,1,0,0:0:0:70:hihat03.wav
448,192,199215,1,0,0:0:0:70:hihat03.wav
320,192,199215,1,0,0:0:0:70:bass.wav
64,192,199368,1,0,0:0:0:70:hihat03.wav
320,192,199521,1,0,0:0:0:70:hihat03.wav
192,192,199674,1,0,0:0:0:70:hihat03.wav
448,192,199827,1,0,0:0:0:70:hihat03.wav
64,192,199827,1,0,0:0:0:70:bass.wav
192,192,200133,1,0,0:0:0:70:hihat02.wav
320,192,200440,1,0,0:0:0:70:snare.wav
64,192,200746,1,0,0:0:0:70:bass.wav
64,192,201052,1,0,0:0:0:70:bass.wav
448,192,201052,1,0,0:0:0:70:cymbol.wav
320,192,201205,1,0,0:0:0:70:hihat03.wav
192,192,201358,1,0,0:0:0:70:hihat02.wav
448,192,201511,1,0,0:0:0:70:hihat03.wav
64,192,201664,1,0,0:0:0:70:hihat03.wav
192,192,201664,1,0,0:0:0:70:bass.wav
448,192,201817,1,0,0:0:0:70:hihat03.wav
192,192,201970,1,0,0:0:0:70:hihat03.wav
320,192,202123,1,0,0:0:0:70:hihat03.wav
64,192,202276,1,0,0:0:0:70:hihat03.wav
448,192,202276,1,0,0:0:0:70:bass.wav
448,192,202582,1,0,0:0:0:70:snare.wav
192,192,202582,1,0,0:0:0:70:hihat02.wav
64,192,202889,1,0,0:0:0:70:snare.wav
320,192,203042,1,0,0:0:0:70:snare.wav
192,192,203042,1,0,0:0:0:70:bass.wav
64,192,203195,1,0,0:0:0:70:tom01.wav
448,192,203348,1,0,0:0:0:70:tom02.wav
64,192,203501,1,0,0:0:0:70:cymbol.wav
192,192,203501,1,0,0:0:0:70:bass.wav
320,192,203577,1,0,0:0:0:70:blank.wav
448,192,203654,1,2,0:0:0:70:blank.wav
64,192,203730,1,0,0:0:0:70:blank.wav
192,192,203807,1,2,0:0:0:70:blank.wav
320,192,203883,1,0,0:0:0:70:blank.wav
448,192,203960,1,0,0:0:0:70:blank.wav
64,192,204037,1,0,0:0:0:70:blank.wav
192,192,204113,1,0,0:0:0:70:blank.wav
448,192,204190,1,0,0:0:0:70:blank.wav
320,192,204266,1,2,0:0:0:70:blank.wav
64,192,204343,1,0,0:0:0:70:blank.wav
192,192,204419,1,0,0:0:0:70:blank.wav
320,192,204496,1,0,0:0:0:70:blank.wav
448,192,204572,1,0,0:0:0:70:blank.wav
192,192,204649,1,0,0:0:0:70:blank.wav
64,192,204725,1,2,0:0:0:70:ride.wav
320,192,204802,1,2,0:0:0:70:blank.wav
448,192,204878,1,0,0:0:0:40:tom01.wav
192,192,204955,1,0,0:0:0:40:tom02.wav
64,192,205031,1,0,0:0:0:70:hihat01.wav
448,192,205108,1,0,0:0:0:70:blank.wav
320,192,205184,1,0,0:0:0:70:blank.wav
64,192,205261,1,0,0:0:0:70:blank.wav
192,192,205338,1,0,0:0:0:70:snare.wav
448,192,205414,1,0,0:0:0:70:blank.wav
320,192,205491,1,0,0:0:0:70:snare.wav
192,192,205567,1,0,0:0:0:70:blank.wav
64,192,205644,1,0,0:0:0:70:tom01.wav
448,192,205720,1,0,0:0:0:70:blank.wav
320,192,205797,1,0,0:0:0:70:tom02.wav
192,192,205873,1,0,0:0:0:70:blank.wav
64,192,205950,128,0,206562:0:0:0:50:bass.wav
448,192,205950,128,0,206562:0:0:0:70:cymbol.wav
192,192,206562,1,0,0:0:0:70:hihat01.wav
320,192,206562,1,0,0:0:0:70:hihat01.wav
192,192,207174,1,4,0:0:0:70:hihat01.wav
64,192,207174,1,0,0:0:0:70:snare.wav
448,192,207327,1,0,0:0:0:70:snare.wav
192,192,207480,1,0,0:0:0:70:tom01.wav
320,192,207633,1,0,0:0:0:70:tom02.wav
64,192,207787,1,0,0:0:0:30:cymbol.wav
448,192,207863,1,0,0:0:0:30:cymbol.wav
320,192,207940,1,0,0:0:0:30:cymbol.wav
192,192,208016,1,0,0:0:0:30:cymbol.wav
64,192,208093,1,0,0:0:0:30:cymbol.wav
448,192,208169,1,0,0:0:0:30:cymbol.wav
320,192,208246,1,0,0:0:0:30:cymbol.wav
192,192,208322,1,0,0:0:0:30:cymbol.wav
64,192,208399,1,0,0:0:0:30:cymbol.wav
448,192,208399,1,0,0:0:0:70:cymbol.wav
192,192,208705,1,0,0:0:0:70:bass.wav
320,192,208705,1,0,0:0:0:0:
64,192,209011,1,0,0:0:0:70:snare.wav
448,192,209011,1,0,0:0:0:100:Whistle 2.wav
320,192,209164,1,0,0:0:0:0:
64,192,209317,1,0,0:0:0:0:
448,192,209317,1,0,0:0:0:70:whistle.wav
192,192,209317,1,0,0:0:0:70:bass.wav
320,192,209623,1,0,0:0:0:0:
192,192,209623,1,0,0:0:0:70:whistle.wav
448,192,209929,1,2,0:0:0:70:bass.wav
64,192,209929,1,0,0:0:0:0:
192,192,210082,1,0,0:0:0:0:
320,192,210236,1,0,0:0:0:70:snare.wav
64,192,210389,1,0,0:0:0:0:
448,192,210542,1,0,0:0:0:70:bass.wav
192,192,210542,1,0,0:0:0:70:whistle.wav
192,192,210848,1,0,0:0:0:70:whistle.wav
320,192,210848,1,0,0:0:0:70:bass.wav
448,192,211154,1,2,0:0:0:70:whistle.wav
64,192,211154,1,0,0:0:0:0:
320,192,211307,1,0,0:0:0:0:
192,192,211460,1,0,0:0:0:70:snare.wav
448,192,211766,1,2,0:0:0:70:whistle.wav
64,192,211766,1,0,0:0:0:70:bass.wav
320,192,212072,1,0,0:0:0:70:whistle.wav
192,192,212225,1,0,0:0:0:0:
448,192,212378,1,0,0:0:0:70:bass.wav
64,192,212378,1,0,0:0:0:70:whistle.wav
320,192,212531,1,0,0:0:0:70:whistle.wav
64,192,212684,1,2,0:0:0:70:snare.wav
192,192,212684,1,0,0:0:0:70:whistle.wav
448,192,212991,1,0,0:0:0:70:bass.wav
192,192,212991,1,0,0:0:0:70:whistle.wav
448,192,213297,1,0,0:0:0:50:cymbol.wav
64,192,213297,1,0,0:0:0:50:cymbol.wav
320,192,213297,1,0,0:0:0:0:
192,192,213603,1,0,0:0:0:0:
320,192,213756,1,0,0:0:0:70:whistle.wav
64,192,213909,1,0,0:0:0:100:Whistle 2.wav
448,192,213909,1,0,0:0:0:70:snare.wav
192,192,214062,1,0,0:0:0:70:whistle.wav
448,192,214215,1,2,0:0:0:70:whistle.wav
320,192,214215,1,0,0:0:0:0:
64,192,214368,1,0,0:0:0:0:
192,192,214368,1,0,0:0:0:70:whistle.wav
320,192,214521,1,0,0:0:0:70:whistle.wav
448,192,214521,1,0,0:0:0:0:
192,192,214827,1,0,0:0:0:70:bass.wav
448,192,214827,1,0,0:0:0:0:
320,192,215133,1,0,0:0:0:70:snare.wav
192,192,215287,1,0,0:0:0:0:
320,192,215440,1,2,0:0:0:70:whistle.wav
64,192,215440,1,0,0:0:0:70:bass.wav
64,192,215746,1,0,0:0:0:70:bass.wav
448,192,215746,1,0,0:0:0:70:whistle.wav
320,192,216052,1,0,0:0:0:70:whistle.wav
192,192,216052,1,0,0:0:0:0:
448,192,216205,1,0,0:0:0:70:whistle.wav
192,192,216358,1,0,0:0:0:70:snare.wav
64,192,216358,1,0,0:0:0:0:
320,192,216664,1,0,0:0:0:0:
192,192,216664,1,0,0:0:0:70:whistle.wav
64,192,216970,1,0,0:0:0:70:whistle.wav
448,192,216970,1,0,0:0:0:0:
448,192,217276,1,2,0:0:0:0:
192,192,217276,1,0,0:0:0:70:bass.wav
320,192,217582,1,0,0:0:0:70:snare.wav
448,192,217736,1,0,0:0:0:70:whistle.wav
64,192,217889,1,2,0:0:0:0:
320,192,217889,1,0,0:0:0:70:tom01.wav
192,192,218042,1,0,0:0:0:70:tom02.wav
448,192,218195,1,0,0:0:0:70:cymbol.wav
320,192,218195,1,0,0:0:0:100:Whistle 2.wav
64,192,218501,1,0,0:0:0:0:
448,192,218501,1,0,0:0:0:0:
320,192,218654,1,0,0:0:0:0:
192,192,218807,1,0,0:0:0:70:snare.wav
448,192,218807,1,0,0:0:0:0:
448,192,219113,1,0,0:0:0:70:whistle.wav
64,192,219113,1,0,0:0:0:0:
192,192,219266,1,0,0:0:0:70:whistle.wav
448,192,219419,1,0,0:0:0:0:
320,192,219419,1,0,0:0:0:70:whistle.wav
64,192,219725,1,0,0:0:0:0:
320,192,219725,1,0,0:0:0:70:bass.wav
192,192,219878,1,0,0:0:0:0:
448,192,220031,1,0,0:0:0:70:snare.wav
64,192,220184,1,0,0:0:0:0:
320,192,220338,1,0,0:0:0:70:bass.wav
448,192,220338,1,0,0:0:0:70:whistle.wav
320,192,220644,1,0,0:0:0:70:bass.wav
192,192,220644,1,0,0:0:0:70:whistle.wav
64,192,220950,1,0,0:0:0:70:whistle.wav
448,192,220950,1,0,0:0:0:0:
192,192,221103,1,0,0:0:0:70:whistle.wav
320,192,221256,1,0,0:0:0:70:snare.wav
192,192,221562,1,0,0:0:0:70:whistle.wav
64,192,221562,1,0,0:0:0:0:
320,192,221715,1,0,0:0:0:70:whistle.wav
448,192,221868,1,0,0:0:0:70:whistle.wav
320,192,222174,1,0,0:0:0:70:bass.wav
64,192,222174,1,0,0:0:0:70:whistle.wav
448,192,222480,1,0,0:0:0:70:snare.wav
192,192,222480,1,0,0:0:0:70:whistle.wav
320,192,222787,1,0,0:0:0:70:bass.wav
192,192,222787,1,0,0:0:0:70:tom02.wav
320,192,223093,1,0,0:0:0:70:cymbol.wav
448,192,223093,1,0,0:0:0:70:bass.wav
64,192,223093,1,0,0:0:0:100:Whistle 2.wav
192,192,223399,1,0,0:0:0:0:
448,192,223399,1,0,0:0:0:0:
320,192,223552,1,0,0:0:0:70:whistle.wav
192,192,223705,1,0,0:0:0:70:snare.wav
320,192,224011,1,0,0:0:0:0:
64,192,224011,1,0,0:0:0:70:whistle.wav
192,192,224164,1,0,0:0:0:70:whistle.wav
320,192,224317,1,0,0:0:0:70:whistle.wav
448,192,224470,1,0,0:0:0:0:
192,192,224623,1,0,0:0:0:70:bass.wav
64,192,224623,1,0,0:0:0:70:whistle.wav
320,192,224929,1,0,0:0:0:70:snare.wav
64,192,224929,1,0,0:0:0:0:
192,192,225236,1,0,0:0:0:70:whistle.wav
448,192,225236,1,0,0:0:0:70:bass.wav
448,192,225542,1,0,0:0:0:70:bass.wav
64,192,225542,1,0,0:0:0:0:
192,192,225695,1,0,0:0:0:70:whistle.wav
320,192,225848,1,0,0:0:0:70:whistle.wav
448,192,226001,1,0,0:0:0:70:whistle.wav
320,192,226154,1,0,0:0:0:70:snare.wav
192,192,226307,1,0,0:0:0:70:tom01.wav
448,192,226383,1,0,0:0:0:0:
320,192,226460,1,0,0:0:0:70:tom02.wav
64,192,226537,1,0,0:0:0:0:
192,192,226613,1,0,0:0:0:70:tom02.wav
448,192,226613,1,0,0:0:0:0:
320,192,226690,1,0,0:0:0:70:whistle.wav
192,192,226766,1,0,0:0:0:70:cymbol.wav
64,192,226766,1,0,0:0:0:100:Whistle 2.wav
448,192,227072,1,0,0:0:0:70:bass.wav
64,192,227072,1,0,0:0:0:70:whistle.wav
320,192,227225,1,0,0:0:0:70:bass.wav
448,192,227378,1,0,0:0:0:70:snare.wav
192,192,227378,1,0,0:0:0:70:whistle.wav
64,192,227531,1,0,0:0:0:70:snare.wav
448,192,227684,1,0,0:0:0:70:tom01.wav
320,192,227838,1,0,0:0:0:70:tom02.wav
192,192,227991,1,0,0:0:0:70:cymbol.wav
64,192,227991,1,0,0:0:0:70:bass.wav
448,192,227991,1,0,0:0:0:100:Whistle 2.wav
320,192,228297,1,0,0:0:0:70:whistle.wav
64,192,228450,1,0,0:0:0:0:
192,192,228450,1,0,0:0:0:70:whistle.wav
448,192,228603,1,0,0:0:0:70:snare.wav
192,192,228756,1,0,0:0:0:70:whistle.wav
64,192,228909,1,0,0:0:0:70:whistle.wav
448,192,229062,1,0,0:0:0:0:
320,192,229215,1,0,0:0:0:70:whistle.wav
64,192,229215,1,0,0:0:0:0:
320,192,229521,1,0,0:0:0:70:bass.wav
192,192,229521,1,0,0:0:0:0:
448,192,229827,1,0,0:0:0:70:snare.wav
64,192,229827,1,0,0:0:0:0:
320,192,230133,1,0,0:0:0:70:whistle.wav
448,192,230133,1,0,0:0:0:70:bass.wav
64,192,230287,1,0,0:0:0:0:
320,192,230440,1,0,0:0:0:70:bass.wav
192,192,230440,1,0,0:0:0:70:whistle.wav
448,192,230746,1,0,0:0:0:70:whistle.wav
64,192,230899,1,0,0:0:0:0:
192,192,230899,1,0,0:0:0:70:whistle.wav
448,192,231052,1,0,0:0:0:70:snare.wav
320,192,231358,1,0,0:0:0:70:whistle.wav
192,192,231358,1,0,0:0:0:0:
64,192,231664,1,0,0:0:0:70:whistle.wav
448,192,231664,1,0,0:0:0:0:
192,192,231817,1,0,0:0:0:70:whistle.wav
320,192,231970,1,0,0:0:0:70:bass.wav
448,192,231970,1,0,0:0:0:70:whistle.wav
320,192,232276,1,0,0:0:0:70:snare.wav
64,192,232276,1,0,0:0:0:70:whistle.wav
448,192,232582,1,0,0:0:0:70:bass.wav
192,192,232582,1,0,0:0:0:70:tom02.wav
64,192,232582,1,0,0:0:0:70:whistle.wav
448,192,232889,1,0,0:0:0:70:cymbol.wav
64,192,232889,1,0,0:0:0:70:bass.wav
192,192,232889,1,0,0:0:0:70:Whistle 2.wav
320,192,232889,1,0,0:0:0:0:
192,192,233195,1,0,0:0:0:0:
448,192,233195,1,0,0:0:0:0:
64,192,233348,1,0,0:0:0:70:whistle.wav
320,192,233501,1,0,0:0:0:70:snare.wav
448,192,233501,1,0,0:0:0:0:
192,192,233807,1,0,0:0:0:70:whistle.wav
448,192,234113,1,0,0:0:0:70:whistle.wav
64,192,234113,1,0,0:0:0:0:
320,192,234266,1,0,0:0:0:0:
64,192,234419,1,0,0:0:0:70:bass.wav
192,192,234572,1,0,0:0:0:70:whistle.wav
320,192,234725,1,0,0:0:0:70:snare.wav
448,192,234725,1,0,0:0:0:0:
448,192,235031,1,0,0:0:0:70:bass.wav
192,192,235031,1,0,0:0:0:70:whistle.wav
320,192,235338,1,0,0:0:0:0:
64,192,235338,1,0,0:0:0:70:whistle.wav
448,192,235338,1,0,0:0:0:70:bass.wav
192,192,235644,1,0,0:0:0:70:whistle.wav
320,192,235797,1,0,0:0:0:70:whistle.wav
448,192,235950,1,0,0:0:0:70:snare.wav
192,192,235950,1,0,0:0:0:0:
64,192,236103,1,0,0:0:0:0:
192,192,236256,1,0,0:0:0:70:whistle.wav
320,192,236409,1,0,0:0:0:0:
448,192,236562,1,0,0:0:0:70:whistle.wav
64,192,236562,1,0,0:0:0:0:
320,192,236868,1,0,0:0:0:70:whistle.wav
192,192,236868,1,0,0:0:0:70:bass.wav
448,192,237174,1,0,0:0:0:70:snare.wav
64,192,237174,1,0,0:0:0:70:whistle.wav
320,192,237327,1,0,0:0:0:70:snare.wav
192,192,237480,1,0,0:0:0:70:tom01.wav
64,192,237633,1,0,0:0:0:70:tom02.wav
192,192,237787,1,0,0:0:0:70:cymbol.wav
320,192,237787,1,0,0:0:0:100:Whistle 2.wav
448,192,237787,1,0,0:0:0:70:bass.wav
448,192,238093,1,0,0:0:0:0:
64,192,238246,1,0,0:0:0:70:whistle.wav
320,192,238399,1,0,0:0:0:70:snare.wav
448,192,238399,1,0,0:0:0:0:
448,192,238705,1,0,0:0:0:70:whistle.wav
64,192,238705,1,0,0:0:0:0:
320,192,238858,1,0,0:0:0:70:whistle.wav
192,192,239011,1,0,0:0:0:70:whistle.wav
64,192,239317,1,0,0:0:0:0:
192,192,239317,1,0,0:0:0:70:bass.wav
64,192,239623,1,0,0:0:0:0:
320,192,239623,1,0,0:0:0:70:snare.wav
192,192,239929,1,0,0:0:0:70:bass.wav
448,192,239929,1,0,0:0:0:70:whistle.wav
320,192,240082,1,0,0:0:0:0:
64,192,240236,1,0,0:0:0:70:whistle.wav
192,192,240236,1,0,0:0:0:70:bass.wav
320,192,240542,1,0,0:0:0:70:whistle.wav
192,192,240542,1,0,0:0:0:0:
448,192,240848,1,0,0:0:0:70:snare.wav
64,192,240848,1,0,0:0:0:70:whistle.wav
448,192,241154,1,0,0:0:0:70:whistle.wav
192,192,241154,1,0,0:0:0:0:
320,192,241307,1,0,0:0:0:70:whistle.wav
64,192,241460,128,0,242072:0:0:0:70:whistle.wav
448,192,241766,1,0,0:0:0:70:bass.wav
320,192,241766,1,0,0:0:0:70:whistle.wav
320,192,242072,1,0,0:0:0:70:snare.wav
192,192,242072,1,0,0:0:0:0:
192,192,242378,1,0,0:0:0:70:bass.wav
448,192,242378,1,0,0:0:0:70:tom02.wav
320,192,242531,1,0,0:0:0:0:
448,192,242684,1,0,0:0:0:70:bass.wav
192,192,242684,1,0,0:0:0:70:whistle.wav
64,192,242684,1,0,0:0:0:70:cymbol.wav
64,192,242991,1,0,0:0:0:0:
320,192,243297,1,0,0:0:0:70:cymbol.wav
192,192,243297,1,0,0:0:0:70:snare.wav
448,192,243297,1,0,0:0:0:0:
320,192,243603,1,0,0:0:0:0:
64,192,243603,1,0,0:0:0:70:whistle.wav
448,192,243909,1,0,0:0:0:70:bass.wav
192,192,243909,1,0,0:0:0:70:whistle.wav
64,192,244062,1,0,0:0:0:0:
320,192,244215,1,0,0:0:0:70:bass.wav
448,192,244521,1,0,0:0:0:70:cymbol.wav
192,192,244521,1,0,0:0:0:70:whistle.wav
64,192,244521,1,0,0:0:0:70:snare.wav
320,192,244674,1,0,0:0:0:70:tom01.wav
64,192,244827,1,0,0:0:0:70:tom02.wav
448,192,244980,1,0,0:0:0:70:snare.wav
64,192,245133,128,0,246664:0:0:0:100:Whistle 2.wav
320,192,245133,1,0,0:0:0:70:whistle.wav
192,192,245133,1,0,0:0:0:70:cymbol.wav
448,192,245746,128,0,246664:0:0:0:0:
320,192,245746,1,0,0:0:0:70:hihat01.wav
192,192,246052,1,0,0:0:0:70:bass.wav
192,192,246358,128,0,246664:0:0:0:70:cymbol.wav
320,192,246664,1,0,0:0:0:70:snare.wav
192,192,246817,1,0,0:0:0:70:snare.wav
320,192,246970,1,0,0:0:0:70:snare.wav
192,192,247123,1,0,0:0:0:70:tom01.wav
64,192,247276,1,0,0:0:0:70:tom01.wav
448,192,247353,1,0,0:0:0:0:
320,192,247429,1,0,0:0:0:70:tom02.wav
192,192,247506,1,0,0:0:0:0:
64,192,247582,1,0,0:0:0:70:bass.wav
448,192,247582,128,0,250031:0:0:0:70:cymbol.wav
320,192,247889,1,0,0:0:0:70:whistle.wav
192,192,248042,1,0,0:0:0:70:bass.wav
320,192,248195,1,0,0:0:0:70:cymbol.wav
64,192,248195,1,0,0:0:0:70:snare.wav
192,192,248501,128,0,249419:0:0:0:100:Whistle 2.wav
64,192,249419,1,0,0:0:0:70:snare.wav
320,192,249419,128,0,250031:0:0:0:0:
192,192,249725,1,0,0:0:0:70:bass.wav
64,192,250031,1,0,0:0:0:70:bass.wav
192,192,250338,1,0,0:0:0:70:whistle.wav
448,192,250491,1,0,0:0:0:70:whistle.wav
64,192,250644,1,0,0:0:0:70:snare.wav
320,192,250644,1,0,0:0:0:0:
192,192,250797,1,0,0:0:0:70:whistle.wav
64,192,250950,1,0,0:0:0:70:whistle.wav
320,192,251256,1,0,0:0:0:70:whistle.wav
64,192,251256,1,0,0:0:0:100:Whistle 2.wav
448,192,251256,1,0,0:0:0:0:
320,192,251562,1,0,0:0:0:70:bass.wav
192,192,251715,1,0,0:0:0:70:whistle.wav
64,192,251868,1,0,0:0:0:70:snare.wav
448,192,252021,1,0,0:0:0:70:whistle.wav
64,192,252174,1,0,0:0:0:70:whistle.wav
320,192,252174,1,0,0:0:0:70:bass.wav
320,192,252480,1,0,0:0:0:50:cymbol.wav
192,192,252480,1,0,0:0:0:100:Whistle 2.wav
64,192,252480,1,0,0:0:0:50:cymbol.wav
448,192,252480,128,0,253399:0:0:0:100:Whistle 2.wav
320,192,252787,1,0,0:0:0:0:
64,192,252940,1,0,0:0:0:70:whistle.wav
320,192,253093,1,0,0:0:0:70:snare.wav
192,192,253246,1,0,0:0:0:70:whistle.wav
64,192,253399,128,0,254317:0:0:0:70:whistle.wav
320,192,253705,128,2,254317:0:0:0:70:whistle.wav
192,192,254011,128,0,254317:0:0:0:70:bass.wav
448,192,254317,1,0,0:0:0:70:snare.wav
448,192,254623,1,0,0:0:0:70:bass.wav
192,192,254623,1,0,0:0:0:70:whistle.wav
64,192,254929,1,0,0:0:0:70:whistle.wav
320,192,254929,1,0,0:0:0:0:
448,192,254929,1,0,0:0:0:70:bass.wav
64,192,255236,1,0,0:0:0:0:
448,192,255236,1,0,0:0:0:70:whistle.wav
320,192,255389,1,0,0:0:0:70:whistle.wav
64,192,255542,1,0,0:0:0:70:snare.wav
448,192,255542,1,0,0:0:0:0:
192,192,255542,1,0,0:0:0:70:whistle.wav
320,192,255848,1,0,0:0:0:70:whistle.wav
192,192,255848,1,0,0:0:0:0:
64,192,256154,1,0,0:0:0:70:whistle.wav
448,192,256154,1,0,0:0:0:0:
448,192,256460,1,0,0:0:0:70:bass.wav
192,192,256460,1,0,0:0:0:0:
64,192,256766,1,0,0:0:0:70:snare.wav
320,192,256766,1,0,0:0:0:70:tom01.wav
192,192,256919,1,0,0:0:0:70:tom01.wav
448,192,257072,1,0,0:0:0:70:tom02.wav
320,192,257225,1,0,0:0:0:70:tom02.wav
192,192,257378,1,0,0:0:0:70:cymbol.wav
448,192,257378,1,0,0:0:0:70:bass.wav
64,192,257378,1,0,0:0:0:0:
448,192,257684,1,0,0:0:0:70:Whistle 2.wav
64,192,257684,1,0,0:0:0:0:
192,192,257991,1,0,0:0:0:70:snare.wav
320,192,257991,1,0,0:0:0:70:whistle.wav
64,192,258297,1,0,0:0:0:70:whistle.wav
448,192,258450,1,0,0:0:0:70:whistle.wav
192,192,258603,1,0,0:0:0:70:whistle.wav
448,192,258909,1,0,0:0:0:70:bass.wav
64,192,258909,1,0,0:0:0:0:
320,192,259215,1,0,0:0:0:70:snare.wav
448,192,259521,1,0,0:0:0:70:bass.wav
64,192,259521,1,0,0:0:0:70:whistle.wav
192,192,259674,1,0,0:0:0:70:whistle.wav
448,192,259827,1,0,0:0:0:70:bass.wav
320,192,259827,1,0,0:0:0:70:whistle.wav
192,192,260133,1,0,0:0:0:70:whistle.wav
64,192,260440,1,0,0:0:0:70:snare.wav
448,192,260440,1,0,0:0:0:0:
192,192,260746,1,0,0:0:0:70:whistle.wav
448,192,260899,1,0,0:0:0:70:whistle.wav
320,192,261052,1,0,0:0:0:70:whistle.wav
448,192,261358,1,0,0:0:0:70:bass.wav
64,192,261358,1,0,0:0:0:70:whistle.wav
192,192,261664,1,0,0:0:0:70:snare.wav
192,192,261970,1,0,0:0:0:70:tom02.wav
448,192,261970,1,0,0:0:0:70:bass.wav
320,192,262276,1,0,0:0:0:70:cymbol.wav
64,192,262276,1,0,0:0:0:70:cymbol.wav
192,192,262582,1,0,0:0:0:70:bass.wav
448,192,262582,1,0,0:0:0:70:tom01.wav
448,192,262889,1,0,0:0:0:40:cymbol.wav
64,192,262889,1,0,0:0:0:70:bass.wav
320,192,262889,1,0,0:0:0:40:cymbol.wav
448,192,263195,1,0,0:0:0:70:bass.wav
192,192,263195,1,0,0:0:0:70:tom01.wav
64,192,263501,1,0,0:0:0:40:cymbol.wav
320,192,263501,1,0,0:0:0:70:bass.wav
192,192,263501,1,0,0:0:0:40:cymbol.wav
192,192,263807,1,0,0:0:0:70:bass.wav
448,192,263807,1,0,0:0:0:70:tom01.wav
320,192,264113,1,0,0:0:0:40:cymbol.wav
64,192,264113,1,0,0:0:0:40:cymbol.wav
448,192,264113,1,0,0:0:0:70:bass.wav
448,192,264419,1,0,0:0:0:70:bass.wav
192,192,264419,1,0,0:0:0:70:tom02.wav
448,192,264725,1,0,0:0:0:70:cymbol.wav
64,192,264725,1,0,0:0:0:70:cymbol.wav
192,192,264725,1,0,0:0:0:70:bass.wav
320,192,265031,1,0,0:0:0:70:bass.wav
448,192,265031,1,0,0:0:0:70:tom02.wav
64,192,265338,1,0,0:0:0:70:tom02.wav
192,192,265338,1,0,0:0:0:70:bass.wav
448,192,265644,1,0,0:0:0:70:bass.wav
192,192,265644,1,0,0:0:0:70:tom02.wav
64,192,265644,1,0,0:0:0:0:
64,192,265950,1,4,0:0:0:0:
320,192,265950,1,0,0:0:0:70:cymbol.wav
448,192,265950,1,0,0:0:0:70:bass.wav
192,192,265950,1,4,0:0:0:0:
320,192,266562,1,0,0:0:0:70:snare.wav
448,192,266664,1,0,0:0:0:70:snare.wav
64,192,266766,1,0,0:0:0:70:tom01.wav
192,192,266868,1,0,0:0:0:70:tom01.wav
320,192,266970,1,0,0:0:0:70:tom02.wav
448,192,267072,1,0,0:0:0:70:tom02.wav
192,192,267174,1,0,0:0:0:70:bass.wav
64,192,267174,1,0,0:0:0:70:cymbol.wav
64,192,267480,1,0,0:0:0:70:hihat03.wav
320,192,267480,1,0,0:0:0:70:bass.wav
192,192,267633,1,0,0:0:0:70:bass.wav
448,192,267787,1,0,0:0:0:70:snare.wav
448,192,268093,1,0,0:0:0:70:hihat03.wav
192,192,268246,1,0,0:0:0:70:snare.wav
64,192,268399,1,0,0:0:0:70:bass.wav
448,192,268705,1,0,0:0:0:70:hihat03.wav
64,192,268705,1,0,0:0:0:70:bass.wav
192,192,269011,1,0,0:0:0:70:snare.wav
448,192,269317,1,0,0:0:0:70:hihat01.wav
64,192,269623,1,0,0:0:0:70:bass.wav
448,192,269929,1,0,0:0:0:70:hihat03.wav
192,192,269929,1,0,0:0:0:70:bass.wav
64,192,270082,1,0,0:0:0:70:bass.wav
320,192,270236,1,0,0:0:0:70:snare.wav
448,192,270542,1,0,0:0:0:70:hihat03.wav
64,192,270542,1,0,0:0:0:70:bass.wav
320,192,270848,1,0,0:0:0:70:bass.wav
192,192,271001,1,0,0:0:0:70:snare.wav
64,192,271154,1,0,0:0:0:70:hihat01.wav
448,192,271154,1,0,0:0:0:70:bass.wav
320,192,271460,1,0,0:0:0:70:snare.wav
64,192,271766,1,0,0:0:0:70:tom02.wav
192,192,271766,1,0,0:0:0:70:bass.wav
320,192,272072,1,0,0:0:0:70:cymbol.wav
192,192,272072,1,0,0:0:0:70:bass.wav
64,192,272378,1,0,0:0:0:70:hihat03.wav
448,192,272378,1,0,0:0:0:70:bass.wav
192,192,272531,1,0,0:0:0:70:bass.wav
320,192,272684,1,0,0:0:0:70:snare.wav
448,192,272991,1,0,0:0:0:70:hihat03.wav
192,192,273144,1,0,0:0:0:70:snare.wav
64,192,273297,1,0,0:0:0:70:bass.wav
448,192,273603,1,0,0:0:0:70:hihat03.wav
64,192,273603,1,0,0:0:0:70:bass.wav
192,192,273909,1,0,0:0:0:70:snare.wav
448,192,274215,1,0,0:0:0:70:hihat01.wav
64,192,274521,1,0,0:0:0:70:bass.wav
192,192,274827,1,0,0:0:0:70:bass.wav
448,192,274827,1,0,0:0:0:70:hihat03.wav
64,192,274980,1,0,0:0:0:70:bass.wav
320,192,275133,1,0,0:0:0:70:snare.wav
192,192,275440,1,0,0:0:0:70:bass.wav
448,192,275440,1,0,0:0:0:70:hihat03.wav
320,192,275746,1,0,0:0:0:70:bass.wav
64,192,275746,1,0,0:0:0:70:cymbol.wav
192,192,275899,1,0,0:0:0:70:snare.wav
64,192,276052,1,0,0:0:0:70:hihat01.wav
448,192,276052,1,0,0:0:0:70:bass.wav
320,192,276358,1,0,0:0:0:70:snare.wav
192,192,276664,1,0,0:0:0:70:bass.wav
64,192,276664,1,0,0:0:0:70:tom02.wav
448,192,276970,1,0,0:0:0:70:bass.wav
320,192,276970,1,0,0:0:0:70:cymbol.wav
64,192,276970,1,0,0:0:0:70:cymbol.wav
320,192,277276,1,0,0:0:0:70:bass.wav
64,192,277276,1,0,0:0:0:70:hihat03.wav
192,192,277429,1,0,0:0:0:70:bass.wav
448,192,277582,1,0,0:0:0:70:snare.wav
448,192,277889,1,0,0:0:0:70:hihat03.wav
192,192,278042,1,0,0:0:0:70:snare.wav
64,192,278195,1,0,0:0:0:70:bass.wav
448,192,278501,1,0,0:0:0:70:hihat03.wav
64,192,278501,1,0,0:0:0:70:bass.wav
192,192,278807,1,0,0:0:0:70:snare.wav
448,192,279113,1,0,0:0:0:70:hihat01.wav
64,192,279419,1,0,0:0:0:70:bass.wav
192,192,279725,1,0,0:0:0:70:bass.wav
448,192,279725,1,0,0:0:0:70:hihat03.wav
64,192,279878,1,0,0:0:0:70:bass.wav
320,192,280031,1,0,0:0:0:70:snare.wav
64,192,280338,1,0,0:0:0:70:bass.wav
448,192,280338,1,0,0:0:0:70:hihat03.wav
192,192,280644,1,0,0:0:0:70:bass.wav
64,192,280644,1,0,0:0:0:70:cymbol.wav
448,192,280950,1,0,0:0:0:35:cymbol.wav
320,192,280950,1,0,0:0:0:35:cymbol.wav
64,192,281256,1,0,0:0:0:70:snare.wav
192,192,281409,1,0,0:0:0:70:snare.wav
320,192,281562,1,0,0:0:0:70:tom02.wav
448,192,281868,128,0,282480:0:0:0:70:cymbol.wav
192,192,281868,128,0,282174:0:0:0:70:ride.wav
64,192,282174,128,0,282480:0:0:0:70:blank.wav
320,192,282480,128,0,282940:0:0:0:70:blank.wav
192,192,282787,128,0,282940:0:0:0:70:blank.wav
448,192,282940,128,0,283399:0:0:0:70:blank.wav
64,192,282940,128,0,284011:0:0:0:70:blank.wav
192,192,283399,128,0,284011:0:0:0:70:blank.wav
448,192,283705,128,0,284011:0:0:0:70:blank.wav
320,192,284011,1,0,0:0:0:70:blank.wav
192,192,284317,1,0,0:0:0:35:cymbol.wav
64,192,284317,1,0,0:0:0:50:bass.wav
320,192,284317,1,0,0:0:0:35:cymbol.wav
448,192,284623,1,0,0:0:0:30:snare.wav
192,192,284623,1,0,0:0:0:25:tom02.wav
320,192,284623,1,0,0:0:0:25:tom02.wav
448,192,284929,1,0,0:0:0:30:snare.wav
64,192,284929,1,0,0:0:0:25:tom02.wav
320,192,284929,1,0,0:0:0:25:tom02.wav
192,192,285236,1,0,0:0:0:15:snare.wav
448,192,285236,1,0,0:0:0:15:snare.wav
320,192,285236,1,0,0:0:0:50:tom02.wav
448,192,285542,1,0,0:0:0:50:snare.wav
64,192,285542,1,0,0:0:0:70:hihat01.wav
192,192,285695,1,0,0:0:0:50:bass.wav
320,192,285695,1,0,0:0:0:40:tom02.wav
64,192,286154,1,0,0:0:0:25:snare.wav
192,192,286154,1,0,0:0:0:25:snare.wav
320,192,286307,1,0,0:0:0:25:snare.wav
448,192,286307,1,0,0:0:0:25:snare.wav
64,192,286460,1,0,0:0:0:50:tom01.wav
320,192,286613,1,0,0:0:0:50:tom02.wav
448,192,286766,1,0,0:0:0:70:bass.wav
192,192,286766,1,0,0:0:0:70:cymbol.wav
64,192,287072,1,0,0:0:0:70:hihat03.wav
320,192,287378,1,0,0:0:0:70:snare.wav
192,192,287684,1,0,0:0:0:70:bass.wav
64,192,287684,1,0,0:0:0:70:hihat03.wav
320,192,287838,1,0,0:0:0:70:snare.wav
448,192,287991,1,0,0:0:0:70:bass.wav
448,192,288297,1,0,0:0:0:70:bass.wav
64,192,288297,1,0,0:0:0:70:hihat03.wav
64,192,288603,1,0,0:0:0:70:snare.wav
448,192,288909,1,0,0:0:0:0:
320,192,288909,1,0,0:0:0:70:hihat02.wav
64,192,289215,1,0,0:0:0:70:bass.wav
192,192,289215,1,0,0:0:0:70:hihat.wav
448,192,289521,1,0,0:0:0:70:bass.wav
64,192,289521,1,0,0:0:0:70:hihat03.wav
320,192,289674,1,0,0:0:0:70:bass.wav
192,192,289827,1,0,0:0:0:70:snare.wav
64,192,290133,1,0,0:0:0:70:hihat03.wav
192,192,290133,1,0,0:0:0:70:bass.wav
448,192,290440,1,0,0:0:0:70:bass.wav
320,192,290593,1,0,0:0:0:70:snare.wav
448,192,290746,1,0,0:0:0:70:bass.wav
64,192,290746,1,0,0:0:0:70:hihat02.wav
320,192,291052,1,0,0:0:0:70:snare.wav
64,192,291358,1,0,0:0:0:50:tom02.wav
448,192,291358,1,0,0:0:0:70:bass.wav
192,192,291664,1,0,0:0:0:50:cymbol.wav
320,192,291664,1,0,0:0:0:50:cymbol.wav
448,192,291664,1,0,0:0:0:70:bass.wav
64,192,291970,1,0,0:0:0:70:hihat03.wav
448,192,292276,1,0,0:0:0:70:snare.wav
64,192,292582,1,0,0:0:0:70:bass.wav
320,192,292582,1,0,0:0:0:70:hihat03.wav
192,192,292736,1,0,0:0:0:70:snare.wav
448,192,292889,1,0,0:0:0:70:bass.wav
448,192,293195,1,0,0:0:0:70:bass.wav
64,192,293195,1,0,0:0:0:70:hihat03.wav
192,192,293501,1,0,0:0:0:70:snare.wav
320,192,293807,1,0,0:0:0:70:hihat02.wav
64,192,293807,1,0,0:0:0:0:
448,192,294113,1,0,0:0:0:70:bass.wav
320,192,294419,1,0,0:0:0:70:bass.wav
448,192,294419,1,0,0:0:0:70:hihat03.wav
192,192,294572,1,0,0:0:0:70:bass.wav
64,192,294725,1,0,0:0:0:70:snare.wav
448,192,295031,1,0,0:0:0:70:bass.wav
192,192,295031,1,0,0:0:0:70:hihat02.wav
320,192,295184,1,0,0:0:0:70:snare.wav
64,192,295338,1,0,0:0:0:70:bass.wav
192,192,295338,1,0,0:0:0:50:cymbol.wav
192,192,295644,1,0,0:0:0:70:bass.wav
64,192,295644,1,4,0:0:0:0:
448,192,295797,1,0,0:0:0:70:snare.wav
320,192,295950,1,0,0:0:0:70:snare.wav
448,192,296103,1,0,0:0:0:70:snare.wav
192,192,296256,1,0,0:0:0:70:tom01.wav
64,192,296409,1,0,0:0:0:70:tom02.wav
320,192,296562,1,0,0:0:0:70:cymbol.wav
448,192,296562,1,4,0:0:0:0:
192,192,296562,1,0,0:0:0:70:bass.wav
64,192,296868,1,0,0:0:0:70:hihat03.wav
320,192,297174,1,0,0:0:0:70:snare.wav
64,192,297480,1,0,0:0:0:70:hihat03.wav
192,192,297480,1,0,0:0:0:70:bass.wav
320,192,297633,1,0,0:0:0:70:snare.wav
448,192,297787,1,0,0:0:0:70:bass.wav
64,192,298093,1,0,0:0:0:70:hihat03.wav
448,192,298093,1,0,0:0:0:70:bass.wav
192,192,298399,1,0,0:0:0:70:snare.wav
320,192,298705,1,0,0:0:0:70:hihat02.wav
448,192,298705,1,0,0:0:0:0:
64,192,299011,1,0,0:0:0:70:bass.wav
192,192,299011,1,0,0:0:0:70:hihat.wav
64,192,299317,1,0,0:0:0:70:hihat03.wav
448,192,299317,1,0,0:0:0:70:bass.wav
320,192,299470,1,0,0:0:0:70:bass.wav
192,192,299623,1,0,0:0:0:70:snare.wav
320,192,299929,1,0,0:0:0:70:bass.wav
64,192,299929,1,0,0:0:0:70:hihat01.wav
448,192,300236,1,0,0:0:0:50:cymbol.wav
192,192,300236,1,0,0:0:0:25:cymbol.wav
64,192,300236,1,0,0:0:0:25:cymbol.wav
192,192,300542,1,0,0:0:0:30:snare.wav
64,192,300542,1,0,0:0:0:50:bass.wav
320,192,300644,1,0,0:0:0:40:snare.wav
64,192,300746,1,0,0:0:0:50:snare.wav
448,192,300848,1,0,0:0:0:40:snare.wav
192,192,300950,1,0,0:0:0:40:snare.wav
320,192,301052,1,0,0:0:0:40:tom01.wav
64,192,301154,1,0,0:0:0:50:tom01.wav
192,192,301256,1,0,0:0:0:50:tom02.wav
320,192,301358,1,0,0:0:0:50:tom02.wav
448,192,301460,1,0,0:0:0:50:bass.wav
64,192,301460,1,0,0:0:0:70:cymbol.wav
448,192,301766,1,0,0:0:0:50:bass.wav
192,192,301766,1,0,0:0:0:70:hihat03.wav
192,192,302072,1,0,0:0:0:50:snare.wav
64,192,302072,1,0,0:0:0:70:cymbol.wav
192,192,302378,1,0,0:0:0:70:tom01.wav
320,192,302378,1,0,0:0:0:70:bass.wav
64,192,302531,1,0,0:0:0:70:snare.wav
320,192,302684,1,0,0:0:0:50:hihat.wav
448,192,302684,1,0,0:0:0:50:bass.wav
448,192,302991,1,0,0:0:0:70:tom02.wav
192,192,302991,1,0,0:0:0:70:hihat02.wav
64,192,303297,1,0,0:0:0:50:tom01.wav
192,192,303450,1,0,0:0:0:50:tom02.wav
320,192,303603,1,0,0:0:0:70:tom02.wav
192,192,303909,1,0,0:0:0:70:tom02.wav
64,192,303909,128,0,305133:0:0:0:70:Whistle 2.wav
448,192,303909,128,0,304521:0:0:0:40:cymbol.wav
320,192,304521,128,0,305133:0:0:0:70:blank.wav
192,192,305133,128,0,305746:0:0:0:70:blank.wav
448,192,305133,128,0,305746:0:0:0:70:blank.wav
64,192,305746,128,0,306358:0:0:0:70:blank.wav
448,192,306358,128,0,306970:0:0:0:70:8.ogg
192,192,306358,1,0,0:0:0:70:blank.wav
192,192,306970,128,0,307276:0:0:0:70:9.ogg
320,192,307276,128,0,308195:0:0:0:70:10-1.ogg
64,192,307276,128,0,308195:0:0:0:70:10-2.ogg
192,192,308501,1,0,0:0:0:70:11.ogg
448,192,308501,1,0,0:0:0:70:blank.wav
320,192,308654,1,0,0:0:0:70:12.ogg
64,192,308807,1,0,0:0:0:70:blank.wav
192,192,308807,128,0,309419:0:0:0:70:blank.wav
448,192,309113,1,0,0:0:0:70:blank.wav
320,192,309419,1,0,0:0:0:70:blank.wav
320,192,309725,128,0,310644:0:0:0:70:blank.wav
64,192,309725,1,0,0:0:0:70:blank.wav
64,192,310644,1,0,0:0:0:70:blank.wav
192,192,310797,128,0,311256:0:0:0:70:blank.wav
64,192,311256,1,0,0:0:0:70:blank.wav
448,192,311256,128,0,312174:0:0:0:70:blank.wav
320,192,311562,1,0,0:0:0:70:blank.wav
64,192,311868,1,0,0:0:0:70:blank.wav
320,192,312174,128,0,313093:0:0:0:70:blank.wav
192,192,312174,128,0,313093:0:0:0:70:blank.wav
448,192,312787,128,0,313093:0:0:0:70:blank.wav
64,192,313093,128,0,313399:0:0:0:70:blank.wav
448,192,313399,1,0,0:0:0:70:blank.wav
320,192,313552,1,0,0:0:0:70:blank.wav
192,192,313628,1,0,0:0:0:70:blank.wav
448,192,313705,1,0,0:0:0:70:Whistle 2.wav
64,192,313705,128,0,314929:0:0:0:70:blank.wav
448,192,314929,128,0,315542:0:0:0:70:13.ogg
320,192,315236,128,0,315848:0:0:0:70:14.ogg
192,192,315542,128,0,315848:0:0:0:70:15.ogg
64,192,315848,128,0,316154:0:0:0:70:16.ogg
448,192,315848,128,0,316154:0:0:0:70:blank.wav
192,192,316154,1,0,0:0:0:70:Whistle 2.wav
320,192,316154,128,0,317072:0:0:0:70:blank.wav
64,192,316460,1,0,0:0:0:70:blank.wav
448,192,316766,1,0,0:0:0:70:blank.wav
64,192,316996,1,0,0:0:0:70:blank.wav
192,192,317072,128,0,317991:0:0:0:70:blank.wav
448,192,317684,128,0,318297:0:0:0:70:blank.wav
320,192,317991,128,0,318297:0:0:0:70:blank.wav
64,192,318297,1,0,0:0:0:70:blank.wav
192,192,318450,1,0,0:0:0:70:blank.wav
320,192,318526,1,0,0:0:0:70:blank.wav
448,192,318603,128,0,319521:0:0:0:70:Whistle 2.wav
64,192,318909,128,0,319521:0:0:0:70:blank.wav
320,192,319215,128,0,319521:0:0:0:70:blank.wav
192,192,319521,128,0,320440:0:0:0:70:blank.wav
64,192,320440,1,0,0:0:0:70:blank.wav
448,192,320593,128,0,321052:0:0:0:70:blank.wav
64,192,321052,128,0,321970:0:0:0:70:Whistle 2.wav
320,192,321052,1,0,0:0:0:70:blank.wav
192,192,321358,1,0,0:0:0:70:blank.wav
448,192,321664,1,0,0:0:0:70:blank.wav
192,192,321970,128,0,322889:0:0:0:70:blank.wav
320,192,321970,128,0,322889:0:0:0:70:blank.wav
64,192,322889,1,0,0:0:0:70:blank.wav
448,192,323093,1,0,0:0:0:70:blank.wav
192,192,323297,1,0,0:0:0:70:blank.wav
320,192,323399,1,0,0:0:0:70:blank.wav
64,192,323501,128,0,325950:0:0:0:70:Whistle 2.wav
448,192,323501,1,0,0:0:0:70:blank.wav
320,192,323807,128,0,324113:0:0:0:70:blank.wav
448,192,324113,128,0,324419:0:0:0:70:blank.wav
192,192,324419,128,0,324725:0:0:0:70:blank.wav
448,192,324725,128,0,325031:0:0:0:70:blank.wav
320,192,325031,128,0,325338:0:0:0:70:blank.wav
192,192,325338,128,0,325644:0:0:0:70:blank.wav
320,192,325644,128,0,325950:0:0:0:70:blank.wav
448,192,325950,1,0,0:0:0:70:17.ogg
192,192,325950,1,0,0:0:0:70:Whistle 2.wav
64,192,326256,1,0,0:0:0:70:18.ogg
320,192,326256,1,0,0:0:0:70:blank.wav
448,192,326562,1,0,0:0:0:70:19.ogg
64,192,326562,1,0,0:0:0:70:blank.wav
320,192,326715,1,0,0:0:0:70:blank.wav
192,192,326792,1,0,0:0:0:70:blank.wav
448,192,326868,128,0,328705:0:0:0:70:20.ogg
320,192,326868,128,0,328705:0:0:0:70:blank.wav
64,192,326868,1,0,0:0:0:70:blank.wav
