osu file format v14

[General]
AudioFilename: audio.mp3
AudioLeadIn: 0
PreviewTime: 33644
Countdown: 0
SampleSet: Soft
StackLeniency: 0.7
Mode: 2
LetterboxInBreaks: 0
WidescreenStoryboard: 1

[Editor]
Bookmarks: 70303,78087,153320,197428,228573
DistanceSpacing: 1
BeatDivisor: 4
GridSize: 4
TimelineZoom: 1.9

[Metadata]
Title:Shiwa
TitleUnicode:しわ
Artist:Hanatan
ArtistUnicode:花たん
Creator:Benita
Version:Xetopia & Benny's Rain
Source:
Tags:vocaloid nicovideo BennyBananas Xetopia JBHyperion DavidEd Dilectus Spectator
BeatmapID:1668406
BeatmapSetID:794362

[Difficulty]
HPDrainRate:6
CircleSize:4
OverallDifficulty:8.8
ApproachRate:8.8
SliderMultiplier:1.8
SliderTickRate:2

[Events]
//Background and Video events
0,0,"bg.jpg",0,0
Video,1558,"e.mp4"
//Break Periods
2,70503,77458
//Storyboard Layer 0 (Background)
//Storyboard Layer 1 (Fail)
//Storyboard Layer 2 (Pass)
//Storyboard Layer 3 (Foreground)
//Storyboard Sound Samples

[TimingPoints]
2844,324.324324324324,4,2,66,80,1,0
13222,-95.2380952380952,4,2,66,80,0,0
33979,-100,4,2,66,80,0,1
34627,-100,4,2,67,80,0,1
34789,-100,4,2,66,80,0,1
39816,-100,4,2,67,80,0,1
39979,-100,4,2,66,80,0,1
45006,-100,4,2,67,80,0,1
45168,-100,4,2,66,80,0,1
48898,-83.3333333333333,4,2,66,80,0,1
49384,-100,4,2,66,80,0,0
49546,-100,4,2,66,80,0,1
55384,-100,4,2,67,80,0,1
55546,-100,4,2,66,80,0,1
60573,-100,4,2,67,80,0,1
60735,-100,4,2,66,80,0,1
67708,-100,4,2,66,80,0,0
109222,-100,4,2,66,80,0,1
115060,-100,4,2,67,80,0,1
115222,-100,4,2,66,80,0,1
120249,-100,4,2,67,80,0,1
120411,-100,4,2,66,80,0,1
124627,-100,4,2,66,80,0,0
124789,-100,4,2,66,80,0,1
130627,-100,4,2,67,80,0,1
130789,-100,4,2,66,80,0,1
135816,-100,4,2,67,80,0,1
135979,-100,4,2,66,80,0,1
142952,-100,4,2,66,80,0,0
153249,-133.333333333333,4,2,66,80,0,0
174087,-133.333333333333,4,2,0,80,0,0
184465,-83.3333333333333,4,2,66,80,0,1
192898,-83.3333333333333,4,2,67,80,0,1
193060,-83.3333333333333,4,2,66,80,0,1
197276,-100,4,2,66,80,0,0
197438,-100,4,2,66,80,0,1
211060,-100,4,2,67,80,0,1
211222,-100,4,2,66,80,0,1
215600,-100,4,2,66,80,0,0
220789,-100,4,2,66,80,0,1
225979,-100,4,2,66,80,0,0

[Colours]
Combo1 : 117,159,172
Combo2 : 217,146,138
Combo3 : 136,136,174
Combo4 : 220,194,182

[HitObjects]
264,296,2844,6,0,P|304:260|256:152,1,180,2|8,0:0|0:0,0:0:0:0:
124,168,3330,2,0,L|112:264,1,90,0|2,0:0|0:0,0:0:0:0:
256,256,3654,2,0,L|264:372,1,90,0|8,0:0|0:0,0:0:0:0:
116,348,3979,6,0,L|296:332,1,180,0|0,0:0|0:0,0:0:0:0:
408,324,4465,1,8,0:0:0:0:
268,264,4627,2,0,L|256:160,1,90,0|2,0:0|0:0,0:0:0:0:
400,164,4952,2,0,L|404:68,1,90,2|8,0:0|0:0,0:0:0:0:
308,48,5276,1,0,0:0:0:0:
48,224,5438,6,0,L|248:232,1,180,2|8,0:0|0:0,0:0:0:0:
372,244,5925,2,0,L|268:268,2,90,0|0|2,0:0|0:0|0:0,0:0:0:0:
228,136,6411,1,8,0:0:0:0:
468,212,6735,6,0,L|264:216,1,180,2|8,0:0|0:0,0:0:0:0:
80,188,7384,2,0,L|184:177,2,90,2|2|8,0:0|0:0|0:0,0:0:0:0:
392,360,8033,6,0,L|228:212,1,180,2|8,0:0|0:0,0:0:0:0:
408,164,8519,2,0,L|408:64,1,90,0|0,0:0|0:0,0:0:0:0:
260,84,8843,2,0,L|252:208,1,90,2|8,0:0|0:0,0:0:0:0:
400,248,9168,6,0,L|184:268,1,180
76,280,9654,2,0,P|40:244|80:128,1,180,8|2,0:0|0:0,0:0:0:0:
188,136,10141,1,2,0:0:0:0:
44,88,10303,1,8,0:0:0:0:
368,164,10627,6,0,L|164:172,1,180,2|8,0:0|0:0,0:0:0:0:
336,112,11114,2,0,L|432:116,2,90,0|2|2,0:0|0:0|0:0,0:0:0:0:
170,90,11600,1,8,0:0:0:0:
420,144,11925,6,0,L|456:236,2,90,0|0|8,0:0|0:0|0:0,0:0:0:0:
128,252,12573,1,0,0:0:0:0:
96,221,12654,1,0,0:0:0:0:
94,177,12735,1,0,0:0:0:0:
122,143,12816,1,0,0:0:0:0:
168,136,12898,1,0,0:0:0:0:
213,136,12979,1,0,0:0:0:0:
258,136,13060,1,0,0:0:0:0:
303,136,13141,1,0,0:0:0:0:
128,80,13222,6,0,P|72:128|136:208,1,188.999994232178,4|8,0:1|0:0,0:0:0:0:
280,208,13708,2,0,L|284:308,1,94.499997116089,0|2,0:0|0:0,0:0:0:0:
132,308,14033,2,0,L|28:312,1,94.499997116089,2|8,0:0|0:0,0:0:0:0:
192,240,14357,6,0,L|396:228,1,188.999994232178,0|0,0:0|0:0,0:0:0:0:
268,148,14843,1,8,0:0:0:0:
420,164,15006,2,0,L|432:276,1,94.499997116089,0|2,0:0|0:0,0:0:0:0:
276,296,15330,2,0,L|152:300,2,94.499997116089,2|8|0,0:0|0:0|0:0,0:0:0:0:
48,252,15816,6,0,L|240:236,1,188.999994232178,2|8,0:0|0:0,0:0:0:0:
392,228,16303,2,0,L|488:232,2,94.499997116089,0|0|2,0:0|0:0|0:0,0:0:0:0:
240,224,16789,2,0,L|124:232,1,94.499997116089,8|0,0:0|0:0,0:0:0:0:
300,184,17114,5,2,0:0:0:0:
368,236,17276,1,0,0:0:0:0:
376,320,17438,1,8,0:0:0:0:
292,364,17600,1,0,0:0:0:0:
140,352,17762,2,0,L|90:265,1,94.499997116089,0|2,0:0|0:0,0:0:0:0:
336,252,18087,2,0,L|348:188,1,47.2499985580445,8|8,0:0|0:0,0:0:0:0:
264,184,18249,2,0,L|252:116,1,47.2499985580445,8|8,0:0|0:0,0:0:0:0:
448,176,18411,6,0,P|496:152|440:52,1,188.999994232178,4|8,0:1|0:0,0:0:0:0:
192,92,18898,2,0,L|88:92,2,94.499997116089,0|2|2,0:0|0:0|0:0,0:0:0:0:
456,164,19384,2,0,L|464:272,1,94.499997116089,8|0,0:0|0:0,0:0:0:0:
286,286,19708,6,0,L|90:278,1,188.999994232178,2|8,0:0|0:0,0:0:0:0:
300,232,20357,2,0,L|400:224,1,94.499997116089,2|2,0:0|0:0,0:0:0:0:
136,184,20681,2,0,L|120:84,1,94.499997116089,8|0,0:0|0:0,0:0:0:0:
384,80,21006,6,0,P|440:112|384:216,1,188.999994232178,2|8,0:0|0:0,0:0:0:0:
192,220,21654,2,0,L|152:312,2,94.499997116089,0|2|8,0:0|0:0|0:0,0:0:0:0:
344,180,22141,1,0,0:0:0:0:
84,180,22303,6,0,P|36:144|96:44,1,188.999994232178,2|8,0:0|0:0,0:0:0:0:
240,56,22789,2,0,L|288:88,2,47.2499985580445,2|0|0,0:0|0:0|0:0,0:0:0:0:
88,124,23114,2,0,L|60:164,2,47.2499985580445,2|0|2,0:0|0:0|0:0,0:0:0:0:
200,92,23438,1,0,0:0:0:0:
48,60,23600,1,2,0:0:0:0:
480,252,23925,6,0,L|292:264,1,188.999994232178,4|4,0:1|0:0,0:0:0:0:
188,272,24411,1,2,0:0:0:0:
296,208,24573,1,2,0:0:0:0:
144,200,24735,2,0,P|100:180|164:80,1,188.999994232178,8|2,0:0|0:0,0:0:0:0:
296,88,25222,2,0,L|120:188,1,188.999994232178,8|2,0:0|0:0,0:0:0:0:
52,224,25708,1,2,0:0:0:0:
204,232,25871,2,0,L|272:328,1,94.499997116089,8|0,0:0|0:0,0:0:0:0:
24,304,26195,6,0,L|220:288,1,188.999994232178,2|8,0:0|0:0,0:0:0:0:
60,220,26681,2,0,L|48:160,2,47.2499985580445,0|0|0,0:0|0:0|0:0,0:0:0:0:
208,244,27006,2,0,L|320:244,1,94.499997116089,2|4,0:0|0:0,0:0:0:0:
132,181,27330,6,0,P|84:153|140:49,1,188.999994232178,8|2,0:0|0:0,0:0:0:0:
248,46,27816,1,12,0:0:0:0:
400,84,27979,2,0,L|488:144,2,94.499997116089,0|6|2,0:0|0:0|0:0,0:0:0:0:
48,144,28465,1,8,0:0:0:0:
88,165,28546,1,0,0:0:0:0:
104,209,28627,1,8,0:0:0:0:
85,251,28708,1,8,0:0:0:0:
43,270,28789,1,0,0:0:0:0:
484,208,29114,6,0,L|284:224,1,188.999994232178,4|2,0:1|0:0,0:0:0:0:
192,232,29600,1,2,0:0:0:0:
304,164,29762,1,4,0:0:0:0:
148,144,29925,2,0,L|48:156,2,94.499997116089,8|4|2,0:0|0:0|0:0,0:0:0:0:
296,140,30411,2,0,L|492:128,1,188.999994232178,8|2,0:0|0:0,0:0:0:0:
384,68,30898,1,2,0:0:0:0:
232,64,31060,2,0,L|208:184,1,94.499997116089,8|0,0:0|0:0,0:0:0:0:
472,240,31384,6,0,L|284:260,1,188.999994232178,8|0,0:0|0:0,0:0:0:0:
36,240,31871,2,0,L|232:220,1,188.999994232178,8|0,0:0|0:0,0:0:0:0:
472,216,32357,1,8,0:0:0:0:
216,220,32519,6,0,L|208:112,1,94.499997116089,8|4,0:0|0:0,0:0:0:0:
332,104,32843,1,8,0:0:0:0:
72,176,33006,1,8,0:0:0:0:
352,256,33168,2,0,P|338:209|172:102,1,236.249992790222,8|0,0:0|0:0,0:0:0:0:
88,104,33654,2,0,P|44:144|80:232,1,141.749995674133,0|0,0:0|0:0,0:0:0:0:
268,268,33979,6,0,P|303:236|266:118,1,180,4|12,0:1|0:0,0:0:0:0:
16,128,34465,2,0,L|280:224,1,270,0|12,0:0|0:0,0:0:0:0:
368,256,35114,1,0,0:0:0:0:
216,316,35276,6,0,L|399:319,1,180,6|12,0:0|0:0,0:0:0:0:
490,324,35762,1,0,0:0:0:0:
213,177,35925,2,0,L|203:273,1,90,6|2,0:0|0:0,0:0:0:0:
495,281,36249,2,0,L|387:274,1,90,12|0,0:0|0:0,0:0:0:0:
104,280,36573,6,0,P|62:242|124:153,1,180,6|12,0:0|0:0,0:0:0:0:
279,151,37060,1,0,0:0:0:0:
116,131,37222,2,0,L|311:121,1,180,6|12,0:0|0:0,0:0:0:0:
197,73,37708,1,0,0:0:0:0:
444,171,37871,6,0,L|453:285,1,90,6|2,0:0|0:0,0:0:0:0:
161,273,38195,2,0,L|62:269,1,90,12|0,0:0|0:0,0:0:0:0:
233,213,38519,2,0,L|324:220,1,90,6|2,0:0|0:0,0:0:0:0:
166,167,38843,2,0,L|162:63,1,90,8|0,0:0|0:0,0:0:0:0:
216,75,39087,1,8,0:0:0:0:
408,124,39168,6,0,L|224:118,1,180,4|12,0:1|0:0,0:0:0:0:
484,195,39654,2,0,L|200:188,1,270,0|12,0:0|0:0,0:0:0:0:
128,307,40303,1,0,0:0:0:0:
291,299,40465,6,0,P|333:263|291:157,1,180,6|12,0:0|0:0,0:0:0:0:
181,151,40952,1,0,0:0:0:0:
444,223,41114,2,0,L|454:319,1,90,6|2,0:0|0:0,0:0:0:0:
99,314,41438,2,0,L|207:307,1,90,12|0,0:0|0:0,0:0:0:0:
443,260,41762,6,0,L|244:251,1,180,6|12,0:0|0:0,0:0:0:0:
363,181,42249,1,0,0:0:0:0:
104,254,42411,2,0,P|58:232|128:145,1,180,6|12,0:0|0:0,0:0:0:0:
216,137,42898,1,0,0:0:0:0:
452,195,43060,6,0,L|443:309,1,90,6|2,0:0|0:0,0:0:0:0:
115,286,43384,2,0,L|107:176,1,90,8|0,0:0|0:0,0:0:0:0:
270,196,43708,2,0,L|179:203,1,90,2|8,0:0|0:0,0:0:0:0:
346,167,44033,2,0,L|350:63,1,90,2|8,0:0|0:0,0:0:0:0:
296,75,44276,1,8,0:0:0:0:
90,95,44357,6,0,P|44:138|83:239,1,180,4|12,0:1|0:0,0:0:0:0:
327,247,44843,2,0,P|352:180|228:40,1,270,0|12,0:0|0:0,0:0:0:0:
144,172,45492,1,0,0:0:0:0:
316,152,45654,6,0,L|339:51,1,90,6|0,0:0|0:0,0:0:0:0:
219,69,45979,2,0,L|197:177,1,90,12|0,0:0|0:0,0:0:0:0:
456,169,46303,2,0,L|475:275,1,90,6|0,0:0|0:0,0:0:0:0:
225,286,46627,2,0,L|133:284,1,90,12|0,0:0|0:0,0:0:0:0:
414,249,46952,6,0,P|460:220|392:124,1,180,6|12,0:0|0:0,0:0:0:0:
316,124,47438,1,0,0:0:0:0:
152,184,47600,2,0,L|341:179,1,180,6|12,0:0|0:0,0:0:0:0:
444,176,48087,1,0,0:0:0:0:
358,227,48249,1,2,0:0:0:0:
131,211,48411,1,8,0:0:0:0:
358,227,48573,2,0,P|392:195|354:118,1,135,8|0,0:0|0:0,0:0:0:0:
186,124,48898,2,0,L|68:156,1,107.999996704102,2|8,0:0|0:0,0:0:0:0:
72,208,49141,1,8,0:0:0:0:
236,248,49222,2,0,L|252:188,1,53.9999983520508,8|0,0:0|0:0,0:0:0:0:
92,256,49384,2,0,L|88:324,1,45,8|8,0:0|0:0,0:0:0:0:
307,317,49546,6,0,L|496:305,1,180,4|12,0:1|0:0,0:0:0:0:
386,194,50033,1,0,0:0:0:0:
224,241,50195,2,0,L|412:246,1,180,6|12,0:0|0:0,0:0:0:0:
463,318,50681,1,0,0:0:0:0:
301,317,50843,6,0,L|208:316,1,90,6|0,0:0|0:0,0:0:0:0:
328,260,51168,2,0,L|332:168,1,90,12|0,0:0|0:0,0:0:0:0:
72,176,51492,2,0,L|82:272,1,90,6|2,0:0|0:0,0:0:0:0:
376,268,51816,2,0,L|484:232,1,90,12|0,0:0|0:0,0:0:0:0:
183,183,52141,6,0,L|366:187,1,180,6|12,0:0|0:0,0:0:0:0:
279,151,52627,1,0,0:0:0:0:
24,116,52789,2,0,L|219:106,1,180,6|12,0:0|0:0,0:0:0:0:
105,58,53276,1,0,0:0:0:0:
349,105,53438,6,0,L|446:120,1,90,6|2,0:0|0:0,0:0:0:0:
161,273,53762,2,0,L|144:171,1,90,12|0,0:0|0:0,0:0:0:0:
304,175,54087,2,0,L|395:182,1,90,6|2,0:0|0:0,0:0:0:0:
237,159,54411,2,0,L|137:143,1,90,12|0,0:0|0:0,0:0:0:0:
198,92,54654,1,0,0:0:0:0:
390,92,54735,6,0,P|438:120|366:207,1,180,4|12,0:1|0:0,0:0:0:0:
223,256,55222,2,0,P|136:248|36:92,1,270,0|12,0:0|0:0,0:0:0:0:
152,96,55871,1,0,0:0:0:0:
318,131,56033,6,0,L|133:115,1,180,6|12,0:0|0:0,0:0:0:0:
18,102,56519,1,0,0:0:0:0:
271,199,56681,2,0,L|375:208,1,90,6|2,0:0|0:0,0:0:0:0:
64,279,57006,2,0,L|39:186,1,90,12|0,0:0|0:0,0:0:0:0:
316,197,57330,6,0,L|496:205,1,180,6|12,0:0|0:0,0:0:0:0:
412,159,57816,1,0,0:0:0:0:
104,254,57979,2,0,P|58:232|128:145,1,180,6|12,0:0|0:0,0:0:0:0:
216,137,58465,1,0,0:0:0:0:
452,195,58627,6,0,L|443:309,1,90,6|2,0:0|0:0,0:0:0:0:
115,286,58952,2,0,L|107:176,1,90,8|0,0:0|0:0,0:0:0:0:
270,196,59276,2,0,L|179:203,1,90,2|8,0:0|0:0,0:0:0:0:
346,167,59600,2,0,L|350:63,1,90,2|8,0:0|0:0,0:0:0:0:
296,75,59843,1,8,0:0:0:0:
90,95,59925,6,0,P|44:138|83:239,1,180,4|12,0:1|0:0,0:0:0:0:
327,247,60411,2,0,L|44:244,1,270,0|12,0:0|0:0,0:0:0:0:
148,80,61060,1,0,0:0:0:0:
316,152,61222,6,0,L|339:51,1,90,6|0,0:0|0:0,0:0:0:0:
219,69,61546,2,0,L|197:177,1,90,12|0,0:0|0:0,0:0:0:0:
456,169,61871,2,0,L|475:275,1,90,6|2,0:0|0:0,0:0:0:0:
225,286,62195,2,0,L|133:284,1,90,12|0,0:0|0:0,0:0:0:0:
164,224,62438,1,8,0:0:0:0:
419,246,62519,6,0,P|454:213|408:106,1,180,4|12,0:1|0:0,0:0:0:0:
159,145,63006,2,0,L|354:126,1,180,0|2,0:0|0:0,0:0:0:0:
103,204,63492,2,0,L|93:307,1,90,12|8,0:0|0:0,0:0:0:0:
152,308,63735,1,8,0:0:0:0:
357,301,63816,6,0,L|466:301,1,90,4|0,0:1|0:0,0:0:0:0:
216,273,64141,2,0,P|179:242|229:140,1,180,12|6,0:0|0:0,0:0:0:0:
327,139,64627,1,2,0:0:0:0:
94,197,64789,2,0,L|74:295,1,90,12|0,0:0|0:0,0:0:0:0:
135,303,65033,1,8,0:0:0:0:
374,308,65114,6,0,P|410:271|360:153,1,180,4|8,0:1|0:0,0:0:0:0:
234,164,65600,2,0,L|220:220,2,45,0|10|2,0:0|0:0|0:0,0:0:0:0:
388,114,65925,2,0,L|403:70,2,45,10|10|10,0:0|0:0|0:0,0:0:0:0:
229,110,66249,2,0,L|221:179,1,45,10|10,0:0|0:0,0:0:0:0:
396,167,66411,6,0,P|440:188|388:284,1,180,4|0,0:1|0:0,0:0:0:0:
224,292,67060,2,0,P|188:260|240:184,1,135,0|0,0:0|0:0,0:0:0:0:
288,188,67384,2,0,P|336:164|284:96,1,135,0|0,0:0|0:0,0:0:0:0:
136,96,67708,1,4,0:1:0:0:
256,192,67871,12,0,70303,0:0:0:0:
320,288,78087,6,0,P|348:208|284:144,1,180,4|0,0:1|0:0,0:0:0:0:
140,60,78573,2,0,L|132:156,1,90,0|0,0:0|0:0,0:0:0:0:
264,220,78898,2,0,L|172:216,1,90,0|8,0:0|0:0,0:0:0:0:
320,312,79222,1,0,0:0:0:0:
240,316,79384,1,0,0:0:0:0:
320,312,79546,1,0,0:0:0:0:
464,236,79708,2,0,L|372:232,1,90,0|0,0:0|0:0,0:0:0:0:
144,56,80033,6,0,L|136:152,1,90,2|2,0:0|0:0,0:0:0:0:
252,96,80357,1,8,0:0:0:0:
132,148,80519,1,0,0:0:0:0:
376,292,80681,6,0,P|400:204|336:156,1,180,0|0,0:0|0:0,0:0:0:0:
192,88,81168,2,0,L|284:84,2,90,0|0|0,0:0|0:0|0:0,0:0:0:0:
336,216,81654,2,0,L|344:120,1,90,8|0,0:0|0:0,0:0:0:0:
196,72,81979,5,2,0:0:0:0:
167,155,82141,1,0,0:0:0:0:
198,238,82303,1,0,0:0:0:0:
276,279,82465,1,0,0:0:0:0:
420,344,82627,2,0,L|424:252,1,90,0|0,0:0|0:0,0:0:0:0:
184,100,82952,2,0,L|92:108,1,90,8|0,0:0|0:0,0:0:0:0:
368,228,83276,6,0,P|376:168|280:96,1,180,2|8,0:0|0:0,0:0:0:0:
144,212,83762,2,0,L|236:216,1,90,0|0,0:0|0:0,0:0:0:0:
376,312,84087,2,0,L|280:316,2,90,0|0|0,0:0|0:0|0:0,0:0:0:0:
144,68,84573,6,0,P|128:132|208:208,1,180,0|8,0:0|0:0,0:0:0:0:
300,204,85060,1,0,0:0:0:0:
76,340,85222,2,0,L|72:244,1,90,0|2,0:0|0:0,0:0:0:0:
304,120,85546,2,0,L|404:124,1,90,0|0,0:0|0:0,0:0:0:0:
136,48,85871,6,0,P|92:76|144:172,1,180,2|8,0:0|0:0,0:0:0:0:
228,176,86357,1,0,0:0:0:0:
348,276,86519,2,0,L|352:184,1,90,0|2,0:0|0:0,0:0:0:0:
108,36,86843,6,0,P|104:92|176:132,1,135,8|0,0:0|0:0,0:0:0:0:
236,64,87168,2,0,L|140:68,1,90,2|2,0:0|0:0,0:0:0:0:
376,248,87492,2,0,L|472:252,1,90,8|0,0:0|0:0,0:0:0:0:
332,348,87816,1,2,3:0:0:0:
404,344,87979,1,2,3:0:0:0:
332,348,88141,1,2,3:0:0:0:
404,344,88303,1,2,3:0:0:0:
176,280,88465,6,0,P|176:236|284:164,1,180,4|0,0:1|0:0,0:0:0:0:
372,168,88952,1,2,0:0:0:0:
152,216,89114,2,0,L|148:120,1,90,8|0,0:0|0:0,0:0:0:0:
268,56,89438,2,0,L|172:52,1,90,2|2,0:0|0:0,0:0:0:0:
316,140,89762,6,0,L|320:232,1,90,2|8,0:0|0:0,0:0:0:0:
200,296,90087,1,0,0:0:0:0:
324,340,90249,2,0,L|416:336,1,90,2|8,0:0|0:0,0:0:0:0:
268,260,90573,2,0,L|264:164,1,90,0|2,0:0|0:0,0:0:0:0:
384,164,90898,1,0,0:0:0:0:
156,48,91060,6,0,P|152:112|240:172,1,180,2|0,0:0|0:0,0:0:0:0:
376,136,91546,2,0,L|380:228,1,90,2|8,0:0|0:0,0:0:0:0:
284,232,91871,1,0,0:0:0:0:
152,248,92033,2,0,L|148:156,1,90,2|2,0:0|0:0,0:0:0:0:
272,168,92357,5,0,0:0:0:0:
144,68,92519,2,0,L|328:72,1,180,8|2,0:0|0:0,0:0:0:0:
176,168,93006,2,0,L|172:264,1,90,2|8,3:2|3:2,0:0:0:0:
224,260,93249,1,8,3:2:0:0:
416,336,93330,1,8,3:2:0:0:
439,298,93411,1,8,3:2:0:0:
435,255,93492,1,8,3:2:0:0:
403,224,93573,1,8,3:2:0:0:
136,48,93654,6,0,P|136:144|204:172,1,180,4|8,0:1|0:0,0:0:0:0:
352,104,94141,2,0,L|448:108,2,90,0|2|2,0:0|0:0|0:0,0:0:0:0:
124,332,94627,2,0,L|116:240,1,90,8|0,0:0|0:0,0:0:0:0:
356,48,94952,6,0,P|356:96|240:152,1,180,2|8,0:0|0:0,0:0:0:0:
64,88,95600,2,0,L|60:180,1,90,2|2,0:0|0:0,0:0:0:0:
180,108,95925,1,8,0:0:0:0:
64,180,96087,1,0,0:0:0:0:
312,332,96249,6,0,P|340:240|280:188,1,180,2|8,0:0|0:0,0:0:0:0:
472,52,96898,2,0,L|372:56,1,90,2|2,0:0|0:0,0:0:0:0:
288,56,97222,1,8,0:0:0:0:
408,56,97384,1,0,0:0:0:0:
160,272,97546,6,0,P|132:192|196:132,1,180,2|8,0:0|0:0,0:0:0:0:
344,200,98033,1,0,0:0:0:0:
299,198,98114,1,0,0:0:0:0:
254,197,98195,1,0,0:0:0:0:
101,50,98357,1,0,0:0:0:0:
98,94,98438,1,0,0:0:0:0:
96,139,98519,1,0,0:0:0:0:
193,73,98681,1,0,0:0:0:0:
60,69,98843,1,0,0:0:0:0:
458,345,99168,6,0,P|486:285|410:205,1,180,4|2,0:1|0:0,0:0:0:0:
308,191,99654,1,2,0:0:0:0:
421,207,99816,1,4,0:0:0:0:
152,32,99979,2,0,P|152:96|252:140,1,180,8|2,0:0|0:0,0:0:0:0:
340,120,100465,1,8,0:0:0:0:
204,248,100627,2,0,L|200:156,1,90,0|2,0:0|0:0,0:0:0:0:
344,44,100952,2,0,L|248:48,1,90,2|8,0:0|0:0,0:0:0:0:
132,152,101276,2,0,L|128:100,1,45,0|0,0:0|0:0,0:0:0:0:
400,128,101438,6,0,P|428:200|356:272,1,180,2|8,0:0|0:0,0:0:0:0:
220,236,101925,2,0,L|208:280,2,45,0|0|2,0:0|0:0|0:0,0:0:0:0:
368,220,102249,2,0,L|372:128,1,90,2|4,0:0|0:0,0:0:0:0:
136,44,102573,6,0,L|320:40,1,180,8|2,0:0|0:0,0:0:0:0:
232,132,103060,2,0,L|232:232,1,90,12|0,0:0|0:0,0:0:0:0:
368,296,103384,2,0,L|276:300,1,90,6|2,0:0|0:0,0:0:0:0:
172,304,103708,1,8,0:0:0:0:
332,176,103871,1,8,0:0:0:0:
348,196,103952,1,8,0:0:0:0:
332,220,104033,1,0,0:0:0:0:
64,72,104357,6,0,P|44:156|108:212,1,180,4|2,0:1|0:0,0:0:0:0:
224,196,104843,1,2,0:0:0:0:
107,211,105006,1,4,0:0:0:0:
336,40,105168,2,0,L|340:140,1,90,8|0,0:0|0:0,0:0:0:0:
200,224,105492,2,0,L|292:228,1,90,2|12,0:0|0:0,0:0:0:0:
436,332,105816,2,0,L|344:336,1,90,0|2,0:0|0:0,0:0:0:0:
120,64,106141,1,8,0:0:0:0:
240,68,106303,1,8,0:0:0:0:
120,64,106465,1,8,0:0:0:0:
384,256,106627,6,0,P|399:230|344:104,1,180,4|0,0:1|0:0,0:0:0:0:
84,312,107114,2,0,L|268:308,1,180,2|0,0:0|0:0,0:0:0:0:
400,216,107600,2,0,L|304:212,2,90,2|2|4,0:0|0:0|0:0,0:0:0:0:
168,32,108087,6,0,P|144:88|224:168,1,180,8|2,0:0|0:0,0:0:0:0:
360,168,108573,2,0,L|368:264,1,90,8|2,0:0|0:0,0:0:0:0:
312,256,108816,1,0,0:0:0:0:
144,332,108898,2,0,L|140:288,1,45,8|8,3:2|3:2,0:0:0:0:
288,152,109060,2,0,L|344:156,1,45,8|8,3:2|3:2,0:0:0:0:
80,48,109222,6,0,P|52:92|112:188,1,180,4|12,0:1|0:0,0:0:0:0:
340,308,109708,2,0,L|160:304,1,180,0|2,0:0|0:0,0:0:0:0:
392,60,110195,2,0,L|400:152,1,90,12|0,0:0|0:0,0:0:0:0:
244,236,110519,2,0,L|336:240,2,90,6|2|12,0:0|0:0|0:0,0:0:0:0:
372,240,111006,1,0,0:0:0:0:
216,328,111168,2,0,L|212:236,1,90,6|2,0:0|0:0,0:0:0:0:
444,80,111492,2,0,L|352:76,1,90,12|0,0:0|0:0,0:0:0:0:
76,204,111816,6,0,P|76:148|176:92,1,180,6|12,0:0|0:0,0:0:0:0:
328,128,112303,1,0,0:0:0:0:
176,264,112465,2,0,L|364:268,1,180,6|12,0:0|0:0,0:0:0:0:
200,168,112952,1,0,0:0:0:0:
360,276,113114,6,0,L|368:180,1,90,6|2,0:0|0:0,0:0:0:0:
212,128,113438,2,0,L|208:36,1,90,12|0,0:0|0:0,0:0:0:0:
432,52,113762,2,0,L|336:56,1,90,6|2,0:0|0:0,0:0:0:0:
108,284,114087,2,0,L|200:288,1,90,12|0,0:0|0:0,0:0:0:0:
464,120,114411,6,0,P|464:180|364:236,1,180,4|12,0:1|0:0,0:0:0:0:
96,72,114898,2,0,L|276:68,1,180,0|2,0:0|0:0,0:0:0:0:
48,296,115384,2,0,L|44:200,1,90,12|0,0:0|0:0,0:0:0:0:
272,80,115708,2,0,L|368:84,1,90,6|2,0:0|0:0,0:0:0:0:
208,192,116033,2,0,L|116:196,1,90,12|0,0:0|0:0,0:0:0:0:
364,300,116357,2,0,L|368:200,1,90,6|2,0:0|0:0,0:0:0:0:
124,36,116681,2,0,L|216:32,1,90,12|0,0:0|0:0,0:0:0:0:
488,184,117006,6,0,P|488:224|376:292,1,180,6|12,0:0|0:0,0:0:0:0:
228,244,117492,1,0,0:0:0:0:
384,132,117654,2,0,L|196:136,1,180,6|12,0:0|0:0,0:0:0:0:
300,60,118141,1,0,0:0:0:0:
72,280,118303,6,0,L|68:184,1,90,6|2,0:0|0:0,0:0:0:0:
220,176,118627,2,0,L|224:84,1,90,12|0,0:0|0:0,0:0:0:0:
456,40,118952,2,0,L|364:44,2,90,2|8|2,0:0|0:0|0:0,0:0:0:0:
224,152,119438,2,0,L|216:200,1,45,8|8,0:0|0:0,0:0:0:0:
448,316,119600,6,0,P|476:260|408:172,1,180,4|12,0:1|0:0,0:0:0:0:
184,296,120087,2,0,L|176:108,1,180,0|2,0:0|0:0,0:0:0:0:
332,56,120573,2,0,L|240:52,1,90,12|0,0:0|0:0,0:0:0:0:
16,176,120898,6,0,L|112:172,1,90,6|2,0:0|0:0,0:0:0:0:
232,284,121222,2,0,L|140:280,1,90,12|0,0:0|0:0,0:0:0:0:
372,64,121546,2,0,L|376:160,1,90,6|2,0:0|0:0,0:0:0:0:
136,340,121871,2,0,L|232:336,1,90,12|0,0:0|0:0,0:0:0:0:
496,68,122195,6,0,L|316:64,1,180,6|12,0:0|0:0,0:0:0:0:
220,60,122681,1,0,0:0:0:0:
448,268,122843,2,0,L|448:176,1,90,6|2,0:0|0:0,0:0:0:0:
336,240,123168,1,12,0:0:0:0:
448,176,123330,1,0,0:0:0:0:
216,112,123492,5,2,0:0:0:0:
104,116,123654,1,8,0:0:0:0:
224,120,123816,1,8,0:0:0:0:
96,128,123979,1,0,0:0:0:0:
336,308,124141,5,2,0:0:0:0:
355,268,124222,1,0,0:0:0:0:
347,224,124303,1,8,0:0:0:0:
316,193,124384,1,8,0:0:0:0:
128,256,124465,2,0,L|124:208,1,45,8|0,0:0|0:0,0:0:0:0:
304,88,124627,2,0,L|352:92,1,45,8|8,0:0|0:0,0:0:0:0:
92,32,124789,6,0,P|60:68|128:156,1,180,4|12,0:1|0:0,0:0:0:0:
280,120,125276,1,0,0:0:0:0:
128,232,125438,2,0,L|312:240,1,180,6|12,0:0|0:0,0:0:0:0:
152,344,125925,1,0,0:0:0:0:
308,312,126087,6,0,P|336:252|268:164,1,180,4|12,0:0|0:0,0:0:0:0:
176,144,126573,1,0,0:0:0:0:
404,52,126735,2,0,L|408:148,1,90,6|2,0:0|0:0,0:0:0:0:
168,316,127060,2,0,L|72:312,1,90,12|0,0:0|0:0,0:0:0:0:
336,236,127384,6,0,P|372:184|296:104,1,180,6|12,0:0|0:0,0:0:0:0:
444,48,127871,1,0,0:0:0:0:
288,36,128033,2,0,L|100:44,1,180,6|12,0:0|0:0,0:0:0:0:
260,140,128519,1,0,0:0:0:0:
108,240,128681,6,0,L|200:244,1,90,6|2,0:0|0:0,0:0:0:0:
428,328,129006,2,0,L|432:232,1,90,12|0,0:0|0:0,0:0:0:0:
184,148,129330,2,0,L|276:144,1,90,6|2,0:0|0:0,0:0:0:0:
504,40,129654,2,0,L|400:36,1,90,12|0,0:0|0:0,0:0:0:0:
120,60,129979,6,0,P|89:148|159:197,1,180,4|12,0:1|0:0,0:0:0:0:
372,272,130465,2,0,L|192:276,1,180,0|2,0:0|0:0,0:0:0:0:
424,48,130952,2,0,L|428:144,1,90,12|0,0:0|0:0,0:0:0:0:
192,320,131276,6,0,L|372:324,1,180,6|12,0:0|0:0,0:0:0:0:
464,328,131762,1,0,0:0:0:0:
232,172,131925,2,0,L|132:176,1,90,6|2,0:0|0:0,0:0:0:0:
368,40,132249,2,0,L|468:44,1,90,12|0,0:0|0:0,0:0:0:0:
196,252,132573,6,0,P|188:192|276:124,1,180,6|12,0:0|0:0,0:0:0:0:
164,72,133060,1,0,0:0:0:0:
396,148,133222,2,0,L|208:152,1,180,6|12,0:0|0:0,0:0:0:0:
320,56,133708,1,0,0:0:0:0:
56,312,133871,6,0,L|52:220,1,90,6|2,0:0|0:0,0:0:0:0:
304,104,134195,2,0,L|400:108,1,90,8|0,0:0|0:0,0:0:0:0:
156,228,134519,1,2,0:0:0:0:
52,232,134681,1,8,0:0:0:0:
164,232,134843,1,2,0:0:0:0:
44,240,135006,1,8,0:0:0:0:
320,44,135168,6,0,P|360:124|304:188,1,180,4|12,0:1|0:0,0:0:0:0:
152,280,135654,2,0,L|336:284,1,180,0|2,0:0|0:0,0:0:0:0:
184,164,136141,2,0,L|84:168,1,90,12|0,0:0|0:0,0:0:0:0:
344,40,136465,6,0,L|348:132,1,90,6|0,0:0|0:0,0:0:0:0:
128,324,136789,2,0,L|220:328,1,90,12|0,0:0|0:0,0:0:0:0:
368,232,137114,2,0,L|272:236,1,90,6|2,0:0|0:0,0:0:0:0:
124,172,137438,2,0,L|120:80,1,90,12|0,0:0|0:0,0:0:0:0:
408,40,137762,6,0,P|408:116|300:164,1,180,4|12,0:1|0:0,0:0:0:0:
92,168,138249,2,0,P|92:228|196:272,1,180,0|2,0:0|0:0,0:0:0:0:
416,344,138735,2,0,L|420:252,1,90,12|8,0:0|0:0,0:0:0:0:
144,40,139060,6,0,L|284:36,1,135,4|0,0:1|0:0,0:0:0:0:
444,224,139384,2,0,P|456:160|368:100,1,180,12|6,0:0|0:0,0:0:0:0:
468,56,139871,1,2,0:0:0:0:
240,248,140033,2,0,L|332:252,1,90,12|0,0:0|0:0,0:0:0:0:
80,60,140357,6,0,P|48:112|116:200,1,180,4|12,0:1|0:0,0:0:0:0:
200,200,140843,1,0,0:0:0:0:
360,312,141006,2,0,L|364:220,1,90,2|10,0:0|0:0,0:0:0:0:
308,224,141249,1,10,0:0:0:0:
112,140,141330,2,0,L|108:48,1,90,10|10,0:0|0:0,0:0:0:0:
164,52,141573,1,10,0:0:0:0:
384,52,141654,6,0,P|472:136|380:216,1,270,4|0,0:1|0:0,0:0:0:0:
144,332,142303,2,0,L|48:328,1,90,2|8,0:0|0:0,0:0:0:0:
168,304,142627,1,2,0:0:0:0:
24,328,142789,1,2,0:0:0:0:
304,120,142952,6,0,L|312:212,1,90,4|0,0:1|0:0,0:0:0:0:
88,144,143438,1,0,0:0:0:0:
324,40,143600,6,0,P|368:136|320:196,1,180,0|0,0:0|0:0,0:0:0:0:
192,264,144087,2,0,L|100:260,2,90
420,344,144735,1,0,0:0:0:0:
188,324,144898,6,0,P|126:261|146:180,1,180
232,134,145384,1,0,0:0:0:0:
355,188,145546,2,0,L|360:99,1,90
108,124,146033,1,0,0:0:0:0:
360,312,146195,6,0,P|384:240|312:172,1,180,0|0,0:0|0:0,0:0:0:0:
172,96,146681,1,0,0:0:0:0:
261,94,146843,1,0,0:0:0:0:
351,92,147006,1,0,0:0:0:0:
128,240,147330,1,0,0:0:0:0:
368,40,147492,6,0,P|368:108|268:160,1,180,0|0,0:0|0:0,0:0:0:0:
180,152,147979,1,0,0:0:0:0:
318,256,148141,2,0,L|226:260,1,90
459,262,148627,1,0,0:0:0:0:
192,56,148789,6,0,P|168:144|232:204,1,180,0|0,0:0|0:0,0:0:0:0:
372,280,149276,2,0,L|280:284,2,90,0|0|0,0:0|0:0|0:0,0:0:0:0:
140,312,149925,1,0,0:0:0:0:
384,104,150087,6,0,P|399:175|326:239,1,180
213,223,150573,1,0,0:0:0:0:
355,337,150735,2,0,L|360:243,1,90
173,254,151222,1,0,0:0:0:0:
448,44,151384,6,0,P|448:120|332:156,1,180,0|0,0:0|0:0,0:0:0:0:
260,160,151871,1,0,0:0:0:0:
408,284,152033,2,0,L|312:288,1,90,0|0,0:0|0:0,0:0:0:0:
184,216,152357,2,0,L|280:220,1,90,0|0,0:0|0:0,0:0:0:0:
36,56,152681,6,0,L|28:152,1,90,0|0,0:0|0:0,0:0:0:0:
136,120,153006,1,0,0:0:0:0:
24,148,153168,1,0,0:0:0:0:
312,256,153330,6,0,L|412:256,1,67.5000025749208,2|2,0:0|0:0,0:0:0:0:
212,196,153816,2,0,L|136:196,1,67.5000025749208,0|8,0:0|0:0,0:0:0:0:
320,116,154303,1,0,0:0:0:0:
56,296,154627,6,0,L|200:288,1,135.000005149842,2|0,0:0|0:0,0:0:0:0:
76,220,155114,1,2,0:0:0:0:
204,176,155276,1,8,0:0:0:0:
112,84,155600,1,0,0:0:0:0:
332,184,155925,6,0,L|172:196,1,135.000005149842,2|0,0:0|0:0,0:0:0:0:
56,196,156411,2,0,L|48:120,2,67.5000025749208,0|8|0,0:0|0:0|0:0,0:0:0:0:
192,228,156898,2,0,L|236:160,1,67.5000025749208,2|0,0:0|0:0,0:0:0:0:
88,136,157222,6,0,L|224:132,1,135.000005149842,2|0,0:0|0:0,0:0:0:0:
324,128,157708,1,0,0:0:0:0:
200,176,157871,2,0,L|188:252,1,67.5000025749208,8|0,0:0|0:0,0:0:0:0:
336,220,158195,2,0,L|324:316,1,67.5000025749208,2|0,0:0|0:0,0:0:0:0:
180,312,158519,6,0,L|314:305,1,135.000005149842,2|0,0:0|0:0,0:0:0:0:
176,340,159006,2,0,L|108:343,2,67.5000025749208,2|8|0,0:0|0:0|0:0,0:0:0:0:
312,300,159492,1,2,0:0:0:0:
384,268,159654,1,0,0:0:0:0:
388,192,159816,5,2,0:0:0:0:
328,144,159979,1,0,0:0:0:0:
188,176,160141,2,0,L|116:176,1,67.5000025749208,2|0,0:0|0:0,0:0:0:0:
240,248,160465,2,0,L|316:268,1,67.5000025749208,8|0,0:0|0:0,0:0:0:0:
188,304,160789,2,0,L|176:384,1,67.5000025749208,2|0,0:0|0:0,0:0:0:0:
248,380,161114,5,2,0:0:0:0:
428,320,161438,2,0,L|276:312,1,135.000005149842,0|8,0:0|0:0,0:0:0:0:
24,236,162087,2,0,L|160:224,1,135.000005149842,0|2,0:0|0:0,0:0:0:0:
440,216,162735,2,0,L|448:144,2,67.5000025749208,0|2|8,0:0|0:0|0:0,0:0:0:0:
248,252,163384,2,0,L|172:252,1,67.5000025749208,2|0,0:0|0:0,0:0:0:0:
408,240,163708,6,0,L|416:160,1,67.5000025749208,2|2,0:0|0:0,0:0:0:0:
208,116,164195,2,0,L|136:120,1,67.5000025749208,2|8,0:0|0:0,0:0:0:0:
304,176,164681,2,0,L|316:256,1,67.5000025749208,0|0,0:0|0:0,0:0:0:0:
84,260,165006,6,0,L|72:348,1,67.5000025749208,2|2,0:0|0:0,0:0:0:0:
295,334,165330,2,0,L|379:334,1,67.5000025749208
142,327,165654,2,0,L|67:326,1,67.5000025749208,8|0,0:0|0:0,0:0:0:0:
388,312,165979,6,0,P|412:288|368:188,1,135.000005149842,2|2,0:0|0:0,0:0:0:0:
296,176,166465,1,2,0:0:0:0:
60,172,166627,2,0,L|220:160,1,135.000005149842,0|8,0:0|0:0,0:0:0:0:
112,104,167114,1,0,0:0:0:0:
272,112,167276,6,0,L|420:120,1,135.000005149842,2|2,0:0|0:0,0:0:0:0:
392,192,167762,1,2,0:0:0:0:
176,224,168087,2,0,L|108:244,1,67.5000025749208,2|8,0:0|0:0,0:0:0:0:
324,292,168573,5,2,0:0:0:0:
96,240,168735,2,0,L|240:228,1,135.000005149842,2|2,0:0|0:0,0:0:0:0:
460,240,169222,2,0,P|480:208|448:108,1,135.000005149842,0|8,0:0|0:0,0:0:0:0:
368,96,169708,1,0,0:0:0:0:
186,104,169871,2,0,L|112:232,1,135.000005149842,2|2,0:0|0:0,0:0:0:0:
196,248,170357,1,2,0:0:0:0:
444,220,170519,2,0,L|300:216,1,135.000005149842,2|8,0:0|0:0,0:0:0:0:
80,216,171168,2,0,L|68:136,1,67.5000025749208,2|2,0:0|0:0,0:0:0:0:
296,144,171492,6,0,L|364:148,1,67.5000025749208,2|2,0:0|0:0,0:0:0:0:
108,220,171979,2,0,L|100:308,1,67.5000025749208,2|8,0:0|0:0,0:0:0:0:
308,292,172465,2,0,L|376:288,1,67.5000025749208,2|2,0:0|0:0,0:0:0:0:
136,280,172789,2,0,L|128:136,1,135.000005149842,2|10,0:0|0:0,0:0:0:0:
264,132,173276,2,0,L|328:128,1,33.7500012874604,2|2,0:0|0:0,0:0:0:0:
88,112,173438,2,0,L|72:204,1,67.5000025749208,8|8,0:0|0:0,0:0:0:0:
328,252,173762,1,8,0:0:0:0:
92,304,173925,1,8,0:0:0:0:
204,284,174087,6,0,P|240:256|192:124,1,202.500007724762,4|2,0:0|0:0,0:0:0:0:
388,120,175060,2,0,L|236:136,1,135.000005149842,0|2,0:0|0:0,0:0:0:0:
80,220,176033,1,0,0:0:0:0:
352,304,176681,6,0,P|384:288|348:208,1,135.000005149842,2|0,0:0|0:0,0:0:0:0:
240,216,177168,2,0,P|208:196|236:112,1,135.000005149842,2|0,0:0|0:0,0:0:0:0:
352,100,177654,1,0,0:0:0:0:
104,184,178627,1,2,0:0:0:0:
352,260,179276,6,0,L|128:288,1,202.500007724762,2|0,0:0|0:0,0:0:0:0:
276,232,180249,1,0,0:0:0:0:
168,172,180411,2,0,L|160:124,2,33.7500012874604,0|0|0,0:0|0:0|0:0,0:0:0:0:
380,252,181060,2,0,L|172:260,1,202.500007724762,0|0,0:0|0:0,0:0:0:0:
424,224,181871,2,0,L|216:236,2,202.500007724762,0|0|0,0:0|0:0|0:0,0:0:0:0:
172,268,183816,6,0,P|144:240|160:176,1,101.250003862381,2|0,0:0|0:0,0:0:0:0:
352,184,184141,2,0,P|368:152|352:80,1,101.250003862381,2|0,0:0|0:0,0:0:0:0:
116,84,184465,6,0,P|64:108|128:220,1,215.999993408203,4|8,0:1|0:0,0:0:0:0:
220,219,184952,1,0,0:0:0:0:
364,216,185114,1,2,0:0:0:0:
402,178,185195,1,0,0:0:0:0:
414,127,185276,1,8,0:0:0:0:
396,77,185357,1,8,0:0:0:0:
354,44,185438,1,8,0:0:0:0:
301,40,185519,1,8,0:0:0:0:
148,84,185600,2,0,L|128:136,1,53.9999983520508,8|8,0:0|0:0,0:0:0:0:
336,192,185762,6,0,L|448:232,1,107.999996704102,4|0,0:1|0:0,0:0:0:0:
168,328,186087,2,0,P|120:304|156:216,1,161.999995056153,8|0,0:0|0:0,0:0:0:0:
328,216,186411,5,2,0:0:0:0:
367,182,186492,1,0,0:0:0:0:
365,130,186573,1,2,0:0:0:0:
322,100,186654,1,2,0:0:0:0:
148,96,186735,2,0,L|100:72,1,53.9999983520508,2|2,0:0|0:0,0:0:0:0:
148,96,186898,2,0,L|204:124,1,53.9999983520508,2|2,0:0|0:0,0:0:0:0:
36,132,187060,5,4,0:1:0:0:
23,184,187141,1,0,0:0:0:0:
33,236,187222,1,0,0:0:0:0:
63,281,187303,1,0,0:0:0:0:
292,292,187384,2,0,P|336:260|300:160,1,161.999995056153,8|0,0:0|0:0,0:0:0:0:
132,160,187708,2,0,L|276:80,2,161.999995056153,4|4|4,0:0|0:0|0:0,0:0:0:0:
376,268,188357,5,4,0:1:0:0:
232,220,188519,2,0,L|224:160,2,53.9999983520508,2|2|8,0:0|0:0|0:0,0:0:0:0:
352,164,188843,2,0,L|364:108,1,53.9999983520508,2|2,0:0|0:0,0:0:0:0:
192,92,189006,2,0,P|136:120|200:208,1,161.999995056153,8|0,0:0|0:0,0:0:0:0:
328,212,189330,2,0,L|428:168,1,107.999996704102,8|2,0:0|0:0,0:0:0:0:
368,128,189573,1,0,0:0:0:0:
188,128,189654,6,0,P|128:172|200:264,1,215.999993408203,4|8,0:1|0:0,0:0:0:0:
312,256,190141,1,0,0:0:0:0:
84,240,190303,1,2,0:0:0:0:
43,205,190384,1,0,0:0:0:0:
29,154,190465,1,8,0:0:0:0:
48,104,190546,1,8,0:0:0:0:
92,74,190627,1,8,0:0:0:0:
145,74,190708,1,8,0:0:0:0:
296,148,190789,2,0,L|304:212,1,53.9999983520508,8|8,0:0|0:0,0:0:0:0:
72,168,190952,6,0,L|48:288,1,107.999996704102,4|0,0:1|0:0,0:0:0:0:
336,304,191276,2,0,P|384:256|348:156,1,161.999995056153,8|2,0:0|0:0,0:0:0:0:
184,152,191600,2,0,L|76:196,1,107.999996704102,2|2,0:0|0:0,0:0:0:0:
136,232,191843,1,2,0:0:0:0:
328,244,191925,1,2,0:0:0:0:
370,213,192006,1,2,0:0:0:0:
369,161,192087,1,2,0:0:0:0:
327,132,192168,1,2,0:0:0:0:
90,95,192249,6,0,P|32:140|96:248,1,215.999993408203,4|12,0:1|0:0,0:0:0:0:
327,247,192735,2,0,P|440:192|304:80,1,323.999990112305,0|12,0:0|0:0,0:0:0:0:
208,80,193384,1,0,0:0:0:0:
324,176,193546,6,0,L|344:68,1,107.999996704102,6|0,0:0|0:0,0:0:0:0:
219,69,193871,2,0,L|196:184,1,107.999996704102,12|0,0:0|0:0,0:0:0:0:
456,168,194195,2,0,P|488:228|396:340,1,215.999993408203,6|12,0:0|0:0,0:0:0:0:
304,336,194681,1,0,0:0:0:0:
64,252,194843,6,0,L|288:216,1,215.999993408203,6|12,0:0|0:0,0:0:0:0:
156,156,195330,1,0,0:0:0:0:
324,118,195492,2,0,P|380:154|324:270,1,215.999993408203,6|0,0:0|0:0,0:0:0:0:
204,268,195979,1,0,0:0:0:0:
436,160,196141,6,0,P|456:204|382:283,1,161.999995056153,6|0,0:0|0:0,0:0:0:0:
198,283,196465,2,0,L|178:219,2,53.9999983520508,2|2|2,0:0|0:0|0:0,0:0:0:0:
438,291,196789,1,8,0:0:0:0:
322,251,196952,2,0,L|298:187,2,53.9999983520508,8|8|8,0:0|0:0|0:0,0:0:0:0:
474,227,197276,2,0,L|490:155,1,45,8|8,0:0|0:0,0:0:0:0:
196,44,197438,6,0,P|144:96|200:176,1,180,4|12,0:1|0:0,0:0:0:0:
280,192,197925,1,0,0:0:0:0:
499,335,198087,2,0,L|319:337,1,180,6|12,0:0|0:0,0:0:0:0:
448,260,198573,1,0,0:0:0:0:
216,224,198735,6,0,L|212:132,1,90,4|0,0:0|0:0,0:0:0:0:
368,64,199060,2,0,L|276:60,1,90,12|0,0:0|0:0,0:0:0:0:
56,200,199384,2,0,L|148:196,1,90,6|2,0:0|0:0,0:0:0:0:
368,332,199708,2,0,L|372:240,1,90,12|0,0:0|0:0,0:0:0:0:
84,60,200033,6,0,P|40:120|80:208,1,180,6|12,0:0|0:0,0:0:0:0:
176,232,200519,1,0,0:0:0:0:
428,348,200681,2,0,L|248:352,1,180,6|12,0:0|0:0,0:0:0:0:
376,252,201168,1,2,0:0:0:0:
148,52,201330,6,0,L|140:152,1,90,6|2,0:0|0:0,0:0:0:0:
360,200,201654,2,0,L|364:292,1,90,12|0,0:0|0:0,0:0:0:0:
208,332,201979,2,0,L|112:328,1,90,6|2,0:0|0:0,0:0:0:0:
356,232,202303,2,0,L|448:228,1,90,8|0,0:0|0:0,0:0:0:0:
404,224,202546,1,0,0:0:0:0:
116,32,202627,6,0,P|96:116|172:160,1,180,4|12,0:1|0:0,0:0:0:0:
264,140,203114,1,0,0:0:0:0:
32,309,203276,2,0,L|213:311,1,180,6|2,0:0|0:0,0:0:0:0:
86,242,203762,1,0,0:0:0:0:
332,296,203925,6,0,L|338:206,1,90,6|0,0:0|0:0,0:0:0:0:
187,139,204249,2,0,L|97:143,1,90,12|0,0:0|0:0,0:0:0:0:
368,304,204573,1,6,0:0:0:0:
472,296,204735,1,2,0:0:0:0:
356,300,204898,1,12,0:0:0:0:
480,288,205060,1,2,0:0:0:0:
212,60,205222,6,0,P|184:116|256:200,1,180,4|12,0:0|0:0,0:0:0:0:
352,212,205708,1,0,0:0:0:0:
120,332,205871,2,0,L|300:328,1,180,6|12,0:0|0:0,0:0:0:0:
172,220,206357,1,0,0:0:0:0:
392,40,206519,6,0,L|396:132,1,90,4|0,0:0|0:0,0:0:0:0:
124,132,206843,2,0,L|121:226,1,90,8|0,0:0|0:0,0:0:0:0:
373,339,207168,1,2,0:0:0:0:
263,342,207330,1,10,0:0:0:0:
373,339,207492,1,2,0:0:0:0:
148,247,207654,2,0,L|144:203,1,45,10|8,0:0|0:0,0:0:0:0:
411,35,207816,6,0,P|427:111|347:167,1,180,4|12,0:1|0:0,0:0:0:0:
262,157,208303,1,0,0:0:0:0:
394,215,208465,2,0,L|398:305,1,90,6|2,0:0|0:0,0:0:0:0:
169,330,208789,2,0,L|78:334,1,90
310,268,209114,6,0,L|315:176,1,90,6|0,0:0|0:0,0:0:0:0:
158,157,209438,2,0,L|154:65,1,90,12|0,0:0|0:0,0:0:0:0:
299,143,209762,1,6,0:0:0:0:
201,133,209925,1,2,0:0:0:0:
107,125,210087,1,12,0:0:0:0:
335,30,210249,2,0,L|339:86,1,45,10|8,0:0|0:0,0:0:0:0:
112,280,210411,6,0,P|96:216|188:148,1,180,4|12,0:1|0:0,0:0:0:0:
404,284,210898,2,0,L|212:288,1,180,0|2,0:0|0:0,0:0:0:0:
356,196,211384,1,12,0:0:0:0:
116,60,211546,2,0,L|112:116,1,45,10|8,0:0|0:0,0:0:0:0:
328,284,211708,6,0,P|372:236|308:148,1,180,4|12,0:1|0:0,0:0:0:0:
216,148,212195,1,0,0:0:0:0:
56,136,212357,2,0,L|52:44,1,90,6|2,0:0|0:0,0:0:0:0:
280,108,212681,2,0,L|376:112,1,90,12|0,0:0|0:0,0:0:0:0:
328,128,212925,1,8,0:0:0:0:
76,332,213006,6,0,P|48:272|128:200,1,180,4|12,0:1|0:0,0:0:0:0:
208,200,213492,1,0,0:0:0:0:
48,112,213654,2,0,L|44:208,1,90,6|2,0:0|0:0,0:0:0:0:
280,324,213979,2,0,L|188:328,1,90,12|0,0:0|0:0,0:0:0:0:
448,88,214303,6,0,P|492:136|436:220,1,180,4|12,0:1|0:0,0:0:0:0:
336,216,214789,1,0,0:0:0:0:
104,84,214952,1,2,0:0:0:0:
360,156,215114,1,8,0:0:0:0:
248,160,215276,1,2,0:0:0:0:
360,156,215438,1,2,0:0:0:0:
84,308,215600,6,0,P|76:256|176:188,1,180,4|0,0:1|0:0,0:0:0:0:
308,224,216087,1,2,0:0:0:0:
152,120,216249,2,0,L|336:112,1,180,8|2,0:0|0:0,0:0:0:0:
200,232,216735,2,0,L|104:228,1,90,2|4,0:0|0:0,0:0:0:0:
256,120,217060,6,0,L|160:124,2,90,8|0|2,0:0|0:0|0:0,0:0:0:0:
28,28,217546,2,0,L|24:120,1,90,12|0,0:0|0:0,0:0:0:0:
148,76,217871,1,2,0:0:0:0:
24,120,218033,1,8,0:0:0:0:
264,308,218195,6,0,L|356:304,2,90,2|8|4,0:0|0:0|0:0,0:0:0:0:
160,312,218681,1,2,0:0:0:0:
385,132,218843,1,0,0:0:0:0:
386,176,218924,1,0,0:0:0:0:
388,221,219005,1,0,0:0:0:0:
254,293,219168,2,0,L|343:291,1,90,6|8,0:0|0:0,0:0:0:0:
206,212,219492,6,0,L|114:209,1,90
344,341,219816,2,0,L|348:249,1,90,4|2,0:0|0:0,0:0:0:0:
104,120,220141,2,0,L|196:116,1,90,12|2,0:0|0:0,0:0:0:0:
432,48,220465,2,0,L|336:44,1,90,12|0,0:0|0:0,0:0:0:0:
64,252,220789,6,0,P|48:180|124:116,1,180,4|12,0:1|0:0,0:0:0:0:
216,120,221276,1,0,0:0:0:0:
352,220,221438,2,0,L|360:128,1,90,6|2,0:0|0:0,0:0:0:0:
136,56,221762,2,0,L|40:60,1,90,12|0,0:0|0:0,0:0:0:0:
316,280,222087,6,0,L|496:284,1,180,4|12,0:1|0:0,0:0:0:0:
348,168,222573,2,0,L|240:172,2,90,0|6|2,0:0|0:0|0:0,0:0:0:0:
124,288,223060,2,0,L|120:192,1,90,12|0,0:0|0:0,0:0:0:0:
384,40,223384,6,0,P|416:116|344:184,1,180,4|12,0:1|0:0,0:0:0:0:
200,152,223871,2,0,L|196:208,1,45,0|10,0:0|0:0,0:0:0:0:
264,240,224033,2,0,L|360:236,1,90,2|10,0:0|0:0,0:0:0:0:
308,216,224276,1,10,0:0:0:0:
136,84,224357,2,0,L|132:140,1,45,10|0,0:0|0:0,0:0:0:0:
312,204,224519,2,0,L|364:200,1,45,10|10,0:0|0:0,0:0:0:0:
80,276,224681,5,4,0:1:0:0:
364,336,225492,1,2,0:0:0:0:
136,256,225654,2,0,L|128:116,1,135,8|0,0:0|0:0,0:0:0:0:
352,124,225979,1,4,0:1:0:0:
256,192,226141,12,0,228573,0:0:0:0:
