osu file format v14

[General]
AudioFilename: audio.mp3
AudioLeadIn: 0
PreviewTime: 33644
Countdown: 0
SampleSet: Soft
StackLeniency: 0.7
Mode: 2
LetterboxInBreaks: 0
WidescreenStoryboard: 1

[Editor]
Bookmarks: 78087,153320,197428
DistanceSpacing: 1
BeatDivisor: 4
GridSize: 4
TimelineZoom: 1.9

[Metadata]
Title:Shiwa
TitleUnicode:しわ
Artist:Hanatan
ArtistUnicode:花たん
Creator:Benita
Version:Spec & Benny's Platter
Source:
Tags:vocaloid nicovideo BennyBananas Xetopia JBHyperion DavidEd Dilectus Spectator
BeatmapID:1672105
BeatmapSetID:794362

[Difficulty]
HPDrainRate:5
CircleSize:3.5
OverallDifficulty:8
ApproachRate:8
SliderMultiplier:1.6
SliderTickRate:2

[Events]
//Background and Video events
0,0,"bg.jpg",0,0
Video,1558,"e.mp4"
//Break Periods
2,70503,77337
2,174287,183066
//Storyboard Layer 0 (Background)
//Storyboard Layer 1 (Fail)
//Storyboard Layer 2 (Pass)
//Storyboard Layer 3 (Foreground)
//Storyboard Sound Samples

[TimingPoints]
2844,324.324324324324,4,2,66,80,1,0
13222,-95.2380952380952,4,2,66,80,0,0
33979,-100,4,2,66,80,0,1
34627,-100,4,2,67,80,0,1
34789,-100,4,2,66,80,0,1
39816,-100,4,2,67,80,0,1
39979,-100,4,2,66,80,0,1
45006,-100,4,2,67,80,0,1
45168,-100,4,2,66,80,0,1
48898,-83.3333333333333,4,2,66,80,0,1
49384,-100,4,2,66,80,0,0
49546,-100,4,2,66,80,0,1
55384,-100,4,2,67,80,0,1
55546,-100,4,2,66,80,0,1
60573,-100,4,2,67,80,0,1
60735,-100,4,2,66,80,0,1
67708,-100,4,2,66,80,0,0
109222,-100,4,2,66,80,0,1
115060,-100,4,2,67,80,0,1
115222,-100,4,2,66,80,0,1
120249,-100,4,2,67,80,0,1
120411,-100,4,2,66,80,0,1
124627,-100,4,2,66,80,0,0
124789,-100,4,2,66,80,0,1
130627,-100,4,2,67,80,0,1
130789,-100,4,2,66,80,0,1
135816,-100,4,2,67,80,0,1
135979,-100,4,2,66,80,0,1
142952,-100,4,2,66,80,0,0
153249,-133.333333333333,4,2,66,80,0,0
174087,-133.333333333333,4,2,0,80,0,0
184465,-83.3333333333333,4,2,66,80,0,1
192898,-83.3333333333333,4,2,67,80,0,1
193060,-83.3333333333333,4,2,66,80,0,1
195168,-83.3333333333333,4,2,68,80,0,1
195330,-83.3333333333333,4,2,66,80,0,1
195816,-83.3333333333333,4,2,68,80,0,1
195979,-83.3333333333333,4,2,66,80,0,1
197276,-100,4,2,66,80,0,0
197438,-100,4,2,66,80,0,1
199060,-100,4,2,68,80,0,1
199222,-100,4,2,66,80,0,1
203276,-100,4,2,67,80,0,1
203438,-100,4,2,66,80,0,1
208465,-100,4,2,67,80,0,1
208627,-100,4,2,66,80,0,1
211060,-100,4,2,67,80,0,1
211222,-100,4,2,66,80,0,1
215600,-100,4,2,66,80,0,0
220789,-100,4,2,66,80,0,1
221438,-100,4,2,67,80,0,1
221600,-100,4,2,66,80,0,1
225979,-100,4,2,66,80,0,0

[Colours]
Combo1 : 117,159,172
Combo2 : 217,146,138
Combo3 : 136,136,174
Combo4 : 220,194,182

[HitObjects]
288,283,2844,6,0,P|328:220|283:159,1,160,2|8,0:0|0:0,0:0:0:0:
216,224,3330,2,0,P|175:160|220:99,1,160,0|0,0:0|0:0,0:0:0:0:
400,104,3979,2,0,P|444:124|376:268,1,240,0|8,0:0|0:0,0:0:0:0:
296,272,4627,2,0,L|468:268,1,160,0|2,0:0|0:0,0:0:0:0:
288,192,5276,1,0,0:0:0:0:
140,192,5438,6,0,P|99:128|144:67,1,160,2|8,0:0|0:0,0:0:0:0:
232,68,5925,2,0,L|404:68,1,160,0|2,0:0|0:0,0:0:0:0:
291,68,6411,2,0,P|187:164|289:264,1,320,8|8,0:0|0:0,0:0:0:0:
456,264,7384,1,2,0:0:0:0:
388,264,7546,1,2,0:0:0:0:
320,264,7708,1,8,0:0:0:0:
84,264,8033,6,0,L|272:264,1,160,2|8,0:0|0:0,0:0:0:0:
156,240,8519,2,0,P|120:212|160:120,1,160,0|2,0:0|0:0,0:0:0:0:
440,124,9168,2,0,L|180:132,1,240,0|8,0:0|0:0,0:0:0:0:
444,152,9979,2,0,L|468:320,1,160,2|8,0:0|0:0,0:0:0:0:
160,320,10627,6,0,P|120:296|176:208,1,160,2|8,0:0|0:0,0:0:0:0:
240,208,11114,2,0,L|76:172,1,160,0|2,0:0|0:0,0:0:0:0:
180,152,11600,2,0,L|360:136,1,160,8|0,0:0|0:0,0:0:0:0:
248,84,12087,2,0,P|204:96|264:240,1,240,0|0,0:0|0:0,0:0:0:0:
300,244,12654,1,0,0:0:0:0:
339,237,12735,1,0,0:0:0:0:
374,218,12816,1,0,0:0:0:0:
401,188,12898,1,0,0:0:0:0:
417,152,12979,1,0,0:0:0:0:
420,112,13060,1,0,0:0:0:0:
176,112,13222,6,0,L|8:128,1,167.999994873047,4|8,0:1|0:0,0:0:0:0:
116,176,13708,2,0,L|304:192,2,167.999994873047,0|2|0,0:0|0:0|0:0,0:0:0:0:
224,188,14519,2,0,L|196:364,1,167.999994873047,0|8,0:0|0:0,0:0:0:0:
304,352,15006,2,0,P|372:340|432:236,2,167.999994873047,0|2|0,0:0|0:0|0:0,0:0:0:0:
460,346,15816,6,0,L|290:275,1,167.999994873047,2|8,0:0|0:0,0:0:0:0:
400,283,16303,2,0,P|436:255|384:155,1,167.999994873047,0|2,0:0|0:0,0:0:0:0:
292,279,16789,2,0,P|240:259|312:47,1,335.999989746094,8|8,0:0|0:0,0:0:0:0:
491,69,17762,2,0,L|331:137,1,167.999994873047,0|8,0:0|0:0,0:0:0:0:
415,194,18249,1,8,0:0:0:0:
188,284,18411,6,0,P|136:272|97:148,1,167.999994873047,4|8,0:1|0:0,0:0:0:0:
250,180,18898,1,0,0:0:0:0:
328,140,19060,1,2,0:0:0:0:
288,62,19222,1,2,0:0:0:0:
132,56,19384,2,0,P|76:72|156:256,1,335.999989746094,8|8,0:0|0:0,0:0:0:0:
300,192,20357,1,2,0:0:0:0:
224,188,20519,1,2,0:0:0:0:
152,184,20681,1,8,0:0:0:0:
372,124,21006,6,0,L|172:128,1,167.999994873047,2|8,0:0|0:0,0:0:0:0:
392,208,21654,2,0,L|424:296,2,83.9999974365235,0|2|8,0:0|0:0|0:0,0:0:0:0:
276,192,22141,1,0,0:0:0:0:
412,176,22303,2,0,P|452:136|400:48,1,167.999994873047,2|8,0:0|0:0,0:0:0:0:
320,52,22789,2,0,L|148:60,1,167.999994873047,2|2,0:0|0:0,0:0:0:0:
248,104,23276,2,0,L|268:204,1,83.9999974365235,2|0,0:0|0:0,0:0:0:0:
152,220,23600,1,2,0:0:0:0:
400,284,23925,5,4,0:1:0:0:
232,248,24249,2,0,L|224:156,1,83.9999974365235,4|2,0:0|0:0,0:0:0:0:
388,168,24735,2,0,P|420:132|368:24,1,167.999994873047,8|2,0:0|0:0,0:0:0:0:
284,32,25222,2,0,L|100:44,1,167.999994873047,8|2,0:0|0:0,0:0:0:0:
192,112,25708,1,2,0:0:0:0:
76,156,25871,1,8,0:0:0:0:
296,248,26195,6,0,L|480:252,1,167.999994873047,2|8,0:0|0:0,0:0:0:0:
372,224,26681,2,0,P|336:196|384:92,1,167.999994873047,0|2,0:0|0:0,0:0:0:0:
168,96,27330,2,0,L|344:96,1,167.999994873047,8|2,0:0|0:0,0:0:0:0:
260,32,27816,1,12,0:0:0:0:
384,16,27979,2,0,L|400:120,1,83.9999974365235,0|6,0:0|0:0,0:0:0:0:
232,144,28465,2,0,L|240:244,1,83.9999974365235,8|8,0:0|0:0,0:0:0:0:
356,248,28789,1,0,0:0:0:0:
48,288,29114,5,4,0:1:0:0:
216,252,29438,2,0,L|244:152,1,83.9999974365235,2|2,0:0|0:0,0:0:0:0:
92,128,29925,2,0,L|292:112,1,167.999994873047,8|2,0:0|0:0,0:0:0:0:
364,148,30411,2,0,P|400:184|352:304,1,167.999994873047,8|2,0:0|0:0,0:0:0:0:
252,300,30898,1,2,0:0:0:0:
376,316,31060,1,8,0:0:0:0:
120,320,31384,6,0,P|80:292|128:184,1,167.999994873047,8|0,0:0|0:0,0:0:0:0:
268,192,31871,2,0,P|308:152|260:56,1,167.999994873047,8|0,0:0|0:0,0:0:0:0:
116,56,32357,1,8,0:0:0:0:
272,64,32519,2,0,L|351:134,1,83.9999974365235,8|4,0:0|0:0,0:0:0:0:
191,199,32843,1,8,0:0:0:0:
282,233,33006,1,8,0:0:0:0:
40,268,33168,1,8,0:0:0:0:
56,292,33654,1,0,0:0:0:0:
380,256,33979,6,0,L|204:264,1,160,4|12,0:1|0:0,0:0:0:0:
360,228,34465,2,0,P|404:204|340:64,1,240,0|12,0:0|0:0,0:0:0:0:
88,104,35276,2,0,L|252:96,1,160,6|12,0:0|0:0,0:0:0:0:
64,60,35925,2,0,L|168:72,1,80,6|2,0:0|0:0,0:0:0:0:
280,160,36249,2,0,L|184:168,1,80,12|0,0:0|0:0,0:0:0:0:
56,240,36573,6,0,L|248:248,1,160,6|12,0:0|0:0,0:0:0:0:
308,252,37060,1,0,0:0:0:0:
452,224,37222,2,0,L|268:248,1,160,6|12,0:0|0:0,0:0:0:0:
356,168,37708,1,0,0:0:0:0:
216,164,37871,2,0,P|180:144|228:52,1,160,6|12,0:0|0:0,0:0:0:0:
384,56,38519,1,6,0:0:0:0:
204,128,38843,2,0,L|176:220,1,80,8|0,0:0|0:0,0:0:0:0:
416,280,39168,6,0,P|456:224|396:148,1,160,4|12,0:1|0:0,0:0:0:0:
264,152,39654,2,0,P|220:168|272:320,1,240,0|12,0:0|0:0,0:0:0:0:
472,312,40465,2,0,L|296:324,1,160,6|12,0:0|0:0,0:0:0:0:
136,276,41114,2,0,L|120:184,1,80,6|2,0:0|0:0,0:0:0:0:
264,196,41438,2,0,L|280:112,1,80,12|0,0:0|0:0,0:0:0:0:
136,104,41762,6,0,L|304:96,1,160,6|12,0:0|0:0,0:0:0:0:
208,36,42249,1,0,0:0:0:0:
336,52,42411,2,0,P|372:80|328:184,1,160,6|12,0:0|0:0,0:0:0:0:
248,184,42898,1,0,0:0:0:0:
84,196,43060,2,0,P|44:220|104:308,1,160,6|8,0:0|0:0,0:0:0:0:
232,312,43708,2,0,L|324:312,1,80,2|8,0:0|0:0,0:0:0:0:
80,252,44033,2,0,L|48:168,1,80,2|8,0:0|0:0,0:0:0:0:
276,176,44357,6,0,P|320:132|272:60,1,160,4|12,0:1|0:0,0:0:0:0:
148,76,44843,2,0,L|392:24,1,240,0|12,0:0|0:0,0:0:0:0:
188,144,45654,2,0,L|124:232,2,80,6|0|12,0:0|0:0|0:0,0:0:0:0:
364,144,46303,2,0,L|504:240,1,160,6|12,0:0|0:0,0:0:0:0:
272,304,46952,6,0,P|220:288|280:160,1,240,6|0,0:0|0:0,0:0:0:0:
408,164,47600,2,0,P|460:144|400:12,1,240,6|0,0:0|0:0,0:0:0:0:
252,24,48249,1,2,0:0:0:0:
368,96,48411,1,8,0:0:0:0:
248,116,48573,2,0,L|232:200,1,80,8|0,0:0|0:0,0:0:0:0:
352,208,48898,1,2,0:0:0:0:
395,227,48979,1,0,0:0:0:0:
424,265,49060,1,8,0:0:0:0:
433,311,49141,1,8,0:0:0:0:
420,357,49222,1,8,0:0:0:0:
387,391,49303,1,0,0:0:0:0:
342,407,49384,1,8,0:0:0:0:
72,368,49546,6,0,P|28:328|88:244,1,160,4|12,0:1|0:0,0:0:0:0:
192,248,50033,1,0,0:0:0:0:
72,188,50195,2,0,L|240:184,1,160,6|12,0:0|0:0,0:0:0:0:
424,104,50843,2,0,L|260:96,1,160,6|12,0:0|0:0,0:0:0:0:
104,120,51492,2,0,L|100:204,1,80,6|2,0:0|0:0,0:0:0:0:
256,208,51816,2,0,L|352:216,1,80,12|0,0:0|0:0,0:0:0:0:
172,160,52141,6,0,L|331:153,1,160,6|12,0:0|0:0,0:0:0:0:
204,252,52627,1,0,0:0:0:0:
60,224,52789,2,0,L|244:248,1,160,6|12,0:0|0:0,0:0:0:0:
156,168,53276,1,0,0:0:0:0:
296,164,53438,2,0,P|332:144|284:52,1,160,6|12,0:0|0:0,0:0:0:0:
128,56,54087,1,6,0:0:0:0:
308,128,54411,2,0,L|336:220,1,80,12|0,0:0|0:0,0:0:0:0:
96,280,54735,6,0,P|56:224|116:148,1,160,4|12,0:1|0:0,0:0:0:0:
248,152,55222,2,0,L|488:204,1,240,0|12,0:0|0:0,0:0:0:0:
199,322,56033,2,0,L|40:312,1,160,6|12,0:0|0:0,0:0:0:0:
252,264,56681,2,0,L|268:172,1,80,6|2,0:0|0:0,0:0:0:0:
124,184,57006,2,0,L|108:100,1,80,12|0,0:0|0:0,0:0:0:0:
252,92,57330,6,0,P|284:120|240:236,1,160,6|12,0:0|0:0,0:0:0:0:
164,216,57816,1,0,0:0:0:0:
56,224,57979,2,0,P|20:252|64:356,1,160,6|12,0:0|0:0,0:0:0:0:
180,352,58465,1,0,0:0:0:0:
320,352,58627,2,0,L|488:344,1,160,6|8,0:0|0:0,0:0:0:0:
280,312,59276,2,0,L|188:312,1,80,2|8,0:0|0:0,0:0:0:0:
432,252,59600,2,0,L|464:168,1,80,2|8,0:0|0:0,0:0:0:0:
236,176,59925,6,0,P|192:132|240:60,1,160,4|12,0:1|0:0,0:0:0:0:
364,76,60411,2,0,L|120:24,1,240,0|12,0:0|0:0,0:0:0:0:
324,144,61222,2,0,L|388:232,2,80,6|0|12,0:0|0:0|0:0,0:0:0:0:
148,144,61871,2,0,L|8:240,1,160,6|12,0:0|0:0,0:0:0:0:
404,304,62519,6,0,P|452:276|388:196,1,160,4|12,0:1|0:0,0:0:0:0:
260,196,63006,2,0,P|224:168|276:76,1,160,0|2,0:0|0:0,0:0:0:0:
408,80,63492,2,0,L|436:156,1,80,12|8,0:0|0:0,0:0:0:0:
180,176,63816,2,0,P|140:212|192:296,1,160,4|12,0:1|0:0,0:0:0:0:
360,296,64465,1,6,0:0:0:0:
464,256,64627,1,2,0:0:0:0:
464,152,64789,1,12,0:0:0:0:
364,88,64952,1,0,0:0:0:0:
104,196,65114,6,0,P|68:172|120:80,1,160,4|8,0:1|0:0,0:0:0:0:
240,80,65600,2,0,L|256:136,2,40,0|10|2,0:0|0:0|0:0,0:0:0:0:
100,56,65925,2,0,L|72:104,2,40,10|10|10,0:0|0:0|0:0,0:0:0:0:
240,68,66249,1,10,0:0:0:0:
472,92,66411,5,4,0:1:0:0:
208,148,67060,2,0,L|32:196,1,160,0|0,0:0|0:0,0:0:0:0:
472,280,67708,1,4,0:1:0:0:
256,192,68033,12,0,70303,0:0:0:0:
123,238,78087,6,0,P|75:210|141:148,1,160,4|0,0:1|0:0,0:0:0:0:
217,109,78573,2,0,L|229:275,1,160,0|0,0:0|0:0,0:0:0:0:
133,304,79060,2,0,L|28:294,1,80,8|0,0:0|0:0,0:0:0:0:
215,310,79384,6,2,P|274:279|275:186,1,160,0|0,0:0|0:0,0:0:0:0:
191,172,79871,2,0,L|83:180,1,80,0|2,0:0|0:0,0:0:0:0:
281,274,80195,2,0,L|445:264,1,160,2|0,0:0|0:0,0:0:0:0:
294,275,80681,6,0,P|241:222|303:209,1,160,0|0,0:0|0:0,0:0:0:0:
377,183,81168,2,0,L|464:174,2,80,0|0|0,0:0|0:0|0:0,0:0:0:0:
261,184,81654,1,8,0:0:0:0:
115,238,81979,6,0,P|72:195|123:120,1,160,2|0,0:0|0:0,0:0:0:0:
192,114,82465,1,0,0:0:0:0:
282,107,82627,2,0,L|277:23,1,80,0|0,0:0|0:0,0:0:0:0:
179,21,82952,1,8,0:0:0:0:
432,316,83276,6,0,P|418:254|320:208,1,160,2|8,0:0|0:0,0:0:0:0:
245,206,83762,2,0,P|171:168|164:85,1,160,0|0,0:0|0:0,0:0:0:0:
279,76,84249,1,0,0:0:0:0:
445,106,84411,6,0,L|450:280,1,160,0|0,0:0|0:0,0:0:0:0:
375,315,84898,2,0,L|290:323,1,80,8|0,0:0|0:0,0:0:0:0:
197,267,85222,2,0,L|291:255,1,80,0|2,0:0|0:0,0:0:0:0:
368,235,85546,2,0,L|376:145,1,80,0|0,0:0|0:0,0:0:0:0:
224,194,85871,6,0,P|177:158|236:88,1,160,2|8,0:0|0:0,0:0:0:0:
318,153,86357,2,0,L|501:141,1,160,0|2,0:0|0:0,0:0:0:0:
406,78,86843,2,0,L|223:66,1,160,8|2,0:0|0:0,0:0:0:0:
310,122,87330,1,2,0:0:0:0:
477,114,87492,2,0,L|491:212,1,80,8|0,0:0|0:0,0:0:0:0:
228,312,87816,5,2,3:0:0:0:
157,273,87979,1,2,3:0:0:0:
129,197,88141,1,2,3:0:0:0:
163,124,88303,1,2,3:0:0:0:
313,83,88465,6,0,P|359:126|302:197,1,160,4|0,0:1|0:0,0:0:0:0:
235,178,88952,1,2,0:0:0:0:
156,163,89114,1,8,0:0:0:0:
315,163,89438,1,2,0:0:0:0:
393,146,89600,1,2,0:0:0:0:
238,80,89925,1,0,0:0:0:0:
160,63,90087,1,0,0:0:0:0:
63,149,90411,2,0,P|35:240|78:323,1,160,8|2,0:0|0:0,0:0:0:0:
134,298,90898,1,0,0:0:0:0:
283,299,91060,6,0,L|461:283,1,160,2|0,0:0|0:0,0:0:0:0:
367,257,91546,1,2,0:0:0:0:
443,233,91708,1,0,0:0:0:0:
273,172,92033,1,2,0:0:0:0:
267,97,92195,1,2,0:0:0:0:
437,117,92519,1,8,0:0:0:0:
443,42,92681,1,0,0:0:0:0:
45,79,93006,2,0,L|38:184,1,80,2|8,3:2|3:2,0:0:0:0:
131,215,93330,1,8,3:2:0:0:
170,209,93411,1,8,3:2:0:0:
209,203,93492,1,8,3:2:0:0:
432,252,93654,6,0,P|478:203|416:133,1,160,4|8,0:1|0:0,0:0:0:0:
350,129,94141,2,0,L|175:107,1,160,0|2,0:0|0:0,0:0:0:0:
339,140,94627,2,0,L|356:310,1,160,8|2,0:0|0:0,0:0:0:0:
271,324,95114,1,0,0:0:0:0:
104,336,95276,2,0,L|87:250,1,80,8|0,0:0|0:0,0:0:0:0:
168,208,95600,2,0,L|277:212,1,80,2|2,0:0|0:0,0:0:0:0:
158,123,95925,2,0,L|54:114,1,80,8|0,0:0|0:0,0:0:0:0:
248,284,96249,6,0,P|321:253|348:152,1,160,2|8,0:0|0:0,0:0:0:0:
275,155,96735,1,0,0:0:0:0:
181,130,96898,2,0,L|172:228,1,80,2|2,0:0|0:0,0:0:0:0:
263,225,97222,2,0,L|254:323,1,80,8|0,0:0|0:0,0:0:0:0:
84,336,97546,6,0,P|39:291|98:224,1,160,2|8,0:0|0:0,0:0:0:0:
173,231,98033,2,0,L|264:210,1,80,2|0,0:0|0:0,0:0:0:0:
146,136,98357,2,0,L|97:128,2,40,2|0|2,0:0|0:0|0:0,0:0:0:0:
264,152,98681,1,0,0:0:0:0:
124,88,98843,5,0,0:0:0:0:
400,76,99168,2,0,P|464:148|475:209,1,160,4|2,0:1|0:0,0:0:0:0:
393,241,99654,2,0,L|310:247,1,80,2|4,0:0|0:0,0:0:0:0:
162,269,99979,6,0,L|326:286,1,160,8|2,0:0|0:0,0:0:0:0:
414,297,100465,2,0,L|423:201,1,80,8|0,0:0|0:0,0:0:0:0:
328,167,100789,2,0,L|232:157,1,80,2|2,0:0|0:0,0:0:0:0:
351,83,101114,2,0,L|443:92,1,80,8|0,0:0|0:0,0:0:0:0:
254,251,101438,6,0,P|182:217|198:134,1,160,2|8,0:0|0:0,0:0:0:0:
285,60,101925,2,0,P|341:96|270:136,1,160,0|2,0:0|0:0,0:0:0:0:
198,146,102411,1,4,0:0:0:0:
31,222,102573,6,0,P|40:149|140:113,1,160,8|2,0:0|0:0,0:0:0:0:
192,109,103060,1,12,0:0:0:0:
282,210,103222,2,0,L|121:192,1,160,0|2,0:0|0:0,0:0:0:0:
200,256,103708,1,8,0:0:0:0:
239,248,103789,1,0,0:0:0:0:
278,240,103871,1,8,0:0:0:0:
455,272,104033,5,0,0:0:0:0:
216,332,104357,2,0,P|204:280|276:216,1,160,4|2,0:1|0:0,0:0:0:0:
381,225,104843,2,0,L|291:217,1,80,2|4,0:0|0:0,0:0:0:0:
132,211,105168,6,0,L|130:307,1,80,8|0,0:0|0:0,0:0:0:0:
218,269,105492,2,0,L|217:360,1,80,2|12,0:0|0:0,0:0:0:0:
130,318,105816,2,0,L|39:322,1,80,0|2,0:0|0:0,0:0:0:0:
217,262,106141,1,8,0:0:0:0:
299,252,106303,1,8,0:0:0:0:
217,262,106465,1,8,0:0:0:0:
401,298,106627,6,0,P|454:266|385:217,1,160,4|0,0:1|0:0,0:0:0:0:
311,205,107114,2,0,L|223:195,2,80,2|8|0,0:0|0:0|0:0,0:0:0:0:
402,134,107600,2,0,L|241:152,1,160,2|4,0:0|0:0,0:0:0:0:
82,120,108087,6,0,L|78:312,1,160,8|2,0:0|0:0,0:0:0:0:
174,302,108573,2,0,L|273:291,1,80,8|2,0:0|0:0,0:0:0:0:
162,216,108898,2,0,L|102:207,2,40,8|8|8,3:2|3:2|3:2,0:0:0:0:
427,229,109222,6,0,P|479:188|411:133,1,160,4|12,0:1|0:0,0:0:0:0:
303,172,109708,2,0,L|145:153,1,160,0|2,0:0|0:0,0:0:0:0:
210,234,110195,2,0,L|311:245,1,80,12|0,0:0|0:0,0:0:0:0:
463,242,110519,6,0,P|456:166|305:80,1,240,6|0,0:0|0:0,0:0:0:0:
184,85,111168,2,0,L|361:98,1,160,6|12,0:0|0:0,0:0:0:0:
97,117,111816,6,0,L|96:285,1,160,6|12,0:0|0:0,0:0:0:0:
181,280,112303,1,0,0:0:0:0:
329,188,112465,2,0,L|330:356,1,160,6|12,0:0|0:0,0:0:0:0:
245,351,112952,1,0,0:0:0:0:
76,157,113114,6,0,L|75:325,1,160,6|12,0:0|0:0,0:0:0:0:
197,236,113762,2,0,L|311:224,1,80,6|2,0:0|0:0,0:0:0:0:
170,158,114087,2,0,L|75:149,1,80,12|0,0:0|0:0,0:0:0:0:
361,312,114411,6,0,P|422:287|402:193,1,160,4|12,0:1|0:0,0:0:0:0:
323,198,114898,2,0,P|284:158|345:69,1,160,0|2,0:0|0:0,0:0:0:0:
411,56,115384,1,12,0:0:0:0:
156,280,115708,6,0,P|98:258|174:144,1,240,6|0,0:0|0:0,0:0:0:0:
315,137,116357,2,0,L|136:119,1,160,6|12,0:0|0:0,0:0:0:0:
436,316,117006,6,0,P|425:260|320:214,1,160,6|12,0:0|0:0,0:0:0:0:
257,210,117492,1,0,0:0:0:0:
77,316,117654,2,0,P|88:260|193:214,1,160,6|12,0:0|0:0,0:0:0:0:
255,210,118141,1,0,0:0:0:0:
436,316,118303,2,0,P|425:260|320:214,1,160,6|12,0:0|0:0,0:0:0:0:
189,226,118952,2,0,L|274:218,1,80,2|8,0:0|0:0,0:0:0:0:
387,308,119276,2,0,L|400:220,1,80,2|8,0:0|0:0,0:0:0:0:
150,335,119600,6,0,P|98:294|166:251,1,160,4|12,0:1|0:0,0:0:0:0:
249,254,120087,2,0,L|435:234,1,160,0|2,0:0|0:0,0:0:0:0:
327,209,120573,1,12,0:0:0:0:
188,345,120898,6,0,L|175:172,1,160,6|12,0:0|0:0,0:0:0:0:
281,233,121384,2,0,P|353:203|262:111,1,240,0|12,0:0|0:0,0:0:0:0:
109,225,122195,6,0,P|56:182|122:143,1,160,6|12,0:0|0:0,0:0:0:0:
211,141,122681,1,0,0:0:0:0:
311,139,122843,2,0,P|364:96|298:57,1,160,6|12,0:0|0:0,0:0:0:0:
227,55,123330,1,0,0:0:0:0:
307,53,123492,1,2,0:0:0:0:
227,55,123654,1,8,0:0:0:0:
451,74,123816,1,8,0:0:0:0:
324,148,124141,5,2,0:0:0:0:
226,191,124303,2,0,L|154:193,2,40,8|8|8,0:0|0:0|0:0,0:0:0:0:
326,209,124627,1,8,0:0:0:0:
68,290,124789,6,0,L|61:115,1,160,4|12,0:1|0:0,0:0:0:0:
202,171,125276,2,0,P|252:132|189:71,1,160,0|2,0:0|0:0,0:0:0:0:
121,72,125762,1,12,0:0:0:0:
272,309,126087,6,0,P|357:288|420:149,1,240,4|0,0:0|0:0,0:0:0:0:
259,145,126735,2,0,L|92:134,1,160,6|12,0:0|0:0,0:0:0:0:
376,293,127384,6,0,P|420:254|361:174,1,160,6|12,0:0|0:0,0:0:0:0:
289,177,127871,1,0,0:0:0:0:
136,293,128033,2,0,P|92:254|151:174,1,160,6|12,0:0|0:0,0:0:0:0:
223,177,128519,1,0,0:0:0:0:
376,293,128681,2,0,P|420:254|361:174,1,160,6|12,0:0|0:0,0:0:0:0:
227,224,129330,2,0,L|224:129,1,80,6|2,0:0|0:0,0:0:0:0:
313,222,129654,2,0,L|316:127,1,80,12|0,0:0|0:0,0:0:0:0:
61,260,129979,6,0,P|65:191|171:163,1,160,4|12,0:1|0:0,0:0:0:0:
298,199,130465,2,0,L|472:182,1,160,0|2,0:0|0:0,0:0:0:0:
366,158,130952,1,12,0:0:0:0:
200,202,131276,6,0,P|143:184|103:93,1,160,6|12,0:0|0:0,0:0:0:0:
248,98,131925,1,6,0:0:0:0:
101,98,132249,1,12,0:0:0:0:
314,118,132573,6,0,P|367:147|306:199,1,160,6|12,0:0|0:0,0:0:0:0:
234,202,133060,1,0,0:0:0:0:
382,230,133222,2,0,P|435:259|374:311,1,160,6|12,0:0|0:0,0:0:0:0:
302,314,133708,1,0,0:0:0:0:
159,317,133871,2,0,L|143:157,1,160,6|8,0:0|0:0,0:0:0:0:
390,141,134519,2,0,L|304:124,1,80,2|8,0:0|0:0,0:0:0:0:
180,204,134843,2,0,L|166:123,1,80,2|8,0:0|0:0,0:0:0:0:
418,269,135168,6,0,P|478:204|476:131,1,160,4|12,0:1|0:0,0:0:0:0:
380,142,135654,2,0,L|204:117,1,160,0|2,0:0|0:0,0:0:0:0:
310,84,136141,1,12,0:0:0:0:
156,212,136465,6,0,P|102:170|172:140,1,160,6|12,0:0|0:0,0:0:0:0:
294,120,137114,1,6,0:0:0:0:
33,77,137438,1,12,0:0:0:0:
444,324,137762,6,0,L|453:153,1,160,4|12,0:1|0:0,0:0:0:0:
313,237,138249,2,0,P|259:197|338:53,1,240,0|12,0:0|0:0,0:0:0:0:
80,168,139060,6,0,P|30:127|98:75,1,160,4|12,0:1|0:0,0:0:0:0:
163,65,139546,1,0,0:0:0:0:
242,60,139708,1,6,0:0:0:0:
83,210,140033,2,0,L|72:300,1,80,12|0,0:0|0:0,0:0:0:0:
249,309,140357,2,0,P|307:275|252:200,1,160,4|12,0:1|0:0,0:0:0:0:
173,169,140843,1,0,0:0:0:0:
101,167,141006,1,2,0:0:0:0:
173,169,141168,1,10,0:0:0:0:
329,185,141330,2,0,L|411:186,1,80,10|10,0:0|0:0,0:0:0:0:
102,334,141654,6,0,L|88:88,1,240,4|0,0:1|0:0,0:0:0:0:
184,78,142303,2,0,L|25:47,1,160,2|2,0:0|0:0,0:0:0:0:
459,57,142952,5,4,0:1:0:0:
469,141,143114,1,0,0:0:0:0:
302,191,143438,1,0,0:0:0:0:
312,275,143600,1,0,0:0:0:0:
460,261,143925,1,0,0:0:0:0:
470,345,144087,1,0,0:0:0:0:
299,64,144249,5,0,0:0:0:0:
256,142,144411,1,0,0:0:0:0:
423,192,144735,1,0,0:0:0:0:
413,276,144898,1,0,0:0:0:0:
265,262,145222,1,0,0:0:0:0:
255,346,145384,1,0,0:0:0:0:
92,244,145546,5,0,0:0:0:0:
20,276,145708,1,0,0:0:0:0:
233,304,146033,1,0,0:0:0:0:
161,336,146195,1,0,0:0:0:0:
83,196,146519,1,0,0:0:0:0:
11,228,146681,1,0,0:0:0:0:
178,221,146843,5,0,0:0:0:0:
253,252,147006,1,0,0:0:0:0:
40,280,147330,1,0,0:0:0:0:
112,312,147492,1,0,0:0:0:0:
190,172,147816,1,0,0:0:0:0:
262,204,147979,1,0,0:0:0:0:
421,101,148141,5,0,0:0:0:0:
495,182,148303,1,0,0:0:0:0:
341,217,148627,1,0,0:0:0:0:
332,298,148789,1,0,0:0:0:0:
201,300,149114,1,0,0:0:0:0:
125,330,149276,1,0,0:0:0:0:
294,126,149438,5,0,0:0:0:0:
341,217,149600,1,0,0:0:0:0:
248,243,149925,1,0,0:0:0:0:
239,324,150087,1,0,0:0:0:0:
108,326,150411,1,0,0:0:0:0:
32,356,150573,1,0,0:0:0:0:
169,260,150735,5,0,0:0:0:0:
245,290,150898,1,0,0:0:0:0:
374,178,151222,1,0,0:0:0:0:
298,208,151384,1,0,0:0:0:0:
138,178,151708,1,0,0:0:0:0:
214,208,151871,1,0,0:0:0:0:
369,272,152033,5,0,0:0:0:0:
434,225,152195,1,0,0:0:0:0:
438,145,152357,1,0,0:0:0:0:
370,102,152519,1,0,0:0:0:0:
224,80,152681,2,2,P|183:131|234:211,1,160,0|0,0:0|0:0,0:0:0:0:
308,201,153168,1,0,0:0:0:0:
56,212,153330,6,0,L|48:128,1,60.0000022888184,2|2,0:0|0:0,0:0:0:0:
220,156,153816,2,0,L|224:88,1,60.0000022888184,0|8,0:0|0:0,0:0:0:0:
72,56,154303,1,0,0:0:0:0:
296,172,154627,2,0,L|148:184,2,120.000004577637,2|0|8,0:0|0:0|0:0,0:0:0:0:
104,248,155600,6,0,P|80:220|112:148,1,120.000004577637,0|2,0:0|0:0,0:0:0:0:
276,160,156249,2,0,P|296:124|268:40,1,120.000004577637,0|8,0:0|0:0,0:0:0:0:
116,56,156898,2,0,P|88:80|112:264,1,240.000009155274,2|0,0:0|0:0,0:0:0:0:
232,284,157871,1,8,0:0:0:0:
392,272,158195,1,2,0:0:0:0:
220,232,158519,2,0,P|200:196|228:116,1,120.000004577637,2|0,0:0|0:0,0:0:0:0:
308,124,159006,2,0,P|328:96|308:0,1,120.000004577637,2|0,0:0|0:0,0:0:0:0:
232,12,159492,6,0,L|96:24,1,120.000004577637,2|2,0:0|0:0,0:0:0:0:
260,108,160141,2,0,L|388:124,2,120.000004577637,2|8|2,0:0|0:0|0:0,0:0:0:0:
100,128,161114,1,2,0:0:0:0:
296,224,161438,6,0,P|328:176|292:120,1,120.000004577637,0|8,0:0|0:0,0:0:0:0:
100,128,162087,2,0,L|240:124,1,120.000004577637,0|2,0:0|0:0,0:0:0:0:
248,88,162573,1,2,0:0:0:0:
392,140,162898,2,0,L|408:208,2,60.0000022888184,2|8|0,0:0|0:0|0:0,0:0:0:0:
244,264,163546,1,0,0:0:0:0:
132,240,163708,6,0,L|128:160,1,60.0000022888184,2|2,0:0|0:0,0:0:0:0:
272,140,164195,2,0,L|332:136,2,60.0000022888184,2|8|0,0:0|0:0|0:0,0:0:0:0:
148,152,164681,1,0,0:0:0:0:
388,160,165006,6,0,L|257:184,2,120.000004577637,2|0|8,0:0|0:0|0:0,0:0:0:0:
102,254,165979,6,0,L|346:174,2,240.000009155274,2|0|2,0:0|0:0|0:0,0:0:0:0:
240,276,167600,2,0,L|248:212,1,60.0000022888184,2|2,0:0|0:0,0:0:0:0:
104,176,168087,2,0,L|44:148,2,60.0000022888184,2|8|0,0:0|0:0|0:0,0:0:0:0:
256,164,168573,1,2,0:0:0:0:
136,164,168735,6,0,P|108:132|148:60,1,120.000004577637,2|2,0:0|0:0,0:0:0:0:
228,64,169222,2,0,L|92:76,2,120.000004577637,0|8|2,0:0|0:0|0:0,0:0:0:0:
356,52,170195,1,2,0:0:0:0:
168,136,170519,6,0,P|136:168|168:248,1,120.000004577637,2|8,0:0|0:0,0:0:0:0:
348,232,171168,2,0,L|216:236,1,120.000004577637,2|2,0:0|0:0,0:0:0:0:
188,204,171654,1,2,0:0:0:0:
324,156,171979,2,0,L|384:140,1,60.0000022888184,2|8,0:0|0:0,0:0:0:0:
422,60,172303,1,0,0:0:0:0:
232,145,172627,1,2,0:0:0:0:
375,162,172789,6,0,P|425:232|366:288,1,180.000006866455,2|2,0:0|0:0,0:0:0:0:
185,220,173438,1,8,0:0:0:0:
276,304,173600,1,8,0:0:0:0:
173,308,173762,1,8,0:0:0:0:
279,218,173925,1,8,0:0:0:0:
48,132,174087,5,4,0:0:0:0:
248,304,183816,5,2,0:0:0:0:
44,224,184141,1,2,0:0:0:0:
432,224,184465,6,0,P|480:172|420:76,1,191.999994140625,4|8,0:1|0:0,0:0:0:0:
300,80,184952,1,0,0:0:0:0:
400,280,185114,1,2,0:0:0:0:
358,260,185195,1,0,0:0:0:0:
341,217,185276,1,8,0:0:0:0:
358,173,185357,1,8,0:0:0:0:
401,154,185438,1,8,0:0:0:0:
300,80,185600,1,8,0:0:0:0:
68,112,185762,6,0,P|28:144|80:264,1,191.999994140625,4|8,0:1|0:0,0:0:0:0:
244,264,186330,1,0,0:0:0:0:
300,240,186411,2,0,P|343:192|268:97,1,191.999994140625,2|2,0:0|0:0,0:0:0:0:
241,98,186816,1,2,0:0:0:0:
185,106,186898,1,2,0:0:0:0:
421,206,187060,6,0,L|453:262,2,47.9999985351563,4|0|0,0:1|0:0|0:0,0:0:0:0:
307,187,187384,1,8,0:0:0:0:
138,155,187708,1,4,0:0:0:0:
279,126,187952,1,4,0:0:0:0:
276,24,188195,1,4,0:0:0:0:
32,192,188357,5,4,0:1:0:0:
136,176,188519,1,2,0:0:0:0:
124,136,188600,1,2,0:0:0:0:
112,100,188681,1,8,0:0:0:0:
244,116,188843,1,2,0:0:0:0:
256,76,188925,1,2,0:0:0:0:
268,40,189006,1,8,0:0:0:0:
448,200,189249,1,0,0:0:0:0:
488,152,189330,2,0,L|436:60,1,95.9999970703126,8|2,0:0|0:0,0:0:0:0:
164,76,189654,6,0,P|138:118|222:210,1,191.999994140625,4|8,0:1|0:0,0:0:0:0:
328,203,190141,1,0,0:0:0:0:
448,200,190303,1,2,0:0:0:0:
484,169,190384,1,0,0:0:0:0:
496,124,190465,1,8,0:0:0:0:
479,80,190546,1,8,0:0:0:0:
440,54,190627,1,8,0:0:0:0:
316,52,190789,1,8,0:0:0:0:
88,61,190952,6,0,P|40:101|96:209,1,191.999994140625,4|8,0:1|0:0,0:0:0:0:
284,268,191519,1,2,0:0:0:0:
344,248,191600,2,0,P|364:200|292:88,1,191.999994140625,2|2,0:0|0:0,0:0:0:0:
240,88,192006,1,2,0:0:0:0:
192,100,192087,1,2,0:0:0:0:
428,216,192249,6,0,P|472:184|404:92,1,191.999994140625,4|12,0:1|0:0,0:0:0:0:
280,92,192735,2,0,P|236:116|312:304,1,287.999991210938,0|12,0:0|0:0,0:0:0:0:
472,264,193546,1,6,0:0:0:0:
400,264,193708,1,0,0:0:0:0:
328,264,193871,1,12,0:0:0:0:
88,264,194195,2,0,L|264:176,1,191.999994140625,6|12,0:0|0:0,0:0:0:0:
472,168,194843,6,0,L|184:96,1,287.999991210938,6|0,0:0|0:0,0:0:0:0:
320,88,195492,2,0,P|368:108|300:284,1,287.999991210938,6|0,0:0|0:0,0:0:0:0:
252,24,196141,5,6,0:0:0:0:
368,96,196303,1,8,0:0:0:0:
248,116,196465,1,2,0:0:0:0:
240,163,196546,1,2,0:0:0:0:
232,210,196627,1,2,0:0:0:0:
352,208,196789,1,8,0:0:0:0:
395,227,196871,1,0,0:0:0:0:
424,265,196952,1,8,0:0:0:0:
433,311,197033,1,8,0:0:0:0:
420,357,197114,1,8,0:0:0:0:
387,391,197195,1,0,0:0:0:0:
342,407,197276,1,8,0:0:0:0:
68,292,197438,6,0,L|53:106,1,160,4|12,0:1|0:0,0:0:0:0:
130,82,197925,1,0,0:0:0:0:
274,99,198087,2,0,P|326:146|265:202,1,160,6|12,0:0|0:0,0:0:0:0:
441,270,198735,6,0,L|177:242,1,240,4|0,0:0|0:0,0:0:0:0:
349,245,199384,2,0,L|509:230,1,160,6|12,0:0|0:0,0:0:0:0:
335,349,200033,6,0,P|291:297|359:231,1,160,6|12,0:0|0:0,0:0:0:0:
430,232,200519,1,0,0:0:0:0:
282,239,200681,2,0,P|238:187|306:121,1,160,6|12,0:0|0:0,0:0:0:0:
377,122,201167,1,2,0:0:0:0:
196,136,201330,6,0,L|7:113,1,160,6|12,0:0|0:0,0:0:0:0:
267,113,201979,1,6,0:0:0:0:
56,79,202303,1,8,0:0:0:0:
446,198,202627,6,0,P|492:143|445:68,1,160,4|12,0:1|0:0,0:0:0:0:
323,74,203114,2,0,P|255:92|230:252,1,240,0|12,0:0|0:0,0:0:0:0:
441,329,203925,2,0,L|447:153,1,160,6|12,0:0|0:0,0:0:0:0:
367,154,204411,1,0,0:0:0:0:
288,140,204573,1,6,0:0:0:0:
450,74,204898,1,12,0:0:0:0:
183,249,205222,6,0,P|127:209|196:182,1,160,4|12,0:0|0:0,0:0:0:0:
265,175,205708,1,0,0:0:0:0:
416,180,205871,2,0,P|472:140|403:113,1,160,6|12,0:0|0:0,0:0:0:0:
334,106,206357,1,0,0:0:0:0:
171,126,206519,6,0,L|347:143,1,160,4|8,0:0|0:0,0:0:0:0:
154,282,207168,2,0,L|87:226,1,80,2|10,0:0|0:0,0:0:0:0:
326,200,207492,2,0,L|336:107,1,80,2|10,0:0|0:0,0:0:0:0:
83,170,207816,6,0,P|34:230|85:310,1,160,4|12,0:1|0:0,0:0:0:0:
166,302,208303,2,0,P|252:247|160:213,1,240,0|12,0:0|0:0,0:0:0:0:
398,132,209114,6,0,L|407:305,1,160,6|12,0:0|0:0,0:0:0:0:
251,268,209762,1,6,0:0:0:0:
410,295,210087,1,12,0:0:0:0:
325,278,210249,1,10,0:0:0:0:
78,270,210411,6,0,P|35:234|97:154,1,160,4|12,0:1|0:0,0:0:0:0:
167,183,210898,2,0,L|350:164,1,160,0|2,0:0|0:0,0:0:0:0:
196,121,211384,1,12,0:0:0:0:
432,320,211708,6,0,P|448:268|352:212,1,160,4|12,0:1|0:0,0:0:0:0:
282,218,212195,1,0,0:0:0:0:
124,224,212357,2,0,P|80:148|116:51,1,160,6|12,0:0|0:0,0:0:0:0:
158,70,212843,1,0,0:0:0:0:
404,236,213006,6,0,P|452:224|460:112,1,160,4|12,0:1|0:0,0:0:0:0:
384,122,213492,1,0,0:0:0:0:
299,151,213654,2,0,L|213:157,1,80,6|2,0:0|0:0,0:0:0:0:
336,228,213979,2,0,L|443:218,1,80,12|0,0:0|0:0,0:0:0:0:
160,212,214303,6,0,P|130:165|223:104,1,160,4|12,0:1|0:0,0:0:0:0:
468,176,214952,2,0,L|380:159,2,80,2|8|2,0:0|0:0|0:0,0:0:0:0:
371,156,215438,1,2,0:0:0:0:
96,235,215600,6,0,P|44:192|114:141,1,160,4|0,0:1|0:0,0:0:0:0:
207,141,216087,2,0,L|295:135,1,80,2|8,0:0|0:0,0:0:0:0:
48,84,216573,1,2,0:0:0:0:
212,80,216898,5,4,0:0:0:0:
269,136,217060,1,8,0:0:0:0:
287,213,217222,1,0,0:0:0:0:
265,289,217384,1,2,0:0:0:0:
202,337,217546,1,12,0:0:0:0:
377,318,217871,1,2,0:0:0:0:
389,225,218033,1,8,0:0:0:0:
224,165,218195,6,0,L|122:170,2,80,2|8|4,0:0|0:0|0:0,0:0:0:0:
341,272,218843,2,0,L|353:174,1,80,12|8,0:0|0:0,0:0:0:0:
260,177,219168,2,0,L|272:79,1,80,6|8,0:0|0:0,0:0:0:0:
362,152,219492,6,0,P|411:123|341:61,1,160,4|4,0:0|0:0,0:0:0:0:
284,53,219979,1,2,0:0:0:0:
132,189,220141,2,0,L|121:105,1,80,12|2,0:0|0:0,0:0:0:0:
206,69,220465,1,12,0:0:0:0:
469,223,220789,6,0,L|291:207,1,160,4|12,0:1|0:0,0:0:0:0:
424,168,221276,2,0,P|471:117|403:59,1,160,0|2,0:0|0:0,0:0:0:0:
328,64,221762,1,12,0:0:0:0:
52,232,222087,6,0,P|44:160|128:116,1,160,4|12,0:1|0:0,0:0:0:0:
188,120,222573,1,0,0:0:0:0:
352,144,222735,2,0,L|448:149,1,80,6|2,0:0|0:0,0:0:0:0:
340,60,223060,2,0,L|420:69,1,80,12|0,0:0|0:0,0:0:0:0:
193,302,223384,6,0,L|179:134,1,160,4|12,0:1|0:0,0:0:0:0:
255,115,223871,1,0,0:0:0:0:
408,167,224033,1,2,0:0:0:0:
482,118,224195,1,10,0:0:0:0:
485,157,224276,1,10,0:0:0:0:
488,196,224357,1,10,0:0:0:0:
414,257,224519,1,10,0:0:0:0:
120,248,224681,6,0,P|37:204|130:140,1,240,4|0,0:1|0:0,0:0:0:0:
235,133,225330,2,0,L|132:125,1,80,0|2,0:0|0:0,0:0:0:0:
58,118,225654,1,8,0:0:0:0:
460,133,225979,1,4,0:1:0:0:
256,192,226303,12,0,228573,0:0:0:0:
