osu file format v14

[General]
AudioFilename: audio.mp3
AudioLeadIn: 0
PreviewTime: 33644
Countdown: 0
SampleSet: Soft
StackLeniency: 0.7
Mode: 2
LetterboxInBreaks: 0
WidescreenStoryboard: 1

[Editor]
Bookmarks: 78087,153320,174087,197428
DistanceSpacing: 1.1
BeatDivisor: 4
GridSize: 4
TimelineZoom: 2.799999

[Metadata]
Title:Shiwa
TitleUnicode:しわ
Artist:Hanatan
ArtistUnicode:花たん
Creator:Benita
Version:Dilectus & Benny's Salad
Source:
Tags:vocaloid nicovideo BennyBananas Xetopia JBHyperion DavidEd Dilectus Spectator
BeatmapID:1683365
BeatmapSetID:794362

[Difficulty]
HPDrainRate:5
CircleSize:3
OverallDifficulty:7
ApproachRate:7
SliderMultiplier:1.6
SliderTickRate:1

[Events]
//Background and Video events
0,0,"bg.jpg",0,0
Video,1558,"e.mp4"
//Break Periods
2,67908,77187
2,88665,92106
2,145746,152430
2,174287,182916
//Storyboard Layer 0 (Background)
//Storyboard Layer 1 (Fail)
//Storyboard Layer 2 (Pass)
//Storyboard Layer 3 (Foreground)
//Storyboard Sound Samples

[TimingPoints]
2844,324.324324324324,4,2,66,80,1,0
13222,-100,4,2,66,80,0,0
33979,-100,4,2,66,80,0,1
48898,-100,4,2,66,80,0,1
49384,-100,4,2,66,80,0,0
49546,-100,4,2,66,80,0,1
67708,-100,4,2,66,80,0,0
78087,-133.333333333333,4,2,66,80,0,0
109222,-100,4,2,66,80,0,1
124627,-100,4,2,66,80,0,0
124789,-100,4,2,66,80,0,1
142952,-100,4,2,66,80,0,0
153249,-133.333333333333,4,2,66,80,0,0
174087,-100,4,2,0,80,0,0
184465,-100,4,2,66,80,0,1
197276,-100,4,2,66,80,0,0
197438,-100,4,2,66,80,0,1
215600,-100,4,2,66,80,0,0
220789,-100,4,2,66,80,0,1
225979,-100,4,2,66,80,0,0

[Colours]
Combo1 : 117,159,172
Combo2 : 217,146,138
Combo3 : 136,136,174
Combo4 : 220,194,182

[HitObjects]
258,264,2844,6,0,P|304:207|256:152,1,160,2|8,0:0|0:0,0:0:0:0:
161,153,3330,2,0,L|31:260,1,160,0|2,0:0|0:0,0:0:0:0:
328,264,3979,2,0,L|451:162,1,160
369,161,4465,1,8,0:0:0:0:
287,161,4627,2,0,P|233:129|201:41,2,160,0|2|0,0:0|0:0|0:0,0:0:0:0:
480,160,5438,6,0,L|480:328,1,160,2|8,0:0|0:0,0:0:0:0:
392,320,5925,1,0,0:0:0:0:
216,320,6249,1,2,0:0:0:0:
128,320,6412,2,0,L|128:160,1,160,8|0,0:0|0:0,0:0:0:0:
232,160,7060,1,8,0:0:0:0:
64,160,7384,2,0,L|16:88,2,80,2|2|8,0:0|0:0|0:0,0:0:0:0:
352,160,8033,6,0,L|352:320,1,160,2|8,0:0|0:0,0:0:0:0:
440,320,8519,2,0,P|486:263|438:208,1,160,0|2,0:0|0:0,0:0:0:0:
152,200,9168,2,0,P|78:121|149:32,1,240,0|8,0:0|0:0,0:0:0:0:
328,32,9979,2,0,L|451:134,1,160,2|8,0:0|0:0,0:0:0:0:
168,152,10627,6,0,L|168:320,1,160,2|8,0:0|0:0,0:0:0:0:
264,312,11114,2,0,L|264:152,1,160,0|2,0:0|0:0,0:0:0:0:
360,152,11600,2,0,L|360:312,1,160,8|0,0:0|0:0,0:0:0:0:
264,312,12087,2,0,L|202:261,2,80,2|8|0,0:0|0:0|0:0,0:0:0:0:
448,316,12573,2,0,P|494:259|446:204,1,160,8|2,0:0|0:0,0:0:0:0:
156,208,13222,6,0,P|110:265|158:320,1,160,4|8,0:1|0:0,0:0:0:0:
248,320,13708,2,0,L|125:218,1,160,0|2,0:0|0:0,0:0:0:0:
392,152,14357,2,0,P|466:231|395:320,1,240,0|8,0:0|0:0,0:0:0:0:
304,320,15006,2,0,L|427:218,1,160,0|2,0:0|0:0,0:0:0:0:
256,216,15654,1,0,0:0:0:0:
168,216,15816,6,0,P|118:161|164:103,1,160,2|8,0:0|0:0,0:0:0:0:
256,104,16303,2,0,L|133:206,1,160,0|2,0:0|0:0,0:0:0:0:
56,256,16789,1,8,0:0:0:0:
344,256,17114,2,0,L|344:96,1,160,2|8,0:0|0:0,0:0:0:0:
248,96,17762,1,0,0:0:0:0:
440,96,18087,1,8,0:0:0:0:
152,96,18411,6,0,P|82:181|157:263,1,240,4|0,0:1|0:0,0:0:0:0:
496,264,19384,2,0,L|373:162,1,160,8|2,0:0|0:0,0:0:0:0:
200,160,20033,2,0,P|273:241|203:326,1,240,8|2,0:0|0:0,0:0:0:0:
112,328,20681,2,0,L|56:272,2,80,8|0|2,0:0|0:0|0:0,0:0:0:0:
288,328,21330,6,0,L|411:226,1,160,8|0,0:0|0:0,0:0:0:0:
232,224,21979,2,0,L|232:136,1,80,8|0,0:0|0:0,0:0:0:0:
320,144,22303,2,0,P|365:86|316:31,1,160,2|8,0:0|0:0,0:0:0:0:
224,32,22789,2,0,L|101:134,1,160,2|2,0:0|0:0,0:0:0:0:
192,136,23276,1,2,0:0:0:0:
480,136,23600,6,0,L|480:304,1,160,2|4,0:0|0:1,0:0:0:0:
304,296,24249,2,0,L|181:194,1,160,4|2,0:0|0:0,0:0:0:0:
272,192,24735,2,0,P|341:106|268:25,1,240,8|8,0:0|0:0,0:0:0:0:
88,32,25546,2,0,L|88:192,1,160,2|8,0:0|0:0,0:0:0:0:
376,192,26195,6,0,P|422:134|373:78,1,160,2|8,0:0|0:0,0:0:0:0:
288,80,26681,2,0,L|411:182,1,160,0|2,0:0|0:0,0:0:0:0:
136,192,27330,2,0,L|13:294,1,160,8|2,0:0|0:0,0:0:0:0:
192,296,27979,2,0,P|263:212|190:129,1,240,0|8,0:0|0:0,0:0:0:0:
464,120,28789,6,0,L|341:222,1,160,0|4,0:0|0:1,0:0:0:0:
168,224,29438,2,0,L|168:48,1,160,2|4,0:0|0:0,0:0:0:0:
256,64,29925,2,0,P|303:121|254:177,1,160,8|2,0:0|0:0,0:0:0:0:
168,184,30411,2,0,L|45:286,1,160,8|2,0:0|0:0,0:0:0:0:
224,288,31060,1,8,0:0:0:0:
256,192,31384,12,0,33330,0:0:0:0:
112,192,33654,5,0,0:0:0:0:
400,192,33979,2,0,P|449:246|403:304,1,160,4|12,0:1|0:0,0:0:0:0:
304,304,34465,2,0,P|231:223|301:138,1,240,0|12,0:0|0:0,0:0:0:0:
480,144,35276,6,0,L|480:312,1,160,6|12,0:0|0:0,0:0:0:0:
336,304,35925,1,6,0:0:0:0:
480,304,36249,1,12,0:0:0:0:
192,304,36573,6,0,P|119:223|189:138,1,240,6|0,0:0|0:0,0:0:0:0:
280,136,37222,2,0,L|84:298,1,240,6|0,0:0|0:0,0:0:0:0:
184,288,37871,6,0,P|230:230|181:175,1,160,6|12,0:0|0:0,0:0:0:0:
48,176,38519,1,6,0:0:0:0:
181,175,38843,1,8,0:0:0:0:
472,168,39168,6,0,L|472:8,1,160,4|12,0:1|0:0,0:0:0:0:
384,168,39654,2,0,P|312:251|385:334,1,240,0|12,0:0|0:0,0:0:0:0:
208,328,40465,6,0,L|85:226,1,160,6|12,0:0|0:0,0:0:0:0:
264,224,41114,2,0,L|387:122,1,160,6|12,0:0|0:0,0:0:0:0:
96,120,41762,6,0,P|24:203|96:285,1,240,6|0,0:0|0:0,0:0:0:0:
185,285,42411,2,0,P|257:202|185:120,1,240,6|0,0:0|0:0,0:0:0:0:
96,120,43060,6,0,L|219:222,1,160,6|8,0:0|0:0,0:0:0:0:
360,224,43708,1,2,0:0:0:0:
219,222,44033,1,2,0:0:0:0:
496,224,44357,6,0,L|496:56,1,160,4|12,0:1|0:0,0:0:0:0:
400,64,44843,2,0,P|312:120|288:256,1,240,0|12,0:0|0:0,0:0:0:0:
112,248,45654,6,0,L|112:80,1,160,6|12,0:0|0:0,0:0:0:0:
208,88,46303,1,6,0:0:0:0:
16,88,46628,1,12,0:0:0:0:
304,88,46952,6,0,P|378:168|309:252,1,240,6|0,0:0|0:0,0:0:0:0:
216,256,47600,2,0,L|409:95,1,240,6|0,0:0|0:0,0:0:0:0:
312,104,48249,6,0,P|240:188|316:267,1,240,2|0,0:0|0:0,0:0:0:0:
403,266,48898,2,0,P|474:181|398:102,1,240,2|8,0:0|0:0,0:0:0:0:
216,104,49546,6,0,L|23:265,1,240,4|0,0:1|0:0,0:0:0:0:
120,256,50195,2,0,P|192:216|224:144,1,160,6|12,0:0|0:0,0:0:0:0:
400,144,50843,6,0,L|400:312,1,160,6|12,0:0|0:0,0:0:0:0:
256,304,51492,1,6,0:0:0:0:
400,304,51817,1,12,0:0:0:0:
112,304,52141,6,0,P|37:223|108:140,1,240,6|0,0:0|0:0,0:0:0:0:
195,141,52789,2,0,P|270:222|199:305,1,240,6|0,0:0|0:0,0:0:0:0:
112,304,53438,5,6,0:0:0:0:
400,304,53762,1,12,0:0:0:0:
488,240,54087,1,6,0:0:0:0:
400,184,54411,1,12,0:0:0:0:
112,184,54735,6,0,P|63:128|110:71,1,160,4|12,0:1|0:0,0:0:0:0:
200,72,55222,2,0,P|288:128|264:248,1,240,0|12,0:0|0:0,0:0:0:0:
88,248,56033,6,0,L|32:192,2,80,6|0|12,0:0|0:0|0:0,0:0:0:0:
232,248,56681,1,6,0:0:0:0:
88,248,57006,1,12,0:0:0:0:
376,248,57330,6,0,P|448:165|374:83,1,240,6|0,0:0|0:0,0:0:0:0:
286,82,57979,2,0,L|470:235,1,240,6|0,0:0|0:0,0:0:0:0:
382,235,58627,5,6,0:0:0:0:
96,240,58952,2,0,L|233:125,2,160,8|2|2,0:0|0:0|0:0,0:0:0:0:
382,235,59925,6,0,P|427:177|378:122,1,160,4|12,0:1|0:0,0:0:0:0:
288,120,60411,2,0,P|215:201|289:283,1,240,0|12,0:0|0:0,0:0:0:0:
463,279,61222,6,0,L|323:162,1,160,6|12,0:0|0:0,0:0:0:0:
200,176,61871,1,6,0:0:0:0:
341,177,62195,1,12,0:0:0:0:
72,176,62519,6,0,P|-1:257|73:339,1,240,4|0,0:1|0:0,0:0:0:0:
160,336,63168,2,0,L|20:219,1,160,0|12,0:0|0:0,0:0:0:0:
328,224,63816,6,0,L|450:121,2,160,4|12|6,0:1|0:0|0:0,0:0:0:0:
488,224,64789,1,12,0:0:0:0:
184,224,65114,6,0,P|111:143|185:61,1,240,4|0,0:1|0:0,0:0:0:0:
272,56,65762,1,2,0:0:0:0:
96,56,66087,1,10,0:0:0:0:
384,56,66411,1,4,0:1:0:0:
192,216,67060,2,0,P|143:161|191:106,1,160,0|0,0:1|0:0,0:0:0:0:
464,104,67708,5,0,0:0:0:0:
277,327,78087,6,0,P|300:251|270:219,1,120.000004577637,4|8,0:1|0:0,0:0:0:0:
183,174,78573,2,0,L|324:174,1,120.000004577637,0|0,0:0|0:0,0:0:0:0:
130,231,79222,2,0,P|73:172|128:98,1,180.000006866455,0|8,0:0|0:0,0:0:0:0:
212,79,79871,2,0,L|36:79,2,120.000004577637,0|2|0,0:0|0:0|0:0,0:0:0:0:
380,177,80681,6,0,P|396:257|367:324,1,120.000004577637,0|8,0:0|0:0,0:0:0:0:
280,295,81168,2,0,P|248:239|271:171,1,120.000004577637
354,179,81654,2,0,L|488:176,2,120.000004577637,8|2|8,0:0|0:0|0:0,0:0:0:0:
186,158,82627,2,0,L|116:157,2,60.0000022888184,0|0|8,0:0|0:0|0:0,0:0:0:0:
469,170,83276,6,0,P|499:102|446:49,1,120.000004577637,2|8,0:0|0:0,0:0:0:0:
377,63,83762,2,0,L|248:71,1,120.000004577637,0|0,0:0|0:0,0:0:0:0:
443,190,84411,2,0,L|240:207,1,180.000006866455,0|8,0:0|0:0,0:0:0:0:
109,224,85222,2,0,L|268:208,1,120.000004577637,0|8,0:0|0:0,0:0:0:0:
483,190,85871,6,0,L|264:179,2,180.000006866455,2|0|8,0:0|0:0|0:0,0:0:0:0:
303,233,87168,5,2,0:0:0:0:
301,161,87330,1,2,0:0:0:0:
340,121,87492,1,8,0:0:0:0:
185,138,87816,1,2,3:0:0:0:
119,169,87979,1,2,3:0:0:0:
106,213,88141,1,2,3:0:0:0:
159,263,88303,1,2,3:0:0:0:
327,279,88465,5,4,0:1:0:0:
130,248,93006,6,0,P|96:200|139:137,1,120.000004577637,2|8,3:2|3:2,0:0:0:0:
208,133,93492,1,8,3:2:0:0:
362,164,93654,2,0,P|429:243|359:324,1,180.000006866455,4|0,0:1|0:0,0:0:0:0:
125,318,94627,2,0,P|67:275|149:128,1,240.000009155274,8|8,0:0|0:0,0:0:0:0:
284,141,95600,2,0,L|383:143,2,60.0000022888184,2|2|8,0:0|0:0|0:0,0:0:0:0:
45,158,96249,6,0,L|51:310,1,120.000004577637,2|8,0:0|0:0,0:0:0:0:
208,320,96898,1,2,0:0:0:0:
281,304,97060,1,2,0:0:0:0:
308,269,97222,1,8,0:0:0:0:
287,203,97384,1,0,0:0:0:0:
131,208,97546,2,0,P|87:161|129:105,1,120.000004577637,2|8,0:0|0:0,0:0:0:0:
211,113,98033,2,0,L|349:118,1,120.000004577637,0|0,0:0|0:0,0:0:0:0:
252,177,98519,2,0,L|241:242,1,60.0000022888184,0|0,0:0|0:0,0:0:0:0:
331,253,98843,1,0,0:0:0:0:
78,286,99168,5,4,0:1:0:0:
251,274,99492,2,0,L|262:207,1,60.0000022888184,2|2,0:0|0:0,0:0:0:0:
110,131,99979,2,0,L|248:120,1,120.000004577637,8|2,0:0|0:0,0:0:0:0:
337,152,100465,2,0,L|367:295,1,120.000004577637,8|2,0:0|0:0,0:0:0:0:
285,300,100952,1,2,0:0:0:0:
207,283,101114,1,8,0:0:0:0:
471,278,101438,6,0,P|497:213|460:154,1,120.000004577637,2|8,0:0|0:0,0:0:0:0:
378,160,101925,2,0,L|517:145,1,120.000004577637,0|2,0:0|0:0,0:0:0:0:
219,226,102573,2,0,P|191:162|239:102,1,120.000004577637,8|2,0:0|0:0,0:0:0:0:
280,99,103060,1,12,0:0:0:0:
138,114,103384,2,0,L|99:195,1,60.0000022888184,6|2,0:0|0:0,0:0:0:0:
216,199,103708,2,0,L|216:265,1,60.0000022888184,8|8,0:0|0:0,0:0:0:0:
92,301,104033,1,0,0:0:0:0:
365,322,104357,5,4,0:1:0:0:
245,277,104681,2,0,L|233:197,1,60.0000022888184,2|2,0:0|0:0,0:0:0:0:
416,186,105168,2,0,L|247:190,1,120.000004577637,8|2,0:0|0:0,0:0:0:0:
393,161,105654,2,0,P|421:98|377:44,1,120.000004577637,12|2,0:0|0:0,0:0:0:0:
333,32,106141,1,8,0:0:0:0:
251,39,106303,1,8,0:0:0:0:
182,99,106465,1,8,0:0:0:0:
337,192,106627,6,0,L|505:282,1,180.000006866455,4|2,0:1|0:0,0:0:0:0:
294,319,107600,2,0,L|128:235,1,180.000006866455,2|8,0:0|0:0,0:0:0:0:
252,215,108411,2,0,L|319:207,2,60.0000022888184,2|8|2,0:0|0:0|0:0,0:0:0:0:
146,186,108898,2,0,L|131:108,1,60.0000022888184,8|8,3:2|3:2,0:0:0:0:
298,122,109222,6,0,P|330:195|270:232,1,160,4|12,0:1|0:0,0:0:0:0:
196,230,109708,2,0,P|126:162|186:37,1,240,0|12,0:0|0:0,0:0:0:0:
333,105,110519,1,6,0:0:0:0:
292,128,110681,1,2,0:0:0:0:
252,151,110843,1,12,0:0:0:0:
412,229,111168,2,0,P|453:296|464:381,1,160,6|12,0:0|0:0,0:0:0:0:
178,354,111816,6,0,P|128:298|216:148,1,240,6|0,0:0|0:0,0:0:0:0:
281,245,112465,2,0,L|42:196,1,240,6|0,0:0|0:0,0:0:0:0:
70,41,113114,1,6,0:0:0:0:
360,210,113438,2,0,L|487:324,2,160,12|6|12,0:0|0:0|0:0,0:0:0:0:
119,229,114411,6,0,P|125:180|207:106,1,160,4|12,0:1|0:0,0:0:0:0:
283,100,114898,2,0,P|346:158|242:278,1,240,0|12,0:0|0:0,0:0:0:0:
124,244,115708,1,6,0:0:0:0:
170,213,115871,1,2,0:0:0:0:
211,187,116033,1,12,0:0:0:0:
498,187,116357,2,0,L|346:121,1,160,6|12,0:0|0:0,0:0:0:0:
61,162,117006,6,0,P|19:246|119:341,1,240,6|0,0:0|0:0,0:0:0:0:
198,335,117654,2,0,P|274:281|203:159,1,240,6|0,0:0|0:0,0:0:0:0:
119,165,118303,1,6,0:0:0:0:
403,210,118627,2,0,P|436:129|403:67,1,160,12|2,0:0|0:0,0:0:0:0:
324,44,119114,1,8,0:0:0:0:
241,52,119276,1,2,0:0:0:0:
324,44,119438,1,8,0:0:0:0:
164,105,119600,6,0,P|120:171|180:242,1,160,4|12,0:1|0:0,0:0:0:0:
244,239,120087,2,0,P|322:181|331:33,1,240,0|12,0:0|0:0,0:0:0:0:
149,88,120898,2,0,L|56:94,2,80,6|2|12,0:0|0:0|0:0,0:0:0:0:
274,186,121546,1,6,0:0:0:0:
109,250,121871,1,12,0:0:0:0:
394,307,122195,6,0,L|450:156,1,160,6|12,0:0|0:0,0:0:0:0:
290,150,122843,2,0,L|154:245,1,160,6|12,0:0|0:0,0:0:0:0:
440,274,123492,1,2,0:0:0:0:
345,240,123654,2,0,L|350:153,1,80,8|8,0:0|0:0,0:0:0:0:
192,166,124141,1,2,0:0:0:0:
141,122,124303,1,8,0:0:0:0:
131,68,124465,1,8,0:0:0:0:
199,26,124627,1,8,0:0:0:0:
359,122,124789,6,0,P|397:196|354:277,1,160,4|12,0:1|0:0,0:0:0:0:
290,272,125276,1,0,0:0:0:0:
210,274,125438,2,0,P|182:207|217:114,1,160,6|12,0:0|0:0,0:0:0:0:
366,130,126087,2,0,L|466:121,2,80,4|0|12,0:0|0:0|0:0,0:0:0:0:
189,208,126735,1,6,0:0:0:0:
367,278,127060,1,12,0:0:0:0:
83,305,127384,6,0,P|34:242|140:125,1,240,6|0,0:0|0:0,0:0:0:0:
214,102,128033,2,0,P|239:207|138:281,1,240,6|0,0:0|0:0,0:0:0:0:
51,326,128681,1,6,0:0:0:0:
341,295,129006,2,0,L|506:286,2,160,12|6|12,0:0|0:0|0:0,0:0:0:0:
52,299,129979,6,0,P|50:225|111:148,1,160,4|12,0:1|0:0,0:0:0:0:
258,174,130465,2,0,P|310:105|264:-37,1,240,0|12,0:0|0:0,0:0:0:0:
109,49,131276,2,0,L|166:108,2,80,6|0|12,0:0|0:0|0:0,0:0:0:0:
273,61,131925,1,6,0:0:0:0:
104,173,132249,1,12,0:0:0:0:
392,281,132573,6,0,P|454:250|427:87,1,240,6|0,0:0|0:0,0:0:0:0:
347,100,133222,2,0,P|316:187|432:274,1,240,6|0,0:0|0:0,0:0:0:0:
510,279,133871,1,6,0:0:0:0:
221,289,134195,2,0,P|192:214|229:129,1,160,8|2,0:0|0:0,0:0:0:0:
294,123,134681,1,8,0:0:0:0:
380,110,134843,1,2,0:0:0:0:
294,123,135006,1,8,0:0:0:0:
454,192,135168,6,0,P|478:272|440:338,1,160,4|12,0:1|0:0,0:0:0:0:
284,338,135654,2,0,P|228:272|294:139,1,240,0|12,0:0|0:0,0:0:0:0:
442,142,136465,2,0,L|379:199,2,80,6|0|12,0:0|0:0|0:0,0:0:0:0:
269,145,137114,1,6,0:0:0:0:
436,251,137438,1,12,0:0:0:0:
146,301,137762,6,0,L|359:160,2,240,4|0|12,0:1|0:0|0:0,0:0:0:0:
441,332,139060,2,0,L|462:163,1,160,4|12,0:1|0:0,0:0:0:0:
301,174,139708,2,0,L|204:170,2,80,6|2|12,0:0|0:0|0:0,0:0:0:0:
18,162,140357,6,0,L|26:323,1,160,4|12,0:1|0:0,0:0:0:0:
205,339,141006,1,2,0:0:0:0:
264,313,141168,1,10,0:0:0:0:
299,269,141330,1,10,0:0:0:0:
279,203,141492,1,10,0:0:0:0:
100,192,141654,1,4,0:1:0:0:
361,132,142303,5,2,0:0:0:0:
280,175,142465,2,0,L|268:259,1,80,8|2,0:0|0:0,0:0:0:0:
352,293,142789,1,2,0:0:0:0:
193,329,142952,1,4,0:1:0:0:
256,192,143276,12,0,145546,0:0:0:0:
164,252,153330,6,0,L|152:188,1,60.0000022888184,2|2,0:0|0:0,0:0:0:0:
296,192,153816,1,0,0:0:0:0:
368,192,153979,2,0,L|390:65,1,120.000004577637,8|0,0:0|0:0,0:0:0:0:
124,76,154627,2,0,P|64:132|128:164,1,180.000006866455,2|2,0:0|0:0,0:0:0:0:
200,164,155276,1,8,0:0:0:0:
464,164,155600,2,0,L|475:97,1,60.0000022888184,0|0,0:0|0:0,0:0:0:0:
380,104,155925,6,0,L|292:191,2,120.000004577637,2|0|8,0:0|0:0|0:0,0:0:0:0:
116,108,156898,2,0,P|56:252|232:272,1,360.000013732911,2|8,0:0|0:0,0:0:0:0:
356,292,158195,1,2,0:0:0:0:
92,292,158519,6,0,L|63:154,1,120.000004577637,2|0,0:0|0:0,0:0:0:0:
156,172,159006,2,0,L|166:112,1,60.0000022888184,2|8,0:0|0:0,0:0:0:0:
456,128,159492,2,0,L|323:260,1,180.000006866455,2|0,0:0|0:0,0:0:0:0:
288,316,160141,1,2,0:0:0:0:
432,316,160465,1,8,0:0:0:0:
168,316,160789,6,0,L|117:366,2,60.0000022888184,2|0|2,0:0|0:0|0:0,0:0:0:0:
312,316,161438,2,0,L|399:228,1,120.000004577637,0|8,0:0|0:0,0:0:0:0:
256,316,162087,2,0,P|136:220|256:108,1,360.000013732911,0|8,0:0|0:0,0:0:0:0:
400,108,163384,1,2,0:0:0:0:
136,108,163708,6,0,L|124:174,1,60.0000022888184,2|2,0:0|0:0,0:0:0:0:
268,168,164195,1,2,0:0:0:0:
342,181,164357,1,8,0:0:0:0:
367,251,164519,1,0,0:0:0:0:
320,310,164681,1,0,0:0:0:0:
56,312,165006,2,0,L|146:221,1,120.000004577637,2|0,0:0|0:0,0:0:0:0:
52,228,165492,2,0,L|39:157,1,60.0000022888184,0|8,0:0|0:0,0:0:0:0:
304,164,165979,6,0,P|376:136|336:32,1,180.000006866455,2|2,0:0|0:0,0:0:0:0:
292,52,166627,2,0,L|198:145,1,120.000004577637,0|8,0:0|0:0,0:0:0:0:
64,140,167276,2,0,P|48:222|124:256,1,180.000006866455,2|2,0:0|0:0,0:0:0:0:
196,256,167925,1,0,0:0:0:0:
52,256,168249,1,8,0:0:0:0:
316,256,168573,6,0,L|361:210,2,60.0000022888184,2|2|0,0:0|0:0|0:0,0:0:0:0:
172,256,169222,2,0,L|256:171,1,120.000004577637,0|8,0:0|0:0,0:0:0:0:
400,172,169871,2,0,L|316:257,1,120.000004577637,2|2,0:0|0:0,0:0:0:0:
172,260,170519,2,0,P|92:192|176:120,1,240.000009155274,2|2,0:0|0:0,0:0:0:0:
244,120,171330,1,2,0:0:0:0:
424,120,171492,6,0,L|474:170,2,60.0000022888184,2|2|0,0:0|0:0|0:0,0:0:0:0:
280,120,172141,1,8,0:0:0:0:
424,120,172465,1,2,0:0:0:0:
160,120,172789,2,0,P|80:160|88:240,1,180.000006866455,2|2,0:0|0:0,0:0:0:0:
148,224,173438,1,8,0:0:0:0:
175,168,173600,1,8,0:0:0:0:
148,111,173762,1,8,0:0:0:0:
87,97,173925,1,8,0:0:0:0:
180,96,174087,5,4,0:0:0:0:
80,296,183816,6,0,L|108:138,1,160,2|2,0:0|0:0,0:0:0:0:
396,136,184465,6,0,L|455:76,2,80,4|0|8,0:1|0:0|0:0,0:0:0:0:
220,140,185114,1,2,0:0:0:0:
157,166,185276,1,8,0:0:0:0:
131,228,185438,1,8,0:0:0:0:
157,291,185600,1,8,0:0:0:0:
260,292,185762,2,0,L|373:178,1,160,4|8,0:1|0:0,0:0:0:0:
196,180,186411,2,0,L|83:66,1,160,2|2,0:0|0:0,0:0:0:0:
372,64,187060,6,0,L|439:131,2,80,4|0|8,0:1|0:0|0:0,0:0:0:0:
228,64,187708,2,0,L|356:64,2,120,4|4|4,0:0|0:0|0:0,0:0:0:0:
156,64,188357,1,4,0:1:0:0:
332,152,188681,1,8,0:0:0:0:
156,236,189006,2,0,L|40:120,1,160,8|8,0:0|0:0,0:0:0:0:
320,120,189654,6,0,L|433:233,1,160,4|8,0:1|0:0,0:0:0:0:
256,232,190303,1,2,0:0:0:0:
193,206,190465,1,8,0:0:0:0:
167,144,190627,1,8,0:0:0:0:
193,81,190789,1,8,0:0:0:0:
296,80,190951,6,0,L|409:194,1,160,4|8,0:1|0:0,0:0:0:0:
216,196,191600,2,0,L|208:152,7,40,2|0|2|2|2|2|2|2,0:0|0:0|0:0|0:0|0:0|0:0|0:0|0:0,0:0:0:0:
180,196,192249,6,0,L|58:317,1,160,4|12,0:1|0:0,0:0:0:0:
140,308,192735,2,0,P|211:224|138:141,1,240,0|12,0:0|0:0,0:0:0:0:
284,140,193546,2,0,L|397:252,1,160,6|12,0:0|0:0,0:0:0:0:
252,256,194195,2,0,L|139:144,1,160,6|12,0:0|0:0,0:0:0:0:
428,140,194843,6,0,P|472:240|356:280,1,240,6|0,0:0|0:0,0:0:0:0:
280,288,195492,2,0,P|236:188|352:148,1,240,6|0,0:0|0:0,0:0:0:0:
428,140,196141,6,0,L|362:74,3,80,6|0|2|2,0:0|0:0|0:0|0:0,0:0:0:0:
276,84,196789,1,8,0:0:0:0:
250,147,196952,1,8,0:0:0:0:
276,209,197114,1,8,0:0:0:0:
339,235,197276,1,8,0:0:0:0:
496,225,197438,6,0,L|335:159,1,160,4|12,0:1|0:0,0:0:0:0:
262,132,197925,1,0,0:0:0:0:
347,164,198087,2,0,P|384:228|332:281,1,160,6|12,0:0|0:0,0:0:0:0:
116,101,198736,2,0,L|37:94,2,80,4|0|12,0:0|0:0|0:0,0:0:0:0:
277,200,199384,1,6,0:0:0:0:
116,270,199709,1,12,0:0:0:0:
407,295,200033,6,0,P|480:247|418:121,1,240,6|0,0:0|0:0,0:0:0:0:
332,118,200682,2,0,P|225:166|213:287,1,240,6|0,0:0|0:0,0:0:0:0:
305,295,201330,2,0,L|460:219,1,160,6|12,0:0|0:0,0:0:0:0:
160,265,201979,2,0,P|121:199|123:114,1,160,6|12,0:0|0:0,0:0:0:0:
411,303,202628,6,0,P|418:226|346:172,1,160,4|12,0:1|0:0,0:0:0:0:
281,173,203114,2,0,P|202:105|248:-37,1,240,0|12,0:0|0:0,0:0:0:0:
403,49,203925,2,0,L|474:112,2,80,6|0|12,0:0|0:0|0:0,0:0:0:0:
239,61,204574,1,6,0:0:0:0:
408,173,204898,1,12,0:0:0:0:
123,279,205222,6,0,P|87:242|91:48,1,240,6|0,0:0|0:0,0:0:0:0:
165,100,205871,2,0,P|216:177|133:284,1,240,6|0,0:0|0:0,0:0:0:0:
52,283,206520,1,6,0:0:0:0:
339,279,206844,2,0,P|368:204|331:119,1,160,8|2,0:0|0:0,0:0:0:0:
266,113,207330,1,8,0:0:0:0:
180,100,207492,1,2,0:0:0:0:
266,113,207655,1,8,0:0:0:0:
106,182,207817,6,0,P|82:262|120:328,1,160,4|12,0:1|0:0,0:0:0:0:
276,328,208303,2,0,P|332:262|266:129,1,240,0|12,0:0|0:0,0:0:0:0:
88,134,209114,2,0,L|33:224,2,80,6|0|12,0:0|0:0|0:0,0:0:0:0:
241,167,209763,1,6,0:0:0:0:
29,274,210087,1,12,0:0:0:0:
316,305,210411,6,0,L|519:160,2,240,4|0|12,0:1|0:0|0:0,0:0:0:0:
26,313,211709,2,0,L|50:146,1,160,4|12,0:1|0:0,0:0:0:0:
211,174,212357,2,0,L|308:170,2,80,6|2|12,0:0|0:0|0:0,0:0:0:0:
503,161,213006,6,0,L|475:326,1,160,4|12,0:1|0:0,0:0:0:0:
307,339,213655,1,2,0:0:0:0:
248,313,213817,1,10,0:0:0:0:
213,269,213979,1,10,0:0:0:0:
233,203,214141,1,10,0:0:0:0:
393,204,214303,2,0,P|432:156|373:53,1,160,4|8,0:1|0:0,0:0:0:0:
212,133,214952,5,2,0:0:0:0:
293,176,215114,2,0,L|305:260,1,80,8|2,0:0|0:0,0:0:0:0:
221,294,215438,1,2,0:0:0:0:
380,330,215601,1,4,0:1:0:0:
256,192,215925,12,0,218195,0:0:0:0:
180,256,219816,6,0,L|371:248,2,160,2|8|8,0:0|0:0|0:0,0:0:0:0:
467,297,220789,6,0,L|254:156,2,240,4|0|12,0:1|0:0|0:0,0:0:0:0:
177,314,222087,2,0,P|145:247|195:165,1,160,4|12,0:1|0:0,0:0:0:0:
339,161,222735,2,0,L|259:164,2,80,6|2|12,0:0|0:0|0:0,0:0:0:0:
51,170,223384,6,0,L|75:336,1,160,4|12,0:1|0:0,0:0:0:0:
241,324,224033,1,2,0:0:0:0:
293,283,224195,1,10,0:0:0:0:
287,223,224357,1,10,0:0:0:0:
226,192,224519,1,10,0:0:0:0:
67,210,224681,1,4,0:1:0:0:
223,182,225330,5,4,0:0:0:0:
223,126,225492,1,2,0:0:0:0:
144,113,225654,1,8,0:0:0:0:
430,79,225979,1,4,0:1:0:0:
256,192,226303,12,0,228573,0:0:0:0:
