osu file format v14

[General]
AudioFilename: audio.mp3
AudioLeadIn: 0
PreviewTime: 67512
Countdown: 0
SampleSet: Soft
StackLeniency: 0.7
Mode: 0
LetterboxInBreaks: 0
WidescreenStoryboard: 1

[Editor]
Bookmarks: 15836,30589,97051,111820,126589,218897,233666,244743,263204,307512
DistanceSpacing: 0.7
BeatDivisor: 6
GridSize: 4
TimelineZoom: 2.4

[Metadata]
Title:Sekai wa Koi ni Ochiteiru
TitleUnicode:世界は恋に落ちている
Artist:Hanatan
ArtistUnicode:花たん
Creator:Cellina
Version:Falling in Love
Source:アオハライド
Tags:chico with honeyworks ao-haru-ride anime opening full version
BeatmapID:1064378
BeatmapSetID:500115

[Difficulty]
HPDrainRate:5
CircleSize:4
OverallDifficulty:7.2
ApproachRate:8.2
SliderMultiplier:1.7
SliderTickRate:2

[Events]
//Background and Video events
0,0,"xxxxx.jpg",0,0
//Break Periods
2,216081,217700
//Storyboard Layer 0 (Background)
//Storyboard Layer 1 (Fail)
//Storyboard Layer 2 (Pass)
//Storyboard Layer 3 (Foreground)
//Storyboard Sound Samples

[TimingPoints]
1036,461.538461538462,4,2,1,50,1,0
1036,-133.333333333333,4,2,1,50,0,0
15805,-100,4,3,30,90,0,0
22728,-76.9230769230769,4,3,30,90,0,0
23189,-100,4,3,20,90,0,0
30574,-100,4,3,10,80,0,0
41882,-100,4,1,12,80,0,0
41997,-100,4,3,10,80,0,0
42112,-100,4,3,11,80,0,0
42343,-100,4,3,10,80,0,0
45574,-100,4,1,12,80,0,0
45805,-100,4,3,10,80,0,0
46266,-100,4,2,11,80,0,0
46497,-100,4,3,10,80,0,0
47420,-100,4,1,12,80,0,0
47651,-100,4,3,10,80,0,0
48112,-100,4,2,11,80,0,0
48343,-100,4,3,10,80,0,0
49036,-100,4,3,30,80,0,0
52728,-100,4,3,10,80,0,0
55728,-100,4,1,12,80,0,0
55959,-100,4,3,10,80,0,0
60343,-100,4,1,12,80,0,0
60574,-100,4,3,10,80,0,0
61036,-100,4,1,11,80,0,0
61266,-100,4,3,10,80,0,0
63805,-117.647058823529,4,2,1,80,0,0
65766,-117.647058823529,4,2,1,20,0,0
66112,-117.647058823529,4,2,1,40,0,0
66574,-117.647058823529,4,2,1,60,0,0
67036,-117.647058823529,4,3,10,80,0,0
67497,-100,4,3,20,90,0,1
72343,-100,4,1,12,90,0,1
72459,-100,4,3,20,90,0,1
73497,-100,4,3,21,90,0,1
73728,-100,4,3,20,90,0,1
74651,-100,4,3,10,90,0,1
74882,-100,4,3,20,90,0,1
80420,-100,4,3,25,90,0,0
82266,-100,4,3,20,90,0,1
82497,-100,4,3,40,90,0,1
85266,-100,4,1,12,90,0,1
85497,-100,4,3,40,90,0,1
89651,-100,4,3,20,90,0,1
89882,-100,4,3,40,90,0,1
92651,-100,4,1,12,90,0,1
92882,-100,4,3,40,90,0,1
94959,-100,4,3,10,90,0,1
95189,-100,4,2,1,90,0,1
95305,-100,4,2,1,20,0,1
95651,-100,4,2,1,40,0,1
96112,-100,4,2,1,60,0,1
96574,-100,4,3,30,90,0,1
97036,-100,4,3,30,90,0,0
104420,-100,4,3,20,90,0,0
110420,-100,4,3,21,90,0,0
110651,-100,4,3,20,90,0,0
111805,-100,4,3,10,80,0,0
117343,-100,4,2,1,80,0,0
119189,-100,4,3,10,80,0,0
126805,-100,4,1,12,80,0,0
127036,-100,4,3,10,80,0,0
127497,-100,4,2,11,80,0,0
127728,-100,4,3,10,80,0,0
128651,-100,4,1,12,80,0,0
128882,-100,4,3,10,80,0,0
129343,-100,4,2,11,80,0,0
129574,-100,4,3,10,80,0,0
130266,-100,4,3,30,80,0,0
133959,-100,4,3,10,80,0,0
136959,-100,4,1,12,80,0,0
137189,-100,4,3,10,80,0,0
141574,-100,4,1,12,80,0,0
141805,-100,4,3,10,80,0,0
142266,-100,4,1,11,80,0,0
142497,-100,4,3,10,80,0,0
145036,-111.111111111111,4,2,1,80,0,0
146882,-100,4,3,20,90,0,1
151728,-100,4,1,12,90,0,1
151843,-100,4,3,20,90,0,1
152882,-100,4,3,21,90,0,1
153112,-100,4,3,20,90,0,1
154036,-100,4,3,10,90,0,1
154266,-100,4,3,20,90,0,1
159805,-100,4,3,20,90,0,0
160266,-100,4,3,25,90,0,0
161651,-100,4,3,20,90,0,1
161882,-100,4,3,40,90,0,1
164651,-100,4,1,12,90,0,1
164882,-100,4,3,40,90,0,1
169036,-100,4,3,20,90,0,1
169266,-100,4,3,40,90,0,1
172036,-100,4,1,12,90,0,1
172266,-100,4,3,40,90,0,1
172959,-100,4,1,12,90,0,1
173074,-100,4,3,40,90,0,1
173651,-100,4,3,20,90,0,1
174574,-133.333333333333,4,2,2,50,0,0
189343,-133.333333333333,4,2,1,50,0,0
218420,-100,4,3,20,45,0,0
218882,-100,4,3,30,90,0,1
220036,-100,4,1,12,90,0,1
220151,-100,4,3,30,90,0,1
220266,-100,4,3,31,90,0,1
220497,-100,4,3,30,90,0,1
221189,-100,4,3,31,90,0,1
221420,-100,4,3,30,90,0,1
224882,-100,4,3,31,90,0,1
225112,-100,4,3,30,90,0,1
225343,-100,4,3,10,90,0,1
226382,-100,4,3,40,90,0,1
227420,-100,4,1,12,90,0,1
227536,-100,4,3,40,90,0,1
227651,-100,4,3,41,90,0,1
227882,-100,4,3,40,90,0,1
229266,-100,4,1,12,90,0,1
229382,-100,4,3,40,90,0,1
229497,-100,4,3,41,90,0,1
229728,-100,4,3,40,90,0,1
230189,-100,4,1,12,90,0,1
230305,-100,4,3,40,90,0,1
230997,-100,4,3,20,90,0,1
231343,-100,4,3,10,90,0,1
231805,-100,4,3,25,90,0,1
233189,-100,4,3,10,90,0,1
233651,-100,4,3,10,75,0,0
236651,-100,4,2,11,75,0,0
236882,-100,4,3,10,75,0,0
239420,-100,4,2,11,75,0,0
239651,-100,4,3,10,75,0,0
241266,-100,4,2,11,75,0,0
241497,-100,4,3,10,75,0,0
241959,-100,4,1,11,75,0,0
242189,-100,4,3,10,75,0,0
244728,-111.111111111111,4,2,1,50,0,0
246689,-111.111111111111,4,2,1,5,0,0
248420,-111.111111111111,4,2,1,75,0,0
248766,-111.111111111111,4,3,10,75,0,0
255343,-90.9090909090909,4,3,10,75,0,0
255805,-111.111111111111,4,2,1,75,0,0
256151,-111.111111111111,4,3,10,75,0,0
263189,-100,4,3,20,100,0,1
263420,-100,4,2,21,100,0,1
263536,-100,4,3,20,100,0,1
265266,-100,4,2,21,100,0,1
265382,-100,4,3,20,100,0,1
267112,-100,4,2,21,100,0,1
267228,-100,4,3,20,100,0,1
268036,-100,4,1,21,100,0,1
268151,-100,4,3,20,100,0,1
268959,-100,4,2,21,100,0,1
269074,-100,4,3,20,100,0,1
269189,-100,4,3,21,100,0,1
269420,-100,4,3,20,100,0,1
270805,-100,4,2,21,100,0,1
270920,-100,4,3,20,100,0,1
272651,-100,4,2,21,100,0,1
272766,-100,4,3,20,100,0,1
274036,-100,4,2,21,100,0,1
274151,-100,4,3,20,100,0,1
274497,-100,4,2,21,100,0,1
274612,-100,4,3,20,100,0,1
276112,-100,4,3,25,100,0,0
277959,-100,4,3,20,100,0,1
278189,-100,4,3,40,100,0,1
280959,-100,4,1,12,100,0,1
281189,-100,4,3,40,100,0,1
283728,-100,4,1,12,100,0,1
283843,-100,4,3,40,100,0,1
283959,-100,4,3,41,100,0,1
284189,-100,4,3,40,100,0,1
284651,-100,4,1,12,100,0,1
284766,-100,4,3,40,100,0,1
284882,-100,4,3,41,100,0,1
285112,-100,4,3,40,100,0,1
285343,-100,4,3,20,100,0,1
285574,-100,4,3,40,100,0,1
289036,-100,4,3,20,100,0,1
289266,-100,4,3,40,100,0,1
290651,-100,4,3,10,100,0,1
290882,-100,4,2,1,100,0,0
290997,-100,4,2,1,5,0,0
291343,-100,4,2,1,20,0,0
291574,-100,4,2,1,40,0,0
291805,-100,4,2,1,60,0,0
292036,-100,4,2,1,80,0,0
292266,-100,4,3,20,100,0,0
292728,-100,4,3,30,100,0,0
300112,-100,4,3,20,100,0,0
306689,-100,4,3,20,40,0,0
306805,-100,4,3,20,60,0,0
306920,-100,4,3,20,80,0,0
307036,-100,4,3,20,100,0,0
307382,-100,4,3,25,100,0,0

[Colours]
Combo1 : 255,192,0
Combo2 : 0,255,255
Combo3 : 209,103,63
Combo4 : 255,0,128

[HitObjects]
51,238,1036,6,0,L|165:231,1,95.6250036478044,4|0,0:0|0:0,0:0:0:0:
312,312,1728,1,0,0:0:0:0:
249,362,1959,2,0,L|138:357,1,95.6250036478044,2|0,0:0|0:0,0:0:0:0:
332,201,2651,1,0,0:0:0:0:
387,260,2882,6,0,P|403:322|381:373,1,95.6250036478044,8|0,0:0|0:0,0:0:0:0:
193,276,3574,1,0,0:0:0:0:
237,209,3805,2,0,L|332:202,1,95.6250036478044,2|0,0:0|0:0,0:0:0:0:
157,201,4497,1,0,0:0:0:0:
84,168,4728,6,0,P|128:128|186:126,1,95.6250036478044,4|0,0:0|0:0,0:0:0:0:
193,276,5420,1,0,0:0:0:0:
138,333,5651,2,0,L|14:320,1,95.6250036478044,2|0,0:0|0:0,0:0:0:0:
217,197,6343,1,0,0:0:0:0:
272,254,6574,6,0,L|392:242,1,95.6250036478044,8|0,0:0|0:0,0:0:0:0:
217,197,7266,1,0,0:0:0:0:
193,272,7497,2,0,L|199:346,2,63.7500024318696,2|0|0,0:0|0:0|0:0,0:0:0:0:
429,287,8420,6,0,P|440:246|405:180,1,95.6250036478044,4|0,0:0|0:0,0:0:0:0:
294,333,9112,1,0,0:0:0:0:
357,380,9343,2,0,L|463:371,1,95.6250036478044,2|0,0:0|0:0,0:0:0:0:
208,286,10036,1,0,0:0:0:0:
271,239,10267,6,0,L|389:248,1,95.6250036478044,8|0,0:0|0:0,0:0:0:0:
145,371,10959,1,0,0:0:0:0:
92,313,11189,2,0,L|106:181,1,127.500004863739,2|0,0:0|0:0,0:0:0:0:
61,126,12112,6,0,B|118:94|167:141|167:141|160:104|176:64|208:48|256:52|288:76|296:120|284:144|252:160|252:204,1,382.500014591218,4|0,0:0|0:0,0:0:0:0:
311,316,13959,5,8,0:0:0:0:
306,292,14420,1,0,0:0:0:0:
301,268,14882,1,2,0:0:0:0:
296,244,15343,1,0,0:0:0:0:
50,240,15805,6,0,P|90:238|150:234,1,85,4|0,1:0|0:0,0:0:0:0:
298,144,16266,2,0,P|255:141|213:139,1,85,6|8,0:0|0:0,0:0:0:0:
322,233,16728,1,2,0:0:0:0:
322,233,16959,1,8,0:0:0:0:
354,67,17189,2,0,P|311:64|269:62,1,85,6|0,0:0|0:0,0:0:0:0:
115,62,17651,5,10,0:0:0:0:
115,62,17882,2,0,P|114:114|121:161,1,85,0|6,0:0|0:0,0:0:0:0:
210,273,18343,1,8,0:0:0:0:
181,247,18459,1,4,0:0:0:0:
143,242,18574,1,2,0:0:0:0:
105,250,18689,1,4,0:0:0:0:
73,272,18805,2,0,P|81:333|86:381,1,85,8|6,0:0|0:0,0:0:0:0:
12,210,19266,1,8,0:0:0:0:
181,247,19497,6,0,P|242:239|290:234,1,85,10|0,0:0|0:0,0:0:0:0:
400,226,19959,1,6,0:0:0:0:
349,366,20189,1,8,0:0:0:0:
349,366,20305,1,0,0:0:0:0:
349,366,20420,2,0,P|336:305|332:252,1,85,2|8,0:0|0:0,0:0:0:0:
280,152,20882,2,0,P|274:194|264:235,1,85,6|0,0:0|0:0,0:0:0:0:
221,88,21343,6,0,P|293:68|348:101,1,127.5,10|8,0:0|0:0,0:0:0:0:
354,108,21805,1,6,0:0:0:0:
264,235,22036,1,8,0:0:0:0:
238,231,22151,1,4,0:0:0:0:
212,227,22266,2,0,L|208:172,1,42.5,2|4,0:0|0:0,0:0:0:0:
196,72,22497,1,8,0:0:0:0:
69,222,22728,6,0,P|129:209|69:183,1,165.749992412568,2|0,2:1|0:0,0:0:0:0:
43,300,23189,6,0,P|85:313|153:295,1,85,8|0,1:0|0:0,0:0:0:0:
238,231,23651,1,6,0:0:0:0:
281,348,23881,1,8,0:0:0:0:
281,348,23997,1,0,0:0:0:0:
281,348,24112,2,0,P|230:348|167:348,1,85,2|8,0:0|0:0,0:0:0:0:
320,184,24574,2,0,P|334:223|322:270,1,85,6|0,0:0|0:0,0:0:0:0:
231,123,25036,5,10,0:0:0:0:
231,123,25266,2,0,P|259:95|324:85,1,85,0|6,0:0|0:0,0:0:0:0:
199,213,25728,1,8,0:0:0:0:
166,192,25843,1,4,0:0:0:0:
127,192,25959,1,2,0:0:0:0:
93,210,26074,1,4,0:0:0:0:
72,241,26189,2,0,P|69:198|63:156,1,85,8|6,0:0|0:0,0:0:0:0:
5,291,26651,1,8,0:0:0:0:
137,357,26882,6,0,P|139:314|145:272,1,85,10|0,0:0|0:0,0:0:0:0:
177,139,27343,1,6,0:0:0:0:
328,275,27574,1,8,0:0:0:0:
328,275,27689,1,0,0:0:0:0:
328,275,27805,2,0,P|287:294|214:273,1,85,2|8,0:0|0:0,0:0:0:0:
266,127,28266,2,0,P|271:169|274:211,1,85,6|0,0:0|0:0,0:0:0:0:
184,79,28728,6,0,P|268:31|330:53,1,127.5,10|0,0:0|0:0,0:0:0:0:
323,51,29189,1,8,2:1:0:0:
385,194,29420,2,0,L|380:236,2,28.3333333333333
348,172,29651,5,2,0:2:0:0:
305,174,29766,1,0,0:0:0:0:
268,196,29882,1,0,0:0:0:0:
250,234,29997,1,4,0:0:0:0:
225,268,30112,1,4,0:0:0:0:
182,274,30228,1,8,0:2:0:0:
144,253,30343,1,4,0:2:0:0:
134,211,30459,1,0,0:0:0:0:
153,173,30574,6,0,P|114:182|51:193,1,85,4|8,1:0|0:0,0:0:0:0:
69,190,30920,1,2,0:0:0:0:
188,358,31151,2,0,P|183:315|181:273,1,85
181,273,31497,1,2,0:0:0:0:
273,381,31728,1,8,0:0:0:0:
105,362,31959,1,6,0:0:0:0:
278,271,32189,1,0,0:0:0:0:
104,361,32420,6,0,P|101:319|99:277,1,85,10|8,0:0|0:0,0:0:0:0:
75,304,32766,2,0,P|80:229|77:162,1,127.5,2|0,0:0|0:0,0:0:0:0:
203,285,33343,1,2,0:0:0:0:
78,176,33574,1,8,0:0:0:0:
210,111,33805,2,0,P|213:157|215:211,1,85,6|0,0:0|0:0,0:0:0:0:
147,45,34266,6,0,P|182:24|259:36,1,85,10|8,0:0|0:0,0:0:0:0:
304,136,34728,2,0,P|306:207|311:273,1,127.5,6|0,0:0|0:0,0:0:0:0:
310,263,35189,1,2,0:0:0:0:
393,90,35420,1,8,0:0:0:0:
210,111,35651,1,6,0:0:0:0:
387,185,35882,1,0,0:0:0:0:
210,111,36112,6,0,P|157:127|94:139,1,85,10|8,0:0|0:0,0:0:0:0:
174,307,36574,2,0,P|186:253|207:192,1,85,6|0,0:0|0:0,0:0:0:0:
83,343,37036,1,2,0:0:0:0:
257,330,37266,1,8,2:3:0:0:
83,343,37497,1,6,0:0:0:0:
336,362,37959,6,0,P|338:301|314:269,1,85,10|8,0:0|0:0,0:0:0:0:
300,267,38305,1,2,0:0:0:0:
249,187,38536,2,0,P|295:184|345:174,1,85
362,172,38882,1,2,0:0:0:0:
206,108,39112,1,8,0:0:0:0:
210,258,39343,1,6,0:0:0:0:
206,108,39574,1,0,0:0:0:0:
90,259,39805,6,0,P|142:250|197:237,1,85,10|8,0:0|0:0,0:0:0:0:
210,258,40151,2,0,P|206:312|213:386,1,127.5,2|0,0:0|0:0,0:0:0:0:
285,214,40728,2,0,P|253:182|199:172,1,85,2|8,0:0|2:3,0:0:0:0:
90,259,41189,1,6,0:0:0:0:
293,323,41420,1,0,0:0:0:0:
293,323,41651,6,0,P|286:262|288:189,2,127.5,10|0|0,0:0|0:0|0:0,0:0:0:0:
361,148,42805,1,8,0:0:0:0:
337,123,42920,1,0,0:0:0:0:
305,109,43036,1,6,0:0:0:0:
271,110,43151,1,0,0:0:0:0:
239,122,43266,1,0,0:0:0:0:
218,149,43382,1,0,0:0:0:0:
206,180,43497,6,0,P|160:177|98:174,1,85,10|8,0:0|0:0,0:0:0:0:
293,323,43959,2,0,P|339:320|401:317,1,85,6|0,0:0|0:0,0:0:0:0:
202,295,44420,1,2,0:0:0:0:
197,327,44536,1,4,0:0:0:0:
209,359,44651,1,8,2:3:0:0:
342,207,44882,2,0,P|339:161|336:99,1,85,6|0,0:0|0:0,0:0:0:0:
401,279,45343,6,0,P|330:298|262:238,1,170,4|6,1:0|0:0,0:0:0:0:
165,133,46036,2,0,P|179:230|181:321,1,170,0|8,0:0|0:0,0:0:0:0:
80,150,46728,2,0,P|90:88|145:48,1,127.5,6|0,0:0|0:0,0:0:0:0:
176,50,47189,6,0,P|258:42|374:26,1,170,10|6,0:0|0:0,0:0:0:0:
252,177,47882,2,0,P|182:219|180:301,1,170,0|8,0:0|0:0,0:0:0:0:
332,218,48574,2,0,P|340:148|294:97,1,127.5,4|0,2:3|0:0,0:0:0:0:
345,111,49036,6,0,P|394:106|457:99,1,85,2|10,1:0|0:0,0:0:0:0:
252,177,49497,2,0,P|209:172|167:168,1,85,4|2,0:0|0:0,0:0:0:0:
319,251,49959,1,0,0:0:0:0:
319,251,50189,1,10,0:0:0:0:
231,96,50420,2,0,P|188:91|146:87,1,85,4|2,0:0|0:0,0:0:0:0:
149,247,50882,6,0,P|196:248|243:215,1,85,8|10,0:0|0:0,0:0:0:0:
57,202,51343,2,0,P|68:253|80:321,1,85,4|2,0:0|0:0,0:0:0:0:
0,140,51805,1,0,0:0:0:0:
0,140,52036,1,10,0:0:0:0:
167,168,52266,1,4,2:3:0:0:
67,296,52497,1,4,0:0:0:0:
67,296,52612,1,4,0:0:0:0:
67,296,52728,6,0,P|114:291|190:282,1,85,4|8,1:0|0:0,0:0:0:0:
287,218,53189,2,0,P|312:268|301:317,1,85,6|0,0:0|0:0,0:0:0:0:
167,168,53651,2,0,P|162:125|157:83,1,85,10|8,0:0|0:0,0:0:0:0:
233,280,54112,2,0,P|228:322|223:364,1,85,6|0,0:0|0:0,0:0:0:0:
379,248,54574,6,0,P|374:205|369:163,1,85,10|8,0:0|0:0,0:0:0:0:
426,82,55036,1,6,0:0:0:0:
426,82,55266,1,0,0:0:0:0:
458,248,55497,2,0,P|420:327|335:317,1,170,10|4,0:0|2:3,0:0:0:0:
369,163,56420,6,0,P|374:205|379:248,1,85,10|8,0:0|0:0,0:0:0:0:
312,95,56882,2,0,P|353:74|418:95,1,85,6|0,0:0|0:0,0:0:0:0:
283,188,57343,1,10,0:0:0:0:
283,188,57574,1,8,0:0:0:0:
243,29,57805,1,6,0:0:0:0:
243,29,58036,1,0,0:0:0:0:
114,208,58266,6,0,L|215:199,1,85,10|8,0:0|0:0,0:0:0:0:
312,95,58728,1,6,0:0:0:0:
349,340,59189,5,2,0:0:0:0:
320,209,59420,1,8,2:3:0:0:
447,249,59651,1,6,0:0:0:0:
349,340,60112,6,0,B|304:320|264:344|264:344|224:372|176:344,1,170,10|6,0:0|0:0,0:0:0:0:
84,220,60805,2,0,P|170:218|222:294,1,170,0|8,0:0|2:3,0:0:0:0:
128,302,61497,1,6,0:0:0:0:
128,302,61959,6,0,P|125:240|119:184,1,85,10|8,0:0|0:0,0:0:0:0:
228,69,62420,2,0,P|224:111|222:153,1,85,6|0,0:0|0:0,0:0:0:0:
139,50,62882,1,10,0:0:0:0:
323,72,63112,1,4,0:0:0:0:
344,75,63228,1,4,0:0:0:0:
364,78,63343,5,4,0:0:0:0:
383,111,63459,1,4,0:0:0:0:
382,149,63574,1,8,2:3:0:0:
367,184,63689,1,0,0:0:0:0:
336,207,63805,6,0,L|246:202,1,72.2500013780594,4|0,0:0|0:0,0:0:0:0:
386,289,64266,2,0,L|296:284,1,72.2500013780594,0|2,0:0|0:0,0:0:0:0:
245,324,64728,1,0,0:0:0:0:
192,232,64959,2,0,P|200:151|259:125,1,144.500002756119,0|2,0:0|0:0,0:0:0:0:
263,202,65651,5,8,0:0:0:0:
256,192,65766,12,8,67036,2:3:0:0:
263,202,67497,6,0,P|300:199|405:186,1,127.5,12|8,1:0|0:0,0:0:0:0:
458,225,67959,2,0,P|468:184|453:145,1,85,6|8,0:0|0:0,0:0:0:0:
329,36,68420,2,0,P|327:78|326:129,1,85,2|8,0:0|0:0,0:0:0:0:
327,155,68766,1,0,0:0:0:0:
327,155,68882,1,6,0:0:0:0:
319,311,69112,1,0,0:0:0:0:
212,139,69343,6,0,P|182:200|228:277,1,127.5,10|8,0:0|0:0,0:0:0:0:
161,322,69805,2,0,P|119:318|66:315,1,85,6|8,0:0|0:0,0:0:0:0:
178,208,70266,2,0,P|220:205|262:201,1,85,2|8,0:0|0:0,0:0:0:0:
296,198,70612,1,0,0:0:0:0:
296,198,70728,1,6,0:0:0:0:
426,182,70959,1,0,0:0:0:0:
280,99,71189,6,0,P|217:93|138:85,1,127.5,10|8,0:0|0:0,0:0:0:0:
96,136,71651,2,0,P|77:96|95:39,1,85,6|8,0:0|0:0,0:0:0:0:
167,167,72112,2,0,P|176:234|176:302,1,127.5,2|0,0:0|0:0,0:0:0:0:
140,360,72574,2,0,P|187:368|244:333,1,85,6|0,0:0|0:0,0:0:0:0:
380,286,73036,6,0,P|299:283|238:282,2,127.5,10|8|8,0:0|0:0|0:0,0:0:0:0:
455,172,73959,2,0,P|412:175|370:178,1,85,2|8,0:0|0:0,0:0:0:0:
400,58,74420,1,4,0:0:0:0:
400,58,74536,1,4,0:0:0:0:
400,58,74651,1,8,2:3:0:0:
302,224,74882,6,0,P|286:179|331:110,1,127.5,2|8,1:0|0:0,0:0:0:0:
270,57,75343,2,0,P|223:63|161:70,1,85,6|8,0:0|0:0,0:0:0:0:
51,197,75805,2,0,P|101:191|130:169,1,85,2|8,0:0|0:0,0:0:0:0:
154,149,76151,1,0,0:0:0:0:
154,149,76266,2,0,P|160:196|167:258,1,85,6|0,0:0|0:0,0:0:0:0:
83,345,76728,6,0,P|164:340|234:337,1,127.5,10|8,0:0|0:0,0:0:0:0:
281,375,77189,2,0,P|289:331|264:279,1,85,6|8,0:0|0:0,0:0:0:0:
164,233,77651,1,2,0:0:0:0:
130,234,77766,1,4,0:0:0:0:
95,236,77882,2,0,L|110:175,1,42.5,8|0,0:0|0:0,0:0:0:0:
130,95,78112,1,2,2:1:0:0:
130,95,78574,6,0,P|177:89|233:84,1,85,8|0,1:0|0:0,0:0:0:0:
357,158,79036,2,0,P|310:164|254:169,1,85,6|8,0:0|0:0,0:0:0:0:
424,106,79497,2,0,P|441:147|428:198,1,85,2|4,0:0|0:0,0:0:0:0:
413,213,79843,1,4,0:0:0:0:
397,243,79959,1,2,0:2:0:0:
393,276,80074,1,2,0:2:0:0:
404,307,80189,1,8,0:2:0:0:
426,332,80305,1,4,0:2:0:0:
454,350,80420,6,0,P|368:347|250:345,1,170,4|4,0:0|0:0,0:0:0:0:
56,220,81343,2,0,P|142:217|260:215,1,170,4|4,0:0|0:0,0:0:0:0:
288,60,82266,5,10,1:0:0:0:
288,60,82497,1,8,0:0:0:0:
225,215,82728,2,0,P|275:213|321:211,1,85,6|0,0:0|0:0,0:0:0:0:
148,144,83189,1,10,0:0:0:0:
148,144,83420,1,8,0:0:0:0:
199,295,83651,2,0,P|200:337|202:379,1,85,6|0,0:0|0:0,0:0:0:0:
377,251,84112,6,0,P|389:204|369:152,1,85,10|8,0:0|0:0,0:0:0:0:
280,336,84574,2,0,P|326:333|387:330,1,85,6|0,0:0|0:0,0:0:0:0:
194,210,85036,2,0,P|199:295|203:397,1,170,10|6,0:0|0:0,0:0:0:0:
194,210,85959,6,0,P|238:205|288:200,1,85,10|8,0:0|0:0,0:0:0:0:
112,147,86420,2,0,P|68:142|18:137,1,85,6|0,0:0|0:0,0:0:0:0:
208,102,86882,1,10,0:0:0:0:
208,102,87343,1,6,0:0:0:0:
194,210,87574,1,0,0:0:0:0:
259,35,87805,6,0,P|213:18|165:35,1,85,10|8,0:0|0:0,0:0:0:0:
112,147,88266,1,6,0:0:0:0:
112,147,88382,2,0,L|165:144,1,42.5,8|0,0:0|0:0,0:0:0:0:
331,131,88728,6,0,P|327:191|325:266,1,127.5,10|4,0:0|0:0,0:0:0:0:
364,328,89189,2,0,P|306:336|253:286,1,127.5,10|4,0:0|0:0,0:0:0:0:
230,218,89651,5,10,1:0:0:0:
230,218,89882,1,8,0:0:0:0:
118,327,90112,2,0,P|74:324|1:320,1,85,6|0,0:0|0:0,0:0:0:0:
112,147,90574,1,10,0:0:0:0:
112,147,90805,1,8,0:0:0:0:
208,297,91036,2,0,P|205:341|201:414,1,85,6|0,0:0|0:0,0:0:0:0:
171,225,91497,6,0,P|222:215|273:245,1,85,10|8,0:0|0:0,0:0:0:0:
107,62,91959,2,0,P|110:113|112:173,1,85,6|0,0:0|0:0,0:0:0:0:
0,302,92420,2,0,P|7:200|10:123,1,170,10|6,0:0|0:0,0:0:0:0:
10,132,93343,6,0,P|59:129|108:128,1,85,10|8,0:0|0:0,0:0:0:0:
255,221,93805,2,0,P|212:222|170:224,1,85,6|0,0:0|0:0,0:0:0:0:
208,60,94266,1,10,0:0:0:0:
343,274,94497,1,4,0:0:0:0:
343,274,94612,1,4,0:0:0:0:
343,274,94728,1,4,0:0:0:0:
343,274,94843,1,4,0:0:0:0:
343,274,94959,1,8,2:3:0:0:
394,114,95189,5,2,0:0:0:0:
256,192,95305,12,2,96574,2:1:0:0:
142,86,97036,6,0,P|146:131|150:178,1,85,12|0,1:0|0:0,0:0:0:0:
61,67,97497,1,6,0:0:0:0:
227,93,97728,1,8,0:0:0:0:
227,93,97843,1,0,0:0:0:0:
227,93,97959,2,0,P|269:89|311:85,1,85,2|8,0:0|0:0,0:0:0:0:
477,151,98420,2,0,P|435:147|393:143,1,85,6|0,0:0|0:0,0:0:0:0:
337,289,98882,6,0,P|345:244|326:193,1,85,10|0,0:0|0:0,0:0:0:0:
308,184,99228,1,8,0:0:0:0:
308,184,99343,1,6,0:0:0:0:
219,315,99574,1,8,0:0:0:0:
198,287,99689,1,4,0:0:0:0:
168,270,99805,1,2,0:0:0:0:
134,268,99920,1,4,0:0:0:0:
100,276,100036,2,0,P|93:224|85:179,1,85,8|6,0:0|0:0,0:0:0:0:
40,120,100497,1,8,0:0:0:0:
27,316,100728,6,0,P|107:360|169:322,1,170,10|6,0:0|0:0,0:0:0:0:
197,184,101420,1,8,0:0:0:0:
197,184,101536,1,4,0:0:0:0:
197,184,101651,2,0,P|190:109|186:70,1,85,2|8,0:0|0:0,0:0:0:0:
276,274,102112,2,0,P|271:316|268:358,1,85,6|0,0:0|0:0,0:0:0:0:
345,197,102574,5,10,0:0:0:0:
197,184,102805,1,0,0:0:0:0:
197,184,102921,1,8,0:0:0:0:
197,184,103036,1,6,0:0:0:0:
350,110,103266,1,8,0:0:0:0:
350,110,103382,2,0,P|426:113|486:115,1,127.5,4|8,0:0|0:0,0:0:0:0:
273,61,103959,1,2,2:1:0:0:
261,97,104074,1,8,0:0:0:0:
263,135,104189,1,8,0:0:0:0:
285,166,104305,1,4,0:0:0:0:
318,184,104420,6,0,P|406:189|497:195,1,170,4|6,1:0|0:0,0:0:0:0:
389,352,105112,1,8,0:0:0:0:
389,352,105228,1,0,0:0:0:0:
389,352,105343,2,0,P|383:307|378:261,1,85,2|8,0:0|0:0,0:0:0:0:
328,99,105805,2,0,P|323:141|317:183,1,85,6|0,0:0|0:0,0:0:0:0:
282,26,106266,6,0,P|344:13|402:54,1,127.5,10|8,0:0|0:0,0:0:0:0:
416,77,106728,1,6,0:0:0:0:
244,135,106959,1,8,0:0:0:0:
244,135,107073,1,4,0:0:0:0:
244,135,107189,2,0,P|185:139|127:144,1,85,2|8,0:0|0:0,0:0:0:0:
324,179,107651,2,0,P|337:125|318:85,1,85,6|0,0:0|0:0,0:0:0:0:
248,215,108112,6,0,P|248:284|251:394,1,170,10|6,0:0|0:0,0:0:0:0:
161,226,108805,1,8,0:0:0:0:
161,226,108920,1,0,0:0:0:0:
161,226,109036,2,0,P|159:160|158:128,1,85,2|8,0:0|0:0,0:0:0:0:
335,254,109497,2,0,P|333:296|332:338,1,85,6|0,0:0|0:0,0:0:0:0:
395,188,109959,6,0,P|325:162|263:201,2,127.5,10|8|8,0:0|0:0|0:0,0:0:0:0:
413,221,110766,1,4,0:0:0:0:
413,221,110882,1,10,0:0:0:0:
249,314,111112,5,2,0:2:0:0:
222,275,111228,1,2,0:2:0:0:
177,260,111343,1,8,0:2:0:0:
130,265,111459,1,8,0:2:0:0:
89,287,111574,1,4,0:2:0:0:
279,181,111805,6,0,P|331:183|382:185,1,85,4|0,1:0|0:0,0:0:0:0:
393,184,112151,1,2,0:0:0:0:
134,101,112959,1,8,0:0:0:0:
191,182,113189,2,0,P|189:225|187:267,1,85,6|0,0:0|0:0,0:0:0:0:
244,101,113651,6,0,P|197:83|146:99,1,85,10|8,0:0|0:0,0:0:0:0:
134,101,113997,1,2,0:0:0:0:
287,329,114805,1,8,0:0:0:0:
365,268,115036,2,0,L|362:169,1,85,6|0,0:0|0:0,0:0:0:0:
287,329,115497,6,0,P|238:328|191:328,1,85,4|8,1:0|0:0,0:0:0:0:
379,372,115959,2,0,P|390:324|379:285,1,85,6|8,0:0|0:0,0:0:0:0:
232,247,116420,1,2,0:0:0:0:
362,183,116651,1,8,0:0:0:0:
232,247,116882,2,0,P|183:246|136:246,1,85,6|8,0:0|2:3,0:0:0:0:
49,244,117343,5,10,0:0:0:0:
49,244,119189,6,0,P|55:199|67:129,1,85,4|8,1:0|0:0,0:0:0:0:
74,132,119536,1,2,0:0:0:0:
169,327,119766,2,0,P|136:323|107:319,1,42.5
275,254,120112,1,2,0:0:0:0:
248,379,120343,1,8,0:0:0:0:
192,236,120574,2,0,P|186:191|174:121,1,85,6|0,0:0|0:0,0:0:0:0:
342,200,121036,6,0,P|359:247|345:302,1,85,10|8,0:0|0:0,0:0:0:0:
380,313,121382,2,0,P|296:313|240:315,1,127.5,2|0,0:0|0:0,0:0:0:0:
437,237,121959,1,2,0:0:0:0:
413,384,122189,1,8,0:0:0:0:
437,237,122420,2,0,P|432:184|427:130,1,85,6|0,0:0|0:0,0:0:0:0:
257,207,122882,6,0,P|310:202|364:197,1,85,10|8,0:0|0:0,0:0:0:0:
170,158,123343,2,0,P|127:154|85:150,1,85,6|0,0:0|0:0,0:0:0:0:
168,342,123805,2,0,P|179:303|168:246,1,85,2|8,0:0|0:0,0:0:0:0:
80,294,124266,1,6,0:0:0:0:
263,363,124497,1,0,2:0:0:0:
263,363,124612,1,4,0:0:0:0:
263,363,124728,6,0,P|256:299|251:247,1,85,10|8,0:0|0:0,0:0:0:0:
335,122,125189,2,0,P|330:164|325:206,1,85,6|0,0:0|0:0,0:0:0:0:
293,53,125651,1,2,0:0:0:0:
334,44,125766,1,4,0:0:0:0:
375,53,125882,1,4,0:0:0:0:
402,85,125997,1,8,0:0:0:0:
412,126,126112,1,4,0:0:0:0:
246,181,126343,1,4,0:0:0:0:
246,181,126459,1,4,0:0:0:0:
246,181,126574,6,0,P|150:172|61:160,1,170,4|6,1:0|0:0,0:0:0:0:
227,268,127266,2,0,P|300:257|333:163,1,170,0|8,0:0|0:0,0:0:0:0:
457,345,127959,2,0,P|381:339|330:337,1,127.5,6|0,0:0|0:0,0:0:0:0:
296,332,128420,6,0,P|300:240|230:171,1,170,10|6,0:0|0:0,0:0:0:0:
173,316,129112,2,0,P|226:273|159:260,1,170,0|8,0:0|0:0,0:0:0:0:
78,210,129805,2,0,P|83:131|86:66,1,127.5,4|0,2:3|0:0,0:0:0:0:
71,51,130266,6,0,P|120:47|166:43,1,85,2|10,1:0|0:0,0:0:0:0:
307,121,130728,2,0,P|264:117|222:113,1,85,4|2,0:0|0:0,0:0:0:0:
382,76,131189,2,0,P|395:130|374:181,1,85,0|10,0:0|0:0,0:0:0:0:
255,289,131651,2,0,P|258:246|262:204,1,85,4|2,0:0|0:0,0:0:0:0:
334,360,132112,5,8,0:0:0:0:
184,358,132343,1,10,0:0:0:0:
334,360,132574,1,4,0:0:0:0:
146,287,132805,1,2,0:0:0:0:
347,246,133036,2,0,P|350:203|354:161,1,85,2|10,0:2|0:0,0:0:0:0:
347,123,133382,1,4,0:0:0:0:
320,96,133497,1,4,0:0:0:0:
282,89,133612,1,8,0:2:0:0:
244,99,133728,1,4,0:2:0:0:
99,191,133959,6,0,P|153:188|217:185,1,85,4|8,1:0|0:0,0:0:0:0:
364,244,134420,2,0,P|310:241|246:238,1,85,6|0,0:0|0:0,0:0:0:0:
264,52,134882,2,0,P|261:106|258:170,1,85,10|8,0:0|0:0,0:0:0:0:
441,231,135343,2,0,P|421:185|373:164,1,85,6|0,0:0|0:0,0:0:0:0:
240,313,135805,6,0,P|282:315|324:317,1,85,10|8,0:0|0:0,0:0:0:0:
420,328,136266,1,6,0:0:0:0:
420,328,136497,1,0,0:0:0:0:
194,233,136728,2,0,P|279:237|368:242,1,170,10|4,0:0|2:3,0:0:0:0:
194,233,137651,6,0,P|181:189|191:138,1,85,10|8,0:0|0:0,0:0:0:0:
244,316,138112,2,0,P|193:313|125:310,1,85,6|0,0:0|0:0,0:0:0:0:
274,185,138574,2,0,P|325:182|393:179,1,85,10|8,0:0|0:0,0:0:0:0:
441,223,139036,1,6,0:0:0:0:
441,223,139266,1,0,0:0:0:0:
437,58,139497,5,10,0:0:0:0:
434,198,139728,1,8,0:0:0:0:
314,125,139959,1,6,0:0:0:0:
184,322,140304,5,4,0:0:0:0:
184,322,140420,2,0,P|182:267|181:203,1,85,8|8,0:0|2:3,0:0:0:0:
266,368,140882,1,6,0:0:0:0:
237,169,141343,6,0,P|162:152|98:211,1,170,2|6,1:0|0:0,0:0:0:0:
275,250,142036,2,0,P|376:241|461:236,1,170,0|8,0:0|0:0,0:0:0:0:
322,145,142728,1,6,0:0:0:0:
322,145,143189,6,0,P|396:141|445:140,1,85,10|8,0:0|0:0,0:0:0:0:
229,99,143651,2,0,P|186:97|144:94,1,85,6|0,0:0|0:0,0:0:0:0:
265,292,144112,2,0,P|274:242|259:200,1,85,10|8,0:0|2:3,0:0:0:0:
250,178,144459,1,0,0:0:0:0:
250,178,144574,1,4,0:0:0:0:
155,323,144805,1,8,2:3:0:0:
356,347,145036,6,0,P|350:290|347:257,1,76.4999976654053,4|0,0:0|0:0,0:0:0:0:
393,207,145497,2,0,P|399:150|402:117,1,76.4999976654053,2|0,0:0|0:0,0:0:0:0:
367,61,145959,1,8,0:0:0:0:
208,133,146189,1,2,0:0:0:0:
208,133,146420,2,0,P|265:139|298:142,1,76.4999976654053,0|2,0:0|0:0,0:0:0:0:
147,78,146882,6,0,P|128:154|173:208,1,127.5,12|8,1:0|0:0,0:0:0:0:
221,222,147343,2,0,P|278:228|336:233,1,85,6|8,0:0|0:0,0:0:0:0:
153,280,147805,2,0,P|110:283|68:288,1,85,2|8,0:0|0:0,0:0:0:0:
38,293,148151,1,0,0:0:0:0:
38,293,148266,1,6,0:0:0:0:
185,353,148497,1,0,0:0:0:0:
151,192,148728,6,0,P|221:188|317:185,1,127.5,10|8,0:0|0:0,0:0:0:0:
332,131,149189,2,0,P|353:168|350:210,1,85,6|8,0:0|0:0,0:0:0:0:
281,378,149651,2,0,P|278:335|273:293,1,85,2|8,0:0|0:0,0:0:0:0:
267,264,149997,1,0,0:0:0:0:
267,264,150112,1,6,0:0:0:0:
185,353,150343,1,0,0:0:0:0:
361,370,150574,6,0,P|352:288|343:224,1,127.5,10|8,0:0|0:0,0:0:0:0:
386,178,151036,2,0,P|337:168|289:192,1,85,6|8,0:0|0:0,0:0:0:0:
471,232,151497,2,0,P|485:159|446:98,1,127.5,2|0,0:0|0:0,0:0:0:0:
396,73,151959,2,0,P|335:75|298:76,1,85,6|0,0:0|0:0,0:0:0:0:
187,164,152420,6,0,P|207:226|222:312,2,127.5,10|8|8,0:0|0:0|0:0,0:0:0:0:
129,282,153343,1,2,0:0:0:0:
129,282,153459,1,4,0:0:0:0:
129,282,153574,1,8,0:0:0:0:
304,297,153805,2,0,P|334:299|360:301,2,42.5,4|4|8,0:0|0:0|2:3,0:0:0:0:
261,130,154266,6,0,P|207:89|140:101,1,127.5,2|8,1:0|0:0,0:0:0:0:
90,142,154728,2,0,P|96:198|102:255,1,85,6|8,0:0|0:0,0:0:0:0:
218,328,155189,2,0,P|222:285|227:243,1,85,2|8,0:0|0:0,0:0:0:0:
234,217,155536,1,0,0:0:0:0:
234,217,155651,1,6,0:0:0:0:
303,352,155882,1,0,0:0:0:0:
307,176,156112,6,0,P|237:132|183:151,1,127.5,10|8,0:0|0:0,0:0:0:0:
145,197,156574,2,0,P|140:237|136:281,1,85,6|8,0:0|0:0,0:0:0:0:
303,352,157036,1,2,0:0:0:0:
303,352,157497,2,0,P|297:266|295:214,1,127.5,6|0,2:1|0:0,0:0:0:0:
296,192,157959,6,0,P|348:196|395:200,1,85,8|0,1:0|0:0,0:0:0:0:
214,134,158420,2,0,P|162:138|115:142,1,85,6|8,0:0|0:0,0:0:0:0:
63,275,158882,1,4,0:0:0:0:
99,265,158997,1,4,0:0:0:0:
136,268,159112,1,2,0:2:0:0:
171,282,159228,1,2,0:2:0:0:
203,302,159343,1,8,0:2:0:0:
230,274,159459,1,8,0:2:0:0:
240,237,159574,1,4,0:2:0:0:
231,199,159689,1,4,0:2:0:0:
207,168,159805,6,0,P|300:158|403:148,1,170,4|4,1:0|0:0,0:0:0:0:
283,376,160728,2,0,P|190:366|87:356,1,170,4|4,0:0|0:0,0:0:0:0:
207,168,161651,5,10,1:0:0:0:
207,168,161882,1,8,0:0:0:0:
330,260,162112,2,0,P|325:313|321:353,1,85,6|0,0:0|0:0,0:0:0:0:
381,160,162574,1,10,0:0:0:0:
381,160,162805,1,8,0:0:0:0:
242,288,163036,2,0,P|189:283|149:279,1,85,6|0,0:0|0:0,0:0:0:0:
315,333,163497,6,0,P|329:283|306:237,1,85,10|8,0:0|0:0,0:0:0:0:
132,355,163959,2,0,P|174:359|216:363,1,85,6|0,0:0|0:0,0:0:0:0:
51,210,164420,2,0,P|55:314|56:386,1,170,10|6,0:0|0:0,0:0:0:0:
51,210,165343,6,0,P|93:205|135:201,1,85,10|8,0:0|0:0,0:0:0:0:
297,136,165805,2,0,P|254:131|212:127,1,85,6|0,0:0|0:0,0:0:0:0:
301,237,166266,1,10,0:0:0:0:
301,237,166728,1,6,0:0:0:0:
300,59,166959,1,0,0:0:0:0:
383,210,167189,6,0,P|391:252|373:303,1,85,10|8,0:0|0:0,0:0:0:0:
357,317,167536,1,0,0:0:0:0:
357,317,167651,2,0,P|312:317|260:318,1,85,6|0,0:0|0:0,0:0:0:0:
141,368,168112,6,0,P|120:268|111:238,1,127.5,10|4,0:0|0:0,0:0:0:0:
48,202,168574,2,0,P|90:169|166:188,1,127.5,10|4,0:0|0:0,0:0:0:0:
195,255,169036,5,10,1:0:0:0:
195,255,169266,1,8,0:0:0:0:
147,97,169497,2,0,P|192:98|243:98,1,85,6|0,0:0|0:0,0:0:0:0:
93,169,169959,1,10,0:0:0:0:
93,169,170189,1,8,0:0:0:0:
281,216,170420,2,0,P|280:261|280:312,1,85,6|0,0:0|0:0,0:0:0:0:
396,169,170882,6,0,P|395:126|394:84,1,85,10|8,0:0|0:0,0:0:0:0:
444,255,171343,2,0,P|406:265|347:249,1,85,6|0,0:0|0:0,0:0:0:0:
240,366,171805,2,0,P|326:361|419:355,1,170,10|6,0:0|0:0,0:0:0:0:
240,366,172728,6,0,P|230:314|226:251,1,85,10|8,0:0|2:3,0:0:0:0:
219,243,173074,1,0,0:0:0:0:
212,204,173189,1,2,0:2:0:0:
208,165,173305,1,8,0:2:0:0:
204,127,173420,1,4,0:2:0:0:
129,308,173651,1,8,1:0:0:0:
129,308,174112,1,2,0:2:0:0:
339,222,174343,1,8,0:2:0:0:
98,149,174574,6,0,P|66:225|28:163,2,191.250007295609,4|0|0,0:0|0:0|0:0,0:0:0:0:
166,252,176420,6,0,P|97:300|-11:264,2,191.250007295609,8|0|0,0:0|0:0|0:0,0:0:0:0:
217,99,178266,6,0,B|213:153|213:153|246:232|246:232|242:284,1,191.250007295609,4|0,0:0|0:0,0:0:0:0:
181,347,179189,2,0,P|250:370|330:286,1,191.250007295609,8|0,0:0|0:0,0:0:0:0:
416,338,180112,6,0,P|402:235|397:145,1,191.250007295609,4|0,0:0|0:0,0:0:0:0:
433,80,181036,1,0,0:0:0:0:
322,113,181266,2,0,P|290:111|258:109,1,63.7500024318696
258,109,181959,6,0,P|275:204|278:310,2,191.250007295609,4|0|0,0:0|0:0|0:0,0:0:0:0:
196,325,183805,6,0,P|268:382|351:345,2,191.250007295609,8|0|0,0:0|0:0|0:0,0:0:0:0:
85,240,185651,6,0,P|164:228|286:215,2,191.250007295609,4|0|0,0:0|0:0|0:0,0:0:0:0:
337,349,187497,6,0,B|293:270|406:258|337:158,1,191.250007295609,8|0,0:0|0:0,0:0:0:0:
273,116,188420,1,4,0:0:0:0:
273,116,189343,6,0,P|226:119|153:126,1,95.6250036478044,6|0,0:0|0:0,0:0:0:0:
177,123,190036,2,0,P|194:212|101:270,1,191.250007295609
13,176,191189,6,0,P|60:179|133:186,1,95.6250036478044,2|0,0:0|0:0,0:0:0:0:
108,183,191882,2,0,P|91:272|184:330,1,191.250007295609
272,236,193036,6,0,P|224:240|176:243,1,95.6250036478044,2|0,0:0|0:0,0:0:0:0:
272,236,193728,2,0,P|257:150|255:39,1,191.250007295609
328,26,194651,1,0,0:0:0:0:
466,88,194882,6,0,P|418:91|371:96,1,95.6250036478044,2|0,0:0|0:0,0:0:0:0:
371,96,195574,2,0,P|410:155|338:241,1,191.250007295609
205,359,196728,6,0,P|200:284|197:244,1,95.6250036478044,10|0,0:0|0:0,0:0:0:0:
198,263,197420,2,0,P|107:255|75:156,1,191.250007295609
165,87,198343,1,0,0:0:0:0:
165,87,198574,6,0,P|161:134|158:182,1,95.6250036478044,2|0,0:0|0:0,0:0:0:0:
157,182,199266,2,0,P|241:177|285:228,1,127.500004863739
311,269,199959,2,0,P|359:269|392:271,1,63.7500024318696
500,223,200420,6,0,P|468:223|436:222,2,63.7500024318696,2|0|0,0:0|0:0|0:0,0:0:0:0:
389,157,201112,2,0,P|356:215|378:274,1,127.500004863739
349,342,201805,2,0,P|301:342|268:344,1,63.7500024318696
203,283,202266,6,0,P|202:331|202:379,2,95.6250036478044,2|0|0,0:0|0:0|0:0,0:0:0:0:
149,229,203189,2,0,P|146:188|144:150,1,63.7500024318696
202,111,203651,2,0,P|204:79|206:47,1,63.7500024318696
248,176,204112,6,0,P|318:173|359:172,2,95.6250036478044,6|0|0,0:0|0:0|0:0,0:0:0:0:
263,251,205036,2,0,P|285:318|241:369,1,127.500004863739
207,301,205728,1,0,0:0:0:0:
136,271,205959,6,0,P|66:268|25:267,2,95.6250036478044,2|0|0,0:0|0:0|0:0,0:0:0:0:
116,196,206882,2,0,P|121:123|125:62,1,127.500004863739
185,22,207574,1,0,0:0:0:0:
217,139,207805,6,0,P|285:128|335:137,2,95.6250036478044,10|0|0,0:0|0:0|0:0,0:0:0:0:
199,217,208728,2,0,P|214:310|222:369,1,127.500004863739
292,317,209420,1,0,0:0:0:0:
351,371,209651,6,0,P|372:317|351:258,2,95.6250036478044,2|0|0,0:0|0:0|0:0,0:0:0:0:
303,231,210574,2,0,P|359:202|431:238,1,127.500004863739
474,168,211266,1,0,0:0:0:0:
435,100,211497,6,0,P|365:94|318:90,2,95.6250036478044,6|0|0,0:0|0:0|0:0,0:0:0:0:
474,168,212420,2,0,P|467:255|467:314,1,127.500004863739
401,335,213112,1,0,0:0:0:0:
286,289,213343,6,0,P|330:264|388:266,2,95.6250036478044,2|0|0,0:0|0:0|0:0,0:0:0:0:
214,257,214266,1,0,0:0:0:0:
161,316,214497,2,0,P|169:357|174:389,2,63.7500024318696
144,204,215189,6,0,P|198:168|246:173,2,95.6250036478044,10|0|0,0:0|0:0|0:0,0:0:0:0:
144,204,218420,6,0,L|117:199,6,21.25,8|0|0|0|0|0|0,2:1|0:0|0:0|0:0|0:0|0:0|0:0,0:0:0:0:
211,261,218882,6,0,P|229:189|194:137,1,127.5,4|8,1:0|0:0,0:0:0:0:
177,123,219343,1,6,0:0:0:0:
46,215,219574,1,8,0:0:0:0:
46,215,219689,1,0,0:0:0:0:
46,215,219805,2,0,P|56:309|60:357,2,127.5,2|0|0,0:0|0:0|0:0,0:0:0:0:
81,90,220728,6,0,P|129:89|223:81,2,127.5,10|8|8,0:0|0:0|0:0,0:0:0:0:
144,204,221651,1,2,0:0:0:0:
144,204,221766,2,0,P|160:246|167:279,1,42.5,0|8,0:0|0:0,0:0:0:0:
174,274,221997,2,0,P|228:266|281:286,1,85,4|4,0:0|0:0,0:0:0:0:
284,293,222343,1,8,0:0:0:0:
362,170,222574,6,0,B|326:264|398:244|371:341,1,170,10|6,0:0|0:0,0:0:0:0:
445,211,223266,1,8,0:0:0:0:
445,211,223382,1,0,0:0:0:0:
445,211,223497,2,0,P|451:158|423:100,1,85,2|8,0:0|0:0,0:0:0:0:
414,109,223843,2,0,P|361:110|316:112,1,85,4|4,0:0|0:0,0:0:0:0:
297,117,224189,1,8,0:0:0:0:
169,194,224420,6,0,B|193:172|227:174|227:174|251:212|312:193,2,127.5,10|8|8,0:0|0:0|0:0,0:0:0:0:
114,312,225343,2,0,P|119:331|125:355,3,42.5,4|4|8|0,0:0|0:0|2:3|0:0,0:0:0:0:
45,222,225805,2,0,P|50:203|56:179,3,42.5,4|4|8|0,0:0|0:0|2:3|0:0,0:0:0:0:
32,100,226266,5,10,1:0:0:0:
70,96,226382,1,0,0:0:0:0:
104,111,226497,1,8,0:0:0:0:
127,141,226612,1,0,0:0:0:0:
140,177,226728,1,6,0:0:0:0:
163,207,226843,1,0,0:0:0:0:
198,220,226959,1,0,0:0:0:0:
236,217,227074,1,0,0:0:0:0:
270,201,227189,2,0,P|271:275|275:333,2,127.5,10|0|0,0:0|0:0|0:0,0:0:0:0:
225,110,228112,5,10,0:0:0:0:
265,95,228228,1,0,0:0:0:0:
306,104,228343,1,8,0:0:0:0:
334,135,228459,1,0,0:0:0:0:
367,160,228574,1,6,0:0:0:0:
409,163,228689,1,0,0:0:0:0:
449,148,228805,1,0,0:0:0:0:
472,112,228920,1,0,0:0:0:0:
458,71,229036,2,0,P|409:57|313:24,2,127.5,10|0|0,0:0|0:0|0:0,0:0:0:0:
409,163,229959,6,0,P|434:229|402:296,1,127.5,10|0,0:0|0:0,0:0:0:0:
386,295,230420,2,0,L|345:289,4,28.3333333333333,6|0|0|0|0,0:0|0:0|0:0|0:0|0:0,0:0:0:0:
296,236,230882,1,10,0:0:0:0:
279,270,230997,1,2,0:2:0:0:
280,308,231112,1,8,0:2:0:0:
298,341,231228,1,8,0:0:0:0:
330,361,231343,2,0,P|379:370|430:378,1,85,4|8,2:3|0:0,0:0:0:0:
409,163,231805,5,4,0:0:0:0:
197,182,232036,1,0,0:0:0:0:
357,288,232266,1,4,0:0:0:0:
338,76,232497,1,0,0:0:0:0:
357,288,232728,1,4,0:0:0:0:
228,99,232959,5,0,0:0:0:0:
228,99,233074,1,0,0:0:0:0:
228,99,233189,2,0,P|162:97|112:147,1,127.5,8|0,2:3|0:0,0:0:0:0:
97,167,233651,6,0,P|100:217|104:275,1,85,4|2,1:0|0:0,0:0:0:0:
270,345,234112,2,0,P|272:302|275:260,1,85,10|2,0:0|0:0,0:0:0:0:
80,335,234574,2,0,P|126:338|179:301,1,85,10|2,0:0|0:0,0:0:0:0:
281,176,235036,2,0,P|238:178|196:181,1,85,10|2,0:0|0:0,0:0:0:0:
343,240,235497,5,10,0:0:0:0:
317,73,235728,1,2,0:0:0:0:
443,169,235959,1,10,0:0:0:0:
281,176,236189,1,2,0:0:0:0:
443,169,236420,2,0,P|438:263|437:344,1,170,10|8,0:0|2:3,0:0:0:0:
436,338,237343,6,0,P|375:334|317:331,1,85,4|2,1:0|0:0,0:0:0:0:
177,286,237805,2,0,P|219:282|261:279,1,85,10|2,0:0|0:0,0:0:0:0:
114,344,238266,2,0,P|93:310|98:259,1,85,10|2,0:0|0:0,0:0:0:0:
166,140,238728,1,8,2:3:0:0:
166,140,239189,6,0,P|245:137|355:124,1,170,10|8,0:0|2:3,0:0:0:0:
166,140,240112,2,0,P|208:211|185:300,1,170,8|8,2:3|2:3,0:0:0:0:
62,215,241036,6,0,P|128:219|79:265,1,170,4|10,1:0|0:0,0:0:0:0:
58,103,241728,2,0,B|144:67|134:154|243:103,1,170,2|2,0:0|0:0,0:0:0:0:
181,44,242420,1,8,2:3:0:0:
181,44,242882,6,0,P|182:97|183:142,1,85,10|2,0:0|0:0,0:0:0:0:
264,305,243343,2,0,P|264:262|265:220,1,85,10|2,0:0|0:0,0:0:0:0:
268,185,243689,1,2,0:0:0:0:
268,185,243805,1,8,2:3:0:0:
167,289,244036,2,0,P|139:286|97:284,1,42.5,2|2,0:0|0:0,0:0:0:0:
45,282,244266,1,8,2:3:0:0:
264,305,244728,6,0,P|326:263|390:266,2,114.749996498108,4|0|0,0:0|0:0|0:0,0:0:0:0:
190,249,245651,2,0,P|178:169|177:100,2,114.749996498108,2|0|0,0:0|0:0|0:0,0:0:0:0:
176,341,246574,5,8,0:0:0:0:
256,192,246689,12,0,247959,0:0:0:0:
256,192,248420,6,0,P|301:196|368:160,1,114.749996498108,4|0,0:0|0:0,0:0:0:0:
382,143,248882,2,0,P|384:190|388:242,1,76.4999976654053,2|0,0:0|0:0,0:0:0:0:
391,249,249228,1,0,0:0:0:0:
391,249,249343,2,0,P|392:287|392:311,2,38.2499988327027
410,68,249805,2,0,P|365:64|320:91,1,76.4999976654053,2|0,0:0|0:0,0:0:0:0:
256,192,250266,6,0,P|267:284|270:313,1,114.749996498108
273,336,250728,2,0,P|215:340|186:343,1,76.4999976654053,2|0,0:0|0:0,0:0:0:0:
166,345,251074,1,0,0:0:0:0:
125,223,251305,2,0,P|152:225|183:229,1,38.2499988327027
36,279,251651,2,0,P|40:213|43:172,1,76.4999976654053,2|0,0:0|0:0,0:0:0:0:
62,180,251997,1,0,0:0:0:0:
62,180,252112,6,0,P|60:121|56:58,1,114.749996498108
54,34,252574,2,0,P|90:43|141:33,1,76.4999976654053,2|0,0:0|0:0,0:0:0:0:
157,27,252920,1,0,0:0:0:0:
157,27,253036,2,0,P|194:21|231:31,1,76.4999976654053
188,210,253497,2,0,P|189:166|190:115,1,76.4999976654053,2|0,0:0|0:0,0:0:0:0:
192,102,253843,1,0,0:0:0:0:
192,102,253959,6,0,P|243:116|295:87,1,114.749996498108
325,99,254420,2,0,P|321:153|318:190,1,76.4999976654053,2|0,0:0|0:0,0:0:0:0:
320,206,254766,1,0,0:0:0:0:
320,206,254882,2,0,P|316:239|318:256,2,38.2499988327027
291,367,255343,6,0,P|313:318|333:372,1,140.25000428009,0|0,2:0|0:0,0:0:0:0:
212,377,255805,6,0,P|207:333|246:263,1,114.749996498108,4|0,0:0|0:0,0:0:0:0:
231,241,256266,2,0,P|172:246|120:248,1,76.4999976654053,2|0,0:0|0:0,0:0:0:0:
124,252,256612,1,0,0:0:0:0:
124,252,256728,2,0,P|94:254|55:258,1,38.2499988327027
168,170,256959,2,0,P|198:168|237:164,1,38.2499988327027
285,160,257189,1,2,0:0:0:0:
166,60,257420,1,0,0:0:0:0:
166,60,257536,1,0,0:0:0:0:
166,60,257651,6,0,P|153:120|175:181,1,114.749996498108
192,188,258112,2,0,P|242:185|288:182,1,76.4999976654053,2|0,0:0|0:0,0:0:0:0:
299,181,258459,1,0,0:0:0:0:
390,262,258689,2,0,P|373:261|340:260,1,38.2499988327027
378,96,259036,2,0,P|387:151|387:197,1,76.4999976654053,2|0,0:0|0:0,0:0:0:0:
421,338,259497,6,0,P|367:337|313:337,1,76.4999976654053
177,294,259959,2,0,P|231:295|285:295,1,76.4999976654053,2|0,0:0|0:0,0:0:0:0:
280,280,260305,1,0,0:0:0:0:
295,253,260420,1,0,0:0:0:0:
297,222,260536,1,0,0:0:0:0:
284,194,260651,1,0,0:0:0:0:
79,272,260882,2,0,L|86:317,2,38.2499988327027,2|0|0,0:0|0:0|2:0,0:0:0:0:
79,272,263189,6,0,P|73:215|63:135,1,127.5,12|8,1:0|0:0,0:0:0:0:
12,90,263651,2,0,P|52:71|106:85,1,85,6|10,0:0|0:0,0:0:0:0:
265,181,264112,2,0,P|216:178|171:175,1,85,2|10,0:0|0:0,0:0:0:0:
145,175,264459,1,0,0:0:0:0:
145,175,264574,1,6,0:0:0:0:
306,103,264805,1,2,0:0:0:0:
303,253,265036,6,0,P|298:316|349:359,1,127.5,10|8,0:0|0:0,0:0:0:0:
416,376,265497,2,0,P|467:369|504:361,1,85,6|10,0:0|0:0,0:0:0:0:
403,169,265959,2,0,P|410:220|418:257,1,85,2|10,0:0|0:0,0:0:0:0:
428,285,266305,1,0,0:0:0:0:
428,285,266420,1,6,0:0:0:0:
479,124,266651,1,2,0:0:0:0:
321,154,266882,6,0,P|255:151|176:145,1,127.5,10|8,0:0|0:0,0:0:0:0:
132,187,267343,2,0,P|117:148|129:108,1,85,6|10,0:0|0:0,0:0:0:0:
321,154,267805,2,0,P|320:247|322:296,1,127.5,2|0,0:0|0:0,0:0:0:0:
364,346,268266,2,0,P|317:358|269:335,1,85,6|2,0:0|0:0,0:0:0:0:
90,311,268728,6,0,P|163:306|235:306,2,127.5,10|8|10,0:0|0:0|0:0,0:0:0:0:
187,144,269651,2,0,P|219:181|225:241,1,85,2|10,0:0|0:0,0:0:0:0:
73,234,270112,2,0,P|45:236|8:242,1,42.5,6|2,0:0|1:0,0:0:0:0:
24,99,270574,6,0,P|87:91|138:139,1,127.5,4|8,1:0|0:0,0:0:0:0:
210,115,271036,2,0,P|206:73|203:24,1,85,6|10,0:0|0:0,0:0:0:0:
253,218,271497,2,0,P|199:225|155:200,1,85,2|10,0:0|0:0,0:0:0:0:
139,202,271843,1,0,0:0:0:0:
139,202,271959,2,0,P|136:244|132:286,1,85,6|2,0:0|0:0,0:0:0:0:
324,274,272420,6,0,P|343:203|296:139,1,127.5,10|8,0:0|0:0,0:0:0:0:
357,89,272882,2,0,P|409:90|456:92,1,85,6|10,0:0|0:0,0:0:0:0:
266,47,273343,1,4,1:0:0:0:
266,47,273805,2,0,P|167:52|101:57,1,127.5,2|0,2:1|0:0,0:0:0:0:
138,53,274266,6,0,P|161:113|120:169,1,127.5,8|2,1:0|0:2,0:0:0:0:
100,181,274728,1,4,0:0:0:0:
100,181,274843,2,0,P|64:188|41:193,1,42.5,8|4,0:2|0:2,0:0:0:0:
195,279,275189,1,4,0:0:0:0:
210,248,275305,1,8,0:2:0:0:
203,214,275420,1,4,0:2:0:0:
35,347,275651,2,0,P|88:342|135:340,1,85,4|4,2:0|2:0,0:0:0:0:
360,335,276112,5,4,0:0:0:0:
152,49,276574,1,4,0:0:0:0:
399,88,277036,1,4,0:0:0:0:
113,296,277498,1,4,0:0:0:0:
280,157,277959,5,10,1:0:0:0:
280,157,278189,1,8,0:0:0:0:
399,238,278420,2,0,P|457:230|513:222,1,85,6|0,0:0|0:0,0:0:0:0:
399,88,278882,1,10,0:0:0:0:
399,88,279112,1,8,0:0:0:0:
309,244,279343,2,0,P|317:302|325:358,1,85,6|0,0:0|0:0,0:0:0:0:
219,186,279805,5,10,0:0:0:0:
395,163,280036,1,8,0:0:0:0:
219,186,280266,2,0,P|152:198|98:206,1,85,6|0,0:0|0:0,0:0:0:0:
275,113,280728,2,0,P|315:193|267:262,1,170,10|6,0:0|0:0,0:0:0:0:
277,255,281651,6,0,P|338:248|386:244,1,85,10|8,0:0|0:0,0:0:0:0:
266,361,282112,1,6,0:0:0:0:
219,186,282343,1,0,0:0:0:0:
359,333,282574,1,10,0:0:0:0:
359,333,283036,1,6,0:0:0:0:
199,314,283266,1,0,0:0:0:0:
359,333,283497,6,0,P|352:237|348:177,2,127.5,10|0|0,0:0|0:0|0:0,0:0:0:0:
291,148,284420,2,0,P|347:121|404:146,2,127.5,10|0|0,0:0|0:0|0:0,0:0:0:0:
245,289,285343,5,10,1:0:0:0:
245,289,285574,1,8,0:0:0:0:
130,167,285805,2,0,P|135:109|139:61,1,85,6|0,0:0|0:0,0:0:0:0:
78,270,286266,1,10,0:0:0:0:
78,270,286497,1,8,0:0:0:0:
238,181,286728,2,0,P|280:184|322:188,1,85,6|0,0:0|0:0,0:0:0:0:
191,271,287189,5,10,0:0:0:0:
215,100,287420,1,8,0:0:0:0:
191,271,287651,2,0,P|233:274|275:278,1,85,6|4,0:0|0:2,0:0:0:0:
313,282,287997,1,4,0:2:0:0:
313,282,288112,2,0,P|309:321|308:344,3,42.5,8|8|2|2,0:2|0:2|0:2|0:2,0:0:0:0:
317,248,288574,1,8,0:2:0:0:
342,219,288690,1,8,0:2:0:0:
378,208,288805,1,4,0:2:0:0:
416,210,288921,1,4,0:2:0:0:
449,227,289036,6,0,P|445:157|443:120,1,85,8|8,1:0|0:0,0:0:0:0:
400,308,289497,1,6,0:0:0:0:
352,99,289728,1,8,0:0:0:0:
196,246,289959,1,6,0:0:0:0:
352,99,290189,1,4,0:0:0:0:
309,91,290305,1,4,0:0:0:0:
267,84,290420,1,4,0:0:0:0:
224,77,290536,1,4,0:0:0:0:
182,70,290651,1,8,2:3:0:0:
278,259,290882,5,2,0:0:0:0:
256,192,290997,12,2,292266,2:1:0:0:
234,197,292728,6,0,P|324:190|408:188,1,170,4|6,1:0|0:0,0:0:0:0:
355,352,293420,1,8,0:0:0:0:
355,352,293536,1,0,0:0:0:0:
355,352,293651,2,0,P|348:308|342:262,1,85,2|8,0:0|0:0,0:0:0:0:
247,141,294112,2,0,P|241:183|234:225,1,85,6|0,0:0|0:0,0:0:0:0:
248,366,294574,6,0,P|207:340|123:351,1,127.5,10|8,0:0|0:0,0:0:0:0:
105,367,295036,1,6,0:0:0:0:
27,226,295266,1,8,0:0:0:0:
27,226,295382,1,4,0:0:0:0:
27,226,295497,2,0,P|55:229|85:231,2,42.5,2|4|8,0:0|0:0|0:0,0:0:0:0:
135,281,295959,2,0,P|153:209|114:165,1,127.5,6|0,0:0|0:0,0:0:0:0:
95,148,296420,6,0,P|161:144|286:135,1,170,10|6,0:0|0:0,0:0:0:0:
138,67,297112,1,8,0:0:0:0:
138,67,297228,1,0,0:0:0:0:
138,67,297343,2,0,P|84:71|22:78,1,85,2|8,0:0|0:0,0:0:0:0:
185,220,297805,2,0,P|239:224|301:231,1,85,6|0,0:0|0:0,0:0:0:0:
425,237,298266,5,10,0:0:0:0:
425,237,298382,1,4,0:0:0:0:
272,140,298612,1,4,0:0:0:0:
342,306,298843,1,8,0:0:0:0:
342,306,298959,2,0,P|345:276|345:245,1,42.5,0|0,2:1|0:0,0:0:0:0:
362,140,299189,5,2,0:2:0:0:
363,123,299305,1,2,0:2:0:0:
365,106,299420,1,8,0:2:0:0:
367,89,299536,1,8,0:0:0:0:
369,75,299651,2,0,L|301:67,2,42.5,8|8|4,2:1|0:0|0:0,0:0:0:0:
272,226,300112,6,0,P|284:294|212:359,1,170,6|6,1:0|0:0,0:0:0:0:
111,278,300805,1,8,0:0:0:0:
111,278,300920,1,0,0:0:0:0:
111,278,301036,2,0,P|166:272|218:273,1,85,2|8,0:0|0:0,0:0:0:0:
33,329,301497,2,0,P|20:274|35:229,1,85,6|0,0:0|0:0,0:0:0:0:
81,64,301959,6,0,P|92:146|94:197,1,127.5,10|8,0:0|0:0,0:0:0:0:
93,190,302420,1,6,0:0:0:0:
194,78,302651,1,8,0:0:0:0:
225,90,302766,1,4,0:0:0:0:
259,92,302882,1,2,0:0:0:0:
291,83,302997,1,4,0:0:0:0:
321,68,303112,2,0,P|317:122|316:164,1,85,8|6,0:0|0:0,0:0:0:0:
234,251,303574,1,0,0:0:0:0:
234,251,303689,1,4,0:0:0:0:
234,251,303805,6,0,P|316:286|397:243,1,170,10|6,0:0|0:0,0:0:0:0:
226,357,304497,2,0,P|136:347|93:343,1,127.5,2|4,2:1|0:0,0:0:0:0:
62,341,304959,1,2,0:2:0:0:
130,147,305189,2,0,P|140:197|128:237,1,85,8|0,2:1|0:0,0:0:0:0:
130,147,305651,6,0,P|213:145|312:132,1,170,4|2,1:0|2:1,0:0:0:0:
335,122,306228,1,8,0:0:0:0:
335,122,306343,2,0,P|332:160|329:182,1,42.5,8|4,0:0|0:0,0:0:0:0:
379,294,306689,5,4,0:0:0:0:
339,308,306804,1,4,0:0:0:0:
296,300,306920,1,4,0:0:0:0:
262,274,307035,1,4,0:0:0:0:
228,247,307151,1,8,0:2:0:0:
188,233,307266,1,4,0:2:0:0:
145,241,307382,1,4,0:0:0:0:
