osu file format v14

[General]
AudioFilename: audio.mp3
AudioLeadIn: 0
PreviewTime: 80057
Countdown: 0
SampleSet: Soft
StackLeniency: 0.4
Mode: 0
LetterboxInBreaks: 0
WidescreenStoryboard: 0

[Editor]
DistanceSpacing: 1.2
BeatDivisor: 4
GridSize: 16
TimelineZoom: 1

[Metadata]
Title:Sasabune
TitleUnicode:笹舟
Artist:Hanatan
ArtistUnicode:花たん
Creator:jimmy55555
Version:Insane
Source:
Tags:doriko Bamboo leaf boat Flower Drops ユリカ yurica
BeatmapID:1700752
BeatmapSetID:810642

[Difficulty]
HPDrainRate:6
CircleSize:4.1
OverallDifficulty:8
ApproachRate:9
SliderMultiplier:1.4
SliderTickRate:1

[Events]
//Background and Video events
0,0,"1366.jpg",0,0
//Break Periods
//Storyboard Layer 0 (Background)
//Storyboard Layer 1 (Fail)
//Storyboard Layer 2 (Pass)
//Storyboard Layer 3 (Foreground)
//Storyboard Sound Samples

[TimingPoints]
967,340.909090909091,3,2,2,50,1,0
967,-111.111111111111,3,2,2,50,0,0
10171,-111.111111111111,3,2,2,30,0,0
10512,-111.111111111111,3,2,1,50,0,0
11194,-83.3333333333333,3,2,1,70,0,0
27557,-125,3,2,2,70,0,0
27643,-125,3,2,2,40,0,0
43921,-111.111111111111,3,2,1,40,0,0
44006,-111.111111111111,3,2,2,40,0,0
45967,-111.111111111111,3,2,1,40,0,0
46052,-111.111111111111,3,2,2,40,0,0
48012,-111.111111111111,3,2,1,40,0,0
48097,-111.111111111111,3,2,2,40,0,0
50057,-111.111111111111,3,2,1,40,0,0
50143,-111.111111111111,3,2,2,40,0,0
52103,-111.111111111111,3,2,1,40,0,0
52188,-111.111111111111,3,2,2,40,0,0
54148,-111.111111111111,3,2,1,40,0,0
54234,-111.111111111111,3,2,2,40,0,0
56194,-111.111111111111,3,2,1,40,0,0
56279,-111.111111111111,3,2,2,40,0,0
58239,-111.111111111111,3,2,1,40,0,0
60285,-90.9090909090909,3,2,1,50,0,0
72557,-86.9565217391304,3,2,1,55,0,0
76648,-83.3333333333333,3,2,1,60,0,0
78694,-83.3333333333333,3,2,2,60,0,0
80739,-76.9230769230769,3,2,1,70,0,1
83807,-74.0740740740741,3,2,1,75,0,1
84148,-76.9230769230769,3,2,1,70,0,1
91989,-76.9230769230769,3,2,1,75,0,1
92671,-76.9230769230769,3,2,1,80,0,1
93012,-76.9230769230769,3,2,1,75,0,1
94035,-76.9230769230769,3,2,1,70,0,1
102557,-71.4285714285714,3,2,1,80,0,1
102898,-76.9230769230769,3,2,1,70,0,1
113467,-142.857142857143,3,2,1,70,0,0
113552,-142.857142857143,3,2,2,40,0,0
121648,-133.333333333333,3,2,2,40,0,0
129830,-111.111111111111,3,2,2,40,0,0
131876,-111.111111111111,3,2,1,40,0,0
131961,-111.111111111111,3,2,2,40,0,0
133921,-111.111111111111,3,2,1,40,0,0
134006,-111.111111111111,3,2,2,40,0,0
135967,-111.111111111111,3,2,1,40,0,0
136052,-111.111111111111,3,2,2,40,0,0
136819,-111.111111111111,3,2,1,40,0,0
136904,-111.111111111111,3,2,2,40,0,0
137330,-111.111111111111,3,2,1,40,0,0
138012,-166.666666666667,3,2,2,30,0,0
142103,-111.111111111111,3,2,1,40,0,0
146194,-90.9090909090909,3,2,1,40,0,0
146279,-90.9090909090909,3,2,1,50,0,0
158467,-86.9565217391304,3,2,1,55,0,0
162557,-83.3333333333333,3,2,1,60,0,0
166648,-76.9230769230769,3,2,1,70,0,1
169717,-74.0740740740741,3,2,1,75,0,1
170057,-76.9230769230769,3,2,1,70,0,1
177898,-76.9230769230769,3,2,1,75,0,1
178580,-76.9230769230769,3,2,1,80,0,1
178921,-76.9230769230769,3,2,1,75,0,1
179944,-76.9230769230769,3,2,1,70,0,1
188467,-71.4285714285714,3,2,1,80,0,1
188807,-76.9230769230769,3,2,1,70,0,1
199333,-76.9230769230769,3,2,1,70,0,0
199376,-76.9230769230769,3,2,1,70,0,1
213694,-74.0740740740741,3,2,1,75,0,1
215739,-71.4285714285714,3,2,1,80,0,1
216762,-71.4285714285714,3,2,1,85,0,1
217785,-100,3,2,1,85,0,0
217827,-100,3,2,1,50,0,0
219830,-166.666666666667,3,2,2,30,0,0
236194,-111.111111111111,3,2,2,40,0,0
248467,-133.333333333333,3,2,1,35,0,0
250512,-90.9090909090909,3,2,1,50,0,0
252557,-76.9230769230769,3,2,1,70,0,1
255626,-74.0740740740741,3,2,1,75,0,1
255967,-76.9230769230769,3,2,1,70,0,1
263807,-76.9230769230769,3,2,1,75,0,1
264489,-76.9230769230769,3,2,1,80,0,1
264830,-76.9230769230769,3,2,1,75,0,1
265853,-76.9230769230769,3,2,1,70,0,1
274376,-71.4285714285714,3,2,1,80,0,1
274717,-76.9230769230769,3,2,1,70,0,1
285285,-83.3333333333333,3,2,1,70,0,0
301648,-142.857142857143,3,2,1,30,0,0

[Colours]
Combo1 : 0,128,128
Combo2 : 0,255,255
Combo3 : 18,124,255
Combo4 : 0,0,255
SliderBorder : 255,255,255

[HitObjects]
167,321,967,6,0,P|175:345|179:378,2,31.4999990386963,2|0|0,0:0|0:0|0:0,0:0:0:0:
101,247,1307,1,0,0:0:0:0:
132,154,1478,1,0,0:0:0:0:
228,134,1648,1,0,0:0:0:0:
197,227,1819,1,0,0:0:0:0:
162,61,1989,5,0,3:0:0:0:
393,194,2330,1,0,0:0:0:0:
167,321,2671,1,0,0:0:0:0:
279,35,3012,6,0,P|212:31|154:67,1,125.999996154785,2|0,0:0|0:0,0:0:0:0:
237,137,3523,1,0,0:0:0:0:
161,198,3694,2,0,P|143:228|136:261,1,62.9999980773926
225,341,4035,6,0,B|270:332|289:299|289:299|305:271|344:264|344:264|382:279|414:264|414:264|406:245|387:239,1,251.999992309571,0|0,3:0|0:0,0:0:0:0:
120,216,5057,6,0,P|100:218|82:225,2,31.4999990386963,2|0|0,0:0|0:0|0:0,0:0:0:0:
208,245,5398,1,0,0:0:0:0:
283,178,5569,1,0,0:0:0:0:
262,83,5738,1,0,0:0:0:0:
191,149,5910,1,0,0:0:0:0:
354,112,6080,6,0,P|410:126|449:180,1,125.999996154785,0|0,3:0|0:0,0:0:0:0:
283,178,6592,1,0,0:0:0:0:
262,83,6761,1,0,0:0:0:0:
354,112,6932,1,0,0:0:0:0:
191,149,7103,6,0,B|147:153|119:115|119:115|91:111|66:128,1,125.999996154785,2|0,0:0|0:0,0:0:0:0:
212,244,7614,1,0,0:0:0:0:
283,178,7785,2,0,P|287:139|274:98,1,62.9999980773926
212,244,8126,5,0,3:0:0:0:
421,221,8467,1,0,0:0:0:0:
426,47,8808,1,0,0:0:0:0:
234,338,9148,5,2,0:0:0:0:
256,192,9234,12,0,10171,0:0:0:0:
197,384,10512,5,2,0:0:0:0:
270,367,10682,1,2,0:0:0:0:
325,315,10853,1,8,0:3:0:0:
343,241,11023,1,8,0:3:0:0:
323,167,11194,6,0,P|288:133|246:124,1,83.9999974365235,4|0,3:2|0:0,0:0:0:0:
129,224,11535,2,0,P|139:267|167:300,1,83.9999974365235,0|2,3:2|0:0,0:0:0:0:
257,298,11876,2,0,P|247:255|219:222,1,83.9999974365235,0|0,3:2|0:0,0:0:0:0:
47,197,12217,6,0,P|77:155|120:139,1,83.9999974365235,8|0,3:2|0:0,0:0:0:0:
257,298,12557,2,0,L|240:390,1,83.9999974365235,0|0,3:0|0:0,0:0:0:0:
47,197,12898,2,0,L|64:289,1,83.9999974365235,0|0,3:0|0:0,0:0:0:0:
160,118,13239,6,0,L|143:210,1,83.9999974365235,2|0,3:2|0:0,0:0:0:0:
87,64,13580,2,0,P|123:33|173:26,1,83.9999974365235,0|2,3:0|0:0,0:0:0:0:
231,78,13921,2,0,P|200:106|160:117,1,83.9999974365235,0|0,3:0|0:0,0:0:0:0:
310,0,14262,6,0,P|342:39|348:89,1,83.9999974365235,8|0,3:2|0:0,0:0:0:0:
295,177,14603,1,0,3:0:0:0:
310,0,14773,1,8,0:0:0:0:
440,118,14944,2,0,B|429:153|391:169|391:169|392:210|370:236,1,125.999996154785,0|0,3:0|0:0,0:0:0:0:
388,260,15285,6,0,P|376:300|339:337,1,83.9999974365235,2|0,3:2|0:0,0:0:0:0:
209,203,15626,2,0,P|204:161|221:123,1,83.9999974365235,0|2,3:0|0:0,0:0:0:0:
295,177,15967,2,0,P|299:218|282:256,1,83.9999974365235,0|0,3:0|0:0,0:0:0:0:
167,366,16307,6,0,P|212:370|249:355,1,83.9999974365235,8|0,3:2|0:0,0:0:0:0:
78,278,16648,2,0,L|68:362,1,83.9999974365235,0|0,3:0|0:0,0:0:0:0:
182,192,16989,2,0,L|192:275,1,83.9999974365235,2|0,3:2|0:0,0:0:0:0:
107,146,17330,6,0,B|131:106|178:102|178:102|224:103|256:60,1,167.999994873047,2|0,3:2|0:0,0:0:0:0:
177,8,17842,1,0,0:0:0:0:
330,23,18012,2,0,P|342:67|332:112,1,83.9999974365235,2|2,3:2|0:0,0:0:0:0:
107,146,18353,6,0,P|95:190|105:235,1,83.9999974365235,8|0,3:2|0:0,0:0:0:0:
58,60,18694,1,2,3:2:0:0:
14,122,18864,1,2,0:0:0:0:
0,196,19035,1,8,0:0:0:0:
19,269,19205,1,8,0:0:0:0:
67,327,19376,6,0,P|105:351|153:349,1,83.9999974365235,6|0,3:2|0:0,0:0:0:0:
192,197,19717,2,0,P|194:155|171:114,1,83.9999974365235,0|2,3:0|0:0,0:0:0:0:
100,177,20057,2,0,P|98:219|121:260,1,83.9999974365235,0|0,3:0|0:0,0:0:0:0:
225,47,20398,6,0,P|187:23|139:25,1,83.9999974365235,8|0,3:2|0:0,0:0:0:0:
316,132,20739,2,0,L|326:48,1,83.9999974365235,0|0,3:0|0:0,0:0:0:0:
100,177,21080,2,0,L|89:93,1,83.9999974365235,2|0,3:2|0:0,0:0:0:0:
181,280,21421,6,0,L|192:193,1,83.9999974365235,2|0,3:2|0:0,0:0:0:0:
328,66,21762,2,0,P|370:59|413:77,1,83.9999974365235,0|2,3:0|0:0,0:0:0:0:
360,155,22102,2,0,P|319:161|275:144,1,83.9999974365235,0|0,3:0|0:0,0:0:0:0:
458,200,22444,6,0,P|433:231|367:255,1,83.9999974365235,8|0,3:2|0:0,0:0:0:0:
281,148,22785,1,2,3:2:0:0:
458,200,22955,1,8,0:0:0:0:
328,66,23126,2,0,B|314:56|293:53|293:53|340:19|391:27,1,125.999996154785,0|0,3:0|0:0,0:0:0:0:
416,54,23467,6,0,P|410:102|379:138,1,83.9999974365235,2|0,3:2|0:0,0:0:0:0:
256,223,23807,2,0,P|257:181|288:141,1,83.9999974365235,0|2,3:0|0:0,0:0:0:0:
347,213,24148,2,0,P|345:254|314:294,1,83.9999974365235,0|0,3:0|0:0,0:0:0:0:
204,95,24489,6,0,P|233:67|279:56,1,83.9999974365235,8|0,3:2|0:0,0:0:0:0:
309,225,24830,2,0,L|274:134,1,83.9999974365235,0|0,3:2|0:0,0:0:0:0:
214,329,25171,2,0,L|198:225,1,83.9999974365235,2|0,3:2|0:0,0:0:0:0:
331,310,25512,6,0,B|373:303|393:257|393:257|412:215|469:205,1,167.999994873047,2|0,0:0|3:0,0:0:0:0:
422,366,26023,1,0,0:0:0:0:
309,225,26194,2,0,P|316:175|341:143,1,83.9999974365235,2|0,3:2|0:0,0:0:0:0:
425,260,26535,5,8,3:2:0:0:
246,286,26705,1,0,0:0:0:0:
260,84,26876,2,0,P|297:56|349:51,1,83.9999974365235,0|2,3:0|0:0,0:0:0:0:
173,135,27217,2,0,P|161:92|167:50,1,83.9999974365235,2|0,3:2|0:0,0:0:0:0:
334,148,27557,5,4,0:0:0:0:
222,352,28239,1,0,0:0:0:0:
117,298,28580,2,0,P|94:244|103:177,1,112,0|0,3:0|0:0,0:0:0:0:
216,235,29262,1,0,0:0:0:0:
222,352,29603,5,2,0:0:0:0:
323,285,29944,2,0,P|335:255|333:221,1,56
250,174,30285,2,0,P|238:204|240:238,1,56
342,129,30626,1,2,0:0:0:0:
121,227,30967,1,0,0:0:0:0:
331,373,31307,1,0,0:0:0:0:
263,248,31648,5,4,0:0:0:0:
512,255,32330,1,0,0:0:0:0:
388,282,32671,2,0,P|339:259|308:204,2,112,0|0|0,3:0|0:0|0:0,0:0:0:0:
428,159,33694,5,2,0:0:0:0:
324,81,34035,2,0,P|293:78|269:84,1,56
240,180,34376,2,0,P|271:183|295:177,1,56
175,105,34717,1,2,0:0:0:0:
139,194,35057,1,0,0:0:0:0:
103,283,35398,1,0,0:0:0:0:
295,178,35739,5,4,0:0:0:0:
482,341,36421,1,0,0:0:0:0:
443,224,36762,2,0,P|401:194|332:193,1,112,0|0,3:0|0:0,0:0:0:0:
363,316,37444,1,0,0:0:0:0:
481,344,37785,5,2,0:0:0:0:
475,222,38126,2,0,P|466:194|444:167,1,56
357,175,38467,2,0,P|366:203|388:230,1,56
403,89,38808,1,2,0:0:0:0:
302,258,39149,1,0,0:0:0:0:
322,31,39489,1,0,0:0:0:0:
383,316,39830,5,4,0:0:0:0:
223,63,40512,1,0,0:0:0:0:
110,199,40853,2,0,P|93:257|104:322,2,112,0|0|0,3:0|0:0|0:0,0:0:0:0:
180,371,41876,6,0,B|190:364|199:351|199:351|258:358|300:320,1,112,2|0,0:0|0:0,0:0:0:0:
99,308,42387,1,0,0:0:0:0:
180,371,42557,1,0,0:0:0:0:
121,105,42899,1,2,0:0:0:0:
224,241,43239,1,0,0:0:0:0:
99,308,43580,1,0,0:0:0:0:
246,38,43921,6,0,P|301:76|327:137,1,125.999996154785,4|0,0:0|0:0,0:0:0:0:
224,241,44432,1,0,3:0:0:0:
153,164,44603,2,0,P|147:126|164:82,1,62.9999980773926
224,241,44944,6,0,P|201:301|134:340,1,125.999996154785,2|0,3:2|0:0,0:0:0:0:
153,164,45455,1,0,3:0:0:0:
255,141,45626,2,0,P|289:158|312:188,1,62.9999980773926
317,300,45967,6,0,P|376:264|405:200,1,125.999996154785,2|0,0:0|0:0,0:0:0:0:
224,241,46478,1,0,3:0:0:0:
220,350,46648,2,0,P|243:371|280:381,1,62.9999980773926
224,241,46989,5,2,3:2:0:0:
414,158,47330,2,0,P|452:163|486:194,1,62.9999980773926,0|0,0:0|3:0,0:0:0:0:
432,66,47671,2,0,P|405:44|359:40,1,62.9999980773926,0|0,0:0|3:0,0:0:0:0:
301,162,48012,5,2,0:0:0:0:
98,226,48353,2,0,P|60:221|26:190,1,62.9999980773926
80,318,48694,2,0,P|107:340|153:344,1,62.9999980773926
256,255,49035,5,2,0:0:0:0:
421,133,49376,1,0,0:0:0:0:
402,229,49546,1,0,3:0:0:0:
328,165,49717,2,0,P|323:127|332:92,1,62.9999980773926
421,133,50057,5,2,0:0:0:0:
309,261,50398,2,0,P|273:246|248:221,1,62.9999980773926
402,229,50739,2,0,P|437:243|463:269,1,62.9999980773926
313,260,51080,5,2,3:2:0:0:
127,146,51421,2,0,P|91:160|66:186,1,62.9999980773926,0|0,0:0|3:0,0:0:0:0:
220,178,51762,2,0,P|255:163|281:138,1,62.9999980773926,0|0,0:0|3:0,0:0:0:0:
145,242,52103,6,0,P|167:294|227:328,1,125.999996154785,2|0,0:2|0:0,0:0:0:0:
220,178,52614,1,0,3:0:0:0:
127,146,52785,2,0,P|91:160|66:186,1,62.9999980773926,0|0,0:0|3:0,0:0:0:0:
201,81,53126,6,0,P|153:40|70:37,1,125.999996154785,2|0,3:2|0:0,0:0:0:0:
220,178,53637,1,0,3:0:0:0:
294,113,53807,2,0,P|301:78|295:47,1,62.9999980773926
220,178,54148,6,0,P|245:238|309:279,1,125.999996154785,2|0,3:2|0:0,0:0:0:0:
294,113,54660,1,0,3:0:0:0:
201,81,54830,2,0,P|165:96|136:128,1,62.9999980773926,0|0,0:0|3:0,0:0:0:0:
294,113,55171,5,2,3:2:0:0:
106,290,55512,2,0,P|130:316|178:328,1,62.9999980773926,0|0,0:0|3:0,0:0:0:0:
308,290,55853,2,0,P|283:263|235:251,1,62.9999980773926,0|0,0:0|3:0,0:0:0:0:
106,290,56194,5,2,0:0:0:0:
291,167,56535,2,0,P|307:133|302:85,1,62.9999980773926,0|0,0:0|3:0,0:0:0:0:
220,41,56876,2,0,P|207:71|208:122,1,62.9999980773926,0|0,0:0|3:0,0:0:0:0:
395,182,57217,6,0,L|478:167,1,62.9999980773926,0|0,3:2|0:0,0:0:0:0:
319,323,57558,2,0,L|402:338,1,62.9999980773926,0|0,0:0|3:0,0:0:0:0:
308,108,57898,2,0,L|391:93,1,62.9999980773926,0|0,3:0|0:0,0:0:0:0:
205,230,58239,6,0,B|220:249|251:256|251:256|277:227|324:227,1,125.999996154785,2|0,0:0|0:0,0:0:0:0:
319,323,58751,1,0,0:0:0:0:
179,320,58921,2,0,P|142:293|122:260,1,62.9999980773926,0|2,0:0|3:2,0:0:0:0:
319,323,59262,5,8,0:0:0:0:
268,17,59603,1,10,0:0:0:0:
289,114,59773,1,2,0:0:0:0:
363,48,59944,1,8,0:3:0:0:
268,17,60114,1,8,0:3:0:0:
385,145,60285,6,0,B|405:185|391:223|391:223|396:250|425:260|425:260|402:277,1,154.000004699707,4|0,0:0|0:0,0:0:0:0:
292,189,60796,2,0,P|284:151|289:114,2,77.0000023498536,0|2|0,3:0|0:0|0:0,0:0:0:0:
479,82,61307,6,0,P|464:42|437:15,1,77.0000023498536,8|0,0:0|0:0,0:0:0:0:
396,233,61648,2,0,P|377:273|336:303,1,77.0000023498536,0|0,3:0|0:0,0:0:0:0:
367,106,61989,1,0,0:0:0:0:
477,268,62160,1,0,3:0:0:0:
474,287,62245,1,0,3:0:0:0:
466,305,62330,6,0,P|421:355|338:377,1,154.000004699707,2|0,0:0|0:0,0:0:0:0:
154,338,62842,1,0,3:0:0:0:
278,282,63012,2,0,P|322:281|367:305,1,77.0000023498536,0|2,0:0|0:0,0:0:0:0:
154,338,63353,5,8,0:0:0:0:
291,181,63523,1,0,3:0:0:0:
310,178,63609,1,0,3:0:0:0:
329,179,63694,1,0,3:0:0:0:
245,280,63864,1,0,3:0:0:0:
302,99,64035,1,2,0:0:0:0:
409,235,64205,1,0,3:0:0:0:
398,251,64291,1,0,3:0:0:0:
384,264,64376,6,0,B|362:282|334:282|334:282|333:343|274:367,1,154.000004699707,2|0,0:0|0:0,0:0:0:0:
257,160,64887,2,0,P|295:160|328:178,2,77.0000023498536,0|2|0,3:0|0:0|0:0,0:0:0:0:
426,348,65398,6,0,P|466:325|494:285,1,77.0000023498536,8|0,0:0|0:0,0:0:0:0:
269,250,65739,2,0,P|229:273|201:313,1,77.0000023498536,0|0,3:0|0:0,0:0:0:0:
393,256,66080,1,0,0:0:0:0:
257,160,66251,1,0,3:0:0:0:
238,159,66336,1,0,3:0:0:0:
219,162,66421,6,0,B|185:165|160:188|160:188|136:144|75:133,1,154.000004699707,2|0,0:0|0:0,0:0:0:0:
209,296,66932,1,0,3:0:0:0:
69,240,67103,1,2,0:0:0:0:
69,240,67273,1,2,0:0:0:0:
178,379,67444,6,0,B|222:395|261:369|261:369|298:364|325:383,1,154.000004699707,12|0,0:0|0:0,0:0:0:0:
209,296,67955,2,0,P|164:289|117:312,1,77.0000023498536,0|2,3:0|0:0,0:0:0:0:
324,382,68296,1,0,3:0:0:0:
339,370,68381,1,0,3:0:0:0:
350,354,68467,6,0,B|386:319|376:251|376:251|392:221|429:215,1,154.000004699707,6|0,0:0|0:0,0:0:0:0:
209,296,68978,2,0,P|188:262|181:226,2,77.0000023498536,0|2|0,3:0|0:0|0:0,0:0:0:0:
181,87,69489,6,0,P|147:111|122:162,1,77.0000023498536,8|0,0:0|0:0,0:0:0:0:
209,296,69830,2,0,P|225:336|222:377,1,77.0000023498536,0|0,0:0|3:0,0:0:0:0:
114,226,70171,1,0,0:0:0:0:
222,178,70342,1,0,3:0:0:0:
241,181,70427,1,0,3:0:0:0:
258,190,70512,6,0,B|288:204|306:234|306:234|303:250|303:250|315:292|363:304,1,154.000004699707,2|0,0:0|0:0,0:0:0:0:
337,146,71023,1,0,3:0:0:0:
218,270,71194,2,0,P|232:322|257:355,1,77.0000023498536,0|2,0:0|0:0,0:0:0:0:
337,146,71535,6,0,P|291:74|206:51,1,154.000004699707,8|0,0:0|0:0,0:0:0:0:
218,270,72046,1,8,0:0:0:0:
337,146,72217,1,8,0:3:0:0:
212,183,72387,1,8,0:3:0:0:
393,215,72557,6,0,P|421:180|426:130,1,80.5000015354157,4|0,0:0|0:0,0:0:0:0:
332,289,72898,2,0,P|368:310|418:308,1,80.5000015354157,0|0,0:0|3:0,0:0:0:0:
218,270,73239,2,0,P|215:317|240:365,1,80.5000015354157
337,146,73580,6,0,P|290:79|189:66,1,161.000003070831,12|2,0:0|0:0,0:0:0:0:
94,131,74092,2,0,P|90:91|103:53,1,80.5000015354157,0|0,3:0|0:0,0:0:0:0:
218,270,74432,1,0,3:0:0:0:
218,270,74518,1,0,3:0:0:0:
218,270,74603,6,0,P|221:223|196:175,1,80.5000015354157,2|0,0:0|0:0,0:0:0:0:
79,269,74944,2,0,P|76:316|101:364,1,80.5000015354157,0|0,0:0|3:0,0:0:0:0:
295,162,75285,2,0,P|270:118|232:93,1,80.5000015354157,2|0,0:0|0:0,0:0:0:0:
175,293,75626,5,12,0:0:0:0:
381,65,75967,1,8,0:0:0:0:
295,162,76137,1,8,0:0:0:0:
423,188,76307,1,2,0:0:0:0:
63,112,76648,6,0,L|82:206,1,83.9999974365235,6|0,0:0|0:0,0:0:0:0:
142,44,76989,1,0,0:0:0:0:
63,112,77160,1,0,3:0:0:0:
241,79,77330,1,2,0:0:0:0:
43,9,77501,1,2,0:0:0:0:
261,182,77671,6,0,L|280:276,1,83.9999974365235,8|0,0:0|0:0,0:0:0:0:
158,126,78012,2,0,L|139:32,1,83.9999974365235,8|0,0:3|0:0,0:0:0:0:
376,299,78353,2,0,L|395:393,1,83.9999974365235,8|0,0:3|0:0,0:0:0:0:
43,9,78694,5,4,0:0:0:0:
162,114,80739,6,0,B|153:152|170:180|170:180|186:206|180:231|163:251|163:251|149:231|152:210,1,181.999991668702,4|0,0:0|0:0,0:0:0:0:
246,137,81251,1,2,0:0:0:0:
215,329,81421,2,0,P|168:346|117:333,1,90.9999958343508
378,303,81762,6,0,P|385:253|365:205,1,90.9999958343508,8|0,0:0|0:0,0:0:0:0:
246,137,82103,1,2,0:0:0:0:
292,267,82273,1,0,3:0:0:0:
340,137,82444,1,2,0:0:0:0:
212,222,82614,1,0,3:0:0:0:
200,241,82699,1,0,3:0:0:0:
194,263,82785,6,0,P|197:308|232:356,1,90.9999958343508,2|0,0:0|0:0,0:0:0:0:
340,137,83126,2,0,P|383:162|406:203,1,90.9999958343508,0|2,0:0|0:0,0:0:0:0:
131,149,83467,2,0,P|106:192|106:246,1,90.9999958343508
313,35,83807,6,0,P|366:33|413:62,1,94.5000003604889,8|0,0:0|0:0,0:0:0:0:
469,253,84148,1,2,0:0:0:0:
340,137,84319,1,8,0:0:0:0:
446,148,84489,1,0,0:0:0:0:
297,236,84660,1,0,3:0:0:0:
276,228,84745,1,0,3:0:0:0:
258,214,84830,6,0,B|229:189|177:191|142:211|142:211|156:175|185:165,1,181.999991668702,2|0,0:0|0:0,0:0:0:0:
340,137,85342,1,2,0:0:0:0:
173,52,85512,2,0,P|122:57|83:84,1,90.9999958343508
340,137,85853,6,0,P|380:160|408:210,1,90.9999958343508,8|0,0:0|0:0,0:0:0:0:
296,236,86194,1,2,0:0:0:0:
233,150,86364,1,0,3:0:0:0:
339,137,86535,1,2,0:0:0:0:
297,236,86705,1,0,3:0:0:0:
277,248,86790,1,0,3:0:0:0:
256,257,86876,6,0,P|204:259|161:233,1,90.9999958343508,2|0,0:0|0:0,0:0:0:0:
339,137,87217,1,2,0:0:0:0:
361,322,87387,1,0,3:0:0:0:
297,236,87557,1,2,0:0:0:0:
403,223,87728,1,2,0:0:0:0:
255,335,87898,6,0,P|218:312|188:253,1,90.9999958343508,8|0,0:0|0:0,0:0:0:0:
339,137,88239,1,0,0:0:0:0:
297,236,88410,1,2,0:0:0:0:
275,51,88580,1,8,0:0:0:0:
445,124,88751,1,8,0:0:0:0:
233,150,88921,6,0,B|203:168|188:206|188:206|155:227|118:215|118:215|116:241|132:255,1,181.999991668702,6|0,0:0|0:0,0:0:0:0:
297,236,89432,1,2,0:0:0:0:
275,51,89603,2,0,P|223:39|185:50,1,90.9999958343508
379,133,89944,6,0,P|424:104|443:70,1,90.9999958343508,8|0,0:0|0:0,0:0:0:0:
275,51,90285,1,2,0:0:0:0:
297,236,90455,1,0,3:0:0:0:
379,133,90626,1,2,0:0:0:0:
193,154,90796,1,0,3:0:0:0:
176,169,90881,1,0,3:0:0:0:
163,188,90967,6,0,P|146:240|168:311,1,90.9999958343508,2|0,0:0|0:0,0:0:0:0:
379,133,91307,2,0,P|416:167|431:215,1,90.9999958343508,0|2,0:0|0:0,0:0:0:0:
167,42,91648,2,0,P|123:63|94:117,1,90.9999958343508
361,270,91989,6,0,P|339:316|276:347,1,90.9999958343508,8|0,0:0|0:0,0:0:0:0:
133,205,92330,1,2,0:0:0:0:
361,270,92501,1,8,0:0:0:0:
66,317,92671,1,0,0:0:0:0:
262,184,92842,1,0,3:0:0:0:
262,184,92927,1,0,3:0:0:0:
262,184,93012,6,0,B|257:140|233:104|186:85|186:85|218:69|248:87,1,181.999991668702,2|0,0:0|0:0,0:0:0:0:
207,300,93523,1,2,0:0:0:0:
370,126,93694,2,0,P|382:72|367:29,1,90.9999958343508
366,248,94035,6,0,B|381:288|410:307|410:307|428:345|411:376|411:376|408:349|392:328,1,181.999991668702,8|0,0:0|0:0,0:0:0:0:
473,214,94546,1,0,3:0:0:0:
321,384,94717,1,2,0:0:0:0:
473,214,94887,1,0,3:0:0:0:
482,221,94972,1,0,3:0:0:0:
491,228,95057,6,0,P|513:278|510:333,1,90.9999958343508,2|0,0:0|0:0,0:0:0:0:
321,384,95398,1,2,0:0:0:0:
362,191,95569,1,8,0:0:0:0:
397,299,95739,1,2,0:0:0:0:
286,276,95910,1,2,0:0:0:0:
473,214,96080,6,0,P|474:165|448:117,1,90.9999958343508,8|0,0:0|0:0,0:0:0:0:
397,299,96421,1,0,0:0:0:0:
473,214,96592,1,2,3:2:0:0:
286,276,96762,1,8,0:0:0:0:
397,299,96932,1,8,0:3:0:0:
251,168,97103,6,0,P|213:184|181:227,1,90.9999958343508,4|0,0:0|0:0,0:0:0:0:
397,299,97444,2,0,P|396:252|364:204,1,90.9999958343508,0|2,0:0|0:0,0:0:0:0:
286,276,97785,2,0,P|287:323|319:371,1,90.9999958343508
423,122,98126,6,0,P|458:153|484:215,1,90.9999958343508,8|0,0:0|0:0,0:0:0:0:
251,168,98467,1,0,0:0:0:0:
423,122,98637,1,0,3:0:0:0:
375,214,98807,1,2,0:0:0:0:
299,76,98978,1,0,3:0:0:0:
278,67,99063,1,0,3:0:0:0:
256,62,99148,6,0,P|204:69|170:96,1,90.9999958343508,2|0,0:0|0:0,0:0:0:0:
317,317,99489,2,0,P|337:276|335:232,1,90.9999958343508,0|2,0:0|0:0,0:0:0:0:
250,168,99830,2,0,P|231:208|233:253,1,90.9999958343508
412,83,100171,6,0,P|447:115|469:184,1,90.9999958343508,8|0,0:0|0:0,0:0:0:0:
250,168,100512,1,2,0:0:0:0:
412,83,100682,1,8,0:0:0:0:
357,180,100852,1,0,0:0:0:0:
289,46,101023,1,0,3:0:0:0:
267,40,101108,1,0,3:0:0:0:
244,36,101193,6,0,P|197:44|160:69,1,90.9999958343508,2|0,0:0|0:0,0:0:0:0:
69,277,101535,2,0,P|116:269|154:242,1,90.9999958343508,0|2,0:0|0:0,0:0:0:0:
56,75,101876,2,0,L|72:164,1,90.9999958343508,0|2,0:0|0:0,0:0:0:0:
293,251,102217,6,0,L|272:365,1,90.9999958343508,8|0,0:0|0:0,0:0:0:0:
184,5,102557,2,0,L|189:116,1,97.9999970092774,0|0,0:0|3:0,0:0:0:0:
399,208,102898,1,2,0:0:0:0:
189,103,103069,1,0,3:0:0:0:
167,97,103154,1,0,3:0:0:0:
145,91,103239,6,0,B|117:88|92:106|92:106|55:151|1:131|1:131|11:117|24:121,1,181.999991668702,2|0,0:0|0:0,0:0:0:0:
143,195,103751,1,0,3:0:0:0:
28,26,103921,1,2,0:0:0:0:
28,26,104092,1,2,0:0:0:0:
234,10,104262,6,0,P|278:45|297:98,1,90.9999958343508,12|0,0:0|0:0,0:0:0:0:
38,143,104603,2,0,P|25:191|34:238,1,90.9999958343508,0|2,0:0|0:0,0:0:0:0:
252,248,104944,1,8,0:0:0:0:
135,76,105114,1,8,0:0:0:0:
152,315,105285,6,0,B|186:358|226:355|226:355|247:337|270:329|270:329|296:333|325:333,1,181.999991668702,6|0,0:0|0:0,0:0:0:0:
144,195,105796,2,0,P|103:203|58:238,2,90.9999958343508,2|0|0,3:2|0:0|0:0,0:0:0:0:
376,249,106307,6,0,P|417:241|462:206,1,90.9999958343508,8|0,0:0|0:0,0:0:0:0:
252,248,106648,2,0,P|269:295|313:336,1,90.9999958343508,0|0,0:0|3:0,0:0:0:0:
371,126,106989,1,0,0:0:0:0:
144,195,107160,1,0,3:0:0:0:
134,217,107245,1,0,3:0:0:0:
127,239,107330,6,0,B|120:274|136:302|136:302|154:338|122:379|122:379|116:358|115:332,1,181.999991668702,2|0,0:0|0:0,0:0:0:0:
360,301,107842,2,0,P|384:347|387:395,2,90.9999958343508,2|0|0,3:2|0:0|0:0,0:0:0:0:
298,69,108353,6,0,B|330:22|391:27,1,90.9999958343508,8|0,0:0|3:0,0:0:0:0:
329,185,108694,1,0,0:0:0:0:
183,38,108864,1,8,0:0:0:0:
298,69,109035,1,0,0:0:0:0:
98,122,109205,1,0,3:0:0:0:
79,110,109290,1,0,3:0:0:0:
60,98,109376,6,0,B|46:169|46:169|67:208|101:211|101:211|63:240,1,181.999991668702,2|0,0:0|0:0,0:0:0:0:
214,139,109887,1,2,0:0:0:0:
128,304,110057,2,0,B|88:336|39:321,1,90.9999958343508
214,139,110398,6,0,P|255:113|313:118,1,90.9999958343508,8|0,0:0|0:0,0:0:0:0:
312,332,110739,2,0,B|277:323|246:331|224:354,1,90.9999958343508,6|0,0:0|3:0,0:0:0:0:
410,291,111080,1,2,0:0:0:0:
196,226,111251,1,0,3:0:0:0:
174,219,111336,1,0,3:0:0:0:
155,206,111421,6,0,P|128:169|127:110,1,90.9999958343508,2|0,0:0|0:0,0:0:0:0:
326,227,111762,1,4,0:0:0:0:
134,299,111932,1,8,0:0:0:0:
214,139,112103,1,2,0:0:0:0:
312,332,112273,1,8,0:0:0:0:
63,234,112444,5,8,0:0:0:0:
205,364,112614,1,8,0:3:0:0:
214,139,112785,1,2,0:0:0:0:
200,120,112870,1,0,0:0:0:0:
183,105,112955,1,2,0:0:0:0:
163,95,113040,1,0,0:0:0:0:
141,89,113125,1,8,0:3:0:0:
111,86,113211,1,0,0:0:0:0:
83,73,113296,1,8,0:3:0:0:
62,51,113381,1,0,0:0:0:0:
50,23,113467,6,0,B|28:66|51:103|51:103|85:113|93:134|93:134|68:156|65:203,1,195.999994018555,4|0,0:0|0:0,0:0:0:0:
185,213,114489,1,0,3:0:0:0:
178,69,114830,1,0,0:0:0:0:
109,303,115171,1,0,0:0:0:0:
306,134,115512,6,0,P|360:140|404:166,2,97.9999970092774,2|0|0,0:0|0:0|0:0,0:0:0:0:
313,278,116535,1,0,3:0:0:0:
178,69,116876,1,0,0:0:0:0:
192,357,117217,1,0,0:0:0:0:
57,148,117557,6,0,P|58:99|81:45,2,97.9999970092774,2|0|0,0:0|0:0|0:0,0:0:0:0:
313,278,118580,2,0,P|317:245|314:216,1,48.9999985046387,0|0,3:0|0:0,0:0:0:0:
287,123,118921,1,0,0:0:0:0:
192,357,119262,1,0,0:0:0:0:
192,357,119603,6,0,B|182:351|177:343|177:343|186:296|158:256,1,97.9999970092774,2|0,0:0|0:0,0:0:0:0:
100,318,120114,1,0,0:0:0:0:
192,357,120285,1,0,0:0:0:0:
100,66,120626,1,0,3:0:0:0:
100,318,120967,1,0,0:0:0:0:
285,218,121307,1,0,0:0:0:0:
8,279,121648,6,0,B|32:217|94:207|94:207|147:197|177:130|177:130|197:175|181:210,1,315.000012016297,4|0,0:0|0:0,0:0:0:0:
70,106,123012,1,0,0:0:0:0:
240,331,123353,1,0,0:0:0:0:
274,115,123694,6,0,B|292:166|280:220|280:220|328:234|351:294|351:294|360:233|325:185,1,315.000012016297,2|0,0:0|0:0,0:0:0:0:
240,331,125057,1,0,0:0:0:0:
392,70,125398,1,0,0:0:0:0:
157,186,125739,6,0,B|141:201|137:229|137:229|155:246|161:269|161:269|127:322|154:377,1,210.000008010865,2|0,0:0|0:0,0:0:0:0:
275,128,126762,1,0,0:0:0:0:
240,331,127103,1,0,0:0:0:0:
157,186,127444,1,0,0:0:0:0:
434,260,127785,6,0,B|471:253|494:226|494:226|515:232|528:247,2,105.000004005432,2|0|0,0:0|0:0|0:0,0:0:0:0:
288,134,128807,2,0,B|364:112|424:164|424:164|451:133|493:135,1,210.000008010865
212,225,129830,6,0,P|146:215|92:150,1,125.999996154785,4|0,0:0|0:0,0:0:0:0:
288,134,130342,1,0,3:0:0:0:
329,245,130512,2,0,P|322:276|303:303,1,62.9999980773926
288,134,130853,6,0,P|345:93|405:92,1,125.999996154785,2|0,3:2|0:0,0:0:0:0:
329,245,131364,1,0,3:0:0:0:
212,225,131535,2,0,P|188:203|174:173,1,62.9999980773926
329,245,131876,6,0,B|313:315|247:340,1,125.999996154785,2|0,0:0|0:0,0:0:0:0:
107,333,132387,1,0,3:0:0:0:
153,243,132557,2,0,P|186:226|221:226,1,62.9999980773926
107,333,132898,5,2,3:2:0:0:
203,121,133239,2,0,P|166:105|119:108,1,62.9999980773926,0|0,0:0|3:0,0:0:0:0:
246,207,133580,2,0,P|279:190|314:190,1,62.9999980773926,0|0,0:0|3:0,0:0:0:0:
200,297,133921,5,2,0:0:0:0:
405,255,134262,2,0,P|441:270|488:267,1,62.9999980773926
362,169,134603,2,0,P|329:186|294:186,1,62.9999980773926
166,94,134944,5,2,0:0:0:0:
414,88,135285,1,0,0:0:0:0:
362,169,135455,1,0,3:0:0:0:
317,83,135626,2,0,P|327:43|356:13,1,62.9999980773926
362,169,135966,5,2,0:0:0:0:
92,79,136307,2,0,P|67:108|60:145,1,62.9999980773926,0|0,0:0|3:0,0:0:0:0:
121,210,136648,2,0,P|143:180|150:143,1,62.9999980773926,0|2,0:0|0:0,0:0:0:0:
0,26,136989,5,2,3:2:0:0:
121,210,137330,1,2,0:0:0:0:
62,132,137501,1,8,0:3:0:0:
24,222,137671,1,8,0:3:0:0:
121,210,137842,1,0,0:0:0:0:
62,132,138012,5,4,0:0:0:0:
62,132,138694,1,0,0:0:0:0:
176,298,139035,6,0,P|191:233|166:173,1,125.999996154785
62,132,139717,1,0,0:0:0:0:
375,61,140057,5,2,0:0:0:0:
279,367,140398,1,0,0:0:0:0:
219,97,140739,1,0,0:0:0:0:
327,221,141080,1,2,0:0:0:0:
62,132,141421,1,0,0:0:0:0:
219,97,141762,1,0,0:0:0:0:
150,161,141932,1,0,3:0:0:0:
131,68,142103,5,2,0:0:0:0:
240,189,142444,2,0,P|221:226|189:249,1,62.9999980773926
115,211,142785,2,0,P|134:174|166:151,1,62.9999980773926
243,323,143126,6,0,L|258:406,1,62.9999980773926,0|0,3:0|0:0,0:0:0:0:
115,211,143467,2,0,L|100:294,1,62.9999980773926,0|0,3:0|3:0,0:0:0:0:
317,236,143807,2,0,L|332:319,1,62.9999980773926,0|0,3:0|0:0,0:0:0:0:
208,97,144148,6,0,B|189:112|182:143|182:143|211:169|211:216,1,125.999996154785,2|0,0:0|0:0,0:0:0:0:
115,211,144660,1,0,0:0:0:0:
118,71,144830,2,0,P|145:34|178:14,1,62.9999980773926,0|2,0:0|3:2,0:0:0:0:
115,211,145171,5,8,0:0:0:0:
428,57,145512,1,10,0:0:0:0:
312,71,145682,1,2,0:0:0:0:
383,165,145853,1,8,0:3:0:0:
428,57,146023,1,8,0:3:0:0:
267,179,146194,6,0,B|269:223|302:252|302:252|298:280|282:297|282:297|312:315,1,154.000004699707,4|0,0:0|0:0,0:0:0:0:
420,229,146705,2,0,P|407:192|382:164,2,77.0000023498536,0|2|0,3:0|0:0|0:0,0:0:0:0:
267,179,147216,6,0,P|269:134|287:101,1,77.0000023498536,8|0,0:0|0:0,0:0:0:0:
420,229,147557,2,0,P|416:275|397:309,1,77.0000023498536,0|0,3:0|0:0,0:0:0:0:
267,179,147898,1,0,0:0:0:0:
420,229,148069,1,0,3:0:0:0:
430,246,148154,1,0,3:0:0:0:
435,265,148239,6,0,P|426:342|364:387,1,154.000004699707,2|0,0:0|0:0,0:0:0:0:
174,373,148751,1,0,3:0:0:0:
274,261,148921,2,0,P|318:269|350:297,1,77.0000023498536,0|2,0:0|0:0,0:0:0:0:
174,373,149262,5,8,0:0:0:0:
189,213,149432,1,0,3:0:0:0:
198,196,149518,1,0,3:0:0:0:
212,183,149603,1,0,3:0:0:0:
274,261,149773,1,0,3:0:0:0:
104,165,149944,1,2,0:0:0:0:
311,169,150114,1,0,3:0:0:0:
329,176,150200,1,0,3:0:0:0:
345,187,150285,6,0,B|374:207|377:245|377:245|371:260|371:260|374:296|407:323,1,154.000004699707,2|0,0:0|0:0,0:0:0:0:
237,353,150796,2,0,P|204:331|179:286,2,77.0000023498536,0|2|0,3:0|0:0|0:0,0:0:0:0:
471,230,151307,6,0,P|468:186|440:139,1,77.0000023498536,8|0,0:0|0:0,0:0:0:0:
258,89,151648,2,0,P|261:133|289:180,1,77.0000023498536,0|0,0:0|3:0,0:0:0:0:
325,3,151989,1,0,0:0:0:0:
164,63,152160,1,0,3:0:0:0:
157,81,152245,1,0,3:0:0:0:
155,100,152330,6,0,B|155:126|166:148|166:148|107:125|59:163,1,154.000004699707,2|0,0:0|0:0,0:0:0:0:
224,230,152842,1,0,3:0:0:0:
258,89,153012,1,2,0:0:0:0:
258,89,153182,1,2,0:0:0:0:
128,239,153353,6,0,B|136:294|183:319|183:319|152:331|116:320,1,154.000004699707,12|0,0:0|0:0,0:0:0:0:
224,230,153864,2,0,P|261:252|283:292,1,77.0000023498536,0|2,3:0|0:0,0:0:0:0:
128,239,154205,1,0,3:0:0:0:
127,220,154290,1,0,3:0:0:0:
132,200,154376,5,4,0:0:0:0:
224,230,154717,1,0,0:0:0:0:
224,230,154887,2,0,P|228:185|211:142,2,77.0000023498536,0|2|0,3:0|0:0|0:0,0:0:0:0:
14,171,155398,6,0,P|5:127|30:69,1,77.0000023498536,8|0,0:0|0:0,0:0:0:0:
113,261,155739,2,0,P|106:305|79:341,1,77.0000023498536,0|0,0:0|3:0,0:0:0:0:
14,171,156080,1,0,0:0:0:0:
204,197,156251,1,0,3:0:0:0:
216,212,156336,1,0,3:0:0:0:
224,230,156421,6,0,B|240:260|232:290|232:290|220:324|239:355|239:355|266:317,1,154.000004699707,2|0,0:0|0:0,0:0:0:0:
113,261,156932,1,0,3:0:0:0:
348,348,157103,2,0,P|346:305|325:265,1,77.0000023498536,0|2,0:0|0:0,0:0:0:0:
173,115,157444,6,0,B|128:131|116:172|116:172|78:170|48:195,1,154.000004699707,8|0,0:0|0:0,0:0:0:0:
123,372,157955,1,8,0:0:0:0:
204,197,158126,1,8,0:3:0:0:
113,261,158296,1,8,0:3:0:0:
291,196,158467,6,0,P|280:153|250:121,1,80.5000015354157,4|0,0:0|0:0,0:0:0:0:
375,262,158807,2,0,P|393:219|390:176,1,80.5000015354157,0|0,0:0|3:0,0:0:0:0:
398,365,159148,2,0,P|442:345|470:302,1,80.5000015354157
204,197,159489,6,0,P|140:231|114:330,1,161.000003070831,12|2,0:0|0:0,0:0:0:0:
291,196,160001,2,0,P|280:153|250:121,1,80.5000015354157,0|0,3:0|0:0,0:0:0:0:
241,316,160341,1,0,3:0:0:0:
259,326,160427,1,0,3:0:0:0:
278,334,160512,6,0,P|322:336|367:314,1,80.5000015354157,2|0,0:0|0:0,0:0:0:0:
163,212,160853,2,0,P|131:241|115:276,1,80.5000015354157,0|0,0:0|3:0,0:0:0:0:
338,205,161194,2,0,P|362:169|364:123,1,80.5000015354157,2|0,0:0|0:0,0:0:0:0:
112,108,161535,5,12,0:0:0:0:
355,322,161876,1,8,0:0:0:0:
338,205,162046,1,8,0:0:0:0:
447,248,162216,1,2,0:0:0:0:
112,108,162557,6,0,L|131:202,1,83.9999974365235,6|0,0:0|0:0,0:0:0:0:
192,40,162898,1,0,0:0:0:0:
112,108,163069,1,0,3:0:0:0:
291,76,163239,1,2,0:0:0:0:
93,4,163410,1,2,0:0:0:0:
309,179,163580,6,0,L|328:273,1,83.9999974365235,8|0,0:0|0:0,0:0:0:0:
211,144,163921,1,2,0:0:0:0:
408,215,164092,1,8,0:0:0:0:
211,144,164262,2,0,L|194:61,1,83.9999974365235,8|0,0:3|0:0,0:0:0:0:
504,148,164603,6,0,B|521:228|521:228|524:286|463:319,1,167.999994873047,4|0,0:0|0:0,0:0:0:0:
210,143,165114,2,0,L|193:52,1,83.9999974365235,4|0,0:0|0:0,0:0:0:0:
327,282,165455,1,0,3:0:0:0:
312,297,165540,1,0,3:0:0:0:
294,309,165626,6,0,P|253:327|208:325,1,83.9999974365235,8|2,0:0|0:0,0:0:0:0:
333,70,165967,1,0,0:0:0:0:
353,72,166052,1,0,0:0:0:0:
373,78,166137,1,8,0:0:0:0:
393,86,166222,1,0,0:0:0:0:
411,97,166307,1,8,0:0:0:0:
427,110,166393,1,0,0:0:0:0:
442,125,166478,1,2,0:0:0:0:
455,142,166563,1,0,0:0:0:0:
465,160,166648,6,0,B|480:198|462:229|462:229|448:252|453:277|465:297|465:297|481:279|476:260,1,181.999991668702,4|0,0:0|0:0,0:0:0:0:
365,174,167160,1,2,0:0:0:0:
413,371,167330,2,0,P|460:388|516:373,1,90.9999958343508
332,286,167671,6,0,B|278:273|240:306,1,90.9999958343508,8|0,0:0|0:0,0:0:0:0:
413,371,168012,1,2,0:0:0:0:
365,174,168182,1,0,3:0:0:0:
332,286,168353,1,2,0:0:0:0:
479,147,168523,1,0,3:0:0:0:
473,125,168608,1,0,3:0:0:0:
462,105,168694,6,0,P|430:70|385:54,1,90.9999958343508,2|0,0:0|0:0,0:0:0:0:
332,286,169035,2,0,P|377:313|435:316,1,90.9999958343508,0|2,0:0|0:0,0:0:0:0:
217,128,169376,2,0,P|257:106|316:105,1,90.9999958343508
55,235,169717,6,0,P|106:251|166:239,1,94.5000003604889,8|0,0:0|0:0,0:0:0:0:
217,128,170057,1,2,0:0:0:0:
13,125,170228,1,8,0:0:0:0:
55,235,170398,1,0,0:0:0:0:
141,47,170569,1,0,3:0:0:0:
157,30,170654,1,0,3:0:0:0:
178,22,170739,6,0,B|219:6|260:22|260:22|293:36|324:12|324:12|304:0|288:7,1,181.999991668702,2|0,0:0|0:0,0:0:0:0:
217,128,171251,1,2,0:0:0:0:
378,93,171421,2,0,P|418:58|435:9,1,90.9999958343508
217,128,171762,6,0,P|257:158|305:163,1,90.9999958343508,8|0,0:0|0:0,0:0:0:0:
213,32,172103,1,2,0:0:0:0:
136,180,172273,1,0,3:0:0:0:
217,128,172444,1,2,0:0:0:0:
51,136,172614,1,0,3:0:0:0:
42,157,172699,1,0,3:0:0:0:
37,180,172785,6,0,P|43:225|79:266,1,90.9999958343508,2|0,0:0|0:0,0:0:0:0:
221,224,173126,1,2,0:0:0:0:
131,84,173296,1,0,3:0:0:0:
136,180,173467,1,2,0:0:0:0:
213,32,173637,1,2,0:0:0:0:
51,136,173807,6,0,P|38:175|58:246,1,90.9999958343508,8|0,0:0|0:0,0:0:0:0:
221,224,174148,1,0,0:0:0:0:
131,84,174319,1,2,0:0:0:0:
141,276,174489,1,8,0:0:0:0:
302,172,174660,1,8,0:0:0:0:
51,136,174830,6,0,B|30:106|31:52|59:19|59:19|7:37|1:76,1,181.999991668702,6|0,0:0|0:0,0:0:0:0:
131,84,175341,1,2,0:0:0:0:
2,220,175512,2,0,P|1:262|31:313,1,90.9999958343508
141,170,175853,6,0,P|147:124|129:82,1,90.9999958343508,8|0,0:0|0:0,0:0:0:0:
2,220,176194,1,2,0:0:0:0:
141,170,176364,1,0,3:0:0:0:
51,136,176535,1,2,0:0:0:0:
119,267,176705,1,0,3:0:0:0:
142,270,176790,1,0,3:0:0:0:
165,267,176876,6,0,P|210:251|240:206,1,90.9999958343508,2|0,0:0|0:0,0:0:0:0:
2,220,177216,2,0,L|20:330,1,90.9999958343508,0|2,0:0|0:0,0:0:0:0:
298,295,177557,2,0,L|280:405,1,90.9999958343508
126,80,177898,6,0,L|141:175,1,90.9999958343508,8|0,0:0|0:0,0:0:0:0:
190,11,178239,1,2,0:0:0:0:
29,187,178410,1,8,0:0:0:0:
305,133,178580,1,0,0:0:0:0:
126,80,178751,1,0,3:0:0:0:
126,80,178836,1,0,3:0:0:0:
126,80,178921,6,0,B|96:49|48:43|7:65|7:65|22:34|46:21,1,181.999991668702,2|0,0:0|0:0,0:0:0:0:
285,34,179432,1,2,0:0:0:0:
60,149,179603,2,0,B|32:191|51:243,1,90.9999958343508
305,132,179944,6,0,B|341:98|391:99|432:123|432:123|424:89|398:79,1,181.999991668702,8|0,0:0|0:0,0:0:0:0:
285,34,180455,1,0,3:0:0:0:
370,206,180626,1,2,0:0:0:0:
210,101,180796,1,0,3:0:0:0:
188,96,180881,1,0,3:0:0:0:
165,98,180966,6,0,P|120:113|88:151,1,90.9999958343508,2|0,0:0|0:0,0:0:0:0:
230,200,181307,1,2,0:0:0:0:
285,34,181478,1,8,0:0:0:0:
165,98,181648,1,2,0:0:0:0:
165,98,181819,1,2,0:0:0:0:
350,136,181989,6,0,P|391:102|410:53,1,90.9999958343508,8|0,0:0|0:0,0:0:0:0:
285,34,182330,1,0,0:0:0:0:
165,98,182501,1,2,3:2:0:0:
350,136,182671,1,8,0:0:0:0:
285,34,182841,1,8,0:3:0:0:
230,200,183012,6,0,P|243:249|283:291,1,90.9999958343508,4|0,0:0|0:0,0:0:0:0:
439,177,183353,2,0,P|451:128|433:83,1,90.9999958343508,0|2,0:0|0:0,0:0:0:0:
350,136,183694,2,0,P|340:186|356:230,1,90.9999958343508
512,49,184035,6,0,P|475:11|417:2,1,90.9999958343508,8|0,0:0|0:0,0:0:0:0:
261,95,184376,1,0,0:0:0:0:
439,177,184546,1,0,3:0:0:0:
341,38,184716,1,2,0:0:0:0:
359,234,184887,1,0,3:0:0:0:
375,251,184972,1,0,3:0:0:0:
393,265,185057,6,0,P|435:278|492:265,1,90.9999958343508,2|0,0:0|0:0,0:0:0:0:
487,93,185398,2,0,P|474:49|437:18,1,90.9999958343508,0|2,0:0|0:0,0:0:0:0:
388,104,185740,2,0,P|405:146|442:178,1,90.9999958343508
295,34,186080,6,0,P|246:45|213:78,1,90.9999958343508,8|0,0:0|0:0,0:0:0:0:
299,230,186421,1,2,0:0:0:0:
295,34,186592,1,8,0:0:0:0:
203,159,186761,1,0,0:0:0:0:
391,105,186932,1,0,3:0:0:0:
410,117,187017,1,0,3:0:0:0:
427,132,187102,6,0,P|458:174|463:228,1,90.9999958343508,2|0,0:0|0:0,0:0:0:0:
275,119,187444,2,0,P|274:73|294:33,1,90.9999958343508,0|2,0:0|0:0,0:0:0:0:
351,212,187785,2,0,L|260:251,1,90.9999958343508
163,85,188126,6,0,L|87:157,1,90.9999958343508,8|0,0:0|0:0,0:0:0:0:
460,301,188467,2,0,L|351:312,1,97.9999970092774,0|0,0:0|3:0,0:0:0:0:
279,120,188807,1,2,0:0:0:0:
460,301,188978,1,0,3:0:0:0:
443,317,189063,1,0,3:0:0:0:
424,329,189148,6,0,B|390:347|367:336|367:336|342:301|305:297|305:297|283:272|282:248,1,181.999991668702,2|0,0:0|0:0,0:0:0:0:
400,240,189660,1,0,3:0:0:0:
292,384,189830,1,2,0:0:0:0:
292,384,190001,1,2,0:0:0:0:
328,145,190171,6,0,P|374:119|423:124,1,90.9999958343508,12|0,0:0|0:0,0:0:0:0:
282,255,190512,2,0,P|237:229|214:187,1,90.9999958343508,0|2,0:0|0:0,0:0:0:0:
400,240,190853,1,8,0:0:0:0:
292,384,191023,1,8,0:0:0:0:
328,145,191194,6,0,B|316:105|274:76|225:75|225:75|256:50|293:51,1,181.999991668702,6|0,0:0|0:0,0:0:0:0:
125,165,191705,2,0,B|105:137|99:107|110:74,2,90.9999958343508,2|0|0,3:2|0:0|0:0,0:0:0:0:
407,217,192216,6,0,P|432:176|433:131,1,90.9999958343508,8|0,0:0|0:0,0:0:0:0:
289,273,192557,2,0,P|296:320|324:355,1,90.9999958343508,0|0,0:0|3:0,0:0:0:0:
407,217,192898,1,0,0:0:0:0:
211,185,193069,1,0,3:0:0:0:
196,202,193154,1,0,3:0:0:0:
186,223,193239,6,0,B|173:250|178:282|178:282|186:319|139:348|139:348|138:332|151:310,1,181.999991668702,2|0,0:0|0:0,0:0:0:0:
289,273,193751,2,0,P|310:316|311:364,2,90.9999958343508,2|0|0,3:2|0:0|0:0,0:0:0:0:
83,173,194262,6,0,P|93:125|125:85,1,90.9999958343508,8|0,0:0|3:0,0:0:0:0:
186,223,194603,1,0,0:0:0:0:
17,79,194773,1,8,0:0:0:0:
226,5,194944,1,0,0:0:0:0:
83,173,195114,1,0,3:0:0:0:
87,196,195199,1,0,3:0:0:0:
96,217,195285,6,0,B|105:247|127:270|127:270|95:302|94:347|94:347|76:325|69:298,1,181.999991668702,2|0,0:0|0:0,0:0:0:0:
188,343,195796,1,2,0:0:0:0:
13,243,195966,2,0,P|14:190|44:149,1,90.9999958343508
217,261,196307,6,0,P|213:307|160:357,1,90.9999958343508,8|0,0:0|0:0,0:0:0:0:
256,154,196648,2,0,B|304:177|316:230,1,90.9999958343508,6|0,0:0|0:0,0:0:0:0:
96,217,196989,1,2,0:0:0:0:
182,71,197160,1,0,3:0:0:0:
199,56,197245,1,0,3:0:0:0:
220,47,197330,6,0,P|263:42|314:61,1,90.9999958343508,2|0,0:0|0:0,0:0:0:0:
217,261,197671,1,12,0:0:0:0:
32,131,197841,1,2,0:0:0:0:
256,154,198012,1,0,0:0:0:0:
61,322,198182,1,8,0:0:0:0:
182,71,198353,5,8,0:0:0:0:
32,131,198523,1,8,0:3:0:0:
256,154,198694,1,2,0:0:0:0:
277,161,198779,1,0,0:0:0:0:
296,173,198864,1,8,0:0:0:0:
312,189,198949,1,0,0:0:0:0:
324,208,199034,1,8,0:0:0:0:
334,237,199120,1,0,0:0:0:0:
336,267,199205,1,8,0:0:0:0:
330,297,199290,1,0,0:0:0:0:
317,324,199376,6,0,P|266:331|234:356,1,90.9999958343508,6|0,0:0|0:0,0:0:0:0:
396,373,199717,1,0,0:0:0:0:
234,254,199887,1,8,0:0:0:0:
396,373,200057,2,0,P|445:361|481:317,1,90.9999958343508,2|0,0:0|0:0,0:0:0:0:
234,254,200398,6,0,L|269:359,1,90.9999958343508,8|2,0:0|0:0,0:0:0:0:
275,154,200739,1,0,0:0:0:0:
155,317,200910,1,8,0:0:0:0:
155,317,201080,1,8,0:0:0:0:
341,239,201251,1,0,3:0:0:0:
358,224,201336,1,0,3:0:0:0:
372,206,201421,6,0,P|385:162|372:103,1,90.9999958343508,2|0,0:0|0:0,0:0:0:0:
234,254,201762,1,0,0:0:0:0:
425,315,201932,1,8,0:0:0:0:
234,254,202103,2,0,P|210:214|209:165,1,90.9999958343508,2|2,0:0|0:0,0:0:0:0:
388,79,202444,5,8,0:0:0:0:
341,239,202614,1,0,0:0:0:0:
341,239,202785,1,2,0:0:0:0:
285,82,202955,1,8,0:0:0:0:
422,176,203126,1,4,0:0:0:0:
255,179,203296,1,8,0:0:0:0:
234,170,203381,1,8,0:0:0:0:
216,156,203467,6,0,P|190:119|184:61,1,90.9999958343508,4|0,0:0|0:0,0:0:0:0:
388,79,203807,1,0,0:0:0:0:
341,239,203978,1,8,0:0:0:0:
388,79,204148,2,0,P|422:33|468:14,1,90.9999958343508,2|0,0:0|0:0,0:0:0:0:
429,259,204489,6,0,L|323:235,1,90.9999958343508,8|0,0:0|0:0,0:0:0:0:
492,129,204830,1,0,0:0:0:0:
511,330,205001,1,8,0:0:0:0:
511,330,205171,1,8,0:0:0:0:
340,238,205342,1,0,3:0:0:0:
329,218,205427,1,0,3:0:0:0:
323,196,205512,6,0,P|321:150|347:102,1,90.9999958343508,2|0,0:0|0:0,0:0:0:0:
429,259,205853,1,0,0:0:0:0:
230,263,206023,1,8,0:0:0:0:
429,259,206194,2,0,P|474:279|505:323,1,90.9999958343508,2|8,0:0|0:0,0:0:0:0:
269,378,206535,5,8,0:0:0:0:
329,189,206705,1,0,0:0:0:0:
392,378,206876,1,2,0:0:0:0:
230,263,207046,1,8,0:0:0:0:
429,259,207217,1,12,0:0:0:0:
442,238,207302,1,8,0:0:0:0:
451,214,207387,1,8,0:0:0:0:
455,190,207472,1,8,0:0:0:0:
455,165,207557,6,0,P|445:119|405:73,1,90.9999958343508,4|0,0:0|0:0,0:0:0:0:
241,18,207898,1,0,0:0:0:0:
344,163,208069,1,8,0:0:0:0:
241,18,208239,2,0,P|192:10|149:27,1,90.9999958343508,2|0,0:0|0:0,0:0:0:0:
344,163,208580,6,0,L|336:66,1,90.9999958343508,8|0,0:0|0:0,0:0:0:0:
272,254,208921,1,0,0:0:0:0:
459,179,209092,1,8,0:0:0:0:
459,179,209262,1,2,0:0:0:0:
301,55,209432,1,0,3:0:0:0:
278,50,209518,1,0,3:0:0:0:
255,50,209603,6,0,P|208:59|171:89,1,90.9999958343508,2|0,0:0|0:0,0:0:0:0:
272,254,209944,1,0,0:0:0:0:
301,55,210114,1,8,0:0:0:0:
272,254,210285,2,0,P|294:304|335:338,1,90.9999958343508,2|2,0:0|0:0,0:0:0:0:
459,179,210626,5,8,0:0:0:0:
272,254,210796,1,0,0:0:0:0:
272,254,210967,1,2,0:0:0:0:
468,304,211137,1,8,0:0:0:0:
338,148,211307,1,12,0:0:0:0:
352,351,211478,1,8,0:0:0:0:
334,365,211563,1,8,0:0:0:0:
314,376,211648,6,0,P|234:378|150:306,1,181.999991668702,6|0,0:0|0:0,0:0:0:0:
245,210,212160,1,2,0:0:0:0:
432,285,212330,2,0,P|454:327|457:372,1,90.9999958343508,8|0,0:0|0:0,0:0:0:0:
245,210,212671,6,0,P|231:164|242:114,1,90.9999958343508,4|0,0:0|0:0,0:0:0:0:
234,327,213012,2,0,P|186:316|147:274,1,90.9999958343508
352,161,213353,1,8,0:0:0:0:
234,327,213523,1,8,0:0:0:0:
150,142,213694,6,0,P|152:88|179:48,1,94.5000003604889,4|0,0:0|0:0,0:0:0:0:
245,210,214035,1,0,0:0:0:0:
44,191,214205,1,8,0:0:0:0:
150,142,214376,1,2,0:0:0:0:
150,142,214546,1,2,0:0:0:0:
234,327,214717,6,0,P|291:322|335:288,1,94.5000003604889,8|0,0:0|3:0,0:0:0:0:
352,161,215057,1,2,0:0:0:0:
150,142,215228,1,8,0:0:0:0:
245,210,215398,1,0,0:0:0:0:
162,26,215569,1,0,3:0:0:0:
139,24,215654,1,0,3:0:0:0:
115,27,215739,6,0,P|67:52|37:107,1,97.9999970092774,4|0,0:0|0:0,0:0:0:0:
245,210,216080,1,0,0:0:0:0:
257,94,216251,1,0,3:0:0:0:
138,258,216421,1,2,0:0:0:0:
339,278,216592,1,2,0:0:0:0:
150,142,216762,5,8,0:0:0:0:
234,327,216932,1,0,0:0:0:0:
257,94,217103,1,2,0:0:0:0:
43,190,217273,1,8,0:0:0:0:
339,278,217444,1,8,3:0:0:0:
162,26,217614,1,8,3:0:0:0:
126,374,217785,5,4,0:0:0:0:
256,192,217870,12,0,219830,0:0:0:0:
331,287,221876,6,0,P|293:309|240:310,2,83.9999974365235,2|0|0,0:0|0:0|0:0,0:0:0:0:
439,103,222898,1,0,0:0:0:0:
439,103,223921,6,0,P|464:163|469:227,1,125.999996154785
458,266,224603,1,0,0:0:0:0:
291,126,224944,2,0,B|239:80|185:63|118:94|128:164|166:192|217:161,1,251.999992309571,0|2,0:0|0:0,0:0:0:0:
461,27,226307,5,0,0:0:0:0:
377,303,226648,1,0,0:0:0:0:
203,168,226989,1,0,0:0:0:0:
419,165,227330,1,0,0:0:0:0:
290,235,227671,1,0,0:0:0:0:
401,58,228012,6,0,P|443:59|492:86,2,83.9999974365235
207,137,229035,1,0,0:0:0:0:
207,137,230057,6,0,P|186:100|185:44,2,83.9999974365235,2|0|0,0:0|0:0|0:0,0:0:0:0:
431,270,231080,1,0,0:0:0:0:
431,270,232103,6,0,P|451:306|452:362,2,83.9999974365235
223,103,233126,1,0,0:0:0:0:
329,335,233467,1,0,0:0:0:0:
327,186,233807,1,0,0:0:0:0:
128,256,234148,5,2,0:0:0:0:
128,256,235512,5,0,0:0:0:0:
208,144,235853,1,0,0:0:0:0:
230,233,236194,6,0,P|256:267|285:280,1,62.9999980773926
385,170,236535,2,0,P|394:133|388:99,1,62.9999980773926
312,132,236876,2,0,P|302:168|308:202,1,62.9999980773926
467,69,237217,6,0,P|441:35|412:22,1,62.9999980773926,2|0,0:0|0:0,0:0:0:0:
385,170,237557,2,0,P|411:204|440:217,1,62.9999980773926
240,93,237898,2,0,P|265:64|301:50,1,62.9999980773926
246,282,238239,6,0,P|213:310|183:317,1,62.9999980773926,2|0,0:0|0:0,0:0:0:0:
97,175,238580,2,0,P|94:137|107:105,1,62.9999980773926
176,152,238921,2,0,P|178:189|165:221,1,62.9999980773926
27,45,239262,6,0,P|59:16|89:9,1,62.9999980773926,2|0,0:0|0:0,0:0:0:0:
97,175,239603,2,0,P|64:203|34:210,1,62.9999980773926
257,121,239944,2,0,P|235:88|194:67,1,62.9999980773926
209,282,240285,6,0,P|224:315|259:337,1,62.9999980773926,2|0,0:0|0:0,0:0:0:0:
369,251,240626,2,0,P|384:216|382:181,1,62.9999980773926
301,203,240967,2,0,P|287:237|288:271,1,62.9999980773926
440,128,241307,6,0,P|409:107|367:105,1,62.9999980773926
330,339,241648,2,0,P|293:350|254:343,1,62.9999980773926
487,305,241989,2,0,P|472:272|437:250,1,62.9999980773926
301,203,242330,6,0,P|279:175|273:136,1,62.9999980773926,2|0,0:0|0:0,0:0:0:0:
455,68,242671,2,0,P|453:99|439:127,1,62.9999980773926
358,139,243012,2,0,P|359:107|371:79,1,62.9999980773926
381,237,243353,6,0,P|364:263|338:281,1,62.9999980773926
173,263,243694,2,0,P|189:236|215:218,1,62.9999980773926
54,354,244035,2,0,P|78:373|108:383,1,62.9999980773926
104,214,244376,6,0,P|79:194|49:184,1,62.9999980773926,2|0,0:0|0:0,0:0:0:0:
120,296,244717,2,0,P|149:284|172:263,1,62.9999980773926
156,181,245057,2,0,P|126:192|103:213,1,62.9999980773926
236,205,245398,6,0,P|265:193|288:172,1,62.9999980773926
351,53,245739,2,0,P|321:64|298:85,1,62.9999980773926
448,162,246080,2,0,P|476:171|501:191,1,62.9999980773926
368,201,246421,6,0,P|361:170|366:139,1,62.9999980773926,2|0,0:0|0:0,0:0:0:0:
441,252,246762,2,0,P|447:282|442:313,1,62.9999980773926
362,351,247103,2,0,P|355:320|360:289,1,62.9999980773926
455,170,247444,6,0,P|436:144|410:127,1,62.9999980773926
251,205,247785,2,0,P|269:230|295:247,1,62.9999980773926
114,111,248126,2,0,P|101:139|100:170,1,62.9999980773926
257,119,248467,5,4,0:0:0:0:
257,119,249489,5,0,0:0:0:0:
180,157,249830,1,0,0:0:0:0:
251,205,250171,1,0,0:0:0:0:
185,71,250512,6,0,P|115:43|45:70,1,154.000004699707,4|0,0:0|0:0,0:0:0:0:
173,242,251023,1,8,0:0:0:0:
328,167,251194,2,0,P|344:125|335:81,1,77.0000023498536,8|0,0:0|0:0,0:0:0:0:
173,242,251535,5,2,0:0:0:0:
351,348,251876,1,0,0:0:0:0:
368,344,251961,1,0,0:0:0:0:
384,339,252046,1,0,0:0:0:0:
400,332,252131,1,0,0:0:0:0:
416,323,252216,1,0,0:0:0:0:
430,313,252302,1,0,0:0:0:0:
442,301,252387,1,0,0:0:0:0:
453,287,252472,1,0,0:0:0:0:
463,273,252557,6,0,B|459:235|480:209|480:209|468:148|400:107,1,181.999991668702,4|0,0:0|0:0,0:0:0:0:
377,231,253069,1,2,0:0:0:0:
481,46,253239,2,0,P|437:24|373:28,1,90.9999958343508
202,134,253580,6,0,P|243:157|307:155,1,90.9999958343508,8|0,0:0|0:0,0:0:0:0:
252,40,253921,1,2,0:0:0:0:
95,137,254091,1,0,3:0:0:0:
202,134,254262,1,2,0:0:0:0:
39,47,254432,1,0,3:0:0:0:
21,61,254517,1,0,3:0:0:0:
7,79,254603,6,0,P|-9:125|-2:181,1,90.9999958343508,2|0,0:0|0:0,0:0:0:0:
222,232,254944,2,0,P|197:275|155:298,1,90.9999958343508,0|2,0:0|0:0,0:0:0:0:
177,36,255285,2,0,P|133:63|106:107,1,90.9999958343508
398,246,255625,6,0,P|358:274|298:279,1,90.9999958343508,8|0,0:0|0:0,0:0:0:0:
215,132,255966,1,2,0:0:0:0:
422,138,256137,1,8,0:0:0:0:
317,171,256307,1,0,0:0:0:0:
446,30,256478,1,0,3:0:0:0:
469,34,256563,1,0,3:0:0:0:
490,49,256648,6,0,B|528:75|531:117|531:117|503:139|497:187|497:187|517:189|530:174,1,181.999991668702,2|0,0:0|0:0,0:0:0:0:
341,64,257160,1,2,0:0:0:0:
398,246,257330,2,0,P|439:288|480:301,1,90.9999958343508
341,64,257671,6,0,P|287:61|244:89,1,90.9999958343508,8|0,0:0|0:0,0:0:0:0:
286,250,258012,1,2,0:0:0:0:
422,138,258182,1,0,3:0:0:0:
341,64,258353,1,2,0:0:0:0:
398,246,258523,1,0,3:0:0:0:
397,269,258608,1,0,3:0:0:0:
391,292,258694,6,0,P|367:336|326:365,1,90.9999958343508,2|0,0:0|0:0,0:0:0:0:
286,250,259035,1,2,0:0:0:0:
422,138,259205,1,0,3:0:0:0:
398,246,259376,1,2,0:0:0:0:
398,246,259546,1,2,0:0:0:0:
237,98,259717,6,0,P|229:47|247:1,1,90.9999958343508,8|0,0:0|0:0,0:0:0:0:
422,138,260057,1,0,0:0:0:0:
237,98,260228,1,2,0:0:0:0:
446,30,260398,1,8,0:0:0:0:
398,246,260569,1,8,0:0:0:0:
237,98,260739,6,0,B|209:76|151:81|120:112|120:112|123:78|148:61,1,181.999991668702,6|0,0:0|0:0,0:0:0:0:
192,182,261250,1,2,0:0:0:0:
359,30,261421,2,0,P|402:17|445:29,1,90.9999958343508
278,183,261762,6,0,P|233:195|190:181,1,90.9999958343508,8|0,0:0|0:0,0:0:0:0:
363,131,262103,1,2,0:0:0:0:
282,284,262273,1,0,3:0:0:0:
278,183,262444,1,2,0:0:0:0:
371,330,262614,1,0,3:0:0:0:
359,349,262699,1,0,3:0:0:0:
342,365,262785,6,0,P|298:385|242:376,1,90.9999958343508,2|0,0:0|0:0,0:0:0:0:
450,178,263125,2,0,L|476:280,1,90.9999958343508,0|2,0:0|0:0,0:0:0:0:
291,193,263467,2,0,L|280:297,1,90.9999958343508
134,76,263807,6,0,L|88:170,1,90.9999958343508,8|0,0:0|0:0,0:0:0:0:
195,282,264148,1,2,0:0:0:0:
134,76,264319,1,8,0:0:0:0:
102,371,264489,1,0,0:0:0:0:
291,193,264660,1,0,3:0:0:0:
291,193,264745,1,0,3:0:0:0:
291,193,264830,6,0,B|260:161|264:111|288:73|288:73|256:70|233:96,1,181.999991668702,2|0,0:0|0:0,0:0:0:0:
195,282,265341,1,2,0:0:0:0:
384,104,265512,2,0,P|391:54|371:7,1,90.9999958343508
291,193,265853,6,0,B|276:207|269:232|269:232|290:275|276:325|276:325|285:353|309:376,1,181.999991668702,8|0,0:0|0:0,0:0:0:0:
368,235,266364,1,0,3:0:0:0:
195,282,266535,1,2,0:0:0:0:
369,317,266705,1,0,3:0:0:0:
392,315,266790,1,0,3:0:0:0:
414,309,266876,6,0,P|447:271|453:226,1,90.9999958343508,2|0,0:0|0:0,0:0:0:0:
291,193,267217,1,2,0:0:0:0:
297,369,267387,1,8,0:0:0:0:
368,235,267557,1,2,0:0:0:0:
368,235,267728,1,2,0:0:0:0:
146,284,267898,6,0,P|100:258|76:211,1,90.9999958343508,8|0,0:0|0:0,0:0:0:0:
291,193,268239,1,0,0:0:0:0:
146,284,268410,1,2,3:2:0:0:
288,105,268580,1,8,0:0:0:0:
294,281,268750,1,8,0:3:0:0:
211,64,268921,6,0,P|235:33|301:20,1,90.9999958343508,4|0,0:0|0:0,0:0:0:0:
217,152,269262,2,0,P|193:183|127:196,1,90.9999958343508,0|2,0:0|0:0,0:0:0:0:
139,110,269603,2,0,P|163:79|229:66,1,90.9999958343508
152,287,269944,6,0,P|105:281|61:237,1,90.9999958343508,8|0,0:0|0:0,0:0:0:0:
139,110,270285,1,0,0:0:0:0:
225,237,270455,1,0,3:0:0:0:
145,198,270626,1,2,0:0:0:0:
298,187,270796,1,0,3:0:0:0:
309,207,270881,1,0,3:0:0:0:
315,229,270966,6,0,P|311:278|275:317,1,90.9999958343508,2|0,0:0|0:0,0:0:0:0:
139,110,271307,2,0,P|170:72|222:60,1,90.9999958343508,0|2,0:0|0:0,0:0:0:0:
215,148,271648,2,0,P|183:185|131:197,1,90.9999958343508
373,134,271989,6,0,P|413:161|429:212,1,90.9999958343508,8|0,0:0|0:0,0:0:0:0:
215,148,272330,1,2,0:0:0:0:
406,53,272501,1,8,0:0:0:0:
340,215,272670,1,0,0:0:0:0:
220,61,272842,1,0,3:0:0:0:
197,61,272926,1,0,3:0:0:0:
175,68,273011,6,0,P|135:103|122:148,1,90.9999958343508,2|0,0:0|0:0,0:0:0:0:
355,123,273353,2,0,P|395:88|405:41,1,90.9999958343508,0|2,0:0|0:0,0:0:0:0:
215,148,273694,2,0,L|233:264,1,90.9999958343508
480,190,274035,6,0,L|463:298,1,90.9999958343508,8|0,0:0|0:0,0:0:0:0:
90,81,274375,2,0,L|121:183,1,90.9999958343508,0|0,0:0|3:0,0:0:0:0:
211,7,274716,1,2,0:0:0:0:
116,168,274887,1,0,3:0:0:0:
125,190,274972,1,0,3:0:0:0:
140,208,275057,6,0,B|165:234|193:236|193:236|144:285|155:331|155:331|191:327,1,181.999991668702,2|0,0:0|0:0,0:0:0:0:
208,135,275569,1,0,3:0:0:0:
72,281,275739,1,2,0:0:0:0:
72,281,275910,1,2,0:0:0:0:
281,262,276080,6,0,P|301:215|287:148,1,90.9999958343508,12|0,0:0|0:0,0:0:0:0:
112,67,276421,2,0,P|92:114|106:183,1,90.9999958343508,0|2,0:0|0:0,0:0:0:0:
281,262,276762,1,8,0:0:0:0:
219,18,276932,1,8,0:0:0:0:
184,277,277103,6,0,B|185:314|216:354|265:368|265:368|232:381|202:367,1,181.999991668702,6|0,0:0|0:0,0:0:0:0:
249,179,277614,2,0,P|274:220|278:282,2,90.9999958343508,2|0|0,3:2|0:0|0:0,0:0:0:0:
387,286,278125,6,0,P|375:337|386:403,1,90.9999958343508,8|0,0:0|0:0,0:0:0:0:
448,193,278466,2,0,P|422:151|370:118,1,90.9999958343508,0|0,0:0|3:0,0:0:0:0:
387,286,278807,1,0,0:0:0:0:
511,115,278978,1,0,3:0:0:0:
504,93,279063,1,0,3:0:0:0:
491,75,279148,6,0,B|474:41|439:28|439:28|389:52|352:25|352:25|364:14|377:14,1,181.999991668702,2|0,0:0|0:0,0:0:0:0:
448,193,279660,2,0,P|452:242|428:300,2,90.9999958343508,2|0|0,3:2|0:0|0:0,0:0:0:0:
222,111,280171,6,0,P|180:141|158:193,1,90.9999958343508,8|0,0:0|3:0,0:0:0:0:
329,321,280512,1,0,0:0:0:0:
340,117,280682,1,8,0:0:0:0:
212,316,280853,1,0,0:0:0:0:
393,222,281023,1,0,3:0:0:0:
403,201,281108,1,0,3:0:0:0:
406,178,281194,6,0,B|431:218|423:252|423:252|438:283|488:294|488:294|477:310|458:318,1,181.999991668702,2|0,0:0|0:0,0:0:0:0:
329,321,281705,1,2,0:0:0:0:
509,177,281875,2,0,P|494:125|466:94,1,90.9999958343508
289,244,282216,6,0,B|285:258|291:275|291:275|318:292|330:325,1,90.9999958343508,8|0,0:0|0:0,0:0:0:0:
169,260,282557,2,0,P|175:208|208:160,1,90.9999958343508,6|0,0:0|3:0,0:0:0:0:
243,356,282898,1,2,0:0:0:0:
86,209,283069,1,0,3:0:0:0:
88,186,283154,1,0,3:0:0:0:
95,164,283239,6,0,P|121:119|162:92,1,90.9999958343508,2|0,0:0|0:0,0:0:0:0:
326,177,283580,1,12,0:0:0:0:
86,209,283750,1,0,3:0:0:0:
252,81,283921,1,2,0:0:0:0:
160,305,284091,1,8,0:0:0:0:
12,113,284262,5,8,0:0:0:0:
39,321,284432,1,8,0:3:0:0:
206,193,284603,1,2,0:0:0:0:
201,170,284688,1,0,0:0:0:0:
192,149,284773,1,2,0:0:0:0:
180,130,284858,1,0,0:0:0:0:
164,114,284944,1,2,0:0:0:0:
142,92,285029,1,0,0:0:0:0:
127,66,285114,1,8,0:3:0:0:
119,37,285199,1,0,0:0:0:0:
119,7,285285,6,0,P|93:58|103:104,1,83.9999974365235,4|0,3:2|0:0,0:0:0:0:
197,249,285626,2,0,P|208:193|187:151,1,83.9999974365235,0|0,3:2|0:0,0:0:0:0:
204,89,285967,2,0,P|192:144|213:186,1,83.9999974365235,0|0,3:2|0:0,0:0:0:0:
278,332,286307,6,0,P|303:294|308:234,1,83.9999974365235,8|0,3:2|0:0,0:0:0:0:
120,205,286648,2,0,L|35:196,1,83.9999974365235,0|0,3:0|0:0,0:0:0:0:
278,332,286989,2,0,L|192:343,1,83.9999974365235,2|0,3:2|0:0,0:0:0:0:
330,162,287330,6,0,L|245:153,1,83.9999974365235,2|0,3:2|0:0,0:0:0:0:
400,99,287671,2,0,P|424:139|424:189,1,83.9999974365235,0|2,3:0|0:0,0:0:0:0:
454,251,288012,2,0,P|431:216|426:174,1,83.9999974365235,0|0,3:0|0:0,0:0:0:0:
362,6,288353,6,0,P|321:37|304:69,1,83.9999974365235,8|0,3:2|0:0,0:0:0:0:
330,162,288694,1,0,3:0:0:0:
362,6,288864,1,8,0:0:0:0:
248,134,289035,2,0,B|239:148|238:169|238:169|201:125|204:74,1,125.999996154785,0|0,3:0|0:0,0:0:0:0:
228,46,289376,6,0,P|276:47|315:75,1,83.9999974365235,2|0,3:2|0:0,0:0:0:0:
238,224,289717,2,0,P|204:249|162:253,1,83.9999974365235,0|2,3:0|0:0,0:0:0:0:
172,162,290058,2,0,P|205:138|246:133,1,83.9999974365235,0|0,3:0|0:0,0:0:0:0:
182,339,290398,6,0,P|133:337|94:309,1,83.9999974365235,8|0,3:2|0:0,0:0:0:0:
172,162,290739,2,0,L|164:246,1,83.9999974365235,0|0,3:0|0:0,0:0:0:0:
11,79,291080,2,0,L|21:162,1,83.9999974365235,2|0,3:2|0:0,0:0:0:0:
199,62,291421,6,0,B|252:58|284:96|284:96|314:66|368:69,1,167.999994873047,2|0,3:2|0:0,0:0:0:0:
481,111,291933,1,0,0:0:0:0:
352,163,292103,2,0,P|338:200|344:243,1,83.9999974365235,2|2,3:2|0:0,0:0:0:0:
490,368,292444,6,0,P|502:324|492:279,1,83.9999974365235,8|0,3:2|0:0,0:0:0:0:
352,163,292785,1,2,3:2:0:0:
283,140,292955,1,2,0:0:0:0:
214,154,293126,1,8,3:2:0:0:
160,200,293296,1,8,0:0:0:0:
137,267,293467,6,0,P|133:306|149:350,1,83.9999974365235,6|0,3:2|0:0,0:0:0:0:
222,233,293808,2,0,P|228:191|209:148,1,83.9999974365235,0|2,3:0|0:0,0:0:0:0:
205,74,294148,2,0,P|198:115|217:158,1,83.9999974365235,0|0,3:0|0:0,0:0:0:0:
338,306,294489,6,0,P|347:266|334:219,1,83.9999974365235,8|0,3:2|0:0,0:0:0:0:
169,254,294830,2,0,L|284:268,1,83.9999974365235,0|0,3:0|0:0,0:0:0:0:
0,351,295171,2,0,L|115:337,1,83.9999974365235,2|0,3:2|0:0,0:0:0:0:
56,153,295512,6,0,L|164:176,1,83.9999974365235,2|0,3:2|0:0,0:0:0:0:
241,303,295853,2,0,P|255:342|247:389,1,83.9999974365235,0|2,3:0|0:0,0:0:0:0:
241,303,296193,2,0,P|225:264|233:218,1,83.9999974365235,0|0,3:0|0:0,0:0:0:0:
356,56,296535,6,0,P|368:93|353:161,1,83.9999974365235,8|0,3:2|0:0,0:0:0:0:
317,254,296876,1,2,3:2:0:0:
278,106,297046,1,8,0:0:0:0:
389,216,297217,2,0,B|399:231|400:251|400:251|429:205|472:205,1,125.999996154785,0|0,3:0|0:0,0:0:0:0:
482,250,297558,6,0,P|478:298|448:335,1,83.9999974365235,2|0,3:2|0:0,0:0:0:0:
261,332,297898,2,0,P|232:292|231:244,1,83.9999974365235,0|2,3:2|0:0,0:0:0:0:
285,180,298239,2,0,P|313:219|314:267,1,83.9999974365235,0|0,3:2|0:0,0:0:0:0:
115,179,298580,6,0,P|122:131|156:96,1,83.9999974365235,8|0,3:2|0:0,0:0:0:0:
285,180,298921,2,0,L|195:165,1,83.9999974365235,0|0,3:0|0:0,0:0:0:0:
382,55,299262,2,0,L|291:55,1,83.9999974365235,2|0,3:2|0:0,0:0:0:0:
471,103,299603,6,0,B|461:127|439:143|439:143|480:188|469:270,1,167.999994873047,2|0,0:0|3:0,0:0:0:0:
411,348,300114,1,0,0:0:0:0:
381,220,300285,2,0,P|352:181|300:159,1,83.9999974365235,2|0,3:2|0:0,0:0:0:0:
197,328,300626,5,8,3:2:0:0:
298,256,300796,1,0,0:0:0:0:
185,204,300967,2,0,P|132:204|92:231,1,83.9999974365235,0|2,3:0|0:0,0:0:0:0:
161,300,301308,2,0,P|135:332|126:376,1,83.9999974365235,2|0,3:2|0:0,0:0:0:0:
298,256,301648,5,4,0:0:0:0:
