osu file format v14

[General]
AudioFilename: audio.mp3
AudioLeadIn: 0
PreviewTime: 79955
Countdown: 1
SampleSet: Soft
StackLeniency: 0.7
Mode: 0
LetterboxInBreaks: 0
WidescreenStoryboard: 0

[Editor]
Bookmarks: 60183,79955,99046,166546,252455
DistanceSpacing: 0.77
BeatDivisor: 4
GridSize: 8
TimelineZoom: 1.8

[Metadata]
Title:Sasabune
TitleUnicode:Sasabune
Artist:Hanatan
ArtistUnicode:Hanatan
Creator:cococolaco
Version:Collab
Source:
Tags:
BeatmapID:1712361
BeatmapSetID:816536

[Difficulty]
HPDrainRate:6
CircleSize:4.2
OverallDifficulty:8
ApproachRate:9.2
SliderMultiplier:1.8
SliderTickRate:2

[Events]
//Background and Video events
0,0,"Flowers-Wallpapers-7.jpg",0,0
//Break Periods
//Storyboard Layer 0 (Background)
//Storyboard Layer 1 (Fail)
//Storyboard Layer 2 (Pass)
//Storyboard Layer 3 (Foreground)
//Storyboard Sound Samples

[TimingPoints]
865,340.909090909091,6,2,0,15,1,0
865,-133.333333333333,6,2,0,40,0,0
11092,-111.111111111111,6,2,1,60,0,0
27455,-133.333333333333,6,2,2,40,0,0
60183,-111.111111111111,6,2,1,40,0,0
75524,-90.9090909090908,6,2,0,15,0,0
75865,-111.111111111111,6,2,0,15,0,0
80637,-90.9090909090908,6,2,1,60,0,1
113365,-90.9090909090908,6,2,0,15,0,0
119501,-166.666666666667,6,2,0,15,0,0
130069,-133.333333333333,6,2,2,40,0,0
146092,-111.111111111111,6,2,2,40,0,0
164501,-333.333333333332,6,2,2,40,0,0
165865,-90.9090909090909,6,2,2,40,0,0
166546,-90.9090909090909,6,2,1,60,0,1
199274,-90.9090909090909,6,2,1,60,0,0
217683,-500,6,2,1,60,0,0
219046,-200,6,2,2,20,0,0
224842,-400,6,2,2,20,0,0
227228,-200,6,2,2,20,0,0
233024,-400,6,2,2,20,0,0
235410,-200,6,2,2,20,0,0
236092,-133.333333333333,6,2,2,30,0,0
248365,-400,6,2,2,20,0,0
251092,-100,6,2,2,20,0,0
252455,-90.9090909090909,6,2,1,60,0,1
285183,-90.9090909090909,6,2,1,60,0,0

[Colours]
Combo1 : 223,197,245
Combo2 : 238,96,159
Combo3 : 200,29,224
Combo4 : 253,200,227
Combo5 : 232,167,237
Combo6 : 242,121,121
Combo7 : 174,98,193
Combo8 : 254,188,148

[HitObjects]
53,176,694,5,0,0:0:0:0:
53,176,779,1,0,0:0:0:0:
53,176,865,2,0,P|92:174|125:169,1,67.5000025749208,2|2,0:0|0:3,0:0:0:0:
205,240,1205,2,0,P|272:242|339:251,1,135.000005149842,2|0,0:0|0:0,0:0:0:0:
113,279,1887,5,2,0:3:0:0:
113,279,2228,2,0,P|109:312|103:349,2,67.5000025749208,0|2|2,0:0|0:3|0:3,0:0:0:0:
205,161,2740,5,0,0:0:0:0:
205,161,2825,1,0,0:0:0:0:
205,161,2910,2,0,P|198:102|75:45,1,202.500007724762,2|2,0:0|0:3,0:0:0:0:
102,152,3592,1,2,0:3:0:0:
111,134,3762,1,2,0:3:0:0:
278,59,3933,6,0,P|318:72|424:80,2,135.000005149842,2|0|0,0:0|0:0|0:0,0:0:0:0:
411,220,4785,69,0,0:0:0:0:
411,220,4870,1,0,0:0:0:0:
411,220,4955,2,0,L|421:273,2,33.7500012874604,2|0|0,0:0|0:0|0:0,0:0:0:0:
323,187,5296,2,0,L|282:222,2,33.7500012874604,2|0|0,0:0|0:0|0:0,0:0:0:0:
323,94,5637,2,0,L|259:71,1,67.5000025749208,2|2,0:0|0:0,0:0:0:0:
90,148,5978,6,0,B|65:191|65:191|67:223|94:280,1,135.000005149842,2|0,0:3|0:0,0:0:0:0:
182,303,6490,1,2,0:3:0:0:
227,221,6660,2,0,P|192:215|154:206,1,67.5000025749208,2|2,0:3|0:3,0:0:0:0:
284,156,6916,5,0,0:0:0:0:
284,156,7001,2,0,P|311:189|321:290,1,135.000005149842,2|0,0:0|0:0,0:0:0:0:
490,208,7512,1,2,0:0:0:0:
422,311,7683,2,0,P|414:266|409:232,1,67.5000025749208,2|2,0:3|0:0,0:0:0:0:
459,56,8024,2,0,P|449:106|420:164,1,101.250003862381,2|0,0:0|0:0,0:0:0:0:
428,151,8365,2,0,P|389:157|360:169,1,67.5000025749208,2|0,0:0|0:0,0:0:0:0:
222,53,8705,2,0,P|278:62|367:61,1,135.000005149842,2|4,0:0|0:0,0:0:0:0:
188,100,10410,5,4,0:3:0:0:
156,205,10580,1,4,0:3:0:0:
87,135,10751,2,0,P|53:129|20:127,1,67.5000025749208,0|2,1:0|0:0,0:0:0:0:
257,179,11092,70,0,P|336:191|412:165,1,161.999995056153,6|2,1:2|0:1,0:0:0:0:
351,94,11603,1,0,0:0:0:0:
165,138,11774,2,0,P|176:178|185:232,1,80.9999975280763,2|2,0:0|0:1,0:0:0:0:
305,375,12115,2,2,P|321:313|355:217,1,161.999995056153,10|2,0:0|0:1,0:1:0:0:
422,273,12626,1,0,0:0:0:0:
210,309,12796,2,0,P|149:305|87:284,1,121.499996292114,2|0,1:2|0:0,0:0:0:0:
91,286,13137,6,0,B|66:237|66:237|61:177|96:134,1,161.999995056153,4|2,1:2|0:1,0:0:0:0:
255,90,13649,1,0,0:0:0:0:
166,60,13819,2,0,P|170:98|181:144,1,80.9999975280763,8|2,0:0|0:1,0:0:0:0:
325,190,14160,2,2,P|343:111|352:30,1,161.999995056153,10|2,0:0|0:1,0:1:0:0:
234,213,14671,1,0,1:0:0:0:
429,128,14842,2,0,P|437:176|456:251,1,121.499996292114,0|0,1:0|0:0,0:0:0:0:
511,303,15183,6,0,B|420:269|423:320|328:312,1,161.999995056153,4|2,1:2|0:1,0:0:0:0:
188,272,15694,1,0,1:0:0:0:
247,200,15865,2,0,P|272:240|281:277,1,80.9999975280763,8|2,0:0|0:1,0:0:0:0:
14,251,16205,2,2,P|80:234|164:181,1,161.999995056153,10|2,0:0|0:1,0:1:0:0:
196,358,16717,1,0,0:0:0:0:
159,185,16887,2,0,P|153:138|152:93,1,80.9999975280763,8|8,0:0|0:0,0:0:0:0:
381,69,17228,6,0,P|396:115|332:215,1,161.999995056153,4|2,1:2|0:1,0:0:0:0:
67,144,17740,1,8,0:0:0:0:
159,185,17910,1,0,1:0:0:0:
206,119,18080,1,2,1:0:0:0:
34,226,18251,70,2,P|46:281|53:357,1,121.499996292114,14|2,0:0|0:1,0:1:0:0:
52,366,18592,2,0,P|110:339|144:345,1,80.9999975280763,0|0,1:0|0:0,0:0:0:0:
327,255,18933,1,8,0:0:0:0:
246,202,19103,1,8,0:0:0:0:
410,172,19274,6,0,P|421:232|432:334,1,161.999995056153,4|2,1:2|0:1,0:0:0:0:
262,187,19785,1,0,0:0:0:0:
205,283,19955,2,0,P|208:326|218:370,1,80.9999975280763,8|2,0:0|0:1,0:0:0:0:
154,195,20296,2,2,P|130:148|70:101,1,121.499996292114,10|2,0:0|0:1,0:1:0:0:
77,104,20637,2,0,P|60:57|61:26,1,80.9999975280763,2|0,0:2|0:0,0:0:0:0:
58,199,20978,2,0,P|25:238|-1:252,1,80.9999975280763,0|0,1:2|0:0,0:0:0:0:
157,47,21319,6,0,P|237:47|314:90,1,161.999995056153,4|2,1:2|0:1,0:0:0:0:
314,225,21830,1,0,0:0:0:0:
450,134,22001,2,0,P|410:146|363:153,1,80.9999975280763,8|2,0:0|0:1,0:0:0:0:
231,300,22342,2,2,P|290:311|348:329,1,121.499996292114,10|2,0:0|0:1,0:1:0:0:
370,345,22683,5,0,1:0:0:0:
314,225,22853,1,8,0:0:0:0:
386,46,23024,1,0,1:0:0:0:
390,65,23194,1,0,1:0:0:0:
166,69,23365,70,0,B|63:67|125:117|18:129,1,161.999995056153,4|2,1:2|0:1,0:0:0:0:
230,137,23876,1,0,0:0:0:0:
154,156,24046,2,0,P|150:189|150:242,1,80.9999975280763,8|2,0:0|0:1,0:0:0:0:
307,120,24387,2,2,P|306:79|302:39,1,80.9999975280763,10|2,0:0|0:1,0:1:0:0:
394,140,24728,1,0,0:0:0:0:
358,215,24899,1,0,0:0:0:0:
433,268,25069,1,0,1:0:0:0:
439,248,25240,1,0,0:0:0:0:
218,335,25410,6,0,P|160:328|43:307,1,161.999995056153,4|0,1:2|0:0,0:0:0:0:
172,156,25921,1,2,0:1:0:0:
197,249,26092,2,0,P|154:244|110:235,1,80.9999975280763,2|0,0:1|1:0,0:0:0:0:
307,314,26433,6,0,P|290:217|282:140,1,161.999995056153,10|2,0:0|0:0,0:0:0:0:
84,103,26944,1,2,0:0:0:0:
22,145,27115,2,0,P|31:180|37:230,1,80.9999975280763,8|0,0:0|0:0,0:0:0:0:
144,20,27455,6,0,P|206:118|351:100,1,270.000010299683,4|2,0:3|0:0,0:0:0:0:
415,60,28478,2,0,P|422:117|425:171,1,101.250003862381,2|0,0:0|0:0,0:0:0:0:
406,234,28819,2,0,P|413:270|417:310,1,67.5000025749208,2|2,0:3|0:3,0:0:0:0:
275,338,29160,1,2,0:0:0:0:
314,255,29501,70,0,B|192:207|201:367|51:336,1,270.000010299683,2|0,0:0|3:0,0:0:0:0:
38,273,30353,1,0,3:0:0:0:
38,273,30524,2,0,P|32:230|31:198,1,67.5000025749208,2|2,0:3|0:3,0:0:0:0:
154,33,30865,2,0,P|159:66|161:100,1,67.5000025749208,2|2,0:3|0:3,0:0:0:0:
314,255,31205,2,0,P|308:221|306:187,1,67.5000025749208,2|2,0:3|0:3,0:0:0:0:
121,199,31546,6,0,P|176:192|263:66,1,202.500007724762,2|0,0:0|0:0,0:0:0:0:
425,62,32228,2,0,P|428:94|434:136,1,67.5000025749208,2|0,0:0|0:0,0:0:0:0:
316,276,32569,2,0,P|324:197|325:164,1,101.250003862381,2|0,0:0|0:0,0:0:0:0:
348,104,32910,2,0,P|344:68|336:35,1,67.5000025749208,2|2,0:0|0:3,0:0:0:0:
512,121,33251,2,0,P|508:157|500:190,1,67.5000025749208,2|2,0:3|0:3,0:0:0:0:
396,333,33592,6,0,B|327:371|327:371|264:369|207:314|214:242,1,270.000010299683,2|0,0:0|0:0,0:0:0:0:
254,122,34444,1,2,0:0:0:0:
167,100,34615,2,0,P|173:131|182:194,1,67.5000025749208,2|2,0:3|0:3,0:0:0:0:
423,180,34955,2,0,P|456:185|489:192,1,67.5000025749208,2|2,0:3|0:3,0:0:0:0:
345,100,35296,2,0,P|338:131|330:194,1,67.5000025749208,2|2,0:3|0:3,0:0:0:0:
89,180,35637,6,0,P|55:185|22:192,2,67.5000025749208,2|0|2,0:0|0:0|0:3,0:0:0:0:
202,241,36149,1,2,0:3:0:0:
253,179,36319,2,0,P|261:121|256:35,1,135.000005149842,2|2,0:0|0:0,0:0:0:0:
257,306,37001,2,0,P|264:338|275:382,2,67.5000025749208,0|2|2,0:0|0:3|0:3,0:0:0:0:
330,249,37512,1,0,0:0:0:0:
398,300,37683,70,0,P|335:286|125:260,1,270.000010299683,2|2,0:0|0:3,0:0:0:0:
85,185,38535,1,0,0:0:0:0:
135,122,38705,2,0,P|173:117|218:106,1,67.5000025749208,2|2,0:0|0:3,0:0:0:0:
15,134,39046,2,0,P|7:101|3:67,1,67.5000025749208,2|2,0:0|0:3,0:0:0:0:
28,253,39387,2,0,P|23:286|16:319,1,67.5000025749208,2|2,0:3|0:3,0:0:0:0:
260,201,39728,6,0,P|208:201|113:313,1,202.500007724762,2|2,0:0|0:3,0:0:0:0:
216,368,40410,2,0,P|210:322|204:291,1,67.5000025749208,2|0,0:0|0:0,0:0:0:0:
18,186,40751,2,0,P|24:232|30:263,1,67.5000025749208,2|0,0:0|0:0,0:0:0:0:
269,209,41092,1,2,0:0:0:0:
224,125,41262,1,2,0:3:0:0:
180,207,41433,2,0,P|146:219|116:233,1,67.5000025749208,2|0,0:0|0:0,0:0:0:0:
317,129,41774,6,0,P|412:151|452:240,1,202.500007724762,2|2,0:0|0:3,0:0:0:0:
217,357,42455,2,0,P|226:313|231:271,1,67.5000025749208,2|0,0:0|0:0,0:0:0:0:
157,113,42796,2,0,P|170:159|203:228,1,101.250003862381,2|0,0:0|0:0,0:0:0:0:
191,207,43137,2,0,P|225:201|262:197,1,67.5000025749208,2|2,0:3|0:3,0:0:0:0:
102,261,43478,2,0,P|67:255|30:251,1,67.5000025749208,2|0,0:3|0:0,0:0:0:0:
51,37,43819,6,0,P|65:106|82:175,1,135.000005149842,4|0,0:3|0:0,0:0:0:0:
241,112,44330,1,8,0:0:0:0:
307,177,44501,2,0,P|341:184|390:189,1,67.5000025749208,2|0,0:0|0:0,0:0:0:0:
207,298,44842,2,0,P|183:272|183:167,1,135.000005149842,10|0,0:0|0:0,0:0:0:0:
321,88,45353,1,8,0:0:0:0:
262,24,45524,2,0,P|227:29|190:32,1,67.5000025749208,2|0,0:0|0:0,0:0:0:0:
406,40,45865,70,0,L|419:153,1,101.250003862381,4|0,0:3|0:0,0:0:0:0:
417,140,46205,2,0,L|407:225,2,67.5000025749208,2|0|2,0:3|0:0|0:3,0:0:0:0:
510,178,46717,1,4,0:3:0:0:
339,247,46887,2,0,P|285:239|222:204,1,101.250003862381,10|0,0:0|0:0,0:0:0:0:
242,219,47228,2,0,P|204:221|163:228,1,67.5000025749208,2|8,0:0|0:0,0:0:0:0:
196,384,47569,1,2,0:0:0:0:
226,306,47740,1,10,0:0:0:0:
93,248,47910,6,0,P|61:192|74:103,1,135.000005149842,4|0,0:3|0:0,0:0:0:0:
45,34,48421,1,8,0:0:0:0:
132,65,48592,2,0,P|166:61|214:51,1,67.5000025749208,2|0,0:0|0:0,0:0:0:0:
351,143,48933,2,0,P|403:145|499:200,1,135.000005149842,10|2,0:0|0:3,0:0:0:0:
362,231,49444,1,8,0:0:0:0:
269,110,49615,2,0,P|281:74|288:41,1,67.5000025749208,2|0,0:0|0:0,0:0:0:0:
207,188,49955,6,0,P|203:246|276:382,1,202.500007724762,4|8,0:3|0:0,0:0:0:0:
140,344,50637,1,4,0:3:0:0:
120,350,50808,1,4,0:3:0:0:
49,246,50978,2,0,P|56:177|57:123,1,101.250003862381,4|0,0:0|0:0,0:0:0:0:
57,145,51319,2,0,P|50:104|47:74,1,67.5000025749208,2|8,0:0|0:0,0:0:0:0:
197,38,51660,1,2,0:0:0:0:
144,116,51830,1,10,0:0:0:0:
257,149,52001,6,0,P|276:115|277:1,1,135.000005149842,4|0,0:3|0:0,0:0:0:0:
114,234,52512,1,8,0:0:0:0:
183,190,52683,2,0,P|193:223|197:262,1,67.5000025749208,2|0,0:0|0:0,0:0:0:0:
46,364,53024,2,0,P|84:331|132:316,1,101.250003862381,10|0,0:0|0:0,0:0:0:0:
154,331,53365,2,0,P|188:336|230:339,1,67.5000025749208,2|8,0:0|0:0,0:0:0:0:
392,172,53705,2,0,P|387:206|384:248,1,67.5000025749208,2|0,0:0|0:0,0:0:0:0:
314,350,54046,70,0,P|306:298|282:190,1,135.000005149842,4|0,0:3|0:0,0:0:0:0:
359,90,54558,1,8,0:0:0:0:
417,153,54728,2,0,P|452:162|491:167,1,67.5000025749208,2|4,0:0|0:3,0:0:0:0:
374,0,55069,2,0,P|332:15|261:31,1,101.250003862381,10|0,0:0|0:0,0:0:0:0:
256,28,55410,1,2,0:3:0:0:
214,123,55580,1,8,0:0:0:0:
306,195,55751,1,2,0:0:0:0:
296,107,55921,1,10,0:0:0:0:
151,184,56092,6,0,P|78:177|13:140,1,135.000005149842,4|0,0:3|0:0,0:0:0:0:
230,235,56603,1,8,0:0:0:0:
379,144,56774,2,0,P|415:133|453:129,1,67.5000025749208,2|0,0:0|0:0,0:0:0:0:
366,364,57115,2,0,P|353:322|345:280,1,67.5000025749208,10|0,0:0|0:0,0:0:0:0:
441,217,57455,1,8,0:0:0:0:
438,301,57626,1,8,0:0:0:0:
304,209,57796,2,0,P|251:198|198:181,1,101.250003862381,2|0,0:0|0:0,0:0:0:0:
206,183,58137,6,0,P|147:184|81:249,1,135.000005149842,4|0,0:3|0:0,0:0:0:0:
274,110,58649,1,8,0:0:0:0:
187,333,58819,2,0,P|181:285|168:250,1,67.5000025749208,2|4,0:0|0:3,0:0:0:0:
11,183,59160,2,0,P|2:215|0:249,1,67.5000025749208,12|0,0:0|0:0,0:0:0:0:
258,273,59501,5,0,1:0:0:0:
106,314,59671,1,2,1:2:0:0:
80,240,59842,69,4,0:3:0:0:
291,343,60012,1,4,0:3:0:0:
178,370,60183,6,0,P|183:288|192:191,1,161.999995056153,4|0,0:3|3:0,0:0:0:0:
190,208,60609,1,0,3:0:0:0:
190,208,60694,1,0,3:0:0:0:
393,137,60865,2,0,P|439:140|476:140,1,80.9999975280763,4|0,0:3|0:0,0:0:0:0:
249,73,61205,2,0,P|253:123|320:172,1,121.499996292114,8|0,0:0|0:0,0:0:0:0:
319,184,61546,2,0,P|326:222|331:267,1,80.9999975280763
163,127,61887,2,0,P|123:120|82:116,1,80.9999975280763
7,274,62143,5,0,0:0:0:0:
7,274,62228,2,0,P|45:223|171:227,1,161.999995056153
260,157,62740,1,0,0:0:0:0:
168,24,62910,2,0,P|177:63|185:109,1,80.9999975280763
328,221,63251,2,0,P|367:227|407:237,1,80.9999975280763
407,237,63507,1,0,0:0:0:0:
407,237,63592,1,0,0:0:0:0:
280,144,63762,1,0,0:0:0:0:
188,275,63933,2,0,P|194:235|204:195,1,80.9999975280763
271,62,64188,5,0,0:0:0:0:
271,62,64274,2,0,B|357:55|321:115|440:102,1,161.999995056153
472,234,64785,1,0,0:0:0:0:
368,264,64955,2,0,P|378:224|384:180,1,80.9999975280763
176,19,65296,2,0,P|184:79|199:138,1,121.499996292114
190,157,65637,1,0,0:0:0:0:
244,275,65808,1,0,0:0:0:0:
171,319,65978,1,0,0:0:0:0:
281,208,66149,69,0,0:0:0:0:
281,208,66234,1,0,0:0:0:0:
281,208,66319,2,0,P|219:195|117:180,1,161.999995056153
60,19,66830,1,0,0:0:0:0:
38,107,67001,2,0,P|85:100|131:88,1,80.9999975280763
275,28,67342,6,0,P|223:69|189:171,1,161.999995056153
335,92,67853,1,0,0:0:0:0:
455,177,68024,1,0,0:0:0:0:
509,93,68194,5,0,0:0:0:0:
509,93,68279,1,0,0:0:0:0:
509,93,68365,2,0,L|343:113,1,161.999995056153
230,206,68876,1,0,0:0:0:0:
156,162,69046,2,0,P|145:117|140:77,1,80.9999975280763
378,212,69387,2,0,P|379:268|341:335,1,121.499996292114
335,331,69728,2,0,P|292:322|246:316,1,80.9999975280763
156,162,70069,1,0,0:0:0:0:
115,258,70240,5,0,0:0:0:0:
115,258,70325,1,0,0:0:0:0:
115,258,70410,2,0,P|174:252|264:202,1,161.999995056153
340,63,70921,1,0,0:0:0:0:
420,105,71092,2,0,P|425:144|437:199,1,80.9999975280763
265,6,71433,70,0,P|256:62|236:125,1,121.499996292114
221,136,71774,1,0,0:0:0:0:
108,128,71944,1,0,0:0:0:0:
94,52,72115,1,0,0:0:0:0:
232,225,72285,1,0,0:0:0:0:
1,231,72455,6,0,P|66:220|125:208,1,121.499996292114
138,212,72796,2,0,P|151:248|161:294,1,80.9999975280763
160,289,73052,1,0,0:0:0:0:
160,289,73137,1,0,0:0:0:0:
304,171,73308,1,0,0:0:0:0:
365,382,73478,6,0,P|387:315|380:208,1,161.999995056153
171,108,73990,2,0,P|218:103|257:93,1,80.9999975280763
399,43,74330,5,0,0:0:0:0:
399,43,74416,1,0,0:0:0:0:
399,43,74501,2,0,P|389:82|386:122,1,80.9999975280763
308,283,74842,1,0,0:0:0:0:
281,187,75012,1,0,0:0:0:0:
217,253,75183,2,0,P|176:249|137:240,1,80.9999975280763
55,37,75524,70,0,B|113:50|113:50|130:137,1,148.50000453186
126,159,75865,1,0,0:0:0:0:
165,350,76035,1,0,0:0:0:0:
286,206,76205,1,0,0:0:0:0:
281,187,76376,1,0,0:0:0:0:
6,243,76546,6,0,B|86:215|85:270|167:248,1,161.999995056153
324,167,77058,1,0,0:0:0:0:
399,212,77228,2,0,P|404:252|411:291,1,80.9999975280763
233,186,77569,2,0,P|244:123|337:79,2,161.999995056153
296,291,78421,5,0,0:0:0:0:
296,291,78507,1,0,0:0:0:0:
296,291,78592,1,0,0:0:0:0:
256,192,78677,12,0,79785,0:0:0:0:
335,300,80296,6,2,L|342:344,3,40.4999987640381
475,262,80637,70,0,B|376:264|399:184|290:221,1,198.000006042481,4|2,0:1|0:1,0:0:0:0:
145,166,81149,1,4,0:3:0:0:
73,87,81319,2,0,P|128:76|178:61,1,99.0000030212403,2|2,0:0|0:1,0:1:0:0:
34,246,81660,6,2,P|110:252|241:291,1,198.000006042481,10|2,0:2|0:1,0:1:0:0:
310,124,82171,1,0,0:0:0:0:
398,157,82342,1,4,0:3:0:0:
234,186,82512,1,0,3:0:0:0:
234,186,82597,1,0,3:0:0:0:
234,186,82683,2,0,B|269:134|269:134|265:86|238:25,1,148.50000453186,0|0,3:2|0:0,0:0:0:0:
235,31,83024,6,0,P|185:25|136:18,1,99.0000030212403,2|4,0:1|0:3,0:0:0:0:
58,143,83365,1,2,0:0:0:0:
169,119,83535,1,2,0:1:0:0:
317,234,83705,6,2,P|373:189|445:195,1,148.50000453186,10|2,0:2|0:1,0:1:0:0:
465,185,84046,1,4,0:3:0:0:
388,315,84217,1,8,0:0:0:0:
427,382,84387,1,4,0:3:0:0:
414,112,84558,69,0,3:0:0:0:
414,112,84643,1,0,3:0:0:0:
414,112,84728,2,0,P|364:56|240:69,1,198.000006042481,4|2,3:0|0:1,0:0:0:0:
118,260,85240,1,4,0:3:0:0:
63,176,85410,2,0,P|119:173|170:166,1,99.0000030212403,2|2,0:0|0:1,0:0:0:0:
285,330,85751,2,2,B|175:287|196:363|76:356,1,198.000006042481,10|2,0:2|0:1,0:1:0:0:
222,237,86262,1,0,0:0:0:0:
111,90,86433,1,0,0:0:0:0:
50,172,86603,5,0,0:0:0:0:
50,172,86688,1,0,0:0:0:0:
50,172,86774,2,0,P|150:162|254:150,1,198.000006042481,0|2,0:0|0:1,0:0:0:0:
439,52,87285,1,0,3:0:0:0:
340,141,87455,1,4,0:3:0:0:
392,207,87626,1,4,0:3:0:0:
290,338,87796,5,10,0:0:0:0:
284,317,87967,1,0,0:0:0:0:
310,221,88137,1,0,1:0:0:0:
239,94,88308,1,0,1:0:0:0:
302,32,88478,5,8,0:0:0:0:
216,251,88649,1,8,0:0:0:0:
135,57,88819,70,0,B|65:94|65:94|92:224,1,198.000006042481,4|2,0:1|0:1,0:0:0:0:
201,269,89330,1,0,0:0:0:0:
0,347,89501,2,0,L|15:241,1,99.0000030212403,2|2,0:0|0:1,0:0:0:0:
364,221,89842,6,2,P|267:198|176:160,1,198.000006042481,10|2,0:2|0:1,0:1:0:0:
113,311,90353,1,0,0:0:0:0:
176,160,90524,1,4,0:3:0:0:
113,97,90694,5,0,3:0:0:0:
113,97,90779,1,0,3:0:0:0:
113,97,90865,2,0,P|101:41|93:-7,1,99.0000030212403,0|0,3:0|0:0,0:0:0:0:
219,170,91205,1,2,0:1:0:0:
208,261,91376,1,4,0:3:0:0:
315,328,91546,2,0,P|306:279|296:230,1,99.0000030212403,2|2,0:0|0:1,0:0:0:0:
83,188,91887,6,2,P|155:180|225:80,1,198.000006042481,10|2,0:2|0:1,0:1:0:0:
390,243,92399,1,8,0:0:0:0:
449,160,92569,2,0,P|398:155|348:145,1,99.0000030212403,2|0,0:1|3:0,0:0:0:0:
403,74,92825,1,0,3:0:0:0:
403,74,92910,70,0,P|416:136|429:299,1,198.000006042481,4|2,3:2|0:1,0:0:0:0:
238,173,93421,1,2,0:0:0:0:
166,222,93592,2,0,P|110:217|59:209,1,99.0000030212403,2|2,0:0|0:3,0:0:0:0:
295,305,93933,6,2,P|322:237|305:104,1,198.000006042481,10|2,0:2|0:1,0:1:0:0:
130,131,94444,1,0,0:0:0:0:
52,80,94615,1,4,0:3:0:0:
142,41,94785,5,0,3:0:0:0:
142,41,94870,1,0,3:0:0:0:
142,41,94955,2,0,P|149:109|164:249,1,198.000006042481,0|2,3:0|0:1,0:0:0:0:
155,366,95467,1,8,0:0:0:0:
252,206,95637,1,4,0:3:0:0:
245,191,95808,1,4,0:3:0:0:
99,309,95978,6,0,B|139:331|139:331|193:331|251:295,1,148.50000453186,10|0,0:0|0:0,0:0:0:0:
253,286,96319,2,0,P|305:289|351:297,1,99.0000030212403,2|4,0:0|0:3,0:0:0:0:
281,99,96660,2,0,P|229:102|183:110,1,99.0000030212403,10|4,0:0|0:3,0:0:0:0:
429,55,97001,70,0,P|446:147|375:210,1,198.000006042481,4|2,0:1|0:1,0:0:0:0:
293,180,97512,1,0,0:0:0:0:
124,272,97683,2,0,P|119:320|113:370,1,99.0000030212403,2|2,0:0|0:1,0:0:0:0:
221,286,98024,6,2,P|201:207|189:138,1,148.50000453186,10|2,0:2|0:1,0:1:0:0:
190,140,98365,2,0,P|201:75|205:33,1,99.0000030212403,2|0,0:0|0:0,0:0:0:0:
97,172,98705,1,4,0:3:0:0:
294,132,98876,5,0,3:0:0:0:
294,132,98961,1,0,3:0:0:0:
294,132,99046,2,0,B|384:110|376:191|483:173,1,198.000006042481,0|0,3:0|0:0,0:0:0:0:
315,230,99558,1,0,0:0:0:0:
244,292,99728,2,0,P|231:244|222:195,1,99.0000030212403
434,30,100069,6,0,P|421:103|402:174,1,148.50000453186
402,174,100410,1,0,0:0:0:0:
491,314,100580,1,0,0:0:0:0:
402,174,100751,1,0,0:0:0:0:
323,237,100921,69,0,0:0:0:0:
323,237,101007,1,0,0:0:0:0:
323,236,101092,2,0,P|227:244|161:175,1,198.000006042481
245,57,101603,1,0,0:0:0:0:
180,19,101774,2,0,P|131:30|78:36,1,99.0000030212403
1,270,102115,6,0,P|50:259|103:253,1,99.0000030212403
275,140,102455,1,0,0:0:0:0:
156,162,102626,1,0,0:0:0:0:
82,121,102796,1,0,0:0:0:0:
316,220,102967,5,0,0:0:0:0:
316,220,103052,1,0,0:0:0:0:
316,220,103137,2,0,B|341:257|341:257|343:304|312:358,1,148.50000453186
306,369,103478,2,0,P|360:360|416:358,1,99.0000030212403
233,271,103819,1,0,0:0:0:0:
239,288,103990,1,0,0:0:0:0:
403,180,104160,6,0,P|410:119|424:62,1,99.0000030212403
438,264,104501,1,0,0:0:0:0:
319,120,104671,1,0,0:0:0:0:
240,160,104842,69,0,0:0:0:0:
498,143,105012,1,0,0:0:0:0:
240,160,105183,6,0,P|161:151|81:134,1,148.50000453186
78,124,105524,1,0,0:0:0:0:
14,279,105694,1,0,0:0:0:0:
134,226,105865,1,0,0:0:0:0:
17,64,106035,1,0,0:0:0:0:
31,189,106205,6,0,P|45:251|61:343,1,148.50000453186
56,350,106546,2,0,P|111:327|156:327,1,99.0000030212403
326,246,106887,1,0,0:0:0:0:
230,384,107058,5,0,0:0:0:0:
230,384,107143,1,0,0:0:0:0:
230,384,107228,2,0,L|241:228,1,148.50000453186
254,220,107569,1,0,0:0:0:0:
227,112,107740,1,0,0:0:0:0:
148,230,107910,1,0,0:0:0:0:
320,160,108080,1,0,0:0:0:0:
148,230,108251,70,0,P|114:187|132:75,1,148.50000453186
139,86,108592,2,0,P|190:76|240:62,1,99.0000030212403
455,262,108933,2,0,P|403:252|354:238,1,99.0000030212403
281,156,109188,5,0,0:0:0:0:
281,156,109274,2,0,P|272:210|271:356,1,198.000006042481
374,153,109785,1,0,0:0:0:0:
448,100,109955,2,0,P|442:37|436:-4,1,99.0000030212403
194,120,110296,6,0,B|116:135|74:79|-18:127,2,198.000006042481
261,58,111149,5,0,0:0:0:0:
261,58,111234,1,0,0:0:0:0:
260,58,111319,2,0,P|355:83|381:175,1,198.000006042481
224,348,111830,1,0,0:0:0:0:
103,234,112001,69,0,0:0:0:0:
369,258,112171,1,0,0:0:0:0:
306,206,112342,5,0,0:0:0:0:
177,275,112512,1,0,0:0:0:0:
261,273,112683,5,0,0:0:0:0:
261,273,112768,1,0,0:0:0:0:
261,273,112853,1,0,0:0:0:0:
206,196,113024,1,0,0:0:0:0:
197,172,113109,1,0,0:0:0:0:
194,148,113194,1,0,0:0:0:0:
195,123,113279,1,0,0:0:0:0:
202,100,113364,5,0,0:0:0:0:
202,100,114728,69,0,0:0:0:0:
202,100,115069,1,0,0:0:0:0:
202,100,115410,1,0,0:0:0:0:
410,264,116774,5,0,0:0:0:0:
404,283,117115,1,0,0:0:0:0:
398,302,117455,1,0,0:0:0:0:
398,302,118478,1,0,0:0:0:0:
187,243,119160,5,0,0:0:0:0:
178,258,119501,2,0,L|68:274,1,107.999996704102
231,169,120012,1,0,0:0:0:0:
316,252,120183,2,0,P|322:215|327:180,1,53.9999983520508
324,198,120524,1,0,0:0:0:0:
122,17,120865,6,0,P|132:68|140:138,1,107.999996704102
388,110,121546,70,0,B|222:81|261:237|90:227,1,323.999990112305
341,204,122910,2,0,P|395:195|458:193,1,107.999996704102
217,313,123592,6,0,P|169:321|37:125,1,323.999990112305
276,154,124955,2,0,P|288:199|297:269,1,107.999996704102
464,367,125637,6,0,P|472:206|492:37,1,323.999990112305
385,194,127001,2,0,P|378:138|366:76,1,107.999996704102
170,152,127683,2,0,P|116:147|39:137,2,107.999996704102
273,148,128705,5,0,0:0:0:0:
256,192,128791,12,0,129728,0:0:0:0:
374,86,130069,70,0,P|382:119|376:162,1,67.5000025749208
271,279,130410,2,0,P|263:246|269:203,1,67.5000025749208
457,50,130751,2,0,P|470:104|460:192,1,135.000005149842
291,117,131262,1,0,0:0:0:0:
201,143,131433,2,0,P|161:137|124:130,1,67.5000025749208
77,343,131774,6,0,P|211:325|359:315,1,270.000010299683
162,156,132626,1,0,0:0:0:0:
74,202,132796,2,0,P|70:160|63:123,1,67.5000025749208
247,207,133137,2,0,P|212:230|184:256,1,67.5000025749208
169,58,133478,2,0,P|206:75|242:87,1,67.5000025749208
59,234,133819,6,0,P|52:151|37:76,1,135.000005149842
162,156,134330,1,0,0:0:0:0:
297,72,134501,2,0,P|261:80|216:85,1,67.5000025749208
228,235,134842,2,0,P|261:239|294:246,1,67.5000025749208
500,205,135183,1,0,0:0:0:0:
423,259,135353,1,0,0:0:0:0:
510,302,135524,1,0,0:0:0:0:
371,184,135694,5,0,0:0:0:0:
371,184,135779,1,0,0:0:0:0:
371,184,135865,2,0,P|383:113|386:42,1,135.000005149842
471,118,136376,1,0,0:0:0:0:
296,50,136546,2,0,P|297:83|290:126,1,67.5000025749208
82,310,136887,70,0,P|81:277|88:234,1,67.5000025749208,8|0,0:0|0:0,0:0:0:0:
168,181,137228,1,4,0:3:0:0:
181,270,137399,1,4,0:3:0:0:
260,211,137569,2,0,P|318:208|389:144,1,135.000005149842,4|4,0:3|0:1,0:0:0:0:
256,192,138933,12,8,141830,0:0:0:0:
229,143,142001,6,0,P|161:134|74:120,1,135.000005149842
305,91,142512,1,0,0:0:0:0:
401,199,142683,2,0,P|435:190|472:185,1,67.5000025749208
252,287,143024,2,0,P|256:320|265:352,1,67.5000025749208
343,271,143365,1,0,0:0:0:0:
304,189,143535,1,0,0:0:0:0:
205,203,143705,2,0,P|156:202|98:178,1,101.250003862381
63,258,144046,6,0,B|117:160|6:145|68:44,1,202.500007724762
229,114,144728,2,0,P|190:108|148:96,1,67.5000025749208
312,178,145069,2,0,P|382:176|441:211,1,135.000005149842
223,212,145580,1,0,0:0:0:0:
320,83,145751,2,0,P|329:43|332:12,1,67.5000025749208
216,137,146092,6,0,B|197:174|189:213|189:213|197:255|215:294,1,161.999995056153
213,290,146518,1,0,0:0:0:0:
213,290,146603,1,0,0:0:0:0:
105,220,146774,1,0,0:0:0:0:
29,257,146944,1,0,0:0:0:0:
2,114,147115,70,0,P|66:123|130:128,1,121.499996292114
122,127,147455,2,0,P|162:115|207:108,1,80.9999975280763
261,36,147796,1,0,0:0:0:0:
370,190,147967,5,0,0:0:0:0:
370,190,148052,1,0,0:0:0:0:
370,190,148137,2,0,P|345:133|357:27,1,161.999995056153
460,174,148649,1,0,0:0:0:0:
428,343,148819,2,0,P|434:285|423:254,1,80.9999975280763
267,328,149160,5,0,0:0:0:0:
166,290,149330,1,0,0:0:0:0:
166,290,149416,1,0,0:0:0:0:
166,290,149501,1,0,0:0:0:0:
54,313,149671,1,0,0:0:0:0:
41,296,149842,6,0,L|50:186,1,80.9999975280763
29,99,150097,1,0,0:0:0:0:
29,99,150183,2,0,P|96:141|176:140,1,161.999995056153
247,206,150694,1,0,0:0:0:0:
347,99,150865,2,0,P|306:100|267:112,1,80.9999975280763
315,340,151205,70,0,B|348:288|348:288|329:189,1,161.999995056153
185,59,151717,1,0,0:0:0:0:
279,32,151887,2,0,P|271:71|267:118,1,80.9999975280763
184,154,152143,1,0,0:0:0:0:
184,154,152228,6,0,B|136:145|136:145|100:104|100:104|22:94,1,161.999995056153
249,249,152740,1,0,0:0:0:0:
173,316,152910,2,0,L|151:223,1,80.9999975280763
348,188,153251,6,0,P|342:240|329:351,1,161.999995056153
425,152,153762,1,0,0:0:0:0:
256,43,153933,1,0,0:0:0:0:
218,130,154103,5,0,0:0:0:0:
218,130,154188,1,0,0:0:0:0:
218,130,154274,2,0,P|299:118|374:80,1,161.999995056153
425,152,154785,1,0,0:0:0:0:
341,269,154955,2,0,P|347:224|349:186,1,80.9999975280763
512,35,155296,2,0,P|506:80|504:118,1,80.9999975280763
512,213,155637,69,0,0:0:0:0:
338,73,155808,1,0,0:0:0:0:
257,123,155978,1,0,0:0:0:0:
161,102,156149,5,0,0:0:0:0:
161,102,156234,1,0,0:0:0:0:
161,102,156319,2,0,P|146:146|179:254,1,161.999995056153
0,290,156830,1,0,0:0:0:0:
74,345,157001,2,0,P|81:294|85:252,1,80.9999975280763
338,292,157342,6,0,P|398:288|459:282,1,121.499996292114
482,274,157683,1,0,0:0:0:0:
267,235,157853,1,0,0:0:0:0:
309,162,158024,1,0,0:0:0:0:
372,384,158194,1,0,0:0:0:0:
440,244,158365,6,0,P|394:241|355:231,1,80.9999975280763
112,299,158705,2,0,P|151:289|191:287,1,80.9999975280763
181,116,159046,2,0,P|192:155|199:205,1,80.9999975280763
267,345,159387,2,0,P|274:272|299:171,1,161.999995056153
98,71,159899,2,0,P|94:112|101:160,1,80.9999975280763
276,98,160240,69,0,0:0:0:0:
276,98,160325,1,0,0:0:0:0:
276,98,160410,2,0,B|361:78|343:136|444:113,1,161.999995056153
375,210,160921,1,0,0:0:0:0:
506,300,161092,2,0,P|468:292|417:288,1,80.9999975280763
241,334,161433,6,0,P|269:297|280:183,1,161.999995056153
104,200,161944,1,0,0:0:0:0:
180,145,162115,2,0,P|188:183|192:227,1,80.9999975280763
10,271,162455,2,0,P|16:190|33:111,1,161.999995056153
220,62,162967,1,0,0:0:0:0:
389,93,163137,1,0,0:0:0:0:
452,43,163308,1,0,0:0:0:0:
301,35,163478,6,0,P|311:94|317:155,1,121.499996292114
312,174,163819,1,0,0:0:0:0:
349,328,163990,1,0,0:0:0:0:
275,261,164160,1,0,0:0:0:0:
476,187,164330,1,0,0:0:0:0:
405,126,164501,6,0,P|398:77|395:44,1,80.9999975280763
118,73,165183,1,0,0:0:0:0:
147,160,165353,1,0,0:0:0:0:
147,160,165438,1,0,0:0:0:0:
147,160,165524,1,0,0:0:0:0:
171,241,165694,1,0,0:0:0:0:
72,206,165865,70,0,L|19:217,1,49.5000015106202
233,98,166035,2,0,L|284:90,1,49.5000015106202
205,85,166205,1,0,0:0:0:0:
154,261,166376,1,0,0:0:0:0:
51,121,166546,70,0,B|189:110|103:189|256:184,1,198.000006042481
154,261,167058,1,0,0:0:0:0:
78,334,167228,2,0,P|62:280|42:234,1,99.0000030212403
326,275,167569,2,0,P|251:295|200:364,1,148.50000453186
206,347,167910,1,0,0:0:0:0:
412,311,168080,1,0,0:0:0:0:
493,277,168251,5,0,0:0:0:0:
269,195,168421,1,0,0:0:0:0:
269,195,168507,1,0,0:0:0:0:
269,195,168592,2,0,P|274:121|271:35,1,148.50000453186
346,0,168933,2,0,P|356:52|373:96,1,99.0000030212403
182,59,169274,2,0,P|122:66|76:62,1,99.0000030212403
10,254,169615,6,0,P|53:191|182:169,1,198.000006042481
300,306,170126,1,0,0:0:0:0:
425,210,170296,2,0,P|363:223|326:226,1,99.0000030212403
246,216,170552,1,0,0:0:0:0:
246,216,170637,2,0,B|206:277|233:334|233:334|266:310|306:304,1,198.000006042481
359,147,171149,69,0,0:0:0:0:
277,98,171319,2,0,P|271:41|266:-7,1,99.0000030212403
135,177,171660,2,0,P|125:232|91:377,1,198.000006042481
24,276,172171,1,0,0:0:0:0:
220,223,172342,1,0,0:0:0:0:
378,384,172512,5,0,0:0:0:0:
378,384,172597,1,0,0:0:0:0:
378,384,172683,2,0,B|415:345|423:297|423:297|409:242,1,148.50000453186
399,242,173024,2,0,P|353:276|293:257,1,99.0000030212403
326,107,173365,1,0,0:0:0:0:
488,222,173535,1,0,0:0:0:0:
341,193,173705,6,0,P|277:193|219:189,1,99.0000030212403
410,346,174046,2,0,P|459:343|508:344,1,99.0000030212403
302,287,174387,5,0,0:0:0:0:
115,320,174558,1,0,0:0:0:0:
23,352,174728,70,0,P|29:294|27:162,1,148.50000453186
29,203,175069,2,0,P|24:144|26:97,1,99.0000030212403
289,60,175410,2,0,P|305:111|287:154,1,99.0000030212403
127,232,175751,1,0,0:0:0:0:
127,232,175836,1,0,0:0:0:0:
127,232,175921,2,0,P|180:218|225:215,1,99.0000030212403
313,246,176262,1,0,0:0:0:0:
233,100,176433,5,0,0:0:0:0:
325,257,176603,2,0,L|336:196,1,49.5000015106202
244,115,176774,6,0,P|318:112|391:102,1,148.50000453186
403,108,177115,2,0,P|430:154|417:207,1,99.0000030212403
203,304,177455,2,0,P|196:255|223:214,1,99.0000030212403
456,312,177796,2,0,B|399:256|310:285|310:285,1,148.50000453186
304,296,178137,1,0,0:0:0:0:
123,370,178308,1,0,0:0:0:0:
304,296,178478,6,0,P|310:240|318:195,1,99.0000030212403
257,120,178734,1,0,0:0:0:0:
257,120,178819,2,0,P|200:135|75:72,1,198.000006042481
422,58,179330,1,0,0:0:0:0:
386,133,179501,2,0,P|408:193|419:243,1,99.0000030212403
223,384,179842,2,0,P|210:328|209:207,1,148.50000453186
217,222,180183,69,0,0:0:0:0:
314,263,180353,1,0,0:0:0:0:
122,354,180524,1,0,0:0:0:0:
314,263,180694,1,0,0:0:0:0:
314,263,180779,1,0,0:0:0:0:
314,263,180865,2,0,P|314:204|320:106,1,148.50000453186
332,105,181205,5,0,0:0:0:0:
140,169,181376,1,0,0:0:0:0:
67,64,181546,1,0,0:0:0:0:
137,17,181717,1,0,0:0:0:0:
209,130,181887,5,0,0:0:0:0:
141,92,182058,1,0,0:0:0:0:
213,52,182228,5,0,0:0:0:0:
208,206,182399,1,0,0:0:0:0:
268,358,182569,1,0,0:0:0:0:
280,268,182740,1,0,0:0:0:0:
2,290,182910,70,0,B|104:266|90:325|202:294,1,198.000006042481
355,173,183421,1,0,0:0:0:0:
442,159,183592,2,0,P|450:212|461:262,1,99.0000030212403
264,186,183933,2,0,P|272:129|287:33,1,148.50000453186
280,27,184274,2,0,P|327:19|382:57,1,99.0000030212403
171,111,184615,1,0,0:0:0:0:
89,77,184785,5,0,0:0:0:0:
89,77,184870,1,0,0:0:0:0:
89,77,184955,2,0,P|81:139|65:242,1,148.50000453186
52,239,185296,2,0,P|82:272|153:265,1,99.0000030212403
343,79,185637,2,0,P|290:96|244:105,1,99.0000030212403
206,361,185978,6,0,B|243:308|243:308|229:243|195:173,1,198.000006042481
343,79,186490,1,0,0:0:0:0:
406,140,186660,2,0,P|401:195|396:250,1,99.0000030212403
327,282,186916,1,0,0:0:0:0:
327,282,187001,2,0,P|271:288|96:307,1,198.000006042481
39,146,187512,1,0,0:0:0:0:
87,86,187683,2,0,P|141:77|199:64,1,99.0000030212403
314,139,188024,6,0,B|261:157|261:157|256:196|232:266,1,148.50000453186
238,246,188365,1,0,0:0:0:0:
408,177,188535,1,0,0:0:0:0:
238,246,188705,1,0,0:0:0:0:
154,196,188876,69,0,0:0:0:0:
154,196,188961,1,0,0:0:0:0:
154,196,189046,2,0,P|76:187|0:169,1,148.50000453186
7,171,189387,1,0,0:0:0:0:
37,263,189558,1,0,0:0:0:0:
223,146,189728,5,0,0:0:0:0:
302,187,189899,1,0,0:0:0:0:
476,159,190069,2,0,P|480:104|478:6,1,148.50000453186
384,124,190410,6,0,P|391:174|399:222,1,99.0000030212403
295,98,190751,1,0,0:0:0:0:
261,277,190921,1,0,0:0:0:0:
10,154,191092,2,0,B|122:123|99:193|211:173,1,198.000006042481
333,342,191603,1,0,0:0:0:0:
182,349,191774,2,0,P|170:293|171:239,1,99.0000030212403
308,146,192115,2,0,P|332:258|330:366,1,198.000006042481
415,223,192626,5,0,0:0:0:0:
249,278,192796,1,0,0:0:0:0:
124,184,192967,1,0,0:0:0:0:
124,184,193052,1,0,0:0:0:0:
124,184,193137,2,0,P|71:202|51:342,1,198.000006042481
142,378,193649,1,0,0:0:0:0:
142,378,193819,2,0,P|133:315|128:269,1,99.0000030212403
243,109,194160,2,0,B|189:172|231:261|231:261,1,148.50000453186
226,249,194501,69,0,0:0:0:0:
57,111,194671,1,0,0:0:0:0:
146,76,194842,1,0,0:0:0:0:
315,192,195012,1,0,0:0:0:0:
315,192,195097,1,0,0:0:0:0:
315,192,195183,2,0,P|384:190|535:178,1,198.000006042481
226,249,195694,1,0,0:0:0:0:
150,307,195865,2,0,P|95:304|36:301,1,99.0000030212403
301,94,196205,6,0,P|307:156|316:197,1,99.0000030212403
145,327,196546,2,0,P|134:269|110:166,1,148.50000453186
97,175,196887,2,0,P|151:164|193:150,1,99.0000030212403
226,249,197228,2,0,P|309:258|380:278,1,148.50000453186
383,288,197569,5,0,0:0:0:0:
458,120,197740,1,0,0:0:0:0:
392,81,197910,1,0,0:0:0:0:
268,146,198080,1,0,0:0:0:0:
135,213,198251,1,0,0:0:0:0:
160,133,198421,5,0,0:0:0:0:
197,290,198592,2,0,L|202:342,3,49.5000015106202
46,238,198933,2,0,L|49:179,1,49.5000015106202
248,205,199103,2,0,L|245:146,1,49.5000015106202
147,77,199274,70,0,B|110:94|74:106|74:106|65:234,1,198.000006042481
298,82,199785,1,0,0:0:0:0:
379,120,199955,2,0,P|401:167|408:224,1,99.0000030212403
197,290,200296,2,0,P|231:233|307:188,1,148.50000453186
299,190,200637,1,0,0:0:0:0:
284,352,200808,5,0,0:0:0:0:
268,269,200978,1,0,0:0:0:0:
235,117,201149,1,0,0:0:0:0:
235,117,201234,1,0,0:0:0:0:
235,117,201319,2,0,P|180:117|37:100,1,198.000006042481
298,58,201830,1,0,0:0:0:0:
373,24,202001,2,0,P|430:22|474:27,1,99.0000030212403
279,205,202342,6,0,P|222:207|178:202,2,99.0000030212403
453,129,202853,1,0,0:0:0:0:
369,108,203024,2,0,P|363:140|368:167,1,49.5000015106202
437,270,203194,5,0,0:0:0:0:
437,270,203279,1,0,0:0:0:0:
437,270,203365,2,0,P|462:207|446:114,1,148.50000453186
453,129,203705,1,0,0:0:0:0:
350,246,203876,1,0,0:0:0:0:
276,113,204046,2,0,P|222:110|176:102,1,99.0000030212403
151,341,204387,2,0,P|222:322|296:312,1,148.50000453186
296,312,204728,69,0,0:0:0:0:
255,192,204899,1,0,0:0:0:0:
206,70,205069,1,0,0:0:0:0:
166,227,205240,1,0,0:0:0:0:
166,227,205325,1,0,0:0:0:0:
166,227,205410,2,0,P|90:225|56:226,1,99.0000030212403
345,143,205751,2,0,P|421:145|455:144,1,99.0000030212403
154,243,206092,2,0,P|145:297|161:347,1,99.0000030212403
341,325,206433,2,0,P|338:250|318:125,1,198.000006042481
243,292,206944,5,0,0:0:0:0:
201,79,207115,2,0,L|193:133,1,49.5000015106202
59,202,207285,1,0,0:0:0:0:
59,202,207370,1,0,0:0:0:0:
59,202,207455,2,0,B|128:191|128:191|180:214|180:214|256:202,1,198.000006042481
492,265,207967,1,0,0:0:0:0:
421,353,208137,2,0,P|366:347|303:341,1,99.0000030212403
315,113,208478,6,0,B|336:129|355:160|355:160|364:200|348:254,1,148.50000453186
350,245,208819,1,0,0:0:0:0:
211,299,208990,1,0,0:0:0:0:
350,245,209160,1,0,0:0:0:0:
443,352,209330,5,0,0:0:0:0:
443,352,209416,1,0,0:0:0:0:
443,352,209501,2,0,P|443:283|454:188,1,148.50000453186
451,203,209842,2,0,P|447:144|440:92,1,99.0000030212403
201,200,210183,2,0,P|205:259|212:311,1,99.0000030212403
371,64,210524,2,0,P|316:52|213:38,1,148.50000453186
224,39,210865,69,0,0:0:0:0:
367,148,211035,1,0,0:0:0:0:
299,256,211205,2,0,L|288:187,1,49.5000015106202
126,119,211376,1,0,0:0:0:0:
126,119,211461,1,0,0:0:0:0:
126,119,211546,2,0,B|54:149|54:149|35:288,1,198.000006042481
230,348,212058,1,0,0:0:0:0:
149,308,212228,2,0,P|139:250|140:208,1,99.0000030212403
367,148,212569,2,0,P|377:206|376:247,1,99.0000030212403
431,317,212910,5,0,0:0:0:0:
292,203,213080,1,0,0:0:0:0:
460,141,213251,1,0,0:0:0:0:
292,203,213421,1,0,0:0:0:0:
199,160,213592,6,0,P|133:173|39:181,1,148.50000453186
38,177,213933,2,0,P|29:228|49:283,1,99.0000030212403
276,282,214274,1,0,0:0:0:0:
292,203,214444,1,0,0:0:0:0:
102,144,214615,6,0,P|126:91|256:71,1,198.000006042481
360,265,215126,1,0,0:0:0:0:
486,168,215296,2,0,P|493:105|495:57,1,99.0000030212403
404,111,215552,1,0,0:0:0:0:
404,111,215637,2,0,B|256:107|364:172|197:160,1,198.000006042481
383,194,216149,1,0,0:0:0:0:
313,315,216319,1,0,0:0:0:0:
370,384,216490,1,0,0:0:0:0:
473,288,216660,70,0,B|385:280|417:310|320:300,1,148.50000453186
316,292,217001,1,0,0:0:0:0:
175,340,217171,1,0,0:0:0:0:
363,216,217342,5,0,0:0:0:0:
257,359,217512,1,0,0:0:0:0:
206,260,217683,6,0,P|193:206|192:117,1,144,0|0,0:0|2:0,0:0:0:0:
191,117,219728,5,0,0:0:0:0:
258,172,220069,2,0,L|313:167,1,45
376,211,220410,1,0,0:0:0:0:
393,41,220751,1,0,0:0:0:0:
503,106,221092,2,0,L|446:98,1,45
379,126,221433,1,0,0:0:0:0:
379,126,221774,70,0,P|328:119|294:117,1,67.5
297,126,222115,2,0,P|259:134|240:136,1,45
178,88,222455,2,0,P|149:83|129:80,1,45
56,122,222796,2,0,P|52:175|58:301,1,180
143,260,223819,6,0,B|220:251|213:287|288:276,1,135
341,334,224501,2,0,P|340:364|338:391,1,45
425,296,224842,2,0,P|419:221|415:156,2,135
331,218,227228,2,0,L|228:204,1,90
176,155,227910,6,0,P|134:162|85:280,1,180
241,384,228933,2,0,P|250:348|239:197,1,180
331,142,229955,2,0,P|366:147|431:152,2,90
265,81,230978,2,0,B|134:63|213:120|81:110,1,180
22,218,232001,6,0,P|76:206|167:197,1,135
226,231,232683,1,0,0:0:0:0:
317,176,233024,2,0,P|313:227|314:310,2,135
379,113,235410,2,0,P|385:76|356:28,1,90
133,183,236092,70,0,P|98:190|37:205,2,67.5000025749208
202,124,236603,1,0,0:0:0:0:
159,51,236774,2,0,P|122:46|87:40,1,67.5000025749208
202,124,237115,2,0,P|267:120|346:114,1,135.000005149842
430,229,237626,1,0,0:0:0:0:
375,295,237796,2,0,P|336:301|305:311,1,67.5000025749208
243,254,238052,1,0,0:0:0:0:
243,254,238137,6,0,P|196:252|103:238,2,135.000005149842
325,205,238990,1,0,0:0:0:0:
237,100,239160,2,0,P|229:59|235:24,1,67.5000025749208
415,102,239501,2,0,P|417:135|410:168,1,67.5000025749208
227,127,239842,2,0,P|192:130|135:138,1,67.5000025749208
323,66,240183,6,0,P|389:61|473:49,1,135.000005149842
311,161,240694,1,0,0:0:0:0:
227,127,240865,2,0,L|135:138,1,67.5000025749208
22,211,241205,2,0,P|58:226|82:245,1,67.5000025749208
89,90,241546,2,0,P|58:113|29:124,1,67.5000025749208
161,201,241887,2,0,P|155:162|160:132,1,67.5000025749208
300,26,242228,6,0,P|307:65|310:164,1,135.000005149842
273,234,242740,1,0,0:0:0:0:
315,301,242910,2,0,P|321:341|328:375,1,67.5000025749208
191,225,243251,2,0,P|148:237|54:257,2,135.000005149842
273,234,244103,1,0,0:0:0:0:
360,247,244274,70,0,P|371:214|373:181,1,67.5000025749208
332,99,244615,1,0,0:0:0:0:
256,123,244785,1,0,0:0:0:0:
181,78,244955,2,0,P|166:35|163:13,1,67.5000025749208
256,123,245296,2,0,P|248:170|216:257,1,135.000005149842
140,268,245808,1,0,0:0:0:0:
68,217,245978,2,0,P|31:213|-2:206,1,67.5000025749208
88,368,246319,6,0,P|123:359|231:351,1,135.000005149842
379,258,246830,1,0,0:0:0:0:
333,187,247001,2,0,P|291:180|261:173,1,67.5000025749208
312,371,247342,2,0,P|306:322|295:255,1,101.250003862381
297,270,247683,6,0,P|255:263|225:256,1,67.5000025749208
463,223,248024,2,0,P|471:266|467:299,1,67.5000025749208
379,258,248365,6,0,P|381:209|391:124,2,135
379,258,250921,69,0,0:0:0:0:
163,289,251092,2,0,P|118:302|61:315,2,90
359,151,251774,6,0,L|411:172,3,45
315,66,252115,2,0,L|263:45,3,45
198,159,252455,6,0,P|128:210|40:224,1,148.50000453186
69,224,252796,1,0,0:0:0:0:
0,177,252967,1,0,0:0:0:0:
54,323,253137,2,0,P|103:310|155:294,1,99.0000030212403
456,308,253478,2,0,P|386:257|298:243,1,148.50000453186
326,242,253819,2,0,B|310:290|310:290|329:342,1,99.0000030212403
407,168,254160,1,0,0:0:0:0:
224,230,254330,5,0,0:0:0:0:
224,230,254416,1,0,0:0:0:0:
224,230,254501,2,0,L|197:28,1,198.000006042481
92,179,255012,1,0,0:0:0:0:
109,87,255183,2,0,P|59:100|7:106,1,99.0000030212403
313,180,255524,2,0,P|377:165|483:277,1,198.000006042481
476,239,256035,1,0,0:0:0:0:
403,309,256205,1,0,0:0:0:0:
202,252,256376,5,0,0:0:0:0:
202,252,256461,1,0,0:0:0:0:
202,252,256546,2,0,B|79:227|106:285|-11:273,1,198.000006042481
213,350,257058,1,0,0:0:0:0:
292,298,257228,2,0,B|308:248|308:248|298:214|289:197,1,99.0000030212403
79,35,257569,2,0,B|51:77|42:114|42:114|52:151|69:175,1,148.50000453186
65,169,257910,6,0,L|168:148,1,99.0000030212403
388,318,258251,2,0,L|285:296,1,99.0000030212403
291,297,258507,1,0,0:0:0:0:
291,297,258592,2,0,B|230:246|272:161|272:161,1,148.50000453186
272,160,258933,1,0,0:0:0:0:
345,97,259103,1,0,0:0:0:0:
255,59,259274,5,0,0:0:0:0:
376,191,259444,1,0,0:0:0:0:
218,247,259615,2,0,L|58:236,1,148.50000453186
69,236,259955,1,0,0:0:0:0:
220,153,260126,1,0,0:0:0:0:
302,103,260296,5,0,0:0:0:0:
56,69,260467,1,0,0:0:0:0:
194,18,260637,6,0,P|156:82|135:182,1,148.50000453186
69,236,260978,2,0,P|84:279|100:338,1,99.0000030212403
353,217,261319,2,0,P|366:169|382:122,1,99.0000030212403
278,362,261660,2,0,B|306:270|214:269|248:165,1,198.000006042481
245,174,262171,1,0,0:0:0:0:
401,299,262342,2,0,P|450:304|509:314,1,99.0000030212403
419,203,262597,1,0,0:0:0:0:
419,203,262683,6,0,B|296:205|354:262|241:288,1,198.000006042481
382,122,263194,1,0,0:0:0:0:
305,57,263365,2,0,P|290:110|293:168,1,99.0000030212403
12,117,263705,2,0,P|58:64|157:73,1,148.50000453186
132,59,264046,1,0,0:0:0:0:
185,142,264217,1,0,0:0:0:0:
86,250,264387,1,0,0:0:0:0:
93,164,264558,5,0,0:0:0:0:
93,164,264643,1,0,0:0:0:0:
93,164,264728,2,0,L|262:181,1,148.50000453186
240,178,265069,2,0,L|353:161,1,99.0000030212403
183,278,265410,2,0,P|169:322|148:378,1,99.0000030212403
406,241,265751,2,0,P|384:181|348:38,1,198.000006042481
311,272,266262,1,0,0:0:0:0:
512,24,266433,2,0,P|451:0|395:4,1,99.0000030212403
350,51,266688,1,0,0:0:0:0:
350,51,266774,2,0,B|281:83|281:83|194:73,1,148.50000453186
209,74,267115,6,0,L|162:170,1,99.0000030212403
263,0,267455,1,0,0:0:0:0:
89,78,267626,1,0,0:0:0:0:
265,169,267796,2,0,B|206:186|206:186|190:211|190:211|115:232,1,148.50000453186
134,226,268137,1,0,0:0:0:0:
43,177,268308,1,0,0:0:0:0:
59,293,268478,1,0,0:0:0:0:
207,345,268649,1,0,0:0:0:0:
431,187,268819,6,0,P|434:122|398:14,1,148.50000453186
412,41,269160,2,0,P|348:41|291:32,1,99.0000030212403
236,127,269501,2,0,P|300:127|357:136,1,99.0000030212403
481,251,269842,2,0,P|400:235|281:227,1,198.000006042481
284,226,270353,1,0,0:0:0:0:
204,374,270524,2,0,B|180:332|180:332|205:275,1,99.0000030212403
200,285,270779,1,0,0:0:0:0:
200,285,270865,2,0,L|177:122,1,148.50000453186
194,126,271205,6,0,B|244:130|244:130|280:177,1,99.0000030212403
46,102,271546,2,0,B|24:56|24:56|47:2,1,99.0000030212403
100,242,271887,2,0,B|71:283|71:283|12:290,1,99.0000030212403
131,54,272228,1,0,0:0:0:0:
205,221,272399,1,0,0:0:0:0:
131,54,272569,2,0,P|185:47|233:39,1,99.0000030212403
413,186,272825,1,0,0:0:0:0:
425,200,272910,6,0,P|375:136|257:146,1,198.000006042481
205,221,273421,1,0,0:0:0:0:
205,221,273592,2,0,L|219:322,1,99.0000030212403
131,54,273933,6,0,P|73:44|19:32,1,99.0000030212403
265,139,274274,2,0,P|302:93|340:53,1,99.0000030212403
48,175,274615,2,0,P|68:230|84:282,1,99.0000030212403
157,214,274870,1,0,0:0:0:0:
157,214,274955,2,0,B|249:206|214:246|315:248,1,148.50000453186
307,258,275296,1,0,0:0:0:0:
386,202,275467,1,0,0:0:0:0:
465,328,275637,1,0,0:0:0:0:
312,268,275808,1,0,0:0:0:0:
368,54,275978,6,0,P|380:135|386:227,1,148.50000453186
386,202,276319,2,0,L|489:191,1,99.0000030212403
276,134,276660,1,0,0:0:0:0:
166,163,276830,1,0,0:0:0:0:
67,115,277001,6,0,P|55:175|51:284,1,148.50000453186
50,262,277342,1,0,0:0:0:0:
124,324,277512,1,0,0:0:0:0:
14,358,277683,1,0,0:0:0:0:
138,242,277853,1,0,0:0:0:0:
205,363,278024,6,0,L|361:349,1,148.50000453186
352,349,278365,2,0,P|365:289|376:251,1,99.0000030212403
143,66,278705,2,0,P|156:113|165:162,1,99.0000030212403
251,257,278961,1,0,0:0:0:0:
266,270,279046,2,0,P|279:170|297:83,1,148.50000453186
288,123,279387,2,0,B|330:98|330:98|388:111,1,99.0000030212403
118,246,279728,2,0,B|69:256|69:256|27:231,1,99.0000030212403
350,203,280069,6,0,B|471:212|392:274|527:304,1,198.000006042481
217,256,280580,1,0,0:0:0:0:
503,287,280751,2,0,P|446:283|401:304,1,99.0000030212403
346,358,281007,1,0,0:0:0:0:
346,358,281092,2,0,B|296:299|314:212|314:212,1,148.50000453186
313,217,281433,1,0,0:0:0:0:
387,62,281603,1,0,0:0:0:0:
260,156,281774,2,0,P|213:165|152:172,1,99.0000030212403
458,123,282115,6,0,B|363:107|370:74|248:58,2,198.000006042481
412,218,282967,1,0,0:0:0:0:
412,218,283052,1,0,0:0:0:0:
412,218,283137,2,0,P|358:226|312:239,1,99.0000030212403
178,116,283478,2,0,B|112:111|51:77|51:77|68:112|73:150,1,198.000006042481
128,294,283990,1,0,0:0:0:0:
71,137,284160,6,0,B|49:184|49:184|62:234,1,99.0000030212403
211,329,284501,1,0,0:0:0:0:
224,310,284586,1,0,0:0:0:0:
219,289,284671,1,0,0:0:0:0:
151,201,284842,1,0,0:0:0:0:
183,181,284927,1,0,0:0:0:0:
220,184,285012,1,0,0:0:0:0:
257,187,285097,1,0,0:0:0:0:
293,174,285183,1,0,0:0:0:0:
256,192,285268,12,0,289274,0:0:0:0:
