osu file format v14

[General]
AudioFilename: audio.mp3
AudioLeadIn: 0
PreviewTime: 224728
Countdown: 0
SampleSet: Normal
StackLeniency: 0.7
Mode: 0
LetterboxInBreaks: 0
WidescreenStoryboard: 0

[Editor]
Bookmarks: 99787,185905,191552,224022,275375
DistanceSpacing: 0.6
BeatDivisor: 4
GridSize: 32
TimelineZoom: 2.2

[Metadata]
Title:Romeo & Cinderella
TitleUnicode:Romeo & Cinderella
Artist:Hanatan
ArtistUnicode:Hanatan
Creator:Lyvn
Version:Couple
Source:
Tags:
BeatmapID:3689007
BeatmapSetID:1799519

[Difficulty]
HPDrainRate:6
CircleSize:4
OverallDifficulty:8.5
ApproachRate:9.4
SliderMultiplier:1.6
SliderTickRate:1

[Events]
//Background and Video events
0,0,"maxresdefault.jpg",0,0
//Break Periods
//Storyboard Layer 0 (Background)
//Storyboard Layer 1 (Fail)
//Storyboard Layer 2 (Pass)
//Storyboard Layer 3 (Foreground)
//Storyboard Layer 4 (Overlay)
//Storyboard Sound Samples

[TimingPoints]
1670,352.941176470588,4,1,0,70,1,0
2375,-133.333333333333,4,1,0,70,0,0
4317,-100,4,1,0,70,0,0
12964,-66.6666666666667,4,1,0,70,0,0
25140,-83.3333333333333,4,1,0,70,0,0
26199,-66.6666666666667,4,1,0,70,0,0
26905,-83.3333333333333,4,1,0,70,0,0
29728,-100,4,1,0,70,0,0
30258,-83.3333333333333,4,1,0,70,0,0
31317,-100,4,1,0,70,0,0
31846,-83.3333333333333,4,1,0,70,0,0
47552,-74.0740740740741,4,1,0,70,0,0
58846,-74.0740740740741,4,1,0,70,0,0
70140,-100,4,1,0,70,0,0
71552,-66.6666666666667,4,1,0,70,0,1
81434,-76.9230769230769,4,1,0,70,0,1
81964,-66.6666666666667,4,1,0,70,0,1
94140,-76.9230769230769,4,1,0,70,0,0
98375,-66.6666666666667,4,1,0,70,0,0
100140,-76.9230769230769,4,1,0,70,0,0
109669,-83.3333333333333,4,1,0,70,0,0
110375,-66.6666666666667,4,1,0,70,0,0
111081,-83.3333333333333,4,1,0,70,0,0
113375,-100,4,1,0,70,0,0
114081,-83.3333333333333,4,1,0,70,0,0
138258,-76.9230769230769,4,1,0,70,0,0
139317,-83.3333333333333,4,1,0,70,0,0
157669,-66.6666666666667,4,1,0,70,0,1
166140,-83.3333333333333,4,1,0,70,0,1
167022,-66.6666666666667,4,1,0,70,0,1
167552,-50,4,1,0,70,0,1
167728,-66.6666666666667,4,1,0,70,0,1
168964,-66.6666666666667,4,1,0,70,0,1
170199,-58.8235294117647,4,1,0,70,0,1
170728,-66.6666666666667,4,1,0,70,0,1
174434,-83.3333333333333,4,1,0,70,0,1
180258,-83.3333333333333,4,1,0,70,0,0
184669,-76.9230769230769,4,1,0,70,0,0
185728,-83.3333333333333,4,1,0,70,0,0
187140,-50,4,1,0,70,0,0
187669,-83.3333333333333,4,1,0,70,0,0
193669,-76.9230769230769,4,1,0,70,0,0
197199,-90.9090909090909,4,1,0,70,0,0
208846,-83.3333333333333,4,1,0,70,0,0
217846,-76.9230769230769,4,1,0,70,0,0
219611,-66.6666666666667,4,1,0,70,0,0
219787,-76.9230769230769,4,1,0,70,0,0
224728,-58.8235294117647,4,1,0,70,0,1
240964,-55.5555555555556,4,1,0,70,0,1
242375,-58.8235294117647,4,1,0,70,0,1
244669,-66.6666666666667,4,1,0,70,0,1
246081,-58.8235294117647,4,1,0,70,0,1
256317,-66.6666666666667,4,1,0,70,0,1
257375,-58.8235294117647,4,1,0,70,0,1
259317,-76.9230769230769,4,1,0,70,0,0
265140,-83.3333333333333,4,1,0,70,0,0

[HitObjects]
126,84,1670,5,0,0:0:0:0:
96,128,1846,1,0,0:0:0:0:
213,148,2022,1,0,0:0:0:0:
243,192,2198,1,0,0:0:0:0:
192,295,2375,6,0,P|255:304|317:288,1,120.000004577637
386,257,2905,1,0,0:0:0:0:
303,78,3081,6,0,B|330:62|330:62|375:148,1,120.000004577637
307,186,3611,1,0,0:0:0:0:
100,123,3787,2,0,B|161:142|161:142|202:97,1,120.000004577637
226,146,4493,5,0,0:0:0:0:
241,171,4669,1,0,0:0:0:0:
147,273,4846,1,0,0:0:0:0:
163,305,5022,1,0,0:0:0:0:
73,92,5199,6,0,P|108:166|183:206,1,160
237,331,5728,2,0,B|285:317|344:279|366:228,2,160
148,162,6611,2,0,B|216:108|296:155,1,160
416,280,7317,2,0,B|340:335|262:272,1,160
370,56,8022,6,0,P|390:126|361:216,1,160
291,142,8552,2,0,B|206:118|206:118|119:146,1,160
82,200,9081,1,0,0:0:0:0:
159,293,9258,2,0,L|161:211,1,80
289,270,9787,6,0,B|366:217|452:276,1,160
368,327,10493,1,0,0:0:0:0:
440,143,10846,1,0,0:0:0:0:
443,120,11022,1,0,0:0:0:0:
256,192,11199,12,0,12258,0:0:0:0:
141,100,12964,5,0,0:0:0:0:
67,246,13140,1,2,0:0:0:0:
105,242,13228,1,2,0:0:0:0:
139,218,13317,1,2,0:0:0:0:
177,210,13405,1,2,0:0:0:0:
223,225,13493,1,2,0:0:0:0:
240,324,13670,5,12,0:0:0:0:
420,154,13846,1,0,0:0:0:0:
394,271,14022,1,0,0:0:0:0:
303,52,14199,2,0,P|368:37|443:51,1,120.000004577637,0|8,0:0|0:0,0:0:0:0:
179,109,14552,1,0,0:0:0:0:
84,275,14728,2,0,P|70:202|86:147,1,120.000004577637
116,69,15081,1,8,0:0:0:0:
227,77,15257,5,0,0:0:0:0:
315,242,15434,1,0,0:0:0:0:
37,123,15610,1,0,0:0:0:0:
237,108,15787,5,8,0:0:0:0:
325,273,15964,1,0,0:0:0:0:
47,154,16140,1,0,0:0:0:0:
176,40,16317,5,0,0:0:0:0:
124,105,16493,2,0,P|136:172|111:232,1,120.000004577637,8|0,0:0|0:0,0:0:0:0:
276,263,16846,2,0,P|346:270|412:234,1,120.000004577637
237,141,17199,1,8,0:0:0:0:
422,0,17375,1,0,0:0:0:0:
366,289,17552,1,0,0:0:0:0:
480,192,17728,2,0,P|405:179|338:199,1,120.000004577637,0|8,0:0|0:0,0:0:0:0:
221,92,18081,5,0,0:0:0:0:
256,320,18258,1,0,0:0:0:0:
32,256,18434,1,0,0:0:0:0:
215,60,18611,5,8,0:0:0:0:
250,288,18788,1,0,0:0:0:0:
26,224,18964,1,0,0:0:0:0:
259,139,19140,5,0,0:0:0:0:
259,139,19228,1,0,0:0:0:0:
259,139,19317,2,0,P|197:154|123:142,1,120.000004577637,12|0,0:0|0:0,0:0:0:0:
170,30,19669,2,0,B|154:96|154:96|185:149,1,120.000004577637
105,275,20022,1,8,0:0:0:0:
314,319,20199,1,0,0:0:0:0:
105,275,20375,1,0,0:0:0:0:
296,344,20552,2,0,P|278:275|296:212,1,120.000004577637,0|8,0:0|0:0,0:0:0:0:
416,96,20905,5,0,0:0:0:0:
160,0,21081,1,0,0:0:0:0:
320,256,21258,1,0,0:0:0:0:
417,123,21434,5,8,0:0:0:0:
161,27,21610,1,0,0:0:0:0:
321,283,21787,1,0,0:0:0:0:
350,38,21964,5,0,0:0:0:0:
488,106,22140,2,0,P|439:126|352:113,1,120.000004577637,8|0,0:0|0:0,0:0:0:0:
250,95,22493,2,0,B|230:155|230:155|252:220,1,120.000004577637
387,172,22846,1,8,0:0:0:0:
249,339,23022,1,0,0:0:0:0:
387,172,23199,1,4,0:0:0:0:
463,245,23375,2,0,P|408:267|323:251,1,120.000004577637,0|8,0:0|0:0,0:0:0:0:
85,94,23728,5,8,0:0:0:0:
85,138,23817,1,8,0:0:0:0:
84,186,23905,1,8,0:0:0:0:
83,231,23993,1,8,0:0:0:0:
80,280,24081,1,8,0:0:0:0:
208,252,24258,2,4,P|296:307|386:289,2,180.000006866455,8|8|8,0:0|0:0|0:0,0:0:0:0:
199,164,24964,1,4,0:0:0:0:
417,45,25140,6,0,P|427:88|420:146,1,95.9999970703126,0|8,0:0|0:0,0:0:0:0:
317,118,25493,1,0,0:0:0:0:
318,144,25669,1,0,0:0:0:0:
494,214,25846,2,0,P|437:207|380:228,1,95.9999970703126,8|0,0:0|0:0,0:0:0:0:
283,298,26199,2,0,P|356:317|421:300,2,120.000004577637
128,320,26728,1,8,0:0:0:0:
32,204,26905,2,0,P|124:195|228:227,1,191.999994140625
301,346,27434,2,0,L|301:235,1,95.9999970703126
376,64,27787,1,8,0:0:0:0:
458,154,27964,6,0,P|405:166|337:154,1,95.9999970703126,0|8,0:0|0:0,0:0:0:0:
268,138,28317,1,0,0:0:0:0:
267,115,28493,1,0,0:0:0:0:
350,342,28669,2,0,P|361:274|351:233,1,95.9999970703126,8|0,0:0|0:0,0:0:0:0:
345,144,29022,1,0,0:0:0:0:
139,44,29199,6,0,B|58:96|169:148|65:234,1,191.999994140625,0|8,0:0|0:0,0:0:0:0:
180,325,29728,2,0,P|171:234|225:220,1,160
323,38,30258,2,0,P|335:86|323:136,1,95.9999970703126
315,221,30611,1,4,0:0:0:0:
483,278,30787,6,0,P|433:291|386:280,2,95.9999970703126,0|8|0,0:0|0:0|0:0,0:0:0:0:
269,358,31317,2,0,P|246:269|305:224,1,160,0|8,0:0|0:0,0:0:0:0:
392,201,31846,1,0,0:0:0:0:
292,202,32022,1,0,0:0:0:0:
283,27,32199,6,0,P|301:79|276:128,2,95.9999970703126,0|8|0,0:0|0:0|0:0,0:0:0:0:
132,108,32728,2,0,P|98:198|170:253,1,191.999994140625,0|8,0:0|0:0,0:0:0:0:
256,352,33258,1,0,0:0:0:0:
257,335,33434,2,0,B|255:194|255:194|294:229,1,191.999994140625,0|8,0:0|0:0,0:0:0:0:
392,315,33964,1,0,0:0:0:0:
477,215,34140,2,0,P|432:206|380:213,2,95.9999970703126,0|4|0,0:0|0:0|0:0,0:0:0:0:
274,74,34669,2,0,P|297:155|215:200,1,191.999994140625,4|0,0:0|0:0,0:0:0:0:
123,86,35199,1,0,0:0:0:0:
61,260,35375,2,0,P|54:207|65:167,1,95.9999970703126,0|8,0:0|0:0,0:0:0:0:
130,48,35728,5,8,0:0:0:0:
145,72,35817,1,8,0:0:0:0:
157,97,35905,1,8,0:0:0:0:
160,120,35993,1,8,0:0:0:0:
154,145,36081,2,0,P|139:185|144:238,1,95.9999970703126,8|4,0:0|0:0,0:0:0:0:
230,316,36434,5,0,0:0:0:0:
230,336,36611,1,8,0:0:0:0:
148,226,36787,2,0,P|194:213|243:219,1,95.9999970703126
362,276,37140,2,0,L|363:172,2,95.9999970703126,8|0|0,0:0|0:0|0:0,0:0:0:0:
449,362,37669,2,0,B|401:310|521:291|450:169,1,191.999994140625,0|8,0:0|0:0,0:0:0:0:
417,112,38199,2,0,P|347:143|408:213,1,191.999994140625
469,233,38728,1,8,0:0:0:0:
276,236,38905,2,0,L|383:234,1,95.9999970703126
444,138,39258,5,0,0:0:0:0:
348,36,39434,2,0,P|298:45|244:36,1,95.9999970703126,8|0,0:0|0:0,0:0:0:0:
289,127,39787,1,0,0:0:0:0:
210,282,39964,2,0,P|203:215|211:175,1,95.9999970703126,8|0,0:0|0:0,0:0:0:0:
210,66,40317,1,0,0:0:0:0:
87,20,40493,6,0,B|47:92|118:116|87:225,1,191.999994140625,8|8,0:0|0:0,0:0:0:0:
158,332,41022,2,0,P|222:249|156:249,1,191.999994140625
174,125,41552,2,0,P|225:113|281:134,1,95.9999970703126,8|0,0:0|0:0,0:0:0:0:
346,190,41905,1,4,0:0:0:0:
445,321,42081,5,0,0:0:0:0:
421,299,42258,1,8,0:0:0:0:
488,206,42434,2,0,P|437:195|383:204,1,95.9999970703126
277,231,42787,1,0,0:0:0:0:
326,344,42964,1,8,0:0:0:0:
201,336,43140,1,0,0:0:0:0:
63,247,43317,6,0,P|110:233|163:241,1,95.9999970703126
130,326,43669,1,8,0:0:0:0:
205,208,43846,1,0,0:0:0:0:
57,95,44022,2,0,B|170:51|150:127|271:95,2,191.999994140625,0|8|0,0:0|0:0|0:0,0:0:0:0:
195,175,44905,1,0,0:0:0:0:
196,204,45081,1,4,0:0:0:0:
279,340,45258,2,0,P|287:275|279:236,1,95.9999970703126,0|8,0:0|0:0,0:0:0:0:
274,217,45522,5,8,0:0:0:0:
268,186,45611,1,8,0:0:0:0:
274,155,45699,1,8,0:0:0:0:
293,132,45787,1,8,0:0:0:0:
477,60,45964,6,0,B|374:28|372:82|260:64,1,191.999994140625,4|0,0:0|0:0,0:0:0:0:
157,188,46493,2,0,P|205:200|259:179,1,95.9999970703126,4|0,0:0|0:0,0:0:0:0:
399,147,46846,5,8,0:0:0:0:
400,164,46934,1,8,0:0:0:0:
400,185,47022,1,8,0:0:0:0:
400,204,47111,1,8,0:0:0:0:
400,227,47199,1,8,0:0:0:0:
396,280,47287,5,8,0:0:0:0:
357,320,47375,1,8,0:0:0:0:
305,334,47464,1,8,0:0:0:0:
254,330,47552,2,0,P|188:325|142:306,1,108.000000411987,4|0,0:0|0:0,0:0:0:0:
15,193,47905,1,8,0:0:0:0:
39,188,48081,2,0,P|88:179|161:192,1,108.000000411987
219,340,48434,5,0,0:0:0:0:
215,203,48611,1,8,0:0:0:0:
71,93,48787,2,0,P|132:86|182:93,1,108.000000411987
291,147,49140,1,0,0:0:0:0:
382,29,49317,2,0,P|390:85|381:143,2,108.000000411987,8|0|0,0:0|0:0|0:0,0:0:0:0:
461,242,49846,5,0,0:0:0:0:
285,235,50022,1,8,0:0:0:0:
461,242,50199,1,0,0:0:0:0:
362,353,50375,2,0,P|371:285|360:237,2,108.000000411987,0|0|8,0:0|0:0|0:0,0:0:0:0:
139,230,50905,2,0,P|230:247|156:299,1,216.000000823975
67,308,51434,5,8,0:0:0:0:
156,173,51611,1,4,0:0:0:0:
14,295,51787,1,0,0:0:0:0:
206,188,51964,1,0,0:0:0:0:
42,91,52140,2,0,P|97:82|165:98,1,108.000000411987,8|0,0:0|0:0,0:0:0:0:
269,208,52493,2,0,P|213:222|146:208,1,108.000000411987,8|0,0:0|0:0,0:0:0:0:
208,82,52846,2,0,P|263:73|325:82,1,108.000000411987,8|0,0:0|0:0,0:0:0:0:
447,42,53199,5,4,0:0:0:0:
318,151,53375,1,0,0:0:0:0:
496,151,53552,1,8,0:0:0:0:
410,333,53728,2,0,P|421:271|412:210,1,108.000000411987
312,233,54081,6,0,P|254:217|203:229,2,108.000000411987,0|8|0,0:0|0:0|0:0,0:0:0:0:
246,318,54611,1,0,0:0:0:0:
245,190,54787,1,0,0:0:0:0:
246,318,54964,1,8,0:0:0:0:
90,215,55140,2,0,P|54:267|144:245,1,216.000000823975
74,89,55669,6,0,P|134:79|184:99,1,108.000000411987,8|0,0:0|0:0,0:0:0:0:
248,204,56022,1,0,0:0:0:0:
252,74,56199,1,0,0:0:0:0:
339,143,56375,2,0,P|355:188|332:251,1,108.000000411987,8|0,0:0|0:0,0:0:0:0:
432,53,56728,5,8,0:0:0:0:
432,104,56817,1,8,0:0:0:0:
432,155,56905,1,8,0:0:0:0:
434,206,56993,1,8,0:0:0:0:
434,258,57081,1,8,0:0:0:0:
499,337,57258,6,0,B|418:377|363:293|265:316,1,216.000000823975,4|0,0:0|0:0,0:0:0:0:
221,169,57787,1,0,0:0:0:0:
134,328,57964,1,0,0:0:0:0:
259,237,58140,5,8,0:0:0:0:
259,264,58228,1,8,0:0:0:0:
257,294,58317,1,8,0:0:0:0:
126,220,58493,5,8,0:0:0:0:
127,185,58581,1,8,0:0:0:0:
128,153,58669,1,8,0:0:0:0:
41,57,58846,6,0,P|95:51|156:57,2,108.000000411987,4|0|0,0:0|0:0|0:0,0:0:0:0:
221,15,59375,2,0,B|255:121|194:142|221:237,1,216.000000823975,0|8,0:0|0:0,0:0:0:0:
331,335,59905,1,8,0:0:0:0:
474,228,60081,1,0,0:0:0:0:
260,239,60258,6,0,P|325:230|383:241,2,108.000000411987,0|0|8,0:0|0:0|0:0,0:0:0:0:
440,129,60787,2,0,P|344:111|212:128,1,216.000000823975
134,48,61317,1,8,0:0:0:0:
61,162,61493,2,0,P|110:170|181:160,2,108.000000411987
266,69,62022,1,8,0:0:0:0:
268,268,62199,2,0,L|268:143,1,108.000000411987
368,74,62552,2,0,P|379:126|367:189,1,108.000000411987,0|8,0:0|0:0,0:0:0:0:
373,318,62905,5,4,0:0:0:0:
469,208,63081,1,0,0:0:0:0:
350,155,63258,1,8,0:0:0:0:
461,287,63434,2,0,P|397:295|328:285,1,108.000000411987,8|8,0:0|0:0,0:0:0:0:
243,262,63787,1,0,0:0:0:0:
126,339,63964,5,8,0:0:0:0:
124,284,64052,1,8,0:0:0:0:
122,234,64140,1,8,0:0:0:0:
119,180,64228,1,8,0:0:0:0:
117,128,64317,1,8,0:0:0:0:
115,82,64405,2,8,L|114:25,1,54.0000002059937,8|12,0:0|0:0,0:0:0:0:
230,78,64669,5,0,0:0:0:0:
259,188,64846,1,8,0:0:0:0:
58,157,65022,2,0,P|114:144|177:154,2,108.000000411987
125,235,65552,1,8,0:0:0:0:
50,320,65728,2,0,L|116:320,1,54.0000002059937
208,366,65905,2,0,P|223:300|208:235,1,108.000000411987
199,158,66258,1,8,0:0:0:0:
291,34,66434,2,0,P|281:89|304:158,2,108.000000411987
428,105,66964,6,0,L|440:163,1,54.0000002059937,8|0,0:0|0:0,0:0:0:0:
410,273,67140,2,0,L|386:210,1,54.0000002059937
296,160,67317,1,4,0:0:0:0:
261,313,67493,6,0,P|197:322|139:312,1,108.000000411987,0|8,0:0|0:0,0:0:0:0:
41,198,67846,2,0,P|99:190|166:202,2,108.000000411987
135,108,68375,5,8,0:0:0:0:
322,355,68552,1,0,0:0:0:0:
220,44,68728,5,0,0:0:0:0:
418,285,68905,1,4,0:0:0:0:
310,0,69081,5,12,0:0:0:0:
512,213,69258,1,4,0:0:0:0:
481,71,69434,5,8,0:0:0:0:
422,58,69522,1,8,0:0:0:0:
363,71,69611,1,8,0:0:0:0:
315,111,69699,1,8,0:0:0:0:
298,171,69787,1,8,0:0:0:0:
304,230,69875,2,8,P|303:264|312:292,1,54.0000002059937
479,249,70140,2,2,P|310:304|183:222,1,320
171,214,70934,5,0,0:0:0:0:
114,199,71022,1,0,0:0:0:0:
83,166,71111,2,0,L|58:119,1,40
88,43,71287,2,0,L|49:71,1,40
163,96,71552,5,4,0:0:0:0:
244,22,71728,2,0,P|256:71|241:160,1,120.000004577637,0|8,0:0|0:0,0:0:0:0:
101,194,72081,1,0,0:0:0:0:
379,355,72258,2,0,P|379:273|358:220,2,120.000004577637,0|0|8,0:0|0:0|0:0,0:0:0:0:
48,271,72787,2,2,P|163:288|265:207,1,240.000009155274,0|0,0:0|0:0,0:0:0:0:
193,102,73317,1,8,0:0:0:0:
419,39,73493,2,0,P|435:92|417:178,1,120.000004577637
389,339,73846,5,0,0:0:0:0:
105,117,74022,1,8,0:0:0:0:
457,236,74199,1,0,0:0:0:0:
77,253,74375,2,0,P|141:269|222:247,1,120.000004577637
279,135,74728,1,8,0:0:0:0:
119,39,74905,2,0,L|118:168,1,120.000004577637
219,329,75258,5,0,0:0:0:0:
304,33,75434,1,8,0:0:0:0:
468,307,75611,1,0,0:0:0:0:
183,48,75787,2,0,P|244:37|336:48,1,120.000004577637,8|0,0:0|0:0,0:0:0:0:
425,86,76140,1,8,0:0:0:0:
340,293,76317,2,0,P|352:222|340:162,1,120.000004577637,8|0,0:0|0:0,0:0:0:0:
283,78,76669,1,8,0:0:0:0:
116,122,76846,5,8,0:0:0:0:
227,67,77022,2,0,P|242:122|225:212,1,120.000004577637,0|4,0:0|0:0,0:0:0:0:
119,362,77375,1,0,0:0:0:0:
54,206,77552,2,0,P|110:193|175:215,2,120.000004577637,8|0|0,0:0|0:0|0:0,0:0:0:0:
186,97,78081,6,0,L|197:169,1,60.0000022888184
278,319,78258,2,0,L|249:196,1,120.000004577637,8|0,0:0|0:0,0:0:0:0:
301,53,78611,1,0,0:0:0:0:
510,80,78787,1,0,0:0:0:0:
405,266,78964,1,8,0:0:0:0:
420,23,79140,2,0,P|407:78|424:147,1,120.000004577637
179,33,79493,5,0,0:0:0:0:
338,337,79669,1,8,0:0:0:0:
0,289,79846,1,0,0:0:0:0:
236,170,80022,5,0,0:0:0:0:
243,266,80199,1,0,0:0:0:0:
154,221,80375,1,8,0:0:0:0:
41,108,80552,2,0,P|95:95|186:104,1,120.000004577637
248,274,80905,5,0,0:0:0:0:
248,229,80993,1,0,0:0:0:0:
248,188,81081,2,0,L|249:122,1,60.0000022888184,8|0,0:0|0:0,0:0:0:0:
252,33,81258,1,0,0:0:0:0:
479,125,81434,6,0,P|428:107|367:127,1,103.999995239258
359,135,81699,1,8,0:0:0:0:
356,160,81787,2,0,P|360:187|349:218,1,51.999997619629,8|0,0:0|0:0,0:0:0:0:
219,109,81964,2,0,B|192:98|192:98|154:125|146:203,1,120.000004577637,4|0,0:0|0:0,0:0:0:0:
30,264,82317,6,0,P|139:297|283:263,1,240.000009155274,8|0,0:0|0:0,0:0:0:0:
248,104,82846,2,0,B|213:102|213:102|163:190,1,120.000004577637,4|0,0:0|0:0,0:0:0:0:
236,360,83199,1,8,0:0:0:0:
475,133,83375,1,0,0:0:0:0:
108,73,83552,1,0,0:0:0:0:
401,347,83728,1,0,0:0:0:0:
223,4,83905,1,8,0:0:0:0:
34,208,84081,2,0,P|92:197|179:206,2,120.000004577637
133,344,84611,2,0,B|150:354|150:354|234:265,1,120.000004577637,8|0,0:0|0:0,0:0:0:0:
279,178,84964,1,0,0:0:0:0:
461,312,85140,5,0,0:0:0:0:
287,29,85317,1,8,0:0:0:0:
92,294,85493,1,0,0:0:0:0:
472,86,85669,2,0,P|410:73|335:99,1,120.000004577637
188,163,86022,1,8,0:0:0:0:
77,350,86199,2,0,P|65:280|78:212,1,120.000004577637
160,62,86552,5,0,0:0:0:0:
425,172,86728,1,8,0:0:0:0:
82,270,86905,1,0,0:0:0:0:
380,28,87081,2,0,P|359:76|369:173,1,120.000004577637,8|0,0:0|0:0,0:0:0:0:
436,312,87434,1,8,0:0:0:0:
505,134,87611,2,0,P|444:123|353:134,1,120.000004577637,8|0,0:0|0:0,0:0:0:0:
264,25,87964,2,0,P|253:85|271:167,1,120.000004577637,8|8,0:0|0:0,0:0:0:0:
420,226,88317,6,0,L|346:230,1,60.0000022888184
477,288,88493,2,0,L|345:295,1,120.000004577637,4|0,0:0|0:0,0:0:0:0:
255,221,88846,1,8,0:0:0:0:
116,92,89022,2,0,P|103:149|117:219,1,120.000004577637
201,331,89375,5,0,0:0:0:0:
441,144,89552,1,8,0:0:0:0:
156,26,89728,1,0,0:0:0:0:
83,315,89905,2,0,P|123:252|174:226,1,120.000004577637,8|0,0:0|0:0,0:0:0:0:
326,139,90258,1,8,0:0:0:0:
506,289,90434,2,4,P|447:300|381:292,1,120.000004577637,4|0,0:0|0:0,0:0:0:0:
245,188,90787,5,0,0:0:0:0:
158,340,90964,1,8,0:0:0:0:
25,197,91140,2,0,P|83:187|151:197,2,120.000004577637,0|4|0,0:0|0:0|0:0,0:0:0:0:
143,44,91669,2,0,P|135:107|186:114,1,120.000004577637,8|0,0:0|0:0,0:0:0:0:
363,107,92022,5,0,0:0:0:0:
362,152,92111,1,0,0:0:0:0:
362,193,92199,2,0,L|362:262,1,60.0000022888184
422,349,92375,2,0,L|421:280,1,60.0000022888184,8|0,0:0|0:0,0:0:0:0:
419,219,92552,1,0,0:0:0:0:
495,124,92728,6,2,B|481:95|481:95|282:218,1,240.000009155274,12|4,0:0|0:0,0:0:0:0:
193,273,93258,2,0,P|166:217|218:174,1,120.000004577637,0|8,0:0|0:0,0:0:0:0:
109,48,93611,1,8,0:0:0:0:
83,79,93699,1,8,0:0:0:0:
63,116,93787,1,8,0:0:0:0:
57,161,93875,1,8,0:0:0:0:
59,200,93964,2,8,P|61:228|75:258,1,60.0000022888184
181,346,94140,6,0,P|192:284|176:225,1,103.999995239258,4|0,0:0|0:0,0:0:0:0:
183,120,94493,1,8,0:0:0:0:
311,31,94669,2,0,P|321:78|309:151,2,103.999995239258
281,205,95199,1,8,0:0:0:0:
408,96,95375,1,0,0:0:0:0:
505,246,95552,6,0,P|449:261|377:240,1,103.999995239258
392,145,95905,1,8,0:0:0:0:
255,313,96081,1,0,0:0:0:0:
454,190,96258,1,0,0:0:0:0:
182,277,96434,1,0,0:0:0:0:
291,40,96611,2,0,P|307:85|293:155,1,103.999995239258,8|0,0:0|0:0,0:0:0:0:
248,253,96964,1,0,0:0:0:0:
82,170,97140,2,0,P|137:160|203:170,2,103.999995239258,0|8|0,0:0|0:0|0:0,0:0:0:0:
296,170,97669,1,0,0:0:0:0:
154,316,97846,5,8,0:0:0:0:
125,273,97934,1,8,0:0:0:0:
107,223,98022,1,8,0:0:0:0:
132,175,98111,1,8,0:0:0:0:
162,138,98199,2,8,P|176:111|197:95,1,51.999997619629
292,28,98375,6,0,P|350:102|357:149,1,120.000004577637
398,172,98640,2,0,P|374:225|308:279,1,120.000004577637,4|0,0:0|0:0,0:0:0:0:
342,337,98905,2,0,P|282:349|211:340,1,120.000004577637,4|4,0:0|0:0,0:0:0:0:
147,214,99258,1,0,0:0:0:0:
297,31,99434,5,8,0:0:0:0:
298,88,99522,1,8,0:0:0:0:
299,144,99611,1,8,0:0:0:0:
300,200,99699,1,8,0:0:0:0:
300,258,99787,1,4,0:0:0:0:
489,112,100140,6,0,P|429:105|361:113,1,103.999995239258,8|0,0:0|0:0,0:0:0:0:
305,250,100493,1,0,0:0:0:0:
437,177,100669,1,0,0:0:0:0:
305,250,100846,1,8,0:0:0:0:
129,143,101022,2,0,P|185:135|250:141,1,103.999995239258
433,246,101375,5,0,0:0:0:0:
228,337,101552,1,8,0:0:0:0:
90,164,101728,1,0,0:0:0:0:
447,224,101905,5,0,0:0:0:0:
242,315,102082,1,0,0:0:0:0:
104,142,102258,1,8,0:0:0:0:
337,29,102434,2,0,P|328:78|336:137,1,103.999995239258,0|4,0:0|0:0,0:0:0:0:
434,319,102787,6,0,P|447:255|432:198,1,103.999995239258,0|8,0:0|0:0,0:0:0:0:
406,86,103140,1,0,0:0:0:0:
341,238,103317,1,0,0:0:0:0:
406,86,103493,1,0,0:0:0:0:
484,288,103669,2,0,P|436:301|372:294,2,103.999995239258,8|0|0,0:0|0:0|0:0,0:0:0:0:
373,164,104199,5,0,0:0:0:0:
172,55,104375,1,8,0:0:0:0:
72,243,104552,1,0,0:0:0:0:
377,192,104728,5,0,0:0:0:0:
176,83,104904,1,0,0:0:0:0:
76,271,105081,1,8,0:0:0:0:
76,286,105169,1,8,0:0:0:0:
76,302,105258,1,8,0:0:0:0:
75,317,105346,1,8,0:0:0:0:
74,335,105434,2,0,P|120:362|182:338,1,103.999995239258,4|0,0:0|0:0,0:0:0:0:
30,197,105787,6,0,P|81:182|149:195,1,103.999995239258,8|0,0:0|0:0,0:0:0:0:
186,349,106140,1,0,0:0:0:0:
239,179,106317,1,0,0:0:0:0:
186,349,106493,1,8,0:0:0:0:
164,115,106669,2,0,P|150:171|162:242,1,103.999995239258
317,307,107022,5,0,0:0:0:0:
439,100,107199,1,8,0:0:0:0:
192,113,107375,1,0,0:0:0:0:
295,328,107552,5,0,0:0:0:0:
417,121,107729,1,0,0:0:0:0:
170,134,107905,1,8,0:0:0:0:
371,364,108081,2,0,P|377:308|369:255,2,103.999995239258,0|4|0,0:0|0:0|0:0,0:0:0:0:
303,142,108611,5,8,0:0:0:0:
421,31,108787,2,0,L|421:109,1,51.999997619629
419,182,108964,1,0,0:0:0:0:
508,262,109140,2,0,P|454:275|390:264,2,103.999995239258,0|8|0,0:0|0:0|0:0,0:0:0:0:
177,51,109669,6,0,P|224:80|262:131,1,95.9999970703126,4|0,0:0|0:0,0:0:0:0:
23,195,110022,2,0,L|128:194,1,95.9999970703126
202,197,110287,1,0,0:0:0:0:
232,195,110375,6,0,P|293:180|262:232,1,120.000004577637,4|0,0:0|0:0,0:0:0:0:
265,286,110640,2,0,P|326:299|308:269,1,120.000004577637,4|0,0:0|0:0,0:0:0:0:
356,205,110905,1,0,0:0:0:0:
355,179,110993,1,0,0:0:0:0:
355,146,111081,6,0,P|350:97|369:33,1,95.9999970703126
445,89,111434,1,0,0:0:0:0:
505,193,111611,2,0,P|454:203|389:195,1,95.9999970703126
286,96,111964,1,0,0:0:0:0:
286,122,112140,1,0,0:0:0:0:
394,335,112317,5,8,0:0:0:0:
394,309,112405,1,8,0:0:0:0:
383,275,112493,2,0,P|370:221|397:211,1,95.9999970703126,8|0,0:0|0:0,0:0:0:0:
503,276,112846,2,0,L|390:278,2,95.9999970703126
286,358,113375,6,0,P|298:304|276:266,1,80,8|0,0:0|0:0,0:0:0:0:
197,359,113728,2,0,P|185:305|207:267,1,80,8|0,0:0|0:0,0:0:0:0:
25,209,114081,6,0,P|77:198|144:209,1,95.9999970703126
158,291,114434,1,4,0:0:0:0:
168,126,114611,1,0,0:0:0:0:
81,282,114787,1,0,0:0:0:0:
246,131,114964,1,0,0:0:0:0:
68,59,115140,5,8,0:0:0:0:
68,59,115228,1,8,0:0:0:0:
68,59,115317,2,0,P|119:49|183:56,1,95.9999970703126,8|0,0:0|0:0,0:0:0:0:
150,175,115669,2,0,L|151:113,1,47.9999985351563,4|0,0:0|0:0,0:0:0:0:
222,29,115846,2,0,P|200:70|244:87,1,95.9999970703126,4|0,0:0|0:0,0:0:0:0:
370,43,116199,5,8,0:0:0:0:
370,81,116287,1,8,0:0:0:0:
370,121,116375,1,8,0:0:0:0:
368,162,116464,1,8,0:0:0:0:
368,200,116552,1,8,0:0:0:0:
232,275,116728,5,4,0:0:0:0:
257,278,116905,2,0,P|309:283|369:270,2,95.9999970703126,0|8|0,0:0|0:0|0:0,0:0:0:0:
197,136,117434,1,0,0:0:0:0:
197,108,117611,1,0,0:0:0:0:
94,24,117787,2,0,P|85:77|93:129,2,95.9999970703126,8|0|0,0:0|0:0|0:0,0:0:0:0:
185,189,118317,5,0,0:0:0:0:
31,260,118493,1,8,0:0:0:0:
192,290,118669,1,0,0:0:0:0:
0,181,118846,2,0,P|48:176|100:182,1,95.9999970703126
209,128,119199,6,0,P|189:184|226:185,1,95.9999970703126,8|0,0:0|0:0,0:0:0:0:
310,41,119552,1,0,0:0:0:0:
308,68,119728,1,0,0:0:0:0:
448,151,119905,2,0,P|390:158|341:153,1,95.9999970703126,8|0,0:0|0:0,0:0:0:0:
312,329,120258,5,8,0:0:0:0:
310,282,120346,1,8,0:0:0:0:
308,233,120434,1,8,0:0:0:0:
307,188,120522,1,8,0:0:0:0:
305,135,120611,2,8,L|305:64,1,47.9999985351563
397,4,120787,6,0,P|410:92|391:201,1,191.999994140625,4|0,0:0|0:0,0:0:0:0:
346,318,121317,1,4,0:0:0:0:
467,205,121493,1,0,0:0:0:0:
280,260,121669,5,8,0:0:0:0:
235,265,121758,1,8,0:0:0:0:
185,270,121846,1,8,0:0:0:0:
37,205,122022,5,8,0:0:0:0:
84,193,122111,1,8,0:0:0:0:
135,180,122199,1,8,0:0:0:0:
226,41,122375,6,0,P|234:84|225:157,1,95.9999970703126,4|0,0:0|0:0,0:0:0:0:
196,260,122728,1,8,0:0:0:0:
23,127,122905,2,0,P|71:121|132:133,1,95.9999970703126
256,123,123258,2,0,P|277:178|229:177,1,95.9999970703126,8|0,0:0|0:0,0:0:0:0:
126,223,123611,1,0,0:0:0:0:
197,331,123787,2,0,P|250:341|312:313,2,95.9999970703126,0|0|8,0:0|0:0|0:0,0:0:0:0:
316,269,124317,2,0,B|256:205|359:148|307:83,1,191.999994140625
386,22,124846,1,0,0:0:0:0:
422,106,125022,2,0,P|413:149|464:135,1,95.9999970703126,0|4,0:0|0:0,0:0:0:0:
426,235,125375,5,0,0:0:0:0:
339,351,125552,2,0,P|320:288|341:242,1,95.9999970703126,8|0,0:0|0:0,0:0:0:0:
477,161,125905,2,8,L|409:159,1,47.9999985351563
328,86,126081,2,0,P|327:134|278:175,2,95.9999970703126,8|0|0,0:0|0:0|0:0,0:0:0:0:
185,46,126611,2,0,B|135:100|212:169|155:236,1,191.999994140625,8|0,0:0|0:0,0:0:0:0:
62,170,127140,1,0,0:0:0:0:
21,277,127317,2,0,P|67:291|130:267,1,95.9999970703126
210,255,127669,1,0,0:0:0:0:
311,338,127846,2,0,P|322:278|305:235,1,95.9999970703126,0|4,0:0|0:0,0:0:0:0:
255,58,128199,5,0,0:0:0:0:
301,190,128375,1,8,0:0:0:0:
255,58,128552,1,0,0:0:0:0:
380,6,128728,2,0,P|390:60|378:117,1,95.9999970703126
467,186,129081,1,8,0:0:0:0:
466,220,129258,1,0,0:0:0:0:
390,331,129434,6,0,P|333:332|278:293,1,95.9999970703126
201,211,129787,1,8,0:0:0:0:
199,247,129964,1,0,0:0:0:0:
115,353,130140,2,0,B|77:294|136:240|106:160,1,191.999994140625,0|8,0:0|0:0,0:0:0:0:
10,191,130669,1,0,0:0:0:0:
55,20,130846,2,0,P|44:64|71:115,1,95.9999970703126
202,71,131199,2,4,B|235:121|179:170|229:220,1,143.999995605469,8|0,0:0|0:0,0:0:0:0:
237,238,131552,5,8,0:0:0:0:
250,283,131640,1,8,0:0:0:0:
287,313,131728,1,8,0:0:0:0:
341,317,131817,5,8,0:0:0:0:
394,286,131905,1,8,0:0:0:0:
427,233,131993,1,8,0:0:0:0:
426,174,132081,2,0,P|403:87|350:137,1,191.999994140625,4|0,0:0|0:0,0:0:0:0:
345,237,132611,5,4,0:0:0:0:
115,331,132787,1,0,0:0:0:0:
377,315,132964,5,0,0:0:0:0:
76,247,133140,1,8,0:0:0:0:
55,188,133228,1,8,0:0:0:0:
65,131,133317,1,8,0:0:0:0:
109,89,133405,1,8,0:0:0:0:
169,83,133493,1,8,0:0:0:0:
223,113,133581,1,8,0:0:0:0:
257,160,133669,6,0,P|337:203|435:180,1,191.999994140625,4|0,0:0|0:0,0:0:0:0:
382,35,134199,2,0,L|384:99,1,47.9999985351563
385,215,134375,1,0,0:0:0:0:
273,343,134552,5,0,0:0:0:0:
206,198,134728,1,8,0:0:0:0:
273,343,134905,1,0,0:0:0:0:
106,345,135081,2,0,B|74:270|137:237|95:153,1,191.999994140625,0|8,0:0|0:0,0:0:0:0:
15,53,135611,2,0,P|65:43|123:53,1,95.9999970703126
237,171,135964,5,0,0:0:0:0:
215,28,136140,1,8,0:0:0:0:
237,171,136317,1,0,0:0:0:0:
327,18,136493,2,0,P|356:102|330:211,1,191.999994140625,0|8,0:0|0:0,0:0:0:0:
259,277,137022,2,0,P|207:288|143:267,2,95.9999970703126
375,241,137552,1,8,0:0:0:0:
488,162,137728,5,4,0:0:0:0:
301,78,137905,1,0,0:0:0:0:
254,268,138081,1,0,0:0:0:0:
454,348,138258,2,0,L|452:236,1,103.999995239258,8|0,0:0|0:0,0:0:0:0:
353,168,138611,2,0,L|354:279,1,103.999995239258,8|0,0:0|0:0,0:0:0:0:
456,158,138964,2,0,L|454:47,1,103.999995239258,8|0,0:0|0:0,0:0:0:0:
297,83,139317,6,0,P|246:77|194:83,1,95.9999970703126,4|0,0:0|0:0,0:0:0:0:
63,152,139669,1,8,0:0:0:0:
153,149,139846,2,0,B|191:235|121:275|157:353,1,191.999994140625
64,269,140375,5,8,0:0:0:0:
223,271,140552,1,0,0:0:0:0:
239,265,140728,2,0,P|291:254|337:278,2,95.9999970703126,0|0|8,0:0|0:0|0:0,0:0:0:0:
419,355,141258,2,0,P|428:294|385:311,1,95.9999970703126
320,177,141611,5,0,0:0:0:0:
495,188,141787,1,8,0:0:0:0:
320,177,141964,1,0,0:0:0:0:
466,76,142140,2,0,P|417:66|360:78,1,95.9999970703126
248,28,142493,2,0,P|261:75|237:121,1,95.9999970703126,8|0,0:0|0:0,0:0:0:0:
105,60,142846,5,8,0:0:0:0:
103,107,142934,1,8,0:0:0:0:
100,153,143022,1,8,0:0:0:0:
98,200,143111,1,8,0:0:0:0:
96,251,143199,1,8,0:0:0:0:
177,350,143375,6,4,P|216:278|242:346,1,191.999994140625,4|0,0:0|0:0,0:0:0:0:
204,197,143905,1,0,0:0:0:0:
331,345,144081,1,0,0:0:0:0:
488,264,144258,5,8,0:0:0:0:
445,265,144346,1,8,0:0:0:0:
397,263,144434,1,8,0:0:0:0:
357,257,144522,1,8,0:0:0:0:
316,240,144611,1,8,0:0:0:0:
284,197,144699,1,8,0:0:0:0:
282,145,144787,1,8,0:0:0:0:
306,96,144875,1,8,0:0:0:0:
355,73,144964,6,0,P|407:80|441:115,1,95.9999970703126,4|0,0:0|0:0,0:0:0:0:
379,202,145317,2,0,P|365:249|386:303,2,95.9999970703126,8|0|0,0:0|0:0|0:0,0:0:0:0:
476,319,145846,1,0,0:0:0:0:
290,348,146022,1,8,0:0:0:0:
476,319,146199,1,0,0:0:0:0:
229,266,146375,2,0,P|278:253|343:270,2,95.9999970703126,0|0|8,0:0|0:0|0:0,0:0:0:0:
125,360,146905,2,0,L|126:249,1,95.9999970703126
49,142,147258,5,0,0:0:0:0:
210,201,147434,1,8,0:0:0:0:
49,142,147611,1,0,0:0:0:0:
183,28,147787,2,0,P|166:75|185:121,2,95.9999970703126,0|0|8,0:0|0:0|0:0,0:0:0:0:
283,65,148317,2,0,B|312:153|223:184|289:262,1,191.999994140625
349,336,148846,1,8,0:0:0:0:
464,268,149022,5,4,0:0:0:0:
346,73,149199,1,0,0:0:0:0:
248,271,149375,1,0,0:0:0:0:
110,89,149552,2,0,P|161:79|215:88,1,95.9999970703126,8|0,0:0|0:0,0:0:0:0:
289,181,149905,2,0,P|239:195|175:179,1,95.9999970703126,8|0,0:0|0:0,0:0:0:0:
72,178,150258,1,8,0:0:0:0:
144,342,150434,5,8,0:0:0:0:
144,342,150522,1,8,0:0:0:0:
144,342,150611,2,0,P|159:287|135:232,1,95.9999970703126,4|0,0:0|0:0,0:0:0:0:
210,152,150964,2,0,P|276:154|309:139,2,95.9999970703126,8|0|0,0:0|0:0|0:0,0:0:0:0:
79,62,151493,2,0,L|178:60,1,95.9999970703126,0|8,0:0|0:0,0:0:0:0:
297,61,151846,6,0,L|300:122,1,47.9999985351563
367,245,152022,2,0,L|361:139,1,95.9999970703126
451,42,152375,1,8,0:0:0:0:
452,82,152552,1,0,0:0:0:0:
356,170,152728,1,0,0:0:0:0:
354,123,152905,1,0,0:0:0:0:
491,267,153081,2,0,P|439:278|379:266,2,95.9999970703126,8|0|4,0:0|0:0|0:0,0:0:0:0:
252,180,153611,6,0,L|287:229,1,47.9999985351563
269,338,153787,2,0,L|228:298,1,47.9999985351563
142,219,153964,1,0,0:0:0:0:
41,108,154140,2,0,P|97:99|144:108,1,95.9999970703126,8|0,0:0|0:0,0:0:0:0:
286,50,154493,5,0,0:0:0:0:
175,309,154669,1,0,0:0:0:0:
197,73,154846,5,12,0:0:0:0:
425,315,155022,1,0,0:0:0:0:
109,262,155199,5,12,0:0:0:0:
231,335,155375,1,8,0:0:0:0:
303,349,155464,1,8,0:0:0:0:
375,335,155552,1,8,0:0:0:0:
429,287,155640,1,8,0:0:0:0:
450,216,155728,1,8,0:0:0:0:
434,141,155817,5,8,0:0:0:0:
392,79,155905,1,8,0:0:0:0:
326,46,155993,1,8,0:0:0:0:
252,46,156081,1,8,0:0:0:0:
188,87,156169,1,8,0:0:0:0:
152,153,156258,6,2,B|105:189|140:289|199:289|283:178|283:178|258:294,1,383.99998828125,2|0,0:0|0:0,0:0:0:0:
255,311,157052,1,0,0:0:0:0:
251,326,157140,2,0,L|234:378,1,47.9999985351563
177,265,157317,2,0,L|174:326,1,47.9999985351563
79,303,157493,2,0,L|114:353,1,47.9999985351563
6,178,157669,6,0,P|78:185|153:159,1,120.000004577637,4|0,0:0|0:0,0:0:0:0:
215,35,158022,2,0,L|221:98,1,60.0000022888184
248,320,158199,1,0,0:0:0:0:
355,60,158375,1,8,0:0:0:0:
76,299,158552,1,0,0:0:0:0:
484,190,158728,1,0,0:0:0:0:
93,42,158905,2,0,P|117:106|160:146,2,120.000004577637,0|8|0,0:0|0:0|0:0,0:0:0:0:
337,249,159434,1,0,0:0:0:0:
486,120,159611,2,0,P|425:114|352:123,1,120.000004577637,0|8,0:0|0:0,0:0:0:0:
137,166,159964,5,0,0:0:0:0:
422,350,160140,1,0,0:0:0:0:
321,16,160317,1,0,0:0:0:0:
68,353,160493,2,0,P|53:281|74:224,1,120.000004577637,8|0,0:0|0:0,0:0:0:0:
155,136,160846,1,0,0:0:0:0:
273,29,161022,2,0,P|288:91|271:157,1,120.000004577637,0|8,0:0|0:0,0:0:0:0:
224,302,161375,5,0,0:0:0:0:
36,131,161552,1,0,0:0:0:0:
376,3,161728,1,0,0:0:0:0:
308,377,161905,2,0,P|318:307|306:253,1,120.000004577637,8|0,0:0|0:0,0:0:0:0:
215,164,162258,1,8,0:0:0:0:
453,159,162434,2,0,B|392:140|392:140|382:200,1,120.000004577637,8|0,0:0|0:0,0:0:0:0:
486,286,162787,2,0,P|423:304|353:286,1,120.000004577637,8|8,0:0|0:0,0:0:0:0:
141,214,163140,5,8,0:0:0:0:
141,226,163228,1,8,0:0:0:0:
140,237,163317,2,0,B|140:273|140:273|214:219,1,120.000004577637,12|0,0:0|0:0,0:0:0:0:
325,152,163669,1,0,0:0:0:0:
443,42,163846,2,0,P|374:31|311:44,1,120.000004577637,0|8,0:0|0:0,0:0:0:0:
113,108,164199,6,0,L|134:184,1,60.0000022888184
96,299,164375,2,0,L|72:228,1,60.0000022888184
198,330,164552,1,0,0:0:0:0:
257,188,164728,5,8,0:0:0:0:
471,277,164905,1,0,0:0:0:0:
208,251,165081,1,0,0:0:0:0:
317,24,165258,2,0,P|311:91|327:155,1,120.000004577637,0|8,0:0|0:0,0:0:0:0:
362,318,165611,5,0,0:0:0:0:
389,203,165787,1,0,0:0:0:0:
277,238,165964,1,0,0:0:0:0:
205,293,166140,2,0,P|192:247|200:196,2,95.9999970703126,8|0|0,0:0|0:0|0:0,0:0:0:0:
92,369,166669,2,0,P|102:310|92:261,1,95.9999970703126,0|8,0:0|0:0,0:0:0:0:
46,59,167022,6,0,L|61:137,1,60.0000022888184
163,235,167199,2,0,L|141:160,1,60.0000022888184
137,45,167375,1,0,0:0:0:0:
229,158,167552,2,0,B|274:129|335:169|392:139,1,160,12|0,0:0|0:0,0:0:0:0:
421,122,167817,1,8,0:0:0:0:
432,97,167905,2,8,L|430:36,1,60.0000022888184
437,191,168081,1,4,0:0:0:0:
328,363,168434,6,0,P|341:290|326:228,1,120.000004577637,0|8,0:0|0:0,0:0:0:0:
327,224,168699,1,8,0:0:0:0:
321,208,168787,1,8,0:0:0:0:
208,57,168964,6,0,P|194:106|215:181,1,120.000004577637,12|0,0:0|0:0,0:0:0:0:
302,308,169317,1,0,0:0:0:0:
504,8,169493,1,0,0:0:0:0:
100,59,169669,1,8,0:0:0:0:
390,360,169846,2,0,P|397:284|386:238,1,120.000004577637
276,22,170199,2,10,B|215:134|301:149|243:300,1,272.000005187988,2|2,0:0|0:0,0:0:0:0:
169,345,170728,1,8,0:0:0:0:
45,211,170905,2,0,P|112:199|174:210,1,120.000004577637
356,318,171258,5,0,0:0:0:0:
197,8,171434,1,8,0:0:0:0:
477,319,171611,1,0,0:0:0:0:
58,144,171787,2,0,P|126:157|197:135,1,120.000004577637
317,89,172140,1,8,0:0:0:0:
502,204,172317,2,0,P|444:215|359:200,1,120.000004577637
259,193,172669,1,0,0:0:0:0:
75,213,172846,5,8,0:0:0:0:
307,382,173022,1,0,0:0:0:0:
476,91,173199,2,0,P|412:83|336:95,1,120.000004577637,8|0,0:0|0:0,0:0:0:0:
252,177,173552,1,8,0:0:0:0:
371,343,173728,2,0,P|383:266|370:213,1,120.000004577637,8|0,0:0|0:0,0:0:0:0:
281,24,174081,2,0,P|267:85|283:155,1,120.000004577637,8|8,0:0|0:0,0:0:0:0:
330,297,174434,5,0,0:0:0:0:
206,232,174611,2,0,P|154:241|93:231,1,95.9999970703126,4|0,0:0|0:0,0:0:0:0:
75,126,174964,1,8,0:0:0:0:
160,20,175140,2,0,P|172:71|159:129,1,95.9999970703126
43,215,175493,6,0,L|108:216,1,47.9999985351563
180,282,175669,2,0,L|113:284,1,47.9999985351563,8|0,0:0|0:0,0:0:0:0:
221,209,175846,1,0,0:0:0:0:
297,347,176022,2,0,P|303:295|296:229,1,95.9999970703126
294,139,176375,1,8,0:0:0:0:
439,53,176552,2,0,P|381:46|331:52,1,95.9999970703126,4|0,0:0|0:0,0:0:0:0:
385,177,176905,6,0,P|395:219|388:278,2,95.9999970703126,0|8|0,0:0|0:0|0:0,0:0:0:0:
314,330,177434,1,4,0:0:0:0:
312,288,177611,1,0,0:0:0:0:
262,208,177787,2,0,B|216:191|216:191|194:253,1,95.9999970703126,8|0,0:0|0:0,0:0:0:0:
167,337,178140,1,0,0:0:0:0:
19,161,178317,6,0,L|45:227,1,47.9999985351563
124,255,178493,2,0,L|101:202,1,47.9999985351563
128,110,178669,2,0,L|152:165,1,47.9999985351563
201,220,178846,2,0,P|258:195|289:152,1,95.9999970703126,4|0,0:0|0:0,0:0:0:0:
297,148,179111,1,8,0:0:0:0:
312,126,179199,2,8,P|325:89|328:65,1,47.9999985351563
401,20,179375,2,0,P|410:72|391:140,1,95.9999970703126,4|0,0:0|0:0,0:0:0:0:
379,236,179728,5,0,0:0:0:0:
466,328,179905,1,8,0:0:0:0:
424,331,179993,1,8,0:0:0:0:
374,333,180081,1,8,0:0:0:0:
329,338,180169,1,8,0:0:0:0:
281,343,180258,6,0,L|175:353,1,95.9999970703126,4|0,0:0|0:0,0:0:0:0:
63,269,180611,2,0,P|99:239|128:269,2,95.9999970703126
220,257,181140,1,0,0:0:0:0:
112,142,181317,1,0,0:0:0:0:
206,24,181493,6,0,P|217:72|208:130,1,95.9999970703126
153,220,181846,1,0,0:0:0:0:
291,231,182022,1,8,0:0:0:0:
90,297,182199,1,0,0:0:0:0:
345,144,182375,1,0,0:0:0:0:
20,162,182552,1,0,0:0:0:0:
408,344,182728,2,0,P|417:284|406:222,1,95.9999970703126,8|0,0:0|0:0,0:0:0:0:
454,60,183081,5,0,0:0:0:0:
455,97,183258,1,0,0:0:0:0:
510,184,183434,2,0,P|461:191|408:184,1,95.9999970703126,8|0,0:0|0:0,0:0:0:0:
217,93,183787,2,0,P|274:108|326:88,1,95.9999970703126,8|0,0:0|0:0,0:0:0:0:
392,125,184140,1,8,0:0:0:0:
395,176,184228,1,8,0:0:0:0:
395,225,184317,1,8,0:0:0:0:
395,275,184405,1,8,0:0:0:0:
397,321,184493,2,4,B|387:350|387:350|336:297,1,95.9999970703126,4|0,0:0|0:0,0:0:0:0:
293,303,184758,6,4,P|245:313|192:276,1,103.999995239258,4|0,0:0|0:0,0:0:0:0:
189,214,185022,2,4,P|205:158|265:140,1,103.999995239258
313,147,185287,2,4,P|341:186|330:247,1,103.999995239258
334,239,185552,1,4,0:0:0:0:
102,354,185728,6,0,L|104:284,1,47.9999985351563
108,142,185905,1,0,0:0:0:0:
225,31,186081,5,2,0:0:0:0:
263,55,186258,1,2,0:0:0:0:
362,79,186434,1,2,0:0:0:0:
455,168,186611,1,2,0:0:0:0:
509,289,186787,2,2,P|459:300|387:285,1,95.9999970703126
306,373,187140,2,2,B|272:305|272:305|288:228|288:228|292:223|292:223|288:215|288:215|293:208|293:208|290:202|290:202|307:139|307:139|272:48,1,320
170,30,187669,5,2,0:0:0:0:
157,64,187846,1,2,0:0:0:0:
66,126,188022,1,2,0:0:0:0:
152,228,188199,1,2,0:0:0:0:
255,334,188375,1,2,0:0:0:0:
299,348,188552,2,0,P|362:328|391:285,1,95.9999970703126,0|4,0:0|0:0,0:0:0:0:
469,234,188905,5,2,0:0:0:0:
469,198,189081,2,2,L|467:134,1,47.9999985351563
428,35,189258,1,2,0:0:0:0:
341,134,189434,2,2,P|283:149|230:133,1,95.9999970703126
146,38,189787,2,2,B|129:97|145:145|145:145|146:144,1,95.9999970703126
33,238,190140,5,2,0:0:0:0:
41,240,190228,1,2,0:0:0:0:
50,240,190317,1,2,0:0:0:0:
59,244,190405,1,2,0:0:0:0:
68,247,190493,1,2,0:0:0:0:
85,244,190581,5,2,0:0:0:0:
101,230,190669,1,2,0:0:0:0:
114,206,190758,1,2,0:0:0:0:
117,176,190846,1,2,0:0:0:0:
106,148,190934,1,2,0:0:0:0:
90,104,191022,5,2,0:0:0:0:
106,56,191111,1,2,0:0:0:0:
144,37,191199,1,2,0:0:0:0:
188,37,191287,1,2,0:0:0:0:
229,56,191375,1,2,0:0:0:0:
259,100,191464,5,2,0:0:0:0:
238,158,191552,2,0,P|223:212|267:228,1,95.9999970703126,4|0,0:0|0:0,0:0:0:0:
333,251,191905,1,2,0:0:0:0:
334,288,192081,1,2,0:0:0:0:
437,369,192258,1,2,0:0:0:0:
437,331,192434,1,2,0:0:0:0:
508,142,192611,5,2,0:0:0:0:
475,135,192699,1,2,0:0:0:0:
443,107,192787,1,2,0:0:0:0:
415,73,192875,1,2,0:0:0:0:
366,68,192964,1,2,0:0:0:0:
312,79,193052,5,2,0:0:0:0:
272,111,193140,1,2,0:0:0:0:
245,160,193228,1,2,0:0:0:0:
252,217,193317,1,2,0:0:0:0:
292,258,193405,1,2,0:0:0:0:
348,275,193493,5,2,0:0:0:0:
410,269,193581,1,2,0:0:0:0:
453,228,193669,1,12,0:0:0:0:
231,66,194022,5,12,0:0:0:0:
30,238,194375,6,2,P|89:248|154:226,1,103.999995239258,12|2,0:0|0:0,0:0:0:0:
278,172,194728,1,2,0:0:0:0:
318,353,194905,2,2,B|317:283|317:283|356:215|356:215|356:131,1,207.999990478516
352,39,195434,1,2,0:0:0:0:
242,88,195611,5,2,0:0:0:0:
203,103,195699,1,2,0:0:0:0:
174,133,195787,1,2,0:0:0:0:
161,171,195875,1,2,0:0:0:0:
170,213,195964,1,2,0:0:0:0:
197,247,196052,5,2,0:0:0:0:
242,271,196140,1,2,0:0:0:0:
297,266,196228,1,2,0:0:0:0:
329,232,196317,1,2,0:0:0:0:
361,207,196405,1,2,0:0:0:0:
409,215,196493,5,8,0:0:0:0:
113,152,196669,1,8,0:0:0:0:
271,367,196846,1,8,0:0:0:0:
467,144,197199,1,4,0:0:0:0:
139,64,197552,6,2,P|148:112|126:172,2,88.000002685547
45,117,198081,2,2,B|28:172|28:172|58:240|58:240|49:295,1,176.000005371094
134,218,198611,2,2,P|182:236|232:217,1,88.000002685547
301,226,198964,1,2,0:0:0:0:
286,326,199140,2,2,P|338:338|388:322,1,88.000002685547
474,149,199493,6,2,P|390:123|301:152,1,176.000005371094
183,25,200022,2,2,B|199:88|199:88|178:148|178:148|182:208,1,176.000005371094
36,293,200552,2,2,P|125:317|215:281,1,176.000005371094
253,163,201081,2,2,P|252:216|301:196,1,88.000002685547
368,344,201434,2,2,L|363:222,2,88.000002685547
461,281,201964,2,2,P|470:174|430:109,1,176.000005371094
242,31,202669,5,8,0:0:0:0:
241,49,202758,1,8,0:0:0:0:
239,68,202846,1,12,0:0:0:0:
118,157,203199,5,2,0:0:0:0:
249,239,203375,2,2,P|154:258|60:235,1,176.000005371094,2|10,0:0|0:0,0:0:0:0:
214,343,204081,5,10,0:0:0:0:
303,338,204258,2,2,P|289:229|310:165,1,176.000005371094,10|6,0:0|0:0,0:0:0:0:
428,38,204787,2,2,P|441:83|408:124,1,88.000002685547
324,80,205140,1,10,0:0:0:0:
327,174,205317,1,2,0:0:0:0:
427,321,205493,5,8,0:0:0:0:
428,290,205581,1,8,0:0:0:0:
428,255,205669,1,8,0:0:0:0:
314,294,206022,6,2,P|223:313|121:295,1,176.000005371094
45,197,206552,2,2,P|91:193|137:198,1,88.000002685547
243,203,206905,1,8,0:0:0:0:
243,178,207081,1,8,0:0:0:0:
286,80,207258,1,8,0:0:0:0:
443,26,207434,1,8,0:0:0:0:
182,108,207611,1,8,0:0:0:0:
10,285,207787,1,8,0:0:0:0:
270,349,207964,1,8,0:0:0:0:
368,113,208140,5,8,0:0:0:0:
372,167,208228,1,8,0:0:0:0:
375,224,208317,1,8,0:0:0:0:
381,281,208405,1,8,0:0:0:0:
386,337,208493,1,4,0:0:0:0:
257,258,208846,5,2,0:0:0:0:
151,354,209022,2,2,L|148:291,1,47.9999985351563
143,230,209199,1,10,0:0:0:0:
28,137,209375,2,2,P|76:127|128:139,1,95.9999970703126,10|2,0:0|0:0,0:0:0:0:
240,158,209728,1,2,0:0:0:0:
318,22,209905,2,2,B|308:76|308:76|329:163|329:163|318:223,1,191.999994140625,10|2,0:0|0:0,0:0:0:0:
386,338,210434,2,2,L|391:274,1,47.9999985351563
399,200,210611,1,10,0:0:0:0:
496,70,210787,6,2,P|435:66|379:72,1,95.9999970703126
286,110,211140,1,2,0:0:0:0:
177,25,211317,2,2,L|177:135,2,95.9999970703126,10|2|2,0:0|0:0|0:0,0:0:0:0:
86,106,211846,2,2,L|88:168,1,47.9999985351563
101,251,212022,1,10,0:0:0:0:
219,189,212199,1,10,0:0:0:0:
186,360,212375,2,2,P|195:298|185:255,1,95.9999970703126
17,157,212728,6,2,P|62:146|125:157,2,95.9999970703126,10|2|2,0:0|0:0|0:0,0:0:0:0:
84,237,213258,2,2,L|150:237,1,47.9999985351563
235,235,213434,1,10,0:0:0:0:
335,347,213611,1,10,0:0:0:0:
336,324,213699,2,2,P|350:219|325:173,1,143.999995605469
230,108,214140,2,0,P|277:98|343:108,1,95.9999970703126,12|0,0:0|0:0,0:0:0:0:
439,46,214493,5,2,0:0:0:0:
502,140,214669,2,2,L|423:141,1,47.9999985351563
355,142,214846,1,10,0:0:0:0:
400,245,215022,2,2,P|343:255|281:236,2,95.9999970703126,10|2|2,0:0|0:0|0:0,0:0:0:0:
215,370,215552,2,2,B|224:311|224:311|199:222|199:222|218:164,1,191.999994140625,10|2,0:0|0:0,0:0:0:0:
130,34,216081,2,2,B|157:76|157:76|125:139,1,95.9999970703126,2|10,0:0|0:0,0:0:0:0:
28,219,216434,5,10,0:0:0:0:
159,220,216611,1,2,0:0:0:0:
28,219,216787,1,2,0:0:0:0:
95,313,216964,2,2,P|146:322|201:307,1,95.9999970703126,10|2,0:0|0:0,0:0:0:0:
283,282,217317,1,2,0:0:0:0:
203,227,217493,2,2,L|202:164,1,47.9999985351563
206,70,217669,1,10,0:0:0:0:
303,158,217846,5,2,0:0:0:0:
419,13,218022,1,2,0:0:0:0:
509,166,218199,1,2,0:0:0:0:
267,242,218375,2,2,P|325:252|373:233,1,103.999995239258,10|2,0:0|0:0,0:0:0:0:
399,94,218728,5,8,0:0:0:0:
372,95,218817,1,8,0:0:0:0:
340,96,218905,1,8,0:0:0:0:
305,100,218993,1,8,0:0:0:0:
272,104,219081,1,8,0:0:0:0:
224,96,219169,5,8,0:0:0:0:
175,85,219258,1,8,0:0:0:0:
125,102,219346,1,8,0:0:0:0:
92,147,219434,1,8,0:0:0:0:
101,201,219522,1,8,0:0:0:0:
153,232,219611,2,0,B|245:231|225:128,1,120.000004577637,8|4,0:0|0:0,0:0:0:0:
252,44,219964,5,0,0:0:0:0:
203,342,220140,1,12,0:0:0:0:
376,111,220317,5,0,0:0:0:0:
110,276,220493,1,12,0:0:0:0:
461,186,220669,5,0,0:0:0:0:
50,160,220846,1,12,0:0:0:0:
340,355,221022,5,0,0:0:0:0:
441,51,221199,1,12,0:0:0:0:
131,303,221375,5,0,0:0:0:0:
477,175,221552,1,12,0:0:0:0:
46,75,221728,5,0,0:0:0:0:
363,361,221905,1,12,0:0:0:0:
228,28,222081,5,0,0:0:0:0:
146,353,222258,1,12,0:0:0:0:
471,114,222434,5,0,0:0:0:0:
131,233,222611,2,0,P|179:249|257:236,1,103.999995239258,4|0,0:0|0:0,0:0:0:0:
383,100,222964,2,0,P|330:94|266:102,1,103.999995239258,4|0,0:0|0:0,0:0:0:0:
505,138,223317,5,0,0:0:0:0:
475,241,223405,1,8,0:0:0:0:
383,291,223493,1,8,0:0:0:0:
282,307,223581,1,8,0:0:0:0:
183,272,223669,1,8,0:0:0:0:
148,181,223758,5,8,0:0:0:0:
207,149,223846,1,8,0:0:0:0:
273,155,223934,1,8,0:0:0:0:
330,189,224022,1,8,0:0:0:0:
85,251,224728,5,8,0:0:0:0:
108,277,224817,1,8,0:0:0:0:
147,297,224905,1,8,0:0:0:0:
186,297,224993,1,8,0:0:0:0:
221,278,225081,1,8,0:0:0:0:
283,281,225169,5,8,0:0:0:0:
345,302,225258,1,8,0:0:0:0:
409,291,225346,2,0,B|495:211|486:99|486:99|365:155,1,340.000006484985,6|4,0:0|0:0,0:0:0:0:
264,187,225964,5,2,0:0:0:0:
32,68,226140,1,2,0:0:0:0:
175,369,226317,1,2,0:0:0:0:
481,126,226493,1,10,0:0:0:0:
3,218,226669,2,2,P|73:226|157:206,2,136.000002593994
119,116,227199,2,2,B|165:111|165:111|235:177,1,136.000002593994,10|2,0:0|0:0,0:0:0:0:
317,263,227552,1,2,0:0:0:0:
323,13,227728,5,2,0:0:0:0:
8,189,227905,1,10,0:0:0:0:
475,120,228081,1,2,0:0:0:0:
94,0,228258,2,2,P|90:71|107:150,1,136.000002593994
248,237,228611,1,10,0:0:0:0:
438,384,228787,2,2,P|449:302|436:226,1,136.000002593994
192,54,229140,5,2,0:0:0:0:
421,360,229317,1,10,0:0:0:0:
4,249,229493,1,2,0:0:0:0:
508,69,229669,2,2,B|475:134|475:134|394:162,1,136.000002593994,10|2,0:0|0:0,0:0:0:0:
216,262,230022,1,10,0:0:0:0:
6,84,230199,2,2,P|84:72|160:86,1,136.000002593994,10|2,0:0|0:0,0:0:0:0:
328,269,230552,2,2,P|316:184|343:122,1,136.000002593994,10|10,0:0|0:0,0:0:0:0:
509,188,230905,6,2,L|434:189,1,68.0000012969971
120,191,231081,2,2,L|278:191,2,136.000002593994,6|2|10,0:0|0:0|0:0,0:0:0:0:
13,289,231611,2,2,P|88:300|161:285,1,136.000002593994
153,78,231964,6,2,L|173:153,1,68.0000012969971
249,348,232140,1,10,0:0:0:0:
505,124,232317,1,2,0:0:0:0:
59,131,232493,2,2,B|55:202|55:202|106:260,1,136.000002593994
288,329,232846,1,10,0:0:0:0:
356,28,233022,2,2,P|397:153|374:317,1,272.000005187988
227,228,233552,1,10,0:0:0:0:
6,148,233728,5,2,0:0:0:0:
179,48,233905,1,2,0:0:0:0:
293,175,234081,2,2,P|361:187|436:173,2,136.000002593994,2|10|2,0:0|0:0|0:0,0:0:0:0:
428,75,234611,1,2,0:0:0:0:
474,326,234787,5,2,0:0:0:0:
477,291,234875,1,2,0:0:0:0:
478,250,234964,2,2,P|460:217|410:194,1,68.0000012969971,10|2,0:0|0:0,0:0:0:0:
353,169,235140,1,2,0:0:0:0:
133,8,235317,2,2,B|88:82|154:80|114:189,1,181.333336791992,6|10,0:0|0:0,0:0:0:0:
115,183,235611,1,10,0:0:0:0:
115,183,235669,1,10,0:0:0:0:
1,282,235846,2,2,P|134:333|260:276,1,272.000005187988
339,177,236375,5,10,0:0:0:0:
443,54,236552,1,10,0:0:0:0:
432,49,236640,1,10,0:0:0:0:
423,44,236728,6,2,P|283:24|135:44,1,272.000005187988,6|14,0:0|0:0,0:0:0:0:
16,265,237258,1,2,0:0:0:0:
259,91,237434,1,2,0:0:0:0:
312,344,237611,1,2,0:0:0:0:
43,158,237787,1,10,0:0:0:0:
510,81,237964,1,2,0:0:0:0:
127,377,238140,2,2,P|122:286|83:238,2,136.000002593994,2|2|10,0:0|0:0|0:0,0:0:0:0:
249,365,238669,2,2,P|232:288|269:222,1,136.000002593994
490,157,239022,5,2,0:0:0:0:
154,24,239199,1,10,0:0:0:0:
175,378,239375,1,2,0:0:0:0:
356,14,239552,2,2,P|346:78|369:170,1,136.000002593994,10|2,0:0|0:0,0:0:0:0:
467,273,239905,1,10,0:0:0:0:
285,377,240081,2,2,P|295:297|275:237,1,136.000002593994
122,15,240434,6,2,B|83:121|145:145|107:296,1,272.000005187988
215,118,240964,2,2,P|297:112|324:187,2,143.999995605469,10|2|2,0:0|0:0|0:0,0:0:0:0:
275,353,241493,2,2,P|255:284|290:221,1,143.999995605469,10|10,0:0|0:0,0:0:0:0:
494,77,241846,2,2,P|411:66|324:86,1,143.999995605469,10|2,0:0|0:0,0:0:0:0:
206,123,242199,1,2,0:0:0:0:
18,257,242375,6,2,P|85:272|173:257,1,136.000002593994,14|2,0:0|0:0,0:0:0:0:
288,173,242728,1,2,0:0:0:0:
425,17,242905,2,2,P|442:79|428:175,1,136.000002593994,2|10,0:0|0:0,0:0:0:0:
292,247,243258,2,2,L|376:246,1,68.0000012969971
505,321,243434,2,2,P|439:335|360:322,1,136.000002593994
175,221,243787,2,2,P|161:292|173:368,2,136.000002593994,10|2|2,0:0|0:0|0:0,0:0:0:0:
15,93,244317,2,2,P|79:80|182:92,1,136.000002593994,2|10,0:0|0:0,0:0:0:0:
334,43,244669,5,2,0:0:0:0:
423,190,244846,1,2,0:0:0:0:
320,317,245022,1,2,0:0:0:0:
222,154,245199,2,2,P|279:138|348:155,1,120.000004577637,10|2,0:0|0:0,0:0:0:0:
445,235,245552,1,2,0:0:0:0:
447,331,245728,2,2,P|378:346|315:323,1,120.000004577637,2|10,0:0|0:0,0:0:0:0:
217,177,246081,6,2,L|244:246,1,68.0000012969971
179,357,246258,2,2,L|146:276,1,68.0000012969971
56,209,246434,1,2,0:0:0:0:
8,60,246611,2,2,P|81:48|150:60,1,136.000002593994,14|2,0:0|0:0,0:0:0:0:
198,115,246875,1,10,0:0:0:0:
239,185,246964,2,2,B|264:191|264:191|314:69,2,136.000002593994,10|2|10,0:0|0:0|0:0,0:0:0:0:
340,368,247493,2,2,P|324:289|339:215,1,136.000002593994
484,113,247846,5,2,0:0:0:0:
450,115,247934,1,2,0:0:0:0:
409,117,248022,2,2,B|379:86|379:86|283:158,1,136.000002593994,14|2,0:0|0:0,0:0:0:0:
166,257,248375,1,2,0:0:0:0:
386,204,248552,1,2,0:0:0:0:
45,125,248728,5,10,0:0:0:0:
406,362,248905,1,2,0:0:0:0:
404,16,249081,1,2,0:0:0:0:
166,308,249258,2,2,P|95:292|21:304,2,136.000002593994,2|10|2,0:0|0:0|0:0,0:0:0:0:
255,226,249787,1,2,0:0:0:0:
346,369,249964,2,2,P|337:289|357:227,1,136.000002593994,2|10,0:0|0:0,0:0:0:0:
415,16,250317,5,2,0:0:0:0:
255,321,250493,1,2,0:0:0:0:
12,72,250669,1,2,0:0:0:0:
410,155,250846,2,2,P|399:221|412:314,2,136.000002593994,10|2|2,0:0|0:0|0:0,0:0:0:0:
299,268,251375,2,2,P|229:282|153:264,1,136.000002593994,2|10,0:0|0:0,0:0:0:0:
16,170,251728,5,2,0:0:0:0:
258,372,251905,1,2,0:0:0:0:
361,33,252081,1,2,0:0:0:0:
20,334,252258,2,2,P|99:332|175:293,1,136.000002593994,10|2,0:0|0:0,0:0:0:0:
275,244,252611,1,2,0:0:0:0:
408,119,252787,2,2,P|401:190|421:258,2,136.000002593994,10|10|10,0:0|0:0|0:0,0:0:0:0:
510,229,253317,1,2,0:0:0:0:
356,377,253493,5,2,0:0:0:0:
363,222,253669,2,2,P|288:209|209:228,1,136.000002593994,14|2,0:0|0:0,0:0:0:0:
123,291,254022,1,2,0:0:0:0:
12,150,254199,2,2,P|83:138|161:149,1,136.000002593994,2|10,0:0|0:0,0:0:0:0:
309,289,254552,6,2,L|294:204,1,68.0000012969971
264,62,254728,1,2,0:0:0:0:
466,169,254905,1,2,0:0:0:0:
254,359,255081,1,10,0:0:0:0:
156,135,255258,2,10,P|146:205|161:280,1,136.000002593994
75,72,255611,2,2,P|49:206|82:360,1,272.000005187988,6|2,0:0|0:0,0:0:0:0:
225,340,256140,1,10,0:0:0:0:
359,244,256317,5,2,0:0:0:0:
461,357,256493,2,2,P|470:286|459:224,1,120.000004577637,6|2,0:0|0:0,0:0:0:0:
454,35,256846,1,10,0:0:0:0:
456,142,257022,2,2,B|421:107|421:107|330:146,1,120.000004577637
277,302,257375,6,2,L|263:215,1,68.0000012969971
238,74,257552,1,10,0:0:0:0:
48,235,257728,1,2,0:0:0:0:
353,370,257905,2,2,P|374:226|351:86,1,272.000005187988,6|14,0:0|0:0,0:0:0:0:
244,15,258434,2,2,L|243:164,1,136.000002593994,6|2,0:0|0:0,0:0:0:0:
35,222,258787,5,10,0:0:0:0:
95,272,258875,1,10,0:0:0:0:
168,296,258964,1,10,0:0:0:0:
245,306,259052,1,10,0:0:0:0:
323,306,259140,1,10,0:0:0:0:
481,190,259317,6,0,P|423:182|356:198,1,103.999995239258,4|0,0:0|0:0,0:0:0:0:
262,213,259669,1,0,0:0:0:0:
357,18,259846,2,0,B|345:82|345:82|363:161|363:161|357:233,1,207.999990478516,4|0,0:0|0:0,0:0:0:0:
358,338,260375,1,0,0:0:0:0:
216,182,260552,1,0,0:0:0:0:
26,280,260728,6,0,P|79:287|139:279,1,103.999995239258,8|0,0:0|0:0,0:0:0:0:
334,204,261081,1,0,0:0:0:0:
82,189,261258,1,0,0:0:0:0:
395,131,261434,1,8,0:0:0:0:
13,93,261611,1,8,0:0:0:0:
464,15,261787,2,0,P|473:58|465:122,1,103.999995239258,8|0,0:0|0:0,0:0:0:0:
376,304,262140,5,8,0:0:0:0:
375,254,262317,1,8,0:0:0:0:
501,144,262493,2,0,P|448:137|382:152,1,103.999995239258,8|0,0:0|0:0,0:0:0:0:
281,175,262846,1,0,0:0:0:0:
125,47,263022,6,8,L|175:84,1,51.999997619629
103,118,263199,2,8,L|181:107,1,51.999997619629
132,197,263375,2,8,L|173:157,1,51.999997619629
307,60,263552,5,12,0:0:0:0:
434,206,263817,1,12,0:0:0:0:
203,353,264081,5,12,0:0:0:0:
202,226,264258,1,12,0:0:0:0:
35,80,264522,5,12,0:0:0:0:
278,8,264787,5,0,0:0:0:0:
277,38,264875,1,0,0:0:0:0:
277,75,264964,1,8,0:0:0:0:
275,193,265140,5,0,0:0:0:0:
410,149,265317,2,0,P|399:196|419:264,1,95.9999970703126,4|0,0:0|0:0,0:0:0:0:
307,329,265669,1,0,0:0:0:0:
183,228,265846,1,0,0:0:0:0:
230,66,266022,1,8,0:0:0:0:
48,50,266199,2,0,P|36:105|54:167,1,95.9999970703126
190,49,266552,5,0,0:0:0:0:
303,213,266729,1,8,0:0:0:0:
199,382,266905,1,0,0:0:0:0:
215,50,267081,5,0,0:0:0:0:
328,214,267258,1,0,0:0:0:0:
224,383,267434,1,8,0:0:0:0:
415,316,267611,2,0,P|424:254|412:205,2,95.9999970703126,0|4|0,0:0|0:0|0:0,0:0:0:0:
505,122,268140,6,0,P|453:116|395:124,1,95.9999970703126,8|0,0:0|0:0,0:0:0:0:
319,211,268493,1,0,0:0:0:0:
163,130,268669,1,0,0:0:0:0:
52,254,268846,1,8,0:0:0:0:
281,338,269022,2,0,P|332:348|405:328,1,95.9999970703126
488,170,269375,5,0,0:0:0:0:
263,295,269552,1,8,0:0:0:0:
61,169,269728,1,0,0:0:0:0:
487,195,269905,5,8,0:0:0:0:
262,320,270082,1,0,0:0:0:0:
60,194,270258,1,8,0:0:0:0:
163,64,270434,5,8,0:0:0:0:
162,84,270522,1,8,0:0:0:0:
161,107,270611,1,4,0:0:0:0:
264,184,270787,1,0,0:0:0:0:
349,18,270964,6,0,P|359:66|350:133,1,95.9999970703126,8|0,0:0|0:0,0:0:0:0:
486,97,271317,1,0,0:0:0:0:
382,218,271493,1,0,0:0:0:0:
492,340,271669,1,8,0:0:0:0:
448,61,271846,2,0,P|457:105|449:178,1,95.9999970703126
356,341,272199,5,0,0:0:0:0:
253,169,272375,1,8,0:0:0:0:
345,4,272552,1,0,0:0:0:0:
324,340,272728,5,0,0:0:0:0:
221,168,272904,1,0,0:0:0:0:
313,3,273081,1,8,0:0:0:0:
137,20,273258,2,8,L|136:80,1,47.9999985351563
137,171,273434,1,4,0:0:0:0:
21,306,273611,6,0,P|72:316|130:304,1,95.9999970703126,0|8,0:0|0:0,0:0:0:0:
310,215,273964,1,0,0:0:0:0:
89,130,274140,5,0,0:0:0:0:
277,329,274317,1,0,0:0:0:0:
386,98,274493,5,8,0:0:0:0:
409,137,274581,1,8,0:0:0:0:
423,165,274669,1,8,0:0:0:0:
388,339,274846,5,4,0:0:0:0:
46,164,275022,1,8,0:0:0:0:
346,26,275199,1,4,0:0:0:0:
186,321,275375,2,0,L|163:373,1,47.9999985351563,4|0,0:0|0:0,0:0:0:0:
