osu file format v14

[General]
AudioFilename: audio.mp3
AudioLeadIn: 0
PreviewTime: 54626
Countdown: 0
SampleSet: Soft
StackLeniency: 0.7
Mode: 0
LetterboxInBreaks: 0
WidescreenStoryboard: 1

[Editor]
DistanceSpacing: 0.3
BeatDivisor: 4
GridSize: 4
TimelineZoom: 1.7

[Metadata]
Title:Raspberry*Monster
TitleUnicode:ラズベリー*モンスター
Artist:Hanatan
ArtistUnicode:花たん
Creator:toybot
Version:Hard
Source:
Tags:vikala searasp no dap moeka momoka shioi flowersbest honeyworks vocaloid rock japanese yurica utaite gom shito kaizokuou akiakane hatsune miku
BeatmapID:2816503
BeatmapSetID:1356272

[Difficulty]
HPDrainRate:5
CircleSize:3.5
OverallDifficulty:7
ApproachRate:8
SliderMultiplier:1.4
SliderTickRate:1

[Events]
//Background and Video events
0,0,"rasuberi.png",0,0
//Break Periods
2,85486,94223
//Storyboard Layer 0 (Background)
//Storyboard Layer 1 (Fail)
//Storyboard Layer 2 (Pass)
//Storyboard Layer 3 (Foreground)
//Storyboard Layer 4 (Overlay)
//Storyboard Sound Samples

[TimingPoints]
286,312.5,4,2,1,50,1,0
1536,-125,4,2,1,50,0,0
6223,-100,4,2,1,50,0,0
6692,-83.3333333333333,4,2,1,70,0,0
6926,-83.3333333333333,4,2,1,5,0,0
7004,-83.3333333333333,4,2,1,70,0,0
7239,-83.3333333333333,4,2,1,5,0,0
7317,-83.3333333333333,4,2,1,70,0,0
7473,-83.3333333333333,4,2,1,5,0,0
7629,-83.3333333333333,4,2,1,60,0,0
7786,-100,4,2,1,60,0,0
11536,-83.3333333333333,4,2,1,60,0,0
11692,-83.3333333333333,4,2,1,70,0,0
12317,-83.3333333333333,4,2,1,50,0,0
12551,-83.3333333333333,4,2,1,5,0,0
12629,-83.3333333333333,4,2,1,80,0,0
13098,-100,4,2,1,80,0,0
17629,-100,4,2,1,90,0,0
18254,-100,4,2,1,80,0,0
21536,-83.3333333333333,4,2,1,80,0,0
22473,-83.3333333333333,4,2,1,60,0,0
22786,-125,4,2,1,60,0,0
24036,-125,4,2,1,70,0,0
24270,-125,4,2,1,5,0,0
24348,-125,4,2,1,70,0,0
24661,-100,4,2,1,70,0,0
25051,-100,4,2,1,5,0,0
25129,-100,4,2,1,70,0,0
29739,-100,4,2,1,5,0,0
29817,-100,4,2,1,70,0,0
29895,-100,4,2,1,5,0,0
29973,-100,4,2,1,70,0,0
30051,-100,4,2,1,5,0,0
30129,-83.3333333333333,4,2,1,75,0,0
32864,-83.3333333333333,4,2,1,5,0,0
32942,-83.3333333333333,4,2,1,75,0,0
34739,-83.3333333333333,4,2,1,5,0,0
34817,-83.3333333333333,4,2,1,70,0,0
35129,-100,4,2,1,70,0,0
37239,-100,4,2,1,5,0,0
37317,-100,4,2,1,70,0,0
39739,-100,4,2,1,5,0,0
39817,-100,4,2,1,70,0,0
39895,-100,4,2,1,5,0,0
39973,-100,4,2,1,70,0,0
40051,-100,4,2,1,5,0,0
40129,-83.3333333333333,4,2,1,75,0,0
42629,-83.3333333333333,4,2,1,70,0,0
42864,-83.3333333333333,4,2,1,5,0,0
42942,-83.3333333333333,4,2,1,70,0,0
43879,-83.3333333333333,4,2,1,80,0,0
45286,-125,4,2,1,60,0,0
47707,-125,4,2,1,5,0,0
47786,-125,4,2,1,60,0,0
49582,-125,4,2,1,5,0,0
49661,-125,4,2,1,60,0,0
52786,-125,4,2,1,70,0,0
52942,-125,4,2,1,5,0,0
53020,-125,4,2,1,70,0,0
53176,-125,4,2,1,5,0,0
53254,-125,4,2,1,70,0,0
53489,-125,4,2,1,5,0,0
53567,-125,4,2,1,70,0,0
53723,-166.666666666667,4,2,1,60,0,0
54661,-125,4,2,1,60,0,0
55129,-83.3333333333333,4,2,1,80,0,1
59036,-83.3333333333333,4,2,1,90,0,1
59192,-83.3333333333333,4,2,1,5,0,1
59270,-83.3333333333333,4,2,1,90,0,1
59661,-83.3333333333333,4,2,1,80,0,1
60129,-83.3333333333333,4,2,1,80,0,0
63098,-100,4,2,1,80,0,0
64661,-100,4,2,1,70,0,0
65129,-83.3333333333333,4,2,1,80,0,1
69036,-83.3333333333333,4,2,1,90,0,1
69192,-83.3333333333333,4,2,1,5,0,1
69270,-83.3333333333333,4,2,1,90,0,1
69426,-83.3333333333333,4,2,1,5,0,1
69504,-83.3333333333333,4,2,1,90,0,1
69582,-83.3333333333333,4,2,1,5,0,1
69661,-83.3333333333333,4,2,1,80,0,1
70129,-83.3333333333333,4,2,1,80,0,0
74504,-83.3333333333333,4,2,1,50,0,0
74661,-100,4,2,1,50,0,0
75129,-100,4,2,1,70,0,0
84036,-83.3333333333333,4,2,1,70,0,0
85129,-83.3333333333333,4,2,1,60,0,0
85207,-83.3333333333333,4,2,1,5,0,0
85286,-83.3333333333333,4,2,1,60,0,0
94973,-83.3333333333333,4,2,1,50,0,0
95286,-125,4,2,1,50,0,0
102786,-125,4,2,1,70,0,0
102942,-125,4,2,1,40,0,0
103411,-125,4,2,1,45,0,0
103723,-125,4,2,1,50,0,0
104036,-125,4,2,1,55,0,0
104348,-125,4,2,1,60,0,0
104661,-125,4,2,1,80,0,0
105286,-100,4,2,1,70,0,0
107161,-100,4,2,1,60,0,0
107317,-100,4,2,1,20,0,0
107473,-100,4,2,1,50,0,0
107629,-100,4,2,1,20,0,0
107786,-100,4,2,1,70,0,0
109661,-100,4,2,1,50,0,0
109765,-100,4,2,1,5,0,0
109869,-100,4,2,1,50,0,0
109973,-100,4,2,1,5,0,0
110077,-100,4,2,1,50,0,0
110181,-100,4,2,1,5,0,0
110286,-100,4,2,1,70,0,0
112473,-100,4,2,1,60,0,0
112786,-100,4,2,1,70,0,0
115286,-125,4,2,1,60,0,0
117707,-125,4,2,1,5,0,0
117786,-125,4,2,1,60,0,0
119582,-125,4,2,1,5,0,0
119661,-125,4,2,1,60,0,0
120286,-125,4,2,1,40,0,0
120911,-125,4,2,1,50,0,0
121536,-125,4,2,1,60,0,0
121848,-100,4,2,1,65,0,0
122161,-100,4,2,1,70,0,0
122473,-100,4,2,1,75,0,0
122786,-160,4,2,1,80,0,0
122864,-160,4,2,1,50,0,0
127317,-160,4,2,1,60,0,0
127473,-160,4,2,1,70,0,0
127629,-83.3333333333333,4,2,1,80,0,1
131536,-83.3333333333333,4,2,1,90,0,1
131692,-83.3333333333333,4,2,1,5,0,1
131770,-83.3333333333333,4,2,1,90,0,1
131926,-83.3333333333333,4,2,1,5,0,1
132004,-83.3333333333333,4,2,1,90,0,1
132082,-83.3333333333333,4,2,1,5,0,1
132161,-83.3333333333333,4,2,1,80,0,1
132629,-83.3333333333333,4,2,1,80,0,0
137161,-83.3333333333333,4,2,1,60,0,0
137629,-83.3333333333333,4,2,1,80,0,1
141536,-83.3333333333333,4,2,1,90,0,1
141692,-83.3333333333333,4,2,1,5,0,1
141770,-83.3333333333333,4,2,1,90,0,1
141926,-83.3333333333333,4,2,1,5,0,1
142004,-83.3333333333333,4,2,1,90,0,1
142082,-83.3333333333333,4,2,1,5,0,1
142161,-83.3333333333333,4,2,1,80,0,1
142629,-83.3333333333333,4,2,1,80,0,0
145286,-100,4,2,1,70,0,0
146536,-83.3333333333333,4,2,1,80,0,0
147161,-83.3333333333333,4,2,1,70,0,0
147629,-83.3333333333333,4,2,1,80,0,1
155129,-83.3333333333333,4,2,1,80,0,0
156379,-83.3333333333333,4,2,1,70,0,0
157004,-83.3333333333333,4,2,1,60,0,0
157629,-83.3333333333333,4,2,1,80,0,0
157942,-100,4,2,1,80,0,0
166536,-83.3333333333333,4,2,1,80,0,0
166692,-83.3333333333333,4,2,1,5,0,0
166770,-83.3333333333333,4,2,1,80,0,0
166926,-83.3333333333333,4,2,1,5,0,0
167004,-83.3333333333333,4,2,1,80,0,0
167239,-83.3333333333333,4,2,1,5,0,0
167317,-83.3333333333333,4,2,1,70,0,0
167551,-83.3333333333333,4,2,1,5,0,0
167629,-83.3333333333333,4,2,1,70,0,0
167707,-83.3333333333333,4,2,1,5,0,0
167786,-83.3333333333333,4,2,2,60,0,0
168996,-83.3333333333333,4,1,2,60,0,0
169075,-83.3333333333333,4,2,2,60,0,0
169153,-83.3333333333333,4,1,2,60,0,0
169231,-83.3333333333333,4,2,2,60,0,0
169309,-83.3333333333333,4,1,2,60,0,0
169387,-83.3333333333333,4,2,2,60,0,0
169426,-83.3333333333333,4,1,2,60,0,0
169700,-83.3333333333333,4,2,2,60,0,0
169856,-83.3333333333333,4,1,2,60,0,0
169895,-83.3333333333333,4,2,2,60,0,0
169973,-83.3333333333333,4,1,2,60,0,0
170051,-83.3333333333333,4,2,2,60,0,0
170129,-83.3333333333333,4,1,2,60,0,0
170207,-83.3333333333333,4,2,2,60,0,0
170286,-83.3333333333333,4,1,2,60,0,0
170637,-83.3333333333333,4,2,2,60,0,0
170715,-83.3333333333333,4,1,2,60,0,0
170832,-83.3333333333333,4,2,2,60,0,0
170989,-83.3333333333333,4,1,2,20,0,0

[Colours]
Combo1 : 205,41,83
Combo2 : 89,255,89
Combo3 : 255,255,98
Combo4 : 196,134,134

[HitObjects]
289,48,1536,5,2,0:3:0:0:
218,148,1848,1,2,0:3:0:0:
260,271,2161,1,2,0:3:0:0:
207,343,2473,5,0,0:0:0:0:
206,342,2629,2,0,P|163:323|140:322,1,56,0|0,0:0|3:0,0:0:0:0:
73,295,2942,1,0,3:0:0:0:
22,352,3098,1,2,0:3:0:0:
73,295,3254,2,0,P|65:232|60:163,1,112
105,116,3723,1,2,0:3:0:0:
60,39,3879,5,0,3:0:0:0:
60,39,4036,2,0,P|97:33|124:15,1,56,0|0,3:0|3:0,0:0:0:0:
188,49,4348,2,0,P|222:50|243:62,1,56,2|0,0:3|0:0,0:0:0:0:
317,35,4661,2,0,L|323:6,2,28
363,101,4973,1,2,0:3:0:0:
293,154,5129,6,0,P|282:209|278:264,1,112,0|0,3:0|3:0,0:0:0:0:
334,320,5598,2,0,P|368:319|390:304,1,56,2|0,0:3|0:0,0:0:0:0:
439,243,5911,2,0,L|427:180,1,56
402,155,6145,1,0,0:0:0:0:
402,155,6223,2,0,B|407:117|440:103|440:103|408:64|420:18,1,140,2|0,0:3|1:0,0:0:0:0:
500,44,6692,6,0,B|444:57|386:80|386:80|336:63,1,167.999994873047,12|0,0:0|1:0,0:0:0:0:
260,100,7161,1,8,3:0:0:0:
279,206,7317,1,4,3:0:0:0:
82,104,7629,5,4,1:0:0:0:
82,104,7786,2,0,P|82:69|95:36,1,70,0|0,3:0|3:0,0:0:0:0:
165,88,8098,2,0,P|178:156|185:226,1,140,2|0,0:3|0:0,0:0:0:0:
120,279,8567,1,0,0:0:0:0:
45,240,8723,1,2,0:3:0:0:
7,334,8879,6,0,P|31:357|65:363,1,70,0|0,3:0|3:0,0:0:0:0:
151,368,9192,2,0,P|184:354|218:348,1,70,0|2,3:0|0:3,0:0:0:0:
284,296,9504,2,0,B|315:303|331:322|331:322|376:287|361:237,1,140
446,269,9973,1,2,0:3:0:0:
470,165,10129,5,0,3:0:0:0:
470,165,10286,2,0,P|463:130|448:99,1,70,0|0,3:0|3:0,0:0:0:0:
367,66,10598,1,2,0:3:0:0:
367,66,10754,1,0,0:0:0:0:
334,148,10911,2,0,P|304:166|270:175,1,70,2|0,0:3|0:0,0:0:0:0:
197,125,11223,1,2,0:3:0:0:
262,68,11379,2,0,L|248:-9,1,70,0|0,3:0|3:0,0:0:0:0:
129,52,11692,6,0,B|103:153|103:153|134:180|143:211,1,167.999994873047,4|0,1:2|1:0,0:0:0:0:
83,278,12161,1,8,0:0:0:0:
189,310,12317,1,8,3:2:0:0:
313,139,12629,6,0,P|372:99|486:105,1,167.999994873047,4|0,3:1|3:0,0:0:0:0:
486,195,13098,2,0,P|452:177|396:178,1,70,8|0,0:0|0:0,0:0:0:0:
357,227,13411,2,0,P|368:260|375:294,1,70,0|0,3:0|3:0,0:0:0:0:
322,358,13723,2,0,P|289:371|255:369,1,70,8|0,0:0|0:0,0:0:0:0:
163,318,14036,6,0,P|176:285|185:246,1,70,0|0,3:0|3:0,0:0:0:0:
107,211,14348,2,0,P|87:182|84:147,1,70,8|0,0:0|0:0,0:0:0:0:
128,71,14661,1,0,3:0:0:0:
225,111,14817,2,0,L|313:98,1,70,0|8,3:0|0:0,0:0:0:0:
351,38,15129,6,0,B|339:96|339:96|350:120|350:120|338:173,1,140,4|0,1:0|3:0,0:0:0:0:
366,199,15520,1,0,0:0:0:0:
366,199,15598,2,0,L|442:212,1,70,10|0,0:0|0:0,0:0:0:0:
333,272,15911,2,0,P|304:298|296:333,1,70,0|0,3:0|3:0,0:0:0:0:
231,256,16223,2,0,P|222:202|201:164,1,70,10|0,0:0|0:0,0:0:0:0:
268,114,16536,5,0,1:2:0:0:
268,114,16692,1,0,3:0:0:0:
199,23,16848,2,0,P|176:49|171:83,1,70,10|0,1:2|0:0,0:0:0:0:
114,163,17161,1,0,3:0:0:0:
36,131,17317,2,0,L|21:54,1,70,0|10,3:0|0:0,0:0:0:0:
100,188,17629,6,0,B|78:276|78:276|108:314,1,140,4|0,3:1|0:0,0:0:0:0:
197,337,18098,2,0,P|225:317|259:310,1,70,4|0,1:2|0:0,0:0:0:0:
336,271,18411,2,0,P|368:283|394:312,1,70,0|0,3:0|3:0,0:0:0:0:
460,249,18723,2,0,P|453:208|455:158,1,70,8|0,0:0|0:0,0:0:0:0:
411,106,19036,6,0,P|383:127|371:159,1,70,0|0,3:0|3:0,0:0:0:0:
296,108,19348,2,0,P|305:70|307:22,1,70,8|0,0:0|0:0,0:0:0:0:
222,10,19661,1,0,3:0:0:0:
140,85,19817,2,0,L|161:163,1,70,0|8,3:0|0:0,0:0:0:0:
116,256,20129,6,0,P|157:208|247:205,1,140,4|0,3:1|3:0,0:0:0:0:
241,285,20598,2,0,P|274:276|299:252,1,70,8|0,0:0|0:0,0:0:0:0:
383,282,20911,2,0,L|395:205,1,70,0|0,3:0|3:0,0:0:0:0:
456,155,21223,1,8,0:0:0:0:
368,128,21379,1,0,0:0:0:0:
368,128,21457,1,0,0:0:0:0:
368,128,21536,6,0,B|355:56|408:71|387:-15,2,125.999996154785,4|12|12,1:0|1:2|1:2,0:0:0:0:
368,128,22317,1,0,3:0:0:0:
313,186,22473,1,4,3:0:0:0:
240,163,22629,1,4,3:0:0:0:
175,209,22786,6,0,P|174:264|183:320,1,112,2|0,3:0|3:0,0:0:0:0:
114,359,23254,1,2,0:3:0:0:
113,358,23411,2,0,P|92:340|66:331,1,56,2|2,3:0|0:3,0:0:0:0:
15,271,23723,2,0,P|35:253|61:244,1,56,0|2,3:0|0:3,0:0:0:0:
101,165,24036,6,0,P|96:118|74:63,1,84,2|0,3:1|0:0,0:0:0:0:
90,75,24348,2,0,P|124:72|174:107,1,84,2|2,3:1|0:3,0:0:0:0:
175,100,24661,2,0,B|251:90|221:42|304:37,1,140,2|0,3:3|3:0,0:0:0:0:
374,100,25129,6,0,P|359:131|353:166,1,70,4|0,3:2|0:0,0:0:0:0:
416,240,25442,1,0,0:0:0:0:
416,240,25598,2,0,P|466:251|487:279,1,70,8|0,0:0|3:0,0:0:0:0:
444,345,25911,1,0,3:0:0:0:
363,318,26067,1,0,0:0:0:0:
286,358,26223,2,0,P|281:323|273:289,1,70,8|0,0:0|0:0,0:0:0:0:
212,225,26536,5,0,3:0:0:0:
142,270,26692,1,0,0:0:0:0:
135,183,26848,1,8,0:0:0:0:
223,206,27004,2,0,B|287:184|286:234|364:213,1,140
341,130,27473,1,8,0:0:0:0:
433,89,27629,6,0,P|441:47|442:11,1,70,4|0,3:2|0:0,0:0:0:0:
360,1,27942,1,0,3:0:0:0:
360,0,28098,2,0,P|332:21|298:27,1,70,8|0,0:0|3:0,0:0:0:0:
236,82,28411,2,0,P|194:80|121:5,1,140,0|8,3:0|0:0,0:0:0:0:
56,70,28879,1,0,0:0:0:0:
115,146,29036,6,0,P|125:184|125:215,1,70,0|0,3:0|0:0,0:0:0:0:
200,274,29348,2,0,P|203:239|215:206,1,70,8|0,0:0|1:0,0:0:0:0:
290,165,29661,1,8,3:0:0:0:
374,192,29817,1,4,3:0:0:0:
290,165,29973,1,8,3:0:0:0:
254,64,30129,6,0,P|332:46|388:103,1,167.999994873047,4|0,3:1|1:0,0:0:0:0:
427,117,30520,1,0,1:0:0:0:
427,117,30598,2,0,L|521:97,1,83.9999974365235,10|0,1:2|3:0,0:0:0:0:
481,194,30911,2,0,P|489:234|511:270,1,83.9999974365235,10|0,1:2|3:0,0:0:0:0:
463,342,31223,1,10,1:2:0:0:
366,277,31379,6,0,B|291:261|291:261|273:268|273:268|172:252,1,167.999994873047,4|0,3:1|3:0,0:0:0:0:
167,283,31770,1,0,3:0:0:0:
167,283,31848,1,10,1:2:0:0:
188,368,32004,1,0,3:0:0:0:
96,353,32161,2,0,P|55:335|6:328,1,83.9999974365235,10|0,1:2|3:0,0:0:0:0:
74,251,32473,1,10,1:2:0:0:
3,182,32629,6,0,B|-8:127|26:73|26:73|41:111|65:140,1,167.999994873047,4|0,3:1|1:0,0:0:0:0:
84,133,33020,1,0,0:0:0:0:
84,133,33098,1,10,1:2:0:0:
143,192,33254,2,0,P|184:180|225:173,1,83.9999974365235,0|10,3:0|1:2,0:0:0:0:
309,202,33567,1,0,3:0:0:0:
283,287,33723,1,10,1:2:0:0:
283,287,33879,1,4,3:2:0:0:
390,226,34036,6,0,P|394:185|376:148,1,83.9999974365235,2|0,1:0|0:0,0:0:0:0:
287,96,34348,2,0,P|292:54|318:22,1,83.9999974365235,2|0,1:1|1:0,0:0:0:0:
396,60,34661,1,4,3:0:0:0:
489,42,34817,2,0,L|477:-9,2,41.9999987182618,4|0|4,3:0|3:0|3:0,0:0:0:0:
475,136,35129,6,0,P|490:204|500:273,1,140,4|0,3:2|3:0,0:0:0:0:
473,361,35598,2,0,P|446:338|403:329,1,70,8|0,0:0|3:0,0:0:0:0:
328,321,35911,2,0,L|260:337,1,70,0|0,3:0|0:0,0:0:0:0:
179,307,36223,1,8,0:0:0:0:
179,307,36379,1,0,0:0:0:0:
91,331,36536,6,0,P|73:293|76:249,1,70,0|0,3:0|0:0,0:0:0:0:
141,206,36848,1,8,0:0:0:0:
230,241,37004,2,0,B|263:203|257:144|257:144|224:113,1,140,0|0,0:0|3:0,0:0:0:0:
158,63,37473,1,8,0:0:0:0:
48,106,37629,6,0,P|63:152|144:151,1,140,4|0,3:2|3:0,0:0:0:0:
179,177,38020,1,0,3:0:0:0:
179,177,38098,2,0,P|191:214|199:259,1,70,8|0,0:0|3:0,0:0:0:0:
237,108,38411,2,0,P|277:53|345:57,1,140,0|8,3:0|0:0,0:0:0:0:
344,143,38879,1,0,0:0:0:0:
430,169,39036,6,0,L|496:147,1,70,0|0,3:0|0:0,0:0:0:0:
436,264,39348,2,0,P|403:250|369:244,1,70,8|0,0:0|1:0,0:0:0:0:
295,293,39661,1,8,3:0:0:0:
313,371,39817,1,4,3:0:0:0:
295,293,39973,1,4,3:0:0:0:
203,254,40129,6,0,B|189:172|267:193|249:93,1,167.999994873047,4|0,3:1|1:0,0:0:0:0:
218,67,40520,1,0,1:0:0:0:
218,67,40598,2,0,L|126:89,1,83.9999974365235,10|0,1:2|3:0,0:0:0:0:
53,57,40911,2,0,P|33:97|30:154,1,83.9999974365235,10|0,1:2|3:0,0:0:0:0:
91,204,41223,1,10,1:2:0:0:
0,280,41379,6,0,B|51:298|86:304|86:304|62:351|72:401,1,167.999994873047,4|0,3:2|3:0,0:0:0:0:
111,372,41770,1,0,3:0:0:0:
111,372,41848,2,0,P|151:360|192:353,1,83.9999974365235,10|0,1:2|3:0,0:0:0:0:
255,290,42161,2,0,P|247:248|198:218,1,83.9999974365235,10|0,1:2|3:0,0:0:0:0:
130,200,42473,1,10,1:2:0:0:
213,136,42629,6,0,B|270:142|308:190|308:190|318:163|351:125,1,167.999994873047,4|0,3:2|1:0,0:0:0:0:
380,136,43020,1,0,1:0:0:0:
380,136,43098,1,10,1:2:0:0:
450,190,43254,1,0,3:0:0:0:
500,115,43411,2,0,P|497:75|486:32,1,83.9999974365235,10|0,1:2|3:0,0:0:0:0:
397,7,43723,1,10,1:2:0:0:
296,76,43879,6,0,P|252:14|157:34,1,167.999994873047,4|8,3:2|0:0,0:0:0:0:
139,56,44270,1,8,0:0:0:0:
139,56,44348,2,0,L|160:130,3,41.9999987182618,8|8|8|8,0:0|0:0|0:0|0:0,0:0:0:0:
110,130,44661,2,0,L|92:192,3,41.9999987182618,0|0|0|0,1:0|1:0|1:0|1:0,0:0:0:0:
143,200,44973,2,0,L|158:239,3,41.9999987182618,0|0|0|0,3:2|3:2|3:2|3:2,0:0:0:0:
147,283,45286,6,0,P|176:274|201:272,1,56,4|0,3:2|0:0,0:0:0:0:
277,233,45598,2,0,P|304:237|331:246,1,56,2|0,3:0|0:0,0:0:0:0:
391,314,45911,2,0,P|418:313|441:297,1,56,0|0,3:0|0:0,0:0:0:0:
478,220,46223,1,2,3:0:0:0:
478,220,46379,1,0,0:0:0:0:
408,159,46536,6,0,P|419:128|419:91,1,56,0|0,3:0|0:0,0:0:0:0:
360,45,46848,2,0,P|326:50|292:70,1,56,2|0,3:0|0:0,0:0:0:0:
285,140,47161,2,0,P|296:164|326:195,2,56,0|0|2,3:0|0:0|3:0,0:0:0:0:
120,17,47786,6,0,P|90:43|84:73,1,56,0|0,3:0|0:0,0:0:0:0:
136,124,48098,2,0,P|132:158|126:179,1,56,2|0,3:0|0:0,0:0:0:0:
74,242,48411,2,0,P|96:258|123:263,1,56,0|0,3:0|0:0,0:0:0:0:
181,330,48723,1,2,3:0:0:0:
181,330,48879,1,0,0:0:0:0:
236,265,49036,6,0,P|231:238|224:211,1,56,0|0,3:0|0:0,0:0:0:0:
279,148,49348,2,0,P|323:144|383:204,1,112,2|0,3:0|3:0,0:0:0:0:
338,258,49817,1,0,0:0:0:0:
409,302,49973,2,0,P|402:332|398:357,1,56,2|0,3:0|0:0,0:0:0:0:
487,265,50286,6,0,L|477:203,1,56,0|0,3:0|0:0,0:0:0:0:
441,132,50598,2,0,L|453:64,1,56,2|0,3:0|0:0,0:0:0:0:
381,23,50911,1,0,3:0:0:0:
381,23,51067,1,0,0:0:0:0:
312,75,51223,2,0,P|286:59|244:54,1,56,2|0,3:0|0:0,0:0:0:0:
198,113,51536,6,0,L|211:167,1,56,0|0,3:0|0:0,0:0:0:0:
190,249,51848,1,2,3:0:0:0:
190,249,52004,2,0,P|163:252|138:265,1,56,0|0,0:0|3:0,0:0:0:0:
82,332,52317,1,0,0:0:0:0:
82,332,52473,2,0,P|113:336|169:384,1,84,2|0,3:0|0:0,0:0:0:0:
164,372,52786,5,2,3:1:0:0:
293,350,53020,1,2,3:1:0:0:
428,329,53254,1,2,3:1:0:0:
359,280,53567,5,8,1:2:0:0:
359,280,53645,1,0,1:0:0:0:
359,280,53723,2,0,B|330:213|378:157|416:181|460:122|423:44,1,251.999992309571,4|10,1:2|0:3,0:0:0:0:
352,93,54817,1,10,0:3:0:0:
352,93,54973,1,10,0:3:0:0:
290,20,55129,6,0,P|246:23|212:135,1,167.999994873047,6|0,3:1|1:0,0:0:0:0:
287,159,55598,2,0,P|294:200|298:242,1,83.9999974365235,10|0,1:2|1:0,0:0:0:0:
240,308,55911,2,0,B|190:293|151:258|151:258|123:281|88:291,1,167.999994873047,2|8,3:1|0:0,0:0:0:0:
38,214,56379,6,0,P|46:172|47:130,1,83.9999974365235,4|0,3:2|0:0,0:0:0:0:
15,55,56692,1,0,1:0:0:0:
102,15,56848,2,0,P|142:17|170:48,1,83.9999974365235,10|0,1:2|0:0,0:0:0:0:
245,98,57161,2,0,P|289:98|325:55,1,83.9999974365235,2|0,3:1|1:0,0:0:0:0:
334,41,57395,1,0,1:0:0:0:
334,41,57473,1,8,0:0:0:0:
447,22,57629,6,0,B|425:94|427:158|427:158|460:179,1,167.999994873047,4|0,3:1|1:0,0:0:0:0:
482,205,58020,1,0,1:0:0:0:
482,205,58098,2,0,P|499:249|491:303,1,83.9999974365235,10|0,1:2|1:0,0:0:0:0:
423,351,58411,2,0,P|388:334|354:332,3,41.9999987182618,2|0|0|0,1:2|1:3|1:3|1:3,0:0:0:0:
346,302,58723,2,0,L|359:221,3,41.9999987182618,0|0|0|0,3:0|3:0|3:0|3:0,0:0:0:0:
319,225,59036,6,0,P|255:231|181:263,1,125.999996154785,6|4,1:0|1:2,0:0:0:0:
99,141,59504,1,4,1:2:0:0:
184,99,59661,1,8,0:0:0:0:
184,99,59739,1,8,0:0:0:0:
184,99,59817,2,0,P|220:116|233:133,2,41.9999987182618,8|8|8,0:0|0:0|0:0,0:0:0:0:
99,53,60129,6,0,P|156:58|250:0,1,167.999994873047,4|0,3:1|1:0,0:0:0:0:
332,30,60598,2,0,P|316:68|311:110,1,83.9999974365235,10|0,0:0|1:0,0:0:0:0:
378,174,60911,2,0,P|393:135|398:93,1,83.9999974365235,2|0,3:2|3:0,0:0:0:0:
482,63,61223,1,8,0:0:0:0:
512,168,61379,6,0,B|531:272|531:272|498:314|494:335,1,167.999994873047,4|0,3:2|1:0,0:0:0:0:
410,355,61848,2,0,L|330:328,1,83.9999974365235,10|0,0:0|1:0,0:0:0:0:
256,268,62161,1,2,3:2:0:0:
327,213,62317,1,0,3:0:0:0:
327,213,62473,1,8,0:0:0:0:
260,130,62629,6,0,P|178:144|162:233,1,167.999994873047,4|0,3:2|1:0,0:0:0:0:
220,279,63098,2,0,L|202:352,1,70,10|0,0:0|0:0,0:0:0:0:
120,365,63411,1,2,3:2:0:0:
120,365,63567,1,0,3:0:0:0:
45,309,63723,2,0,P|34:264|41:210,1,70,10|0,0:0|0:0,0:0:0:0:
88,174,64036,5,2,3:2:0:0:
88,174,64192,1,0,3:0:0:0:
36,104,64348,2,0,L|108:132,1,70,10|0,0:0|0:0,0:0:0:0:
180,93,64661,2,0,P|217:76|259:73,1,70,8|8,0:0|0:0,0:0:0:0:
288,92,64895,1,8,0:0:0:0:
288,92,64973,1,8,0:0:0:0:
360,186,65129,6,0,B|381:267|306:260|330:354,1,167.999994873047,6|0,3:1|1:0,0:0:0:0:
246,368,65598,2,0,P|206:358|186:322,1,83.9999974365235,10|0,1:2|1:0,0:0:0:0:
241,252,65911,2,0,L|223:168,1,83.9999974365235,2|0,3:1|1:0,0:0:0:0:
140,133,66223,1,8,0:0:0:0:
41,186,66379,6,0,B|55:122|55:122|45:94|45:94|59:11,1,167.999994873047,4|0,3:2|1:0,0:0:0:0:
103,11,66770,1,0,1:0:0:0:
103,11,66848,2,0,L|198:42,1,83.9999974365235,10|0,1:2|0:0,0:0:0:0:
256,88,67161,1,2,3:1:0:0:
239,175,67317,2,0,P|287:174|323:148,1,83.9999974365235,0|8,1:0|0:0,0:0:0:0:
383,51,67629,6,0,B|354:143|354:143|379:169|400:218,1,167.999994873047,6|0,3:1|1:0,0:0:0:0:
483,232,68098,2,0,P|485:181|458:138,1,83.9999974365235,10|0,1:2|1:0,0:0:0:0:
503,65,68411,2,0,L|513:22,3,41.9999987182618,2|8|8|8,1:2|1:3|1:3|1:3,0:0:0:0:
474,7,68723,2,0,P|432:18|388:27,1,83.9999974365235,4|4,3:3|3:0,0:0:0:0:
325,84,69036,5,4,1:0:0:0:
148,50,69270,1,4,1:2:0:0:
219,215,69504,1,4,1:2:0:0:
143,260,69661,1,8,0:0:0:0:
143,260,69739,1,8,0:0:0:0:
143,260,69817,2,0,L|158:322,2,41.9999987182618,8|8|8,0:0|0:0|0:0,0:0:0:0:
53,236,70129,6,0,P|55:184|159:147,1,167.999994873047,4|0,3:1|1:0,0:0:0:0:
226,99,70598,2,0,L|319:128,1,83.9999974365235,10|0,0:0|1:0,0:0:0:0:
350,200,70911,1,2,3:2:0:0:
266,238,71067,2,0,P|247:275|244:316,1,83.9999974365235,0|8,3:0|0:0,0:0:0:0:
322,361,71379,6,0,B|394:351|394:351|411:337|411:337|483:324,1,167.999994873047,4|0,3:2|1:0,0:0:0:0:
510,242,71848,2,0,P|500:202|489:147,1,83.9999974365235,10|0,0:0|1:0,0:0:0:0:
477,63,72161,1,2,3:2:0:0:
387,46,72317,1,0,3:0:0:0:
364,143,72473,1,8,0:0:0:0:
255,113,72629,6,0,B|199:129|138:138|138:138|156:159|182:207,1,167.999994873047,4|0,3:1|3:0,0:0:0:0:
157,263,73098,1,8,0:0:0:0:
72,246,73254,2,0,P|66:226|49:184,2,41.9999987182618,0|0|8,3:0|3:0|0:0,0:0:0:0:
105,324,73567,2,0,L|93:372,2,41.9999987182618,0|0|8,3:0|3:0|0:0,0:0:0:0:
188,292,73879,1,0,3:0:0:0:
188,292,73957,1,0,0:0:0:0:
188,292,74036,2,0,L|284:311,1,83.9999974365235,4|0,1:2|0:0,0:0:0:0:
410,228,74504,5,2,0:1:0:0:
477,274,74661,2,0,P|494:303|501:338,2,70,2|2|2,0:1|0:1|0:1,0:0:0:0:
398,214,75129,6,0,B|404:152|461:175|469:92,1,140,4|0,3:1|3:0,0:0:0:0:
403,39,75598,2,0,P|369:50|335:57,1,70,12|0,0:0|0:0,0:0:0:0:
261,17,75911,2,0,P|221:26|195:55,1,70,0|0,3:0|3:0,0:0:0:0:
161,125,76223,2,0,L|183:209,1,70,8|0,0:0|0:0,0:0:0:0:
226,312,76536,6,0,L|249:229,1,70,0|0,3:0|3:0,0:0:0:0:
326,215,76848,2,0,P|360:218|407:257,1,70,8|0,0:0|0:0,0:0:0:0:
459,293,77161,1,0,3:0:0:0:
494,204,77317,2,0,P|488:164|455:137,1,70,0|8,1:0|0:0,0:0:0:0:
512,74,77629,6,0,L|369:118,1,140,4|0,1:0|3:0,0:0:0:0:
347,89,78020,1,0,3:0:0:0:
347,89,78098,2,0,P|349:54|366:24,1,70,12|0,0:0|0:0,0:0:0:0:
267,37,78411,2,0,L|187:23,1,70,0|0,3:0|3:0,0:0:0:0:
223,118,78723,2,0,P|245:146|254:180,1,70,8|0,0:0|0:0,0:0:0:0:
200,256,79036,5,4,3:2:0:0:
5,206,79348,1,8,0:0:0:0:
111,47,79661,1,4,3:2:0:0:
175,106,79817,2,0,L|228:94,2,35,0|0|8,3:0|0:0|0:0,0:0:0:0:
96,184,80129,6,0,B|71:285|71:285|98:323,1,140,4|0,3:1|3:0,0:0:0:0:
170,351,80598,2,0,P|205:344|236:328,1,70,12|0,0:0|0:0,0:0:0:0:
262,246,80911,2,0,L|340:272,1,70,0|0,3:0|3:0,0:0:0:0:
389,328,81223,2,0,P|409:301|415:267,1,70,8|0,0:0|0:0,0:0:0:0:
476,204,81536,6,0,L|459:129,1,70,0|0,3:0|3:0,0:0:0:0:
393,37,81848,2,0,L|371:132,1,70,8|0,0:0|0:0,0:0:0:0:
305,154,82161,1,0,3:0:0:0:
315,254,82317,2,0,P|274:238|234:243,1,70,0|8,1:0|0:0,0:0:0:0:
165,196,82629,6,0,B|84:220|84:220|63:185|34:164,1,140,4|0,3:1|3:0,0:0:0:0:
62,89,83098,2,0,P|91:71|126:68,1,70,8|0,3:0|3:0,0:0:0:0:
204,26,83411,2,0,L|244:94,1,70,4|4,3:0|3:0,0:0:0:0:
328,80,83723,1,8,3:0:0:0:
305,174,83879,1,0,3:0:0:0:
305,174,83957,1,0,3:0:0:0:
305,174,84036,6,0,P|359:182|406:243,2,125.999996154785,2|2|6,1:0|1:0|1:0,0:0:0:0:
130,291,84817,2,0,L|121:243,2,41.9999987182618,0|0|8,1:0|1:0|3:0,0:0:0:0:
183,358,85129,1,4,3:0:0:0:
252,313,85286,5,0,3:0:0:0:
29,347,94973,5,0,3:0:0:0:
29,347,95129,1,0,3:0:0:0:
29,347,95286,1,2,3:2:0:0:
104,293,95598,2,0,P|98:237|67:166,1,112,0|2,0:0|0:0,0:0:0:0:
12,108,96223,1,0,3:0:0:0:
89,46,96536,2,0,P|116:50|140:64,2,56,0|0|0,0:0|0:0|3:0,0:0:0:0:
162,147,97161,2,0,B|273:124|273:124|341:149,1,168,10|0,0:0|0:0,0:0:0:0:
355,164,97786,6,0,P|400:137|399:66,1,112,0|0,3:0|0:0,0:0:0:0:
353,14,98254,1,0,0:0:0:0:
436,2,98411,2,0,P|463:6|490:14,1,56,2|0,0:0|0:0,0:0:0:0:
512,97,98723,2,0,B|446:174|534:230|468:327,1,224,0|0,3:0|3:0,0:0:0:0:
382,361,99661,1,8,0:0:0:0:
301,282,99973,2,0,P|272:270|241:268,1,56,2|0,0:0|0:0,0:0:0:0:
203,332,100286,6,0,L|181:214,1,112,0|0,3:0|0:0,0:0:0:0:
113,146,100911,1,2,0:0:0:0:
13,190,101223,1,0,3:0:0:0:
89,263,101536,1,0,0:0:0:0:
190,224,101848,1,2,3:2:0:0:
210,112,102161,1,10,0:0:0:0:
322,86,102473,2,0,P|374:102|450:121,1,112,4|4,3:2|3:0,0:0:0:0:
429,116,103098,6,0,P|439:152|440:178,1,56,0|0,3:0|3:0,0:0:0:0:
510,213,103411,2,0,P|483:239|461:253,1,56,0|0,3:0|3:0,0:0:0:0:
464,331,103723,2,0,P|427:321|404:309,1,56,0|0,3:0|3:0,0:0:0:0:
325,285,104036,5,8,3:0:0:0:
325,285,104192,1,8,3:0:0:0:
359,204,104348,1,12,3:0:0:0:
359,204,104504,1,12,3:0:0:0:
285,124,104661,5,8,3:2:0:0:
318,45,104817,1,8,3:2:0:0:
318,45,105286,6,0,B|249:25|249:25|173:69|201:151,2,210,4|4|4,3:1|1:2|3:2,0:0:0:0:
399,227,106692,1,0,3:0:0:0:
399,227,106848,2,0,P|356:245|311:235,1,70,8|0,0:0|0:0,0:0:0:0:
253,217,107161,1,4,3:0:0:0:
166,334,107473,1,8,3:0:0:0:
53,253,107786,6,0,B|78:110|78:110|32:52,2,210,4|4|4,3:1|1:2|3:2,0:0:0:0:
225,369,109192,1,0,3:0:0:0:
225,369,109348,2,0,L|206:288,1,70,8|0,0:0|0:0,0:0:0:0:
264,239,109661,2,0,P|306:239|353:282,2,93.3333333333333,8|4|4,3:0|3:0|3:0,0:0:0:0:
197,187,110286,6,0,B|234:143|293:155|293:155|338:122|311:62,2,210,4|4|4,3:1|1:2|3:2,0:0:0:0:
38,14,111692,1,0,3:0:0:0:
38,14,111848,2,0,P|76:17|122:52,1,70,8|0,0:0|0:0,0:0:0:0:
165,88,112161,1,8,0:0:0:0:
165,88,112317,2,0,P|201:82|233:73,1,70,0|2,3:0|3:0,0:0:0:0:
292,16,112629,1,2,3:0:0:0:
341,100,112786,6,0,P|439:124|478:218,2,210,4|4|4,3:1|1:2|3:2,0:0:0:0:
341,100,114036,2,0,L|356:180,1,70,8|0,3:2|0:0,0:0:0:0:
253,238,114348,2,0,L|265:169,1,70,8|0,3:2|0:0,0:0:0:0:
200,119,114661,1,2,3:1:0:0:
200,119,114817,1,0,3:0:0:0:
238,41,114973,2,0,L|272:50,2,35,2|0|0,3:2|0:0|0:0,0:0:0:0:
153,6,115286,6,0,P|126:11|103:26,1,56,0|0,3:0|0:0,0:0:0:0:
52,90,115598,2,0,L|67:147,1,56,2|0,3:0|0:0,0:0:0:0:
133,193,115911,2,0,P|121:229|122:270,1,56,0|0,3:0|0:0,0:0:0:0:
67,309,116223,1,2,3:0:0:0:
67,309,116379,1,0,0:0:0:0:
143,348,116536,6,0,P|176:346|206:324,1,56,0|0,3:0|0:0,0:0:0:0:
246,269,116848,2,0,P|275:270|307:291,1,56,2|0,3:0|0:0,0:0:0:0:
359,341,117161,2,0,P|388:336|414:312,2,56,0|0|2,3:0|0:0|3:0,0:0:0:0:
476,266,117786,6,0,L|465:204,1,56,0|0,3:0|0:0,0:0:0:0:
400,161,118098,2,0,P|413:125|434:97,1,56,2|0,3:0|0:0,0:0:0:0:
492,58,118411,1,0,3:0:0:0:
492,58,118567,1,0,0:0:0:0:
417,4,118723,2,0,L|357:19,1,56,2|0,3:0|0:0,0:0:0:0:
297,70,119036,6,0,P|267:63|246:45,1,56,0|0,3:0|0:0,0:0:0:0:
164,41,119348,2,0,L|180:167,1,112,2|0,3:0|3:0,0:0:0:0:
175,237,119817,1,0,0:0:0:0:
99,199,119973,2,0,P|71:199|48:214,1,56,2|0,3:0|0:0,0:0:0:0:
3,297,120286,6,0,L|11:342,7,28,8|8|8|8|8|8|8|8,0:0|0:0|0:0|0:0|0:0|0:0|0:0|0:0,0:0:0:0:
53,321,120911,2,0,L|45:361,7,28,8|8|8|8|8|8|8|8,0:0|0:0|0:0|0:0|0:0|0:0|0:0|0:0,0:0:0:0:
85,356,121536,2,0,P|115:348|140:346,1,56,8|8,0:0|0:0,0:0:0:0:
238,282,121848,6,0,P|267:288|291:303,3,35,8|8|8|8,0:0|0:0|0:0|0:0,0:0:0:0:
200,258,122161,2,0,P|190:229|191:201,3,35,8|8|8|8,0:0|0:0|0:0|0:0,0:0:0:0:
202,297,122473,2,0,P|182:319|157:332,3,35,8|8|8|8,0:0|0:0|0:0|0:0,0:0:0:0:
119,267,122786,6,0,B|60:185|114:90|241:124|294:21|222:-69|133:-88|55:-32|31:42|99:143|182:82|285:156|230:264,1,700,4|2,1:0|1:3,0:0:0:0:
318,321,125911,1,2,1:3:0:0:
405,256,126536,1,2,1:3:0:0:
380,158,126848,1,2,1:3:0:0:
460,95,127161,2,0,L|469:39,1,43.75,2|2,1:0|1:0,0:0:0:0:
430,21,127473,1,2,1:0:0:0:
356,65,127629,6,0,B|281:47|281:47|277:41|277:41|195:21,1,167.999994873047,6|0,3:1|1:0,0:0:0:0:
128,85,128098,2,0,P|145:136|150:199,1,83.9999974365235,10|0,1:2|1:0,0:0:0:0:
96,262,128411,2,0,P|125:212|232:211,1,167.999994873047,2|8,3:2|0:0,0:0:0:0:
291,268,128879,6,0,P|277:308|270:350,1,83.9999974365235,4|0,3:2|0:0,0:0:0:0:
358,373,129192,1,0,1:0:0:0:
433,317,129348,2,0,P|428:276|404:243,1,83.9999974365235,10|0,1:2|0:0,0:0:0:0:
339,175,129661,2,0,P|342:129|377:92,1,83.9999974365235,2|0,3:1|1:0,0:0:0:0:
404,90,129895,1,0,1:0:0:0:
404,90,129973,1,8,0:0:0:0:
495,70,130129,6,0,L|317:22,1,167.999994873047,6|0,3:1|1:0,0:0:0:0:
296,52,130520,1,0,1:0:0:0:
296,52,130598,2,0,L|203:72,1,83.9999974365235,10|0,1:2|1:0,0:0:0:0:
176,150,130911,2,0,L|191:210,3,41.9999987182618,2|0|0|0,1:2|1:0|1:0|1:0,0:0:0:0:
147,225,131223,2,0,P|126:222|108:212,3,41.9999987182618,0|0|0|0,3:0|3:0|3:0|3:0,0:0:0:0:
69,239,131536,6,0,B|44:319|44:319|69:352,1,125.999996154785,6|4,1:0|1:2,0:0:0:0:
209,308,132004,1,4,1:2:0:0:
289,360,132161,1,8,0:0:0:0:
289,360,132239,1,8,0:0:0:0:
289,360,132317,2,0,L|329:345,2,41.9999987182618,8|8|8,0:0|0:0|0:0,0:0:0:0:
342,267,132629,6,0,B|362:186|284:192|312:107,1,167.999994873047,4|0,3:1|1:0,0:0:0:0:
380,56,133098,2,0,P|434:64|472:115,1,83.9999974365235,10|0,0:0|1:0,0:0:0:0:
493,161,133411,1,2,3:2:0:0:
426,228,133567,1,0,3:0:0:0:
480,303,133723,1,8,0:0:0:0:
387,353,133879,6,0,B|325:328|266:322|266:322|298:305|323:266,1,167.999994873047,4|0,3:2|1:0,0:0:0:0:
235,233,134348,2,0,L|154:254,1,83.9999974365235,10|0,0:0|1:0,0:0:0:0:
83,310,134661,1,2,3:2:0:0:
6,263,134817,2,0,P|10:221|37:190,1,83.9999974365235,0|8,3:0|0:0,0:0:0:0:
134,171,135129,1,4,3:2:0:0:
71,103,135286,6,0,P|65:62|55:21,1,83.9999974365235,0|0,3:0|3:0,0:0:0:0:
99,0,135520,1,0,3:0:0:0:
99,0,135598,2,0,P|140:9|180:58,1,83.9999974365235,10|0,0:0|3:0,0:0:0:0:
219,119,135911,1,2,3:2:0:0:
285,57,136067,1,0,3:0:0:0:
370,97,136223,2,8,P|345:130|331:170,1,83.9999974365235,10|8,0:0|3:0,0:0:0:0:
336,272,136536,5,2,3:2:0:0:
336,272,136692,1,0,3:2:0:0:
253,222,136848,2,0,L|166:194,1,83.9999974365235,10|0,0:0|1:0,0:0:0:0:
102,252,137161,1,0,3:0:0:0:
166,318,137317,2,0,L|175:366,2,41.9999987182618,8|8|8,0:0|0:0|1:2,0:0:0:0:
78,247,137629,6,0,B|50:166|127:155|91:74,1,167.999994873047,6|0,3:1|1:0,0:0:0:0:
60,58,138020,1,0,1:0:0:0:
60,58,138098,2,0,P|104:49|157:17,1,83.9999974365235,10|0,1:2|0:0,0:0:0:0:
218,73,138411,1,2,3:2:0:0:
218,73,138567,1,0,1:0:0:0:
178,151,138723,1,8,0:0:0:0:
263,205,138879,6,0,B|357:229|357:229|381:196|410:183,1,167.999994873047,4|0,3:2|1:0,0:0:0:0:
440,267,139348,2,0,L|464:361,1,83.9999974365235,10|0,1:2|3:0,0:0:0:0:
498,198,139661,2,0,P|512:141|531:99,1,83.9999974365235,2|0,3:1|3:0,0:0:0:0:
457,56,139973,1,8,0:0:0:0:
355,108,140129,6,0,P|320:60|204:58,1,167.999994873047,4|0,3:1|1:0,0:0:0:0:
185,82,140520,1,0,1:0:0:0:
185,82,140598,2,0,L|205:166,1,83.9999974365235,10|0,1:2|1:0,0:0:0:0:
144,232,140911,2,0,P|133:257|134:272,3,41.9999987182618,2|8|8|8,1:2|1:3|1:3|1:3,0:0:0:0:
173,299,141223,2,0,P|225:285|277:290,1,83.9999974365235,4|4,3:0|3:0,0:0:0:0:
343,315,141536,5,4,1:0:0:0:
293,176,141770,1,4,1:2:0:0:
414,90,142004,1,4,1:2:0:0:
398,180,142161,1,8,0:0:0:0:
398,180,142239,1,8,0:0:0:0:
398,180,142317,2,0,L|415:237,2,41.9999987182618,8|8|8,0:0|0:0|0:0,0:0:0:0:
325,95,142629,6,0,B|245:69|236:149|153:118,1,167.999994873047,4|0,3:1|3:0,0:0:0:0:
89,83,143098,2,0,L|102:-4,1,83.9999974365235,10|0,0:0|1:0,0:0:0:0:
5,122,143411,1,2,3:2:0:0:
5,122,143567,1,0,3:0:0:0:
79,177,143723,1,8,0:0:0:0:
22,251,143879,6,0,B|45:351|45:351|72:332|105:326,1,167.999994873047,4|0,3:2|3:0,0:0:0:0:
141,299,144270,1,0,3:0:0:0:
141,299,144348,2,0,P|187:309|235:330,1,83.9999974365235,8|0,0:0|3:0,0:0:0:0:
295,376,144661,1,8,0:0:0:0:
338,297,144817,2,0,L|324:244,2,41.9999987182618,0|0|0,3:0|3:0|3:0,0:0:0:0:
430,323,145129,1,0,1:0:0:0:
418,227,145286,6,0,P|422:177|439:129,2,93.3333333333333,4|2|2,1:2|1:2|1:2,0:0:0:0:
309,99,145911,2,0,P|298:43|273:-9,2,93.3333333333333,4|2|2,1:2|1:2|1:2,0:0:0:0:
141,70,146536,6,0,P|122:60|101:57,7,41.9999987182618,4|0|0|4|0|0|4|0,1:1|1:0|1:0|1:0|1:0|1:0|1:0|1:0,0:0:0:0:
53,80,147161,1,8,0:0:0:0:
107,159,147317,1,8,0:0:0:0:
107,159,147395,1,8,0:0:0:0:
107,159,147473,1,8,0:0:0:0:
209,129,147629,6,0,B|277:106|290:182|368:162,1,167.999994873047,4|0,3:1|1:0,0:0:0:0:
401,134,148020,1,0,1:0:0:0:
401,134,148098,2,0,P|391:183|391:235,1,83.9999974365235,10|0,0:0|3:0,0:0:0:0:
324,326,148411,2,0,L|305:244,1,83.9999974365235,10|0,0:0|3:0,0:0:0:0:
217,219,148723,1,10,0:0:0:0:
163,309,148879,6,0,B|111:330|53:294|53:294|70:274|72:242,1,167.999994873047,4|0,3:2|1:0,0:0:0:0:
135,183,149348,2,0,P|143:149|147:99,1,83.9999974365235,10|0,0:0|3:0,0:0:0:0:
122,5,149661,1,10,0:0:0:0:
217,38,149817,1,0,3:0:0:0:
217,38,149895,1,0,3:0:0:0:
217,38,149973,1,10,0:0:0:0:
312,0,150129,6,0,P|375:49|373:130,1,167.999994873047,4|0,3:1|1:0,0:0:0:0:
343,159,150520,1,0,1:0:0:0:
343,159,150598,2,0,P|392:167|432:187,1,83.9999974365235,10|0,0:0|3:0,0:0:0:0:
468,264,150911,2,0,L|448:353,1,83.9999974365235,10|0,0:0|3:0,0:0:0:0:
365,298,151223,1,10,0:0:0:0:
289,359,151379,6,0,P|244:346|239:221,1,167.999994873047,4|0,3:2|1:0,0:0:0:0:
282,171,151848,2,0,L|271:115,2,41.9999987182618,10|8|0,0:0|0:0|1:0,0:0:0:0:
370,210,152161,1,10,0:0:0:0:
370,210,152317,1,0,3:0:0:0:
431,140,152473,1,10,0:0:0:0:
337,66,152629,6,0,B|263:46|267:127|171:109,1,167.999994873047,4|0,3:1|1:0,0:0:0:0:
145,87,153020,1,0,1:0:0:0:
145,87,153098,2,0,P|135:50|137:-7,1,83.9999974365235,10|0,0:0|3:0,0:0:0:0:
34,30,153411,1,10,0:0:0:0:
55,116,153567,2,0,L|40:211,1,83.9999974365235,0|10,3:0|0:0,0:0:0:0:
74,277,153879,6,0,B|188:248|188:248|252:283,1,167.999994873047,4|0,3:2|3:0,0:0:0:0:
292,340,154348,2,0,P|333:339|373:325,1,83.9999974365235,10|0,0:0|3:0,0:0:0:0:
397,238,154661,2,0,P|377:201|369:160,1,83.9999974365235,8|0,0:0|1:0,0:0:0:0:
382,120,154895,1,0,1:0:0:0:
382,120,154973,1,8,1:2:0:0:
468,165,155129,5,4,1:2:0:0:
256,192,155286,12,4,157629,3:1:0:0:
383,115,157942,5,0,3:0:0:0:
383,115,158098,2,0,P|338:98|297:95,1,70,12|0,0:0|0:0,0:0:0:0:
253,33,158411,2,0,P|221:47|187:54,1,70,0|0,3:0|3:0,0:0:0:0:
100,60,158723,2,0,P|106:93|129:119,1,70,8|0,0:0|0:0,0:0:0:0:
204,174,159036,6,0,L|185:255,1,70,0|0,3:0|0:0,0:0:0:0:
280,236,159348,2,0,L|263:322,1,70,8|0,0:0|0:0,0:0:0:0:
336,366,159661,1,0,3:0:0:0:
437,327,159817,2,0,P|431:292|415:261,1,70,0|8,1:0|0:0,0:0:0:0:
361,191,160129,6,0,B|376:116|376:116|410:108|431:86,1,140,4|0,1:0|3:0,0:0:0:0:
420,42,160520,1,0,3:0:0:0:
420,42,160598,2,0,P|381:36|332:14,1,70,12|0,0:0|0:0,0:0:0:0:
272,59,160911,2,0,L|293:143,1,70,0|0,3:0|3:0,0:0:0:0:
260,209,161223,2,0,P|227:222|193:225,1,70,8|0,0:0|1:0,0:0:0:0:
106,192,161536,5,4,3:2:0:0:
26,16,161848,1,8,0:0:0:0:
202,109,162161,1,4,3:2:0:0:
277,72,162317,2,0,L|286:10,2,35,0|0|8,3:0|3:0|0:0,0:0:0:0:
297,162,162629,6,0,P|344:219|333:301,1,140,4|0,3:1|3:0,0:0:0:0:
270,325,163098,2,0,P|240:307|203:301,1,70,12|0,0:0|0:0,0:0:0:0:
120,323,163411,2,0,L|94:245,1,70,0|0,3:0|3:0,0:0:0:0:
38,196,163723,2,0,P|65:176|99:170,1,70,8|0,0:0|0:0,0:0:0:0:
143,96,164036,6,0,L|218:113,1,70,0|0,3:0|3:0,0:0:0:0:
319,174,164348,2,0,L|224:196,1,70,8|0,0:0|0:0,0:0:0:0:
179,243,164661,1,0,3:0:0:0:
246,305,164817,2,0,P|280:304|312:289,1,70,0|8,3:0|0:0,0:0:0:0:
407,349,165129,6,0,B|431:268|431:268|396:247|375:218,1,140,4|0,1:0|3:0,0:0:0:0:
330,164,165598,2,0,L|313:67,1,70,12|0,0:0|0:0,0:0:0:0:
370,30,165911,2,0,P|338:14|301:14,1,70,0|0,3:0|3:0,0:0:0:0:
220,48,166223,2,0,L|212:123,1,70,8|0,0:0|1:0,0:0:0:0:
182,148,166457,1,0,1:0:0:0:
182,148,166536,6,0,P|138:150|107:179,1,83.9999974365235,2|0,1:0|0:0,0:0:0:0:
98,214,166770,1,2,1:0:0:0:
233,221,167004,2,0,P|297:231|350:326,1,167.999994873047,6|0,1:0|3:0,0:0:0:0:
327,345,167395,1,0,3:0:0:0:
327,345,167473,2,0,L|410:334,1,83.9999974365235,0|0,3:0|3:0,0:0:0:0:
497,361,167786,5,4,3:2:0:0:
256,192,167864,12,0,170989,2:0:0:0:
