osu file format v14

[General]
AudioFilename: audio.mp3
AudioLeadIn: 0
PreviewTime: 54642
Countdown: 0
SampleSet: Soft
StackLeniency: 0.7
Mode: 0
LetterboxInBreaks: 0
WidescreenStoryboard: 1

[Editor]
DistanceSpacing: 0.5
BeatDivisor: 4
GridSize: 32
TimelineZoom: 2.2

[Metadata]
Title:Raspberry*Monster
TitleUnicode:ラズベリー*モンスター
Artist:Hanatan
ArtistUnicode:花たん
Creator:Luna-
Version:Extreme
Source:
Tags:vocaloid hatsune miku honeyworks yurica Dark Accelerator Dark_Accelerator
BeatmapID:1154640
BeatmapSetID:544915

[Difficulty]
HPDrainRate:6.5
CircleSize:4.2
OverallDifficulty:9
ApproachRate:9.5
SliderMultiplier:1.9
SliderTickRate:2

[Events]
//Background and Video events
0,0,"natsumerin monsta.jpg",0,0
//Break Periods
//Storyboard Layer 0 (Background)
//Storyboard Layer 1 (Fail)
//Storyboard Layer 2 (Pass)
//Storyboard Layer 3 (Foreground)
//Storyboard Sound Samples

[TimingPoints]
267,312.5,4,3,0,50,1,0
267,-142.857142857143,4,3,0,50,0,0
2610,-125,4,3,2,50,0,0
6048,-100,4,3,0,60,0,0
6204,-66.6666666666667,4,3,0,70,0,0
6360,-50,4,3,0,80,0,0
6517,-111.111111111111,4,2,1,90,0,0
7142,-66.6666666666667,4,2,1,90,0,0
7610,-117.647058823529,4,3,2,60,0,0
11517,-111.111111111111,4,2,1,80,0,0
12142,-66.6666666666667,4,2,1,90,0,0
12610,-100,4,2,1,80,0,0
17610,-90.9090909090909,4,2,1,80,0,0
21517,-83.3333333333333,4,3,2,80,0,0
21985,-166.666666666667,4,2,1,70,0,0
22767,-142.857142857143,4,3,2,50,0,0
25110,-111.111111111111,4,2,1,70,0,0
30110,-100,4,2,1,80,0,0
35110,-111.111111111111,4,2,1,70,0,0
40110,-100,4,2,1,80,0,0
45267,-125,4,3,2,60,0,0
47767,-117.647058823529,4,3,2,65,0,0
50267,-111.111111111111,4,3,2,70,0,0
52767,-90.9090909090909,4,3,2,70,0,0
53704,-142.857142857143,4,2,1,70,0,0
55110,-100,4,2,1,80,0,1
59017,-83.3333333333333,4,2,1,90,0,1
60110,-100,4,2,1,80,0,1
63079,-111.111111111111,4,2,1,70,0,1
65110,-100,4,2,1,80,0,1
69017,-83.3333333333333,4,2,1,90,0,1
70110,-90.9090909090909,4,2,1,80,0,1
74017,-125,4,2,1,50,0,1
75110,-100,4,2,1,80,0,0
84017,-83.3333333333333,4,2,1,90,0,0
85267,-142.857142857143,4,2,1,60,0,0
95267,-133.333333333333,4,2,1,50,0,0
102767,-142.857142857143,4,2,1,40,0,0
103392,-133.333333333333,4,2,1,50,0,0
104017,-125,4,2,1,60,0,0
104642,-100,4,2,1,70,0,0
105267,-111.111111111111,4,2,1,80,0,0
107142,-142.857142857143,4,2,1,70,0,0
107767,-111.111111111111,4,2,1,80,0,0
109642,-142.857142857143,4,2,1,70,0,0
110267,-111.111111111111,4,2,1,80,0,0
115267,-125,4,3,2,60,0,0
117767,-117.647058823529,4,3,2,65,0,0
120267,-111.111111111111,4,2,1,70,0,0
122845,-142.857142857143,4,3,2,30,0,0
125267,-142.857142857143,4,3,2,50,0,0
127610,-100,4,2,1,80,0,1
131517,-83.3333333333333,4,2,1,90,0,1
132610,-100,4,2,1,80,0,1
135110,-111.111111111111,4,2,1,70,0,1
137610,-100,4,2,1,80,0,1
141517,-83.3333333333333,4,2,1,90,0,1
142610,-100,4,2,1,80,0,1
145267,-83.3333333333333,4,2,1,90,0,0
147610,-90.9090909090909,4,2,1,80,0,1
155110,-200,4,2,1,50,0,0
156517,-125,4,2,1,50,0,0
157610,-100,4,2,1,70,0,0
166517,-83.3333333333333,4,2,1,80,0,0
166985,-200,4,2,1,70,0,0
167845,-200,4,2,1,50,0,0
168392,-200,4,2,1,40,0,0
169017,-200,4,2,1,30,0,0
169642,-200,4,2,1,20,0,0
170267,-200,4,2,1,10,0,0
170892,-200,4,2,1,5,0,0

[Colours]
Combo1 : 255,128,192
Combo2 : 128,255,128
Combo3 : 255,128,128
Combo4 : 0,255,128

[HitObjects]
333,333,267,5,2,0:0:0:0:
333,333,892,1,2,0:0:0:0:
179,51,1517,5,2,0:0:0:0:
187,141,1829,1,2,0:0:0:0:
195,232,2142,2,0,B|265:207|260:255|335:236,1,132.999995941162,2|0,0:0|0:0,0:0:0:0:
403,193,2610,1,0,0:0:0:0:
403,193,2688,1,0,0:0:0:0:
403,193,2767,6,0,L|407:149,1,38,2|0,0:0|0:0,0:0:0:0:
348,108,2923,2,0,L|352:64,1,38,2|0,0:0|0:0,0:0:0:0:
286,27,3079,1,0,0:0:0:0:
286,27,3157,1,0,0:0:0:0:
286,27,3235,6,0,B|220:8|220:70|128:36,1,152
119,38,3626,1,0,0:0:0:0:
100,40,3704,1,0,0:0:0:0:
26,126,3860,2,0,P|29:156|37:169,1,38,2|0,0:0|0:0,0:0:0:0:
141,138,4017,2,0,P|112:125|98:126,1,38,2|0,0:0|0:0,0:0:0:0:
72,230,4173,2,0,P|96:211|103:198,1,38,2|0,0:0|0:0,0:0:0:0:
219,161,4329,6,0,L|320:165,1,76
313,164,4563,1,0,0:0:0:0:
331,164,4641,1,0,0:0:0:0:
350,165,4719,1,0,0:0:0:0:
369,166,4797,1,0,0:0:0:0:
388,167,4875,1,0,0:0:0:0:
407,167,4953,1,0,0:0:0:0:
436,316,5110,6,0,P|424:330|408:340,1,38,2|0,0:0|0:0,0:0:0:0:
443,235,5266,2,0,P|461:238|477:248,1,38,2|0,0:0|0:0,0:0:0:0:
369,273,5423,2,0,P|362:255|362:236,1,38,2|0,0:0|0:0,0:0:0:0:
415,140,5579,2,0,P|423:101|411:62,1,76
413,66,5813,1,0,0:0:0:0:
413,66,5892,1,0,0:0:0:0:
325,32,6048,6,0,L|254:34,1,47.5
227,83,6204,6,0,L|136:86,1,71.2500027179719,2|0,0:0|0:0,0:0:0:0:
111,147,6360,6,0,B|9:151,1,95
16,150,6517,1,2,0:0:0:0:
235,353,6673,6,0,B|258:292|258:292|242:231,1,128.249996086121,4|0,0:1|0:0,0:0:0:0:
213,159,6985,1,0,0:0:0:0:
365,283,7142,6,0,L|436:285,1,71.2500027179719,12|0,0:3|0:0,0:0:0:0:
147,283,7298,2,0,L|76:285,1,71.2500027179719,12|0,0:3|0:0,0:0:0:0:
395,113,7610,6,0,L|393:72,1,40.375000770092,2|0,0:0|0:0,0:0:0:0:
295,146,7767,2,0,L|297:105,1,40.375000770092,2|0,0:0|0:0,0:0:0:0:
400,226,7923,2,0,L|398:185,1,40.375000770092,2|0,0:0|0:0,0:0:0:0:
300,259,8079,2,0,B|260:248|260:248|222:260,1,80.750001540184
369,331,8392,2,0,B|409:342|409:342|446:329,1,80.750001540184
446,329,8626,1,0,0:0:0:0:
446,329,8704,1,0,0:0:0:0:
251,342,8860,6,0,L|199:343,1,40.375000770092,2|0,0:0|0:0,0:0:0:0:
137,297,9017,2,0,L|117:263,1,40.375000770092,2|0,0:0|0:0,0:0:0:0:
115,177,9173,2,0,L|134:142,1,40.375000770092,2|0,0:0|0:0,0:0:0:0:
213,110,9329,2,0,L|297:108,1,80.750001540184
313,107,9563,1,0,0:0:0:0:
333,106,9641,1,0,0:0:0:0:
353,106,9719,1,0,0:0:0:0:
373,105,9797,1,0,0:0:0:0:
393,105,9875,1,0,0:0:0:0:
413,105,9953,1,0,0:0:0:0:
353,260,10110,6,0,L|405:261,1,40.375000770092,2|0,0:0|0:0,0:0:0:0:
467,215,10267,2,0,L|487:181,1,40.375000770092,2|0,0:0|0:0,0:0:0:0:
489,95,10423,2,0,L|470:60,1,40.375000770092,2|0,0:0|0:0,0:0:0:0:
391,28,10579,2,0,L|307:26,1,80.750001540184
310,26,10813,1,0,0:0:0:0:
310,26,10892,5,0,0:0:0:0:
202,110,11048,1,0,0:0:0:0:
202,110,11126,1,0,0:0:0:0:
202,110,11204,1,0,0:0:0:0:
293,212,11360,2,0,L|290:261,1,40.375000770092,2|0,0:0|0:0,0:0:0:0:
284,338,11517,1,2,0:0:0:0:
378,131,11673,6,0,L|369:263,1,128.249996086121,4|0,0:1|0:0,0:0:0:0:
363,344,11985,1,0,0:0:0:0:
107,273,12142,6,0,L|193:268,1,71.2500027179719,12|0,0:3|0:0,0:0:0:0:
363,344,12298,2,0,L|277:339,1,71.2500027179719,12|0,0:3|0:0,0:0:0:0:
265,356,12610,6,0,B|303:257|236:257|272:155,1,190,4|2,0:0|0:0,0:0:0:0:
127,76,13079,2,0,P|119:147|129:178,1,95,8|0,0:0|0:0,0:0:0:0:
386,168,13392,2,0,P|394:122|385:76,1,95,2|2,0:0|0:0,0:0:0:0:
206,124,13704,1,8,0:0:0:0:
345,251,13860,1,0,0:0:0:0:
160,300,14017,5,2,0:0:0:0:
160,300,14173,1,2,0:0:0:0:
311,142,14329,1,8,0:0:0:0:
100,85,14485,1,0,0:0:0:0:
278,288,14642,2,0,L|281:231,1,47.5,2|0,0:0|0:0,0:0:0:0:
198,121,14798,2,0,L|201:178,1,47.5,2|0,0:0|0:0,0:0:0:0:
366,331,14954,1,8,0:0:0:0:
366,331,15110,6,0,B|401:243|401:243|379:150,1,190,4|2,0:0|0:0,0:0:0:0:
379,150,15501,1,2,0:0:0:0:
379,150,15579,1,8,0:0:0:0:
198,121,15735,1,0,0:0:0:0:
358,35,15892,2,0,L|460:43,1,95,2|2,0:0|0:0,0:0:0:0:
244,222,16204,2,0,L|142:214,1,95,8|0,0:0|0:0,0:0:0:0:
379,150,16517,5,2,0:0:0:0:
229,34,16673,1,2,0:0:0:0:
229,34,16751,1,2,0:0:0:0:
229,34,16829,1,8,0:0:0:0:
229,271,16985,1,0,0:0:0:0:
80,151,17142,1,2,0:0:0:0:
313,108,17298,2,0,L|247:111,1,47.5,2|2,0:0|0:0,0:0:0:0:
161,207,17454,2,0,L|130:265,1,47.5,8|0,0:0|0:0,0:0:0:0:
378,211,17610,6,0,B|275:217|275:217|224:309,1,209.000006378174,4|2,0:0|0:0,0:0:0:0:
450,262,18079,2,0,B|465:213|465:213|442:128,1,104.500003189087,8|0,0:0|0:0,0:0:0:0:
229,34,18392,2,0,B|214:83|214:83|237:168,1,104.500003189087,2|2,0:0|0:0,0:0:0:0:
346,80,18704,1,8,0:0:0:0:
111,76,18860,1,0,0:0:0:0:
230,236,19017,5,2,0:0:0:0:
230,236,19173,1,2,0:0:0:0:
229,34,19329,1,8,0:0:0:0:
414,128,19485,1,0,0:0:0:0:
152,132,19642,6,0,L|162:186,1,52.2500015945435,2|0,0:0|0:0,0:0:0:0:
350,183,19798,2,0,L|360:132,1,52.2500015945435,2|0,0:0|0:0,0:0:0:0:
256,290,19954,2,0,L|256:342,1,52.2500015945435,8|0,0:0|0:0,0:0:0:0:
255,148,20110,6,0,B|263:104|255:34|255:34|241:62|223:79,1,156.750004783631,4|0,0:0|0:0,0:0:0:0:
177,122,20423,1,2,0:0:0:0:
405,203,20579,1,8,0:0:0:0:
216,232,20735,1,2,0:0:0:0:
424,108,20892,1,2,0:0:0:0:
161,52,21048,1,2,0:0:0:0:
405,203,21204,1,8,0:0:0:0:
134,338,21360,1,2,0:0:0:0:
134,338,21438,1,2,0:0:0:0:
134,338,21517,6,0,B|111:281|111:281|134:229,1,113.999996520996,2|0,0:0|0:0,0:0:0:0:
289,234,21751,2,0,B|312:291|312:291|289:343,1,113.999996520996,2|0,0:0|0:0,0:0:0:0:
251,142,21985,6,0,B|216:114|216:114|175:126|175:126|145:99|145:99|114:133|39:131,1,227.999993041992,8|0,0:0|0:0,0:0:0:0:
46,231,22767,6,0,L|55:303,1,66.4999979705811,2|0,0:0|0:0,0:0:0:0:
60,312,23001,1,0,0:0:0:0:
67,326,23079,1,2,0:0:0:0:
197,303,23235,1,0,0:0:0:0:
214,302,23313,1,0,0:0:0:0:
231,302,23391,1,2,0:0:0:0:
247,301,23469,1,0,0:0:0:0:
264,300,23547,1,0,0:0:0:0:
280,299,23625,1,0,0:0:0:0:
297,298,23703,1,2,0:0:0:0:
429,226,23860,5,0,0:0:0:0:
428,242,23938,1,0,0:0:0:0:
427,259,24016,1,2,0:0:0:0:
323,128,24173,5,0,0:0:0:0:
325,151,24251,1,0,0:0:0:0:
327,174,24329,1,2,0:0:0:0:
204,297,24485,5,0,0:0:0:0:
207,268,24563,1,0,0:0:0:0:
209,238,24641,1,2,0:0:0:0:
64,170,24798,5,0,0:0:0:0:
61,133,24876,1,0,0:0:0:0:
58,97,24954,2,0,L|77:70,1,33.2499989852906,2|0,0:0|0:0,0:0:0:0:
203,44,25110,6,0,L|389:51,1,170.999994781494,6|2,0:0|0:0,0:0:0:0:
373,50,25501,1,2,0:0:0:0:
373,50,25579,1,8,0:0:0:0:
255,174,25735,1,2,0:0:0:0:
445,121,25892,1,2,0:0:0:0:
263,46,26048,1,0,0:0:0:0:
297,256,26204,1,8,0:0:0:0:
349,139,26360,1,0,0:0:0:0:
135,158,26517,6,0,L|141:68,1,85.4999973907472
324,198,26829,1,8,0:0:0:0:
209,327,26985,2,0,P|126:304|39:308,1,170.999994781494
216,208,27454,1,8,0:0:0:0:
311,360,27610,6,0,P|396:363|478:340,1,170.999994781494,6|2,0:0|0:0,0:0:0:0:
478,340,28001,1,2,0:0:0:0:
478,340,28079,1,8,0:0:0:0:
379,221,28235,1,2,0:0:0:0:
507,150,28392,2,0,B|513:192|513:192|499:242,1,85.4999973907472,2|0,0:0|0:0,0:0:0:0:
249,211,28704,2,0,B|243:169|243:169|255:128,1,85.4999973907472,8|0,0:0|0:0,0:0:0:0:
388,50,29017,6,0,L|379:221,1,170.999994781494,0|8,0:0|0:0,0:0:0:0:
123,232,29485,1,2,0:0:0:0:
370,305,29642,1,8,0:3:0:0:
255,128,29798,1,8,0:3:0:0:
255,341,29954,1,8,0:3:0:0:
466,233,30110,6,0,B|345:216|345:216|283:244,1,190,4|2,0:0|0:0,0:0:0:0:
283,244,30501,1,2,0:0:0:0:
283,244,30579,1,8,0:0:0:0:
451,330,30735,1,0,0:0:0:0:
255,128,30892,1,8,0:0:0:0:
206,302,31048,1,0,0:0:0:0:
135,39,31204,1,8,0:0:0:0:
26,305,31360,6,0,P|131:278|220:312,1,190,6|2,0:0|0:0,0:0:0:0:
206,302,31751,1,2,0:0:0:0:
206,302,31829,1,8,0:0:0:0:
63,177,31985,1,0,0:0:0:0:
278,74,32142,1,8,0:0:0:0:
108,278,32298,1,0,0:0:0:0:
135,39,32454,1,8,0:0:0:0:
282,266,32610,6,0,B|335:250|335:250|412:270|412:270|463:252,1,190,6|2,0:0|0:0,0:0:0:0:
464,252,33001,1,2,0:0:0:0:
464,252,33079,1,8,0:0:0:0:
392,76,33235,1,0,0:0:0:0:
333,339,33392,1,8,0:0:0:0:
136,205,33548,1,0,0:0:0:0:
375,204,33704,1,8,0:0:0:0:
59,298,33860,6,0,B|37:250|37:250|74:105,1,190,4|2,0:0|0:0,0:0:0:0:
70,117,34251,1,2,0:0:0:0:
70,117,34329,1,8,0:0:0:0:
313,105,34485,1,0,0:0:0:0:
142,18,34642,1,8,0:3:0:0:
172,240,34798,1,8,0:3:0:0:
210,124,34954,1,8,0:3:0:0:
39,141,35110,6,0,L|238:120,1,170.999994781494,4|2,0:0|0:0,0:0:0:0:
280,89,35501,1,2,0:0:0:0:
280,89,35579,2,0,L|373:95,1,85.4999973907472,8|2,0:0|0:0,0:0:0:0:
485,191,35892,1,2,0:0:0:0:
417,34,36048,1,0,0:0:0:0:
301,199,36204,1,8,0:0:0:0:
453,114,36360,1,0,0:0:0:0:
280,89,36517,5,0,0:0:0:0:
318,307,36673,1,0,0:0:0:0:
394,179,36829,1,8,0:0:0:0:
199,243,36985,2,0,B|113:214|114:287|7:243,1,170.999994781494
192,96,37454,1,8,0:0:0:0:
261,316,37610,6,0,L|457:297,1,170.999994781494,6|2,0:0|0:0,0:0:0:0:
490,249,38001,1,2,0:0:0:0:
490,249,38079,2,0,B|501:207|501:207|498:161,1,85.4999973907472,8|2,0:0|0:0,0:0:0:0:
306,115,38392,2,0,B|295:73|295:73|297:31,1,85.4999973907472,2|0,0:0|0:0,0:0:0:0:
395,224,38704,2,0,P|343:209|306:209,1,85.4999973907472,8|0,0:0|0:0,0:0:0:0:
73,168,39017,6,0,P|165:181|236:152,1,170.999994781494,0|8,0:0|0:0,0:0:0:0:
145,64,39485,1,2,0:0:0:0:
158,277,39642,1,8,0:3:0:0:
388,153,39798,1,8,0:3:0:0:
235,152,39954,1,8,0:3:0:0:
298,372,40110,6,0,B|327:286|327:286|312:187,1,190,4|2,0:0|0:0,0:0:0:0:
312,187,40501,1,2,0:0:0:0:
312,187,40579,1,8,0:0:0:0:
205,92,40735,1,0,0:0:0:0:
396,96,40892,1,8,0:0:0:0:
153,200,41048,1,0,0:0:0:0:
419,195,41204,1,8,0:0:0:0:
82,229,41360,6,0,B|67:164|67:164|93:30,1,190,4|2,0:0|0:0,0:0:0:0:
90,42,41751,1,2,0:0:0:0:
90,42,41829,1,8,0:0:0:0:
245,221,41985,1,0,0:0:0:0:
194,22,42142,1,8,0:0:0:0:
166,285,42298,1,0,0:0:0:0:
289,51,42454,1,8,0:0:0:0:
434,227,42610,6,0,L|241:220,1,190,4|2,0:0|0:0,0:0:0:0:
245,221,43001,1,2,0:0:0:0:
245,221,43079,1,8,0:0:0:0:
353,313,43235,1,0,0:0:0:0:
289,51,43392,1,8,0:0:0:0:
163,251,43548,1,0,0:0:0:0:
290,18,43704,1,8,0:0:0:0:
34,102,43860,6,0,P|92:107|182:92,1,142.5,4|0,0:0|0:0,0:0:0:0:
248,70,44173,1,8,0:0:0:0:
247,91,44251,1,0,0:0:0:0:
246,112,44329,1,8,0:0:0:0:
245,134,44407,1,0,0:0:0:0:
245,155,44485,1,8,0:0:0:0:
244,176,44563,1,0,0:0:0:0:
243,198,44641,1,8,0:0:0:0:
243,219,44719,1,0,0:0:0:0:
242,240,44798,1,8,0:0:0:0:
241,262,44876,1,0,0:0:0:0:
241,283,44954,1,8,0:0:0:0:
240,305,45032,1,0,0:0:0:0:
239,326,45110,1,8,0:0:0:0:
239,347,45188,1,0,0:0:0:0:
239,364,45267,6,0,L|350:358,1,76,2|0,0:0|0:0,0:0:0:0:
356,279,45579,2,0,L|467:285,1,76,2|0,0:0|0:0,0:0:0:0:
326,179,45892,1,2,0:0:0:0:
241,262,46048,1,0,0:0:0:0:
429,236,46204,1,2,0:0:0:0:
311,100,46360,1,0,0:0:0:0:
356,279,46517,5,2,0:0:0:0:
356,279,46673,1,0,0:0:0:0:
266,200,46829,1,2,0:0:0:0:
266,200,46985,1,0,0:0:0:0:
151,295,47142,2,0,L|66:286,2,76,2|0|2,0:0|0:0|0:0,0:0:0:0:
165,107,47610,1,0,0:0:0:0:
165,107,47688,1,0,0:0:0:0:
165,107,47767,6,0,B|159:158|159:158|171:213,1,80.750001540184,2|0,0:0|0:0,0:0:0:0:
352,75,48079,2,0,B|310:44|310:44|282:35,1,80.750001540184,2|0,0:0|0:0,0:0:0:0:
300,253,48392,1,2,0:0:0:0:
417,143,48548,1,0,0:0:0:0:
257,123,48704,1,2,0:0:0:0:
422,238,48860,1,0,0:0:0:0:
240,327,49017,6,0,P|195:331|137:319,1,80.750001540184,2|0,0:0|0:0,0:0:0:0:
334,158,49329,2,0,P|359:194|378:251,1,80.750001540184,2|0,0:0|0:0,0:0:0:0:
137,164,49642,2,0,P|155:123|195:78,2,80.750001540184,2|0|2,0:0|0:0|0:0,0:0:0:0:
240,327,50110,1,0,0:0:0:0:
240,327,50188,1,0,0:0:0:0:
240,327,50267,6,0,L|237:237,1,85.4999973907472,2|0,0:0|0:0,0:0:0:0:
334,158,50579,2,0,L|331:68,1,85.4999973907472,2|0,0:0|0:0,0:0:0:0:
419,220,50892,1,2,0:0:0:0:
245,127,51048,1,0,0:0:0:0:
438,93,51204,1,2,0:0:0:0:
411,287,51360,1,0,0:0:0:0:
232,168,51517,5,2,0:0:0:0:
444,191,51673,1,0,0:0:0:0:
251,282,51829,1,2,0:0:0:0:
471,190,51985,1,0,0:0:0:0:
294,26,52142,1,2,0:0:0:0:
299,307,52298,1,0,0:0:0:0:
378,156,52454,2,0,L|370:69,1,85.4999973907472,2|0,0:0|0:0,0:0:0:0:
120,296,52767,6,0,P|87:248|88:192,1,104.500003189087,2|0,0:0|0:0,0:0:0:0:
291,232,53001,2,0,P|265:284|216:311,1,104.500003189087,2|0,0:0|0:0,0:0:0:0:
154,113,53235,2,0,P|212:108|260:137,1,104.500003189087,2|0,0:0|0:0,0:0:0:0:
439,328,53548,1,2,0:0:0:0:
439,328,53626,1,2,0:0:0:0:
439,328,53704,6,0,B|427:289|427:289|449:253|449:253|401:202|401:202|453:138|412:87,1,265.999991882324,8|0,0:0|0:0,0:0:0:0:
91,146,54642,1,0,0:0:0:0:
311,133,54798,2,0,L|344:129,2,33.2499989852906
196,48,55110,6,0,B|176:108|176:108|207:259,1,190,4|2,0:0|0:0,0:0:0:0:
201,232,55501,1,2,0:0:0:0:
201,232,55579,1,8,0:0:0:0:
391,225,55735,1,0,0:0:0:0:
288,41,55892,1,2,0:0:0:0:
298,306,56048,1,2,0:0:0:0:
368,109,56204,1,8,0:0:0:0:
114,188,56360,6,0,L|309:185,1,190,4|2,0:0|0:0,0:0:0:0:
303,185,56751,1,2,0:0:0:0:
303,185,56829,1,8,0:0:0:0:
162,281,56985,1,0,0:0:0:0:
243,108,57142,1,2,0:0:0:0:
242,345,57298,1,2,0:0:0:0:
42,169,57454,2,0,L|53:97,1,47.5,8|0,0:0|0:0,0:0:0:0:
124,12,57610,6,0,B|153:100|153:100|138:209,1,190,4|2,0:0|0:0,0:0:0:0:
162,281,58001,1,2,0:0:0:0:
162,281,58079,1,8,0:0:0:0:
402,226,58235,1,0,0:0:0:0:
246,32,58392,1,8,0:3:0:0:
238,69,58470,1,8,0:3:0:0:
239,106,58548,1,8,0:3:0:0:
253,142,58626,1,8,0:3:0:0:
271,175,58704,1,8,0:3:0:0:
280,212,58782,1,8,0:3:0:0:
275,249,58860,1,8,0:3:0:0:
53,298,59017,6,0,P|105:277|161:280,1,113.999996520996,4|0,0:0|0:0,0:0:0:0:
315,374,59251,2,0,P|263:330|244:285,1,113.999996520996,4|0,0:0|0:0,0:0:0:0:
251,113,59485,2,0,P|239:179|209:218,1,113.999996520996,4|8,0:0|0:0,0:0:0:0:
138,197,59720,1,0,0:0:0:0:
136,168,59798,1,8,0:0:0:0:
135,140,59876,1,0,0:0:0:0:
134,111,59954,1,8,0:0:0:0:
133,83,60032,1,0,0:0:0:0:
133,59,60110,6,0,B|210:73|210:73|323:40,1,190,4|2,0:0|0:0,0:0:0:0:
317,41,60501,1,2,0:0:0:0:
317,41,60579,1,8,0:0:0:0:
245,163,60735,1,0,0:0:0:0:
437,57,60892,1,2,0:0:0:0:
219,45,61048,1,2,0:0:0:0:
344,278,61204,1,8,0:0:0:0:
329,88,61360,6,0,L|343:277,1,190,4|2,0:0|0:0,0:0:0:0:
343,277,61751,1,2,0:0:0:0:
343,277,61829,1,8,0:0:0:0:
166,206,61985,1,0,0:0:0:0:
431,243,62142,1,2,0:0:0:0:
213,338,62298,1,2,0:0:0:0:
304,119,62454,2,0,L|299:66,1,47.5,8|0,0:0|0:0,0:0:0:0:
201,161,62610,6,0,P|282:152|389:203,1,190,4|2,0:0|0:0,0:0:0:0:
379,194,63001,1,2,0:0:0:0:
379,194,63079,1,8,0:0:0:0:
298,46,63235,1,0,0:0:0:0:
457,119,63392,2,0,B|465:163|465:163|454:221,1,85.4999973907472,2|2,0:0|0:0,0:0:0:0:
201,161,63704,2,0,B|193:117|193:117|204:59,1,85.4999973907472,8|0,0:0|0:0,0:0:0:0:
330,248,64017,6,0,P|327:349|327:349,1,85.4999973907472,2|2,0:0|0:0,0:0:0:0:
328,333,64251,1,2,0:0:0:0:
328,333,64329,1,8,0:0:0:0:
332,119,64485,1,0,0:0:0:0:
218,301,64642,1,2,0:0:0:0:
431,301,64798,1,8,0:0:0:0:
465,297,64876,1,8,0:0:0:0:
499,293,64954,1,8,0:0:0:0:
233,193,65110,6,0,B|139:167|139:167|50:194,1,190,4|2,0:0|0:0,0:0:0:0:
50,193,65501,1,2,0:0:0:0:
50,193,65579,1,8,0:0:0:0:
214,98,65735,1,0,0:0:0:0:
140,273,65892,1,2,0:0:0:0:
134,35,66048,1,2,0:0:0:0:
315,187,66204,1,8,0:0:0:0:
69,115,66360,6,0,L|268:108,1,190,4|2,0:0|0:0,0:0:0:0:
258,109,66751,1,2,0:0:0:0:
258,109,66829,1,8,0:0:0:0:
224,344,66985,1,0,0:0:0:0:
379,163,67142,1,2,0:0:0:0:
102,229,67298,1,2,0:0:0:0:
357,331,67454,2,0,L|362:264,1,47.5,8|0,0:0|0:0,0:0:0:0:
295,183,67610,6,0,B|304:43|304:43|321:69|334:81,1,190,4|2,0:0|0:0,0:0:0:0:
358,87,68001,1,2,0:0:0:0:
381,88,68079,1,8,0:0:0:0:
217,201,68235,1,0,0:0:0:0:
403,286,68392,1,8,0:3:0:0:
420,304,68470,1,8,0:3:0:0:
437,323,68548,1,8,0:3:0:0:
399,328,68626,1,8,0:3:0:0:
361,333,68704,1,8,0:3:0:0:
324,338,68782,1,8,0:3:0:0:
286,343,68860,1,8,0:3:0:0:
248,348,68938,1,8,0:3:0:0:
202,352,69017,6,0,B|185:283|185:283|193:234,1,113.999996520996,4|0,0:0|0:0,0:0:0:0:
269,135,69251,2,0,B|286:204|286:204|278:253,1,113.999996520996,4|0,0:0|0:0,0:0:0:0:
125,173,69485,2,0,B|118:130|118:130|135:61,1,113.999996520996,4|8,0:0|0:0,0:0:0:0:
168,29,69720,1,0,0:0:0:0:
212,18,69798,1,8,0:0:0:0:
257,16,69876,1,0,0:0:0:0:
301,27,69954,1,8,0:0:0:0:
472,154,70110,6,0,P|398:185|273:147,1,209.000006378174,4|2,0:0|0:0,0:0:0:0:
278,151,70501,1,2,0:0:0:0:
278,151,70579,1,8,0:0:0:0:
443,278,70735,1,0,0:0:0:0:
208,337,70892,1,2,0:0:0:0:
250,79,71048,1,2,0:0:0:0:
332,326,71204,1,8,0:0:0:0:
49,252,71360,6,0,B|187:225|187:225|273:250,1,209.000006378174,4|2,0:0|0:0,0:0:0:0:
252,244,71751,1,2,0:0:0:0:
252,244,71829,1,8,0:0:0:0:
78,127,71985,1,0,0:0:0:0:
178,346,72142,1,2,0:0:0:0:
250,79,72298,1,2,0:0:0:0:
291,359,72454,2,0,L|293:306,1,52.2500015945435,8|0,0:0|0:0,0:0:0:0:
385,242,72610,6,2,B|392:91|392:91|341:143,1,209.000006378174,4|2,0:0|0:0,0:0:0:0:
328,145,73001,1,2,0:0:0:0:
301,142,73079,1,8,0:0:0:0:
74,64,73235,1,2,0:0:0:0:
114,52,73313,1,2,0:0:0:0:
156,54,73392,1,8,0:0:0:0:
253,273,73548,5,2,0:0:0:0:
249,314,73626,1,2,0:0:0:0:
246,356,73704,1,8,0:0:0:0:
426,167,73860,1,2,0:0:0:0:
422,126,73938,1,2,0:0:0:0:
419,84,74016,1,2,0:3:0:0:
134,214,74173,6,0,B|131:235|131:235|133:244|133:244|131:253|131:253|134:264|134:264|129:294,5,76
276,124,75110,6,0,B|243:131|214:163|214:163|172:124|102:128,1,190,4|2,0:0|0:0,0:0:0:0:
304,200,75579,2,0,L|427:191,1,95,8|0,0:0|0:0,0:0:0:0:
191,41,75892,2,0,L|68:50,1,95,2|2,0:0|0:0,0:0:0:0:
276,124,76204,1,8,0:0:0:0:
134,214,76360,1,0,0:0:0:0:
343,264,76517,5,2,0:0:0:0:
201,354,76673,1,2,0:0:0:0:
190,136,76829,1,8,0:0:0:0:
15,266,76985,1,0,0:0:0:0:
240,268,77142,2,0,L|243:210,1,47.5,2|0,0:0|0:0,0:0:0:0:
109,93,77298,2,0,L|112:151,1,47.5,2|0,0:0|0:0,0:0:0:0:
373,135,77454,1,8,0:0:0:0:
373,135,77610,6,0,B|282:109|282:109|190:136,1,190,4|2,0:0|0:0,0:0:0:0:
190,136,78001,1,2,0:0:0:0:
190,136,78079,1,8,0:0:0:0:
361,34,78235,1,0,0:0:0:0:
109,93,78392,2,0,P|103:143|113:185,1,95,2|2,0:0|0:0,0:0:0:0:
330,323,78704,2,0,P|336:273|326:231,1,95,8|0,0:0|0:0,0:0:0:0:
65,291,79017,5,6,0:0:0:0:
221,159,79173,1,2,0:0:0:0:
257,148,79251,1,2,0:0:0:0:
294,140,79329,2,0,P|324:141|358:147,1,47.5,8|0,0:0|0:0,0:0:0:0:
460,249,79485,2,0,P|466:277|485:300,1,47.5,2|0,0:0|0:0,0:0:0:0:
240,266,79642,6,0,B|284:247|284:247|333:260,1,95,2|2,0:0|0:0,0:0:0:0:
352,263,79876,1,2,0:0:0:0:
374,269,79954,1,8,0:0:0:0:
176,178,80110,6,0,B|141:130|141:130|176:4,1,190,4|2,0:0|0:0,0:0:0:0:
410,112,80579,2,0,L|306:109,1,95,8|0,0:0|0:0,0:0:0:0:
102,272,80892,2,0,L|206:275,1,95,2|2,0:0|0:0,0:0:0:0:
377,215,81204,1,8,0:0:0:0:
227,111,81360,1,0,0:0:0:0:
265,348,81517,5,2,0:0:0:0:
265,348,81673,1,2,0:0:0:0:
319,142,81829,1,8,0:0:0:0:
472,293,81986,1,0,0:0:0:0:
259,245,82142,2,0,P|229:240|203:239,1,47.5,2|0,0:0|0:0,0:0:0:0:
417,124,82298,2,0,P|440:122|464:118,1,47.5,2|0,0:0|0:0,0:0:0:0:
242,37,82454,1,8,0:0:0:0:
351,302,82610,6,0,B|364:249|370:202|370:202|325:226,1,142.5,4|0,0:0|0:0,0:0:0:0:
259,245,82923,1,2,0:0:0:0:
457,129,83079,1,8,0:0:0:0:
170,79,83235,1,2,0:0:0:0:
440,211,83392,1,2,0:0:0:0:
154,326,83548,1,2,0:0:0:0:
468,284,83704,1,8,0:0:0:0:
300,54,83860,1,2,0:0:0:0:
300,54,83938,1,2,0:0:0:0:
300,54,84017,6,0,B|279:108|279:108|303:164,1,113.999996520996,2|0,0:0|0:0,0:0:0:0:
353,299,84251,2,0,B|317:253|317:253|256:246,1,113.999996520996,2|0,0:0|0:0,0:0:0:0:
114,222,84485,2,0,B|171:214|171:214|208:165,1,113.999996520996,8|0,0:0|0:0,0:0:0:0:
441,113,84798,5,8,0:3:0:0:
401,110,84876,1,8,0:3:0:0:
361,108,84954,1,8,0:3:0:0:
198,96,85110,1,8,0:3:0:0:
198,96,85267,6,0,B|135:73|137:139|58:111,1,132.999995941162,2|0,0:0|0:0,0:0:0:0:
91,38,85735,1,0,0:0:0:0:
178,166,85892,1,0,0:0:0:0:
248,29,86048,1,0,0:0:0:0:
71,115,86204,1,2,0:0:0:0:
270,138,86360,6,0,L|346:132,2,66.4999979705811
178,166,86829,2,0,B|155:232|201:233|177:305,1,132.999995941162,2|8,0:0|0:0,0:0:0:0:
450,189,87454,1,8,0:0:0:0:
450,189,87610,1,8,0:0:0:0:
450,189,87767,6,0,P|462:149|457:111,1,66.4999979705811,2|0,0:0|0:0,0:0:0:0:
359,208,88079,1,0,0:0:0:0:
329,296,88235,2,0,P|357:326|393:341,1,66.4999979705811
359,208,88548,1,0,0:0:0:0:
297,138,88704,6,0,L|164:128,1,132.999995941162,2|0,0:0|0:0,0:0:0:0:
31,277,89329,2,0,L|164:287,1,132.999995941162,2|8,0:0|0:0,0:0:0:0:
389,303,89954,2,0,L|457:295,1,66.4999979705811
314,233,90267,6,0,B|294:295|294:295|310:376,1,132.999995941162,2|0,0:0|0:0,0:0:0:0:
401,205,90735,1,0,0:0:0:0:
401,205,90892,2,0,P|410:172|414:125,1,66.4999979705811,8|0,0:0|0:0,0:0:0:0:
255,42,91204,2,0,P|246:75|242:122,1,66.4999979705811,2|0,0:0|0:0,0:0:0:0:
298,278,91517,2,0,P|307:245|311:198,1,66.4999979705811
90,190,91829,6,0,P|155:202|221:197,1,132.999995941162,2|8,0:0|0:0,0:0:0:0:
363,288,92454,2,0,P|324:278|294:278,1,66.4999979705811
452,343,92767,6,0,L|442:204,1,132.999995941162,2|0,0:0|0:0,0:0:0:0:
359,85,93235,1,0,0:0:0:0:
359,85,93392,2,0,L|354:157,1,66.4999979705811
201,264,93704,6,0,P|263:243|341:253,1,132.999995941162,2|0,0:0|0:0,0:0:0:0:
139,154,94329,2,0,P|76:132|10:137,1,132.999995941162,2|8,0:0|0:0,0:0:0:0:
240,27,94954,1,8,0:3:0:0:
247,106,95110,1,8,0:3:0:0:
256,191,95267,6,0,L|333:188,1,71.2500027179719,2|0,0:0|0:0,0:0:0:0:
149,292,95579,2,0,L|309:294,1,142.500005435944,0|2,0:0|0:0,0:0:0:0:
450,185,96204,2,0,P|462:149|461:116,1,71.2500027179719,2|0,0:0|0:0,0:0:0:0:
244,122,96517,2,0,P|243:157|255:190,1,71.2500027179719
362,299,96829,6,0,L|355:156,1,142.500005435944,2|8,0:0|0:0,0:0:0:0:
127,74,97454,2,0,L|131:145,1,71.2500027179719
255,190,97767,6,0,P|187:177|127:217,1,142.500005435944,2|0,0:0|0:0,0:0:0:0:
208,346,98235,1,0,0:0:0:0:
203,255,98392,1,0,0:0:0:0:
125,308,98548,1,0,0:0:0:0:
287,294,98704,6,0,B|359:274|359:335|438:304,1,142.500005435944,2|0,0:0|0:0,0:0:0:0:
286,110,99329,2,0,L|293:38,1,71.2500027179719,2|0,0:0|0:0,0:0:0:0:
425,173,99642,6,0,B|380:193|380:193|277:184,1,142.500005435944,8|0,0:0|0:0,0:0:0:0:
163,156,100110,1,0,0:0:0:0:
197,334,100267,6,0,B|205:298|205:298|198:263,1,71.2500027179719,2|0,0:0|0:0,0:0:0:0:
71,129,100579,2,0,B|63:165|63:165|70:200,1,71.2500027179719
282,254,100892,2,0,B|290:218|290:218|283:184,1,71.2500027179719
156,49,101204,2,0,B|148:85|148:85|154:118,1,71.2500027179719,2|0,0:0|0:0,0:0:0:0:
370,254,101517,6,0,P|416:262|447:260,1,71.2500027179719
308,81,101829,2,0,P|272:80|237:87,1,71.2500027179719,2|0,0:0|0:0,0:0:0:0:
443,116,102142,2,0,L|441:39,1,71.2500027179719,8|0,0:0|0:0,0:0:0:0:
260,192,102454,6,0,B|243:245|285:245|263:305,1,106.875004076958,2|0,0:0|0:0,0:0:0:0:
255,367,102767,1,8,0:0:0:0:
184,269,102923,1,8,0:0:0:0:
346,304,103079,1,8,0:0:0:0:
168,352,103235,1,8,0:0:0:0:
353,280,103392,5,8,0:0:0:0:
151,210,103548,1,8,0:0:0:0:
362,140,103704,1,8,0:0:0:0:
138,70,103860,1,8,0:0:0:0:
368,15,104017,5,8,0:0:0:0:
250,201,104173,1,8,0:0:0:0:
273,51,104329,1,8,0:0:0:0:
365,251,104485,1,8,0:0:0:0:
162,135,104642,6,0,P|131:129|100:128,1,47.5,8|0,0:0|0:0,0:0:0:0:
371,78,104798,2,0,P|394:75|417:70,1,47.5,8|0,0:0|0:0,0:0:0:0:
437,56,105267,6,0,B|442:87|426:111|426:111|441:163|441:163|426:185|429:235,1,170.999994781494,4|0,0:0|0:0,0:0:0:0:
186,351,105735,2,0,B|174:291|189:226|189:226|220:262,1,170.999994781494,4|0,0:0|0:0,0:0:0:0:
443,301,106204,2,0,B|383:325|383:325|258:311,1,170.999994781494,4|0,0:0|0:0,0:0:0:0:
91,181,106673,1,2,0:0:0:0:
88,210,106751,1,2,0:0:0:0:
86,240,106829,2,0,L|92:326,1,85.4999973907472,8|0,0:0|0:0,0:0:0:0:
205,159,107142,6,0,L|200:92,1,66.4999979705811,8|0,0:3|0:0,0:0:0:0:
297,98,107454,2,0,L|292:31,1,66.4999979705811,8|0,0:3|0:0,0:0:0:0:
366,180,107767,6,0,B|488:188|488:188|431:216,1,170.999994781494,4|0,0:0|0:0,0:0:0:0:
262,347,108235,2,0,B|218:274|218:274|262:200,1,170.999994781494,4|0,0:0|0:0,0:0:0:0:
119,39,108704,2,0,B|97:85|97:85|111:155|111:155|79:208,1,170.999994781494,4|0,0:0|0:0,0:0:0:0:
309,275,109173,1,2,0:0:0:0:
183,97,109329,1,8,0:0:0:0:
171,345,109485,1,2,0:0:0:0:
304,165,109642,6,0,L|296:65,2,88.6666639607748,8|8|8,0:3|0:3|0:3,0:0:0:0:
404,263,110267,6,0,B|378:249|338:251|338:251|304:283|259:268|259:268|281:242,1,170.999994781494,4|0,0:0|0:0,0:0:0:0:
65,170,110735,2,0,B|102:211|176:216|176:216|211:182,1,170.999994781494,4|0,0:0|0:0,0:0:0:0:
300,15,111204,2,0,B|304:61|265:103|265:103|297:132|304:165,1,170.999994781494,4|0,0:0|0:0,0:0:0:0:
424,326,111673,1,2,0:0:0:0:
427,297,111751,1,2,0:0:0:0:
429,267,111829,2,0,L|339:272,1,85.4999973907472,8|0,0:0|0:0,0:0:0:0:
210,182,112142,5,8,0:0:0:0:
278,346,112298,1,2,0:0:0:0:
265,103,112454,1,2,0:0:0:0:
266,90,112767,6,0,B|262:164|272:219|272:219|286:188|305:178,1,170.999994781494,4|0,0:0|0:0,0:0:0:0:
505,239,113235,2,0,B|462:233|462:233|426:255|426:255|388:233|388:233|347:237,1,170.999994781494,4|0,0:0|0:0,0:0:0:0:
105,327,113704,2,0,B|167:346|165:292|227:303,1,128.249996086121,4|0,0:0|0:0,0:0:0:0:
298,324,114017,5,8,0:0:0:0:
194,138,114173,1,0,0:0:0:0:
226,302,114329,1,8,0:0:0:0:
285,62,114485,1,0,0:0:0:0:
314,63,114563,1,0,0:0:0:0:
344,65,114641,1,8,0:0:0:0:
256,208,114798,1,0,0:0:0:0:
97,108,114954,6,0,L|46:104,1,42.7499986953736,2|0,0:0|0:0,0:0:0:0:
151,241,115110,2,0,L|202:237,1,42.7499986953736,2|0,0:0|0:0,0:0:0:0:
69,347,115267,6,0,L|77:249,1,76,2|0,0:0|0:0,0:0:0:0:
179,91,115579,2,0,L|172:166,1,76,2|0,0:0|0:0,0:0:0:0:
284,301,115892,1,2,0:0:0:0:
306,177,116048,1,0,0:0:0:0:
206,227,116204,1,2,0:0:0:0:
386,245,116360,1,0,0:0:0:0:
314,94,116517,5,2,0:0:0:0:
299,222,116673,1,0,0:0:0:0:
442,185,116829,1,2,0:0:0:0:
427,313,116985,1,0,0:0:0:0:
280,216,117142,2,0,L|285:116,2,76,2|0|0,0:0|0:0|0:0,0:0:0:0:
148,324,117610,1,0,0:0:0:0:
148,324,117688,1,0,0:0:0:0:
148,324,117767,6,0,L|68:320,1,80.750001540184,2|0,0:0|0:0,0:0:0:0:
192,245,118079,2,0,L|112:241,1,80.750001540184,2|0,0:0|0:0,0:0:0:0:
306,341,118392,1,2,0:0:0:0:
238,166,118548,1,0,0:0:0:0:
225,358,118704,1,2,0:0:0:0:
323,136,118860,1,0,0:0:0:0:
442,264,119017,6,0,L|362:260,1,80.750001540184,2|0,0:0|0:0,0:0:0:0:
163,92,119329,2,0,L|243:88,1,80.750001540184,2|0,0:0|0:0,0:0:0:0:
472,337,119642,2,0,L|392:333,2,80.750001540184,2|0|2,0:0|0:0|0:0,0:0:0:0:
282,262,120110,1,0,0:0:0:0:
282,262,120188,1,0,0:0:0:0:
282,262,120267,6,0,L|286:200,3,42.7499986953736,8|0|8|0,0:0|0:0|0:0|0:0,0:0:0:0:
194,301,120579,2,0,L|190:239,3,42.7499986953736,8|0|8|0,0:0|0:0|0:0|0:0,0:0:0:0:
109,325,120892,1,8,0:0:0:0:
75,330,120970,1,0,0:0:0:0:
41,321,121048,1,8,0:0:0:0:
20,293,121126,1,0,0:0:0:0:
18,258,121204,1,8,0:0:0:0:
32,222,121282,1,0,0:0:0:0:
60,196,121360,1,8,0:0:0:0:
95,182,121438,1,0,0:0:0:0:
133,176,121517,5,8,0:0:0:0:
175,179,121595,1,0,0:0:0:0:
215,192,121673,1,8,0:0:0:0:
250,215,121751,1,0,0:0:0:0:
283,241,121829,1,8,0:0:0:0:
328,252,121907,1,0,0:0:0:0:
374,246,121985,1,8,0:0:0:0:
418,230,122063,1,0,0:0:0:0:
457,203,122142,6,0,L|462:142,1,42.7499986953736,8|0,0:0|0:0,0:0:0:0:
329,45,122298,2,0,L|324:106,1,42.7499986953736,8|0,0:0|0:0,0:0:0:0:
211,234,122454,2,0,L|216:173,1,42.7499986953736,8|0,0:0|0:0,0:0:0:0:
83,76,122610,2,0,L|78:137,1,42.7499986953736,8|0,0:0|0:0,0:0:0:0:
300,172,122767,1,4,0:0:0:0:
256,192,122845,12,0,124954,0:0:0:0:
135,280,125267,5,0,0:0:0:0:
135,280,125892,1,0,0:0:0:0:
135,280,126517,5,0,0:0:0:0:
214,289,126829,1,0,0:0:0:0:
293,298,127142,5,0,0:0:0:0:
57,269,127298,1,0,0:0:0:0:
414,208,127454,1,0,0:0:0:0:
178,237,127610,6,0,B|156:188|156:188|193:51,1,190,4|2,0:0|0:0,0:0:0:0:
191,56,128001,1,2,0:0:0:0:
191,56,128079,1,8,0:0:0:0:
291,223,128235,1,0,0:0:0:0:
70,187,128392,1,2,0:0:0:0:
320,114,128548,1,2,0:0:0:0:
70,187,128704,1,8,0:0:0:0:
229,332,128860,6,0,L|430:310,1,190,4|2,0:0|0:0,0:0:0:0:
417,311,129251,1,2,0:0:0:0:
417,311,129329,1,8,0:0:0:0:
260,210,129485,1,0,0:0:0:0:
423,111,129642,1,2,0:0:0:0:
263,311,129798,1,2,0:0:0:0:
420,209,129954,2,0,L|378:160,1,47.5,8|0,0:0|0:0,0:0:0:0:
257,110,130110,6,0,B|117:106|117:106|144:119|171:142,1,190,4|2,0:0|0:0,0:0:0:0:
169,154,130501,1,2,0:0:0:0:
178,175,130579,1,8,0:0:0:0:
68,297,130735,1,0,0:0:0:0:
229,337,130892,1,8,0:3:0:0:
265,328,130970,1,8,0:3:0:0:
303,330,131048,1,8,0:3:0:0:
338,345,131126,1,8,0:3:0:0:
371,363,131204,1,8,0:3:0:0:
409,368,131282,1,8,0:3:0:0:
446,359,131360,1,8,0:3:0:0:
414,131,131517,6,0,B|355:131|355:131|310:169,1,113.999996520996,4|0,0:0|0:0,0:0:0:0:
229,359,131751,2,0,B|259:308|259:308|248:250,1,113.999996520996,4|0,0:0|3:0,3:0:0:0:
124,85,131985,2,0,B|153:136|153:136|209:156,1,113.999996520996,4|8,0:0|0:0,0:0:0:0:
267,102,132220,1,0,0:0:0:0:
307,82,132298,1,8,0:0:0:0:
352,75,132376,1,0,0:0:0:0:
397,82,132454,2,0,L|399:155,1,56.9999982604981,8|0,0:0|0:0,0:0:0:0:
461,267,132610,6,0,P|380:225|277:236,1,190,4|2,0:0|0:0,0:0:0:0:
284,233,133001,1,2,0:0:0:0:
284,233,133079,1,8,0:0:0:0:
398,138,133235,1,0,0:0:0:0:
185,247,133392,1,2,0:0:0:0:
352,339,133548,1,2,0:0:0:0:
255,123,133704,1,8,0:0:0:0:
94,310,133860,6,0,B|58:222|58:222|96:128,1,190,4|2,0:0|0:0,0:0:0:0:
93,133,134251,1,2,0:0:0:0:
93,133,134329,1,8,0:0:0:0:
327,224,134485,1,0,0:0:0:0:
147,222,134642,2,0,L|247:222,1,95,2|2,0:0|0:0,0:0:0:0:
405,121,134954,1,8,0:0:0:0:
248,49,135110,5,4,0:0:0:0:
303,136,135267,1,0,0:0:0:0:
354,47,135423,1,2,0:0:0:0:
354,47,135501,1,2,0:0:0:0:
354,47,135579,2,0,L|444:49,1,85.4999973907472,8|0,0:0|0:0,0:0:0:0:
203,138,135892,2,0,L|113:136,1,85.4999973907472,2|2,0:0|0:0,0:0:0:0:
366,256,136204,1,8,0:0:0:0:
303,136,136360,1,0,0:0:0:0:
230,256,136517,5,2,0:0:0:0:
421,157,136673,1,2,0:0:0:0:
421,157,136751,1,2,0:0:0:0:
421,157,136829,1,8,0:0:0:0:
237,49,136985,1,0,0:0:0:0:
335,211,137142,1,2,0:0:0:0:
141,218,137298,2,0,L|93:209,2,42.7499986953736,8|8|8,0:0|0:0|0:0,0:0:0:0:
313,113,137610,6,0,B|363:100|363:100|499:120,1,190,4|2,0:0|0:0,0:0:0:0:
499,120,138001,1,2,0:0:0:0:
499,120,138079,1,8,0:0:0:0:
237,49,138235,1,0,0:0:0:0:
336,256,138392,1,2,0:0:0:0:
313,113,138548,1,2,0:0:0:0:
202,313,138704,1,8,0:0:0:0:
452,256,138860,6,0,P|327:208|262:215,1,190,4|2,0:0|0:0,0:0:0:0:
211,257,139251,1,2,0:0:0:0:
211,257,139329,2,0,L|117:254,1,95,8|0,0:0|0:0,0:0:0:0:
275,103,139642,1,2,0:0:0:0:
275,340,139798,1,2,0:0:0:0:
53,212,139954,2,0,L|62:159,1,47.5,8|0,0:0|0:0,0:0:0:0:
137,68,140110,6,0,B|159:54|178:29|178:29|155:169,1,190,4|2,0:0|0:0,0:0:0:0:
156,160,140501,1,2,0:0:0:0:
156,160,140579,1,8,0:0:0:0:
279,305,140735,1,0,0:0:0:0:
429,165,140892,1,8,3:3:0:0:
446,148,140970,1,8,3:3:0:0:
463,132,141048,1,8,3:3:0:0:
417,140,141126,1,8,3:3:0:0:
370,150,141204,1,8,3:3:0:0:
324,159,141282,1,8,3:3:0:0:
276,169,141360,1,8,3:3:0:0:
374,363,141517,6,0,B|394:311|394:311|378:252,1,113.999996520996,4|0,0:0|0:0,0:0:0:0:
188,249,141751,2,0,B|168:301|168:301|184:360,1,113.999996520996,4|0,0:0|0:0,0:0:0:0:
279,305,141985,2,0,L|285:187,1,113.999996520996,4|8,0:0|0:0,0:0:0:0:
273,146,142220,1,0,0:0:0:0:
233,124,142298,1,8,0:0:0:0:
187,121,142376,1,0,0:0:0:0:
143,135,142454,1,8,0:0:0:0:
335,67,142610,6,0,B|392:62|478:70|478:70|428:112,1,190,4|2,0:0|0:0,0:0:0:0:
401,165,143001,1,2,0:0:0:0:
401,165,143079,2,0,L|414:275,1,95,8|0,0:0|0:0,0:0:0:0:
211,320,143392,1,2,0:0:0:0:
412,259,143548,1,2,0:0:0:0:
189,178,143704,1,8,0:0:0:0:
321,349,143860,6,0,L|295:158,1,190,4|2,0:0|0:0,0:0:0:0:
254,91,144251,1,2,0:0:0:0:
254,91,144329,2,0,L|259:39,1,47.5
165,74,144485,2,0,L|170:22,1,47.5,2|0,0:0|0:0,0:0:0:0:
79,56,144642,1,2,0:0:0:0:
41,63,144720,1,0,0:0:0:0:
12,87,144798,1,8,0:0:0:0:
8,124,144876,1,0,0:0:0:0:
23,158,144954,1,8,0:0:0:0:
55,177,145032,1,0,0:0:0:0:
92,175,145110,1,8,0:0:0:0:
129,168,145188,1,0,0:0:0:0:
173,158,145267,6,0,P|210:148|248:147,1,75.9999976806641,4|0,0:0|0:0,0:0:0:0:
370,255,145475,2,0,P|343:227|323:195,1,75.9999976806641,2|0,0:0|0:0,0:0:0:0:
351,43,145683,2,0,P|340:79|322:112,1,75.9999976806641,10|0,0:0|0:0,0:0:0:0:
24,195,145892,6,0,P|60:204|98:205,1,75.9999976806641,4|0,0:0|0:0,0:0:0:0:
220,98,146100,2,0,P|193:125|173:157,1,75.9999976806641,2|0,0:0|0:0,0:0:0:0:
201,310,146308,2,0,P|190:273|172:240,1,75.9999976806641,10|0,0:0|0:0,0:0:0:0:
266,98,146517,6,0,L|258:37,2,56.9999982604981,4|0|0,0:0|0:0|0:0,0:0:0:0:
350,133,146751,2,0,L|357:189,2,56.9999982604981,4|0|0,0:0|0:0|0:0,0:0:0:0:
437,105,146985,2,0,L|444:48,1,56.9999982604981,4|0,0:0|0:0,0:0:0:0:
454,218,147142,1,8,0:0:0:0:
471,240,147220,1,0,0:0:0:0:
488,262,147298,1,8,0:0:0:0:
431,262,147376,1,0,0:0:0:0:
374,261,147454,1,8,0:0:0:0:
317,259,147532,1,0,0:0:0:0:
260,258,147610,6,0,B|105:253|105:253|140:274|157:294,1,209.000006378174,6|2,0:0|0:0,0:0:0:0:
148,284,148001,1,2,0:0:0:0:
148,284,148079,1,8,0:0:0:0:
405,146,148235,1,0,0:0:0:0:
105,85,148392,1,2,0:0:0:0:
431,262,148548,1,2,0:0:0:0:
131,201,148705,1,8,0:0:0:0:
308,26,148860,6,0,B|329:81|329:81|300:239,1,209.000006378174,4|2,0:0|0:0,0:0:0:0:
301,228,149251,1,2,0:0:0:0:
301,228,149329,1,8,0:0:0:0:
437,141,149485,1,0,0:0:0:0:
117,169,149642,1,2,0:0:0:0:
395,259,149798,1,2,0:0:0:0:
75,287,149955,1,8,0:0:0:0:
360,340,150110,6,0,B|387:291|365:203|365:203|301:228,1,209.000006378174,4|2,0:0|0:0,0:0:0:0:
301,228,150501,1,2,0:0:0:0:
301,228,150579,1,8,0:0:0:0:
453,300,150735,1,0,0:0:0:0:
158,158,150892,1,2,0:0:0:0:
379,178,151048,1,2,0:0:0:0:
70,294,151205,1,8,0:0:0:0:
271,70,151360,6,0,B|291:53|320:20|320:20|300:157,1,209.000006378174,4|2,0:0|0:0,0:0:0:0:
300,157,151751,1,2,0:0:0:0:
300,157,151829,1,8,0:0:0:0:
146,92,151985,1,0,0:0:0:0:
427,209,152142,1,2,0:0:0:0:
122,277,152298,1,2,0:0:0:0:
427,209,152454,1,8,0:0:0:0:
72,158,152610,6,0,B|123:198|123:198|275:175,1,209.000006378174,4|2,0:0|0:0,0:0:0:0:
265,176,153001,1,2,0:0:0:0:
265,176,153079,1,8,0:0:0:0:
122,277,153235,1,0,0:0:0:0:
377,92,153392,1,2,0:0:0:0:
390,277,153548,1,2,0:0:0:0:
135,92,153705,1,8,0:0:0:0:
439,214,153860,6,0,B|390:177|390:177|302:178|236:197,1,209.000006378174,4|2,0:0|0:0,0:0:0:0:
243,194,154251,1,2,0:0:0:0:
243,194,154329,1,8,0:0:0:0:
413,92,154485,1,0,0:0:0:0:
87,262,154642,1,2,0:0:0:0:
439,214,154798,1,2,0:0:0:0:
116,88,154955,1,8,0:0:0:0:
256,192,155110,1,0,0:0:0:0:
256,192,155188,12,0,156204,0:0:0:0:
214,203,156517,6,0,B|209:223|209:223|210:232|210:232|207:241|207:241|209:252|209:252|202:282,5,76
69,148,157610,6,0,B|161:173|159:98|251:122,1,190,6|2,0:0|0:0,0:0:0:0:
410,173,158079,2,0,B|427:128|427:128|409:84,1,95,8|0,0:0|0:0,0:0:0:0:
214,203,158392,2,0,B|197:248|197:248|215:292,1,95,2|2,0:0|0:0,0:0:0:0:
417,267,158704,1,8,0:0:0:0:
250,122,158860,1,0,0:0:0:0:
444,268,159017,5,2,0:0:0:0:
226,365,159173,1,2,0:0:0:0:
357,144,159329,1,8,0:0:0:0:
352,354,159485,1,0,0:0:0:0:
174,243,159642,2,0,P|139:241|116:237,1,47.5,2|0,0:0|0:0,0:0:0:0:
250,122,159798,2,0,P|285:124|308:128,1,47.5,2|0,0:0|0:0,0:0:0:0:
118,20,159954,1,8,0:0:0:0:
118,20,160110,6,0,B|84:111|84:111|125:219,1,190,4|2,0:0|0:0,0:0:0:0:
116,197,160501,1,2,0:0:0:0:
116,197,160579,1,8,0:0:0:0:
355,195,160735,1,0,0:0:0:0:
235,152,160892,2,0,P|230:196|238:248,1,95,2|2,0:0|0:0,0:0:0:0:
462,135,161204,2,0,P|466:90|459:39,1,95,8|0,0:0|0:0,0:0:0:0:
243,51,161517,5,2,0:0:0:0:
355,195,161673,1,2,0:0:0:0:
355,195,161751,1,2,0:0:0:0:
355,195,161829,1,8,0:0:0:0:
116,197,161985,1,0,0:0:0:0:
317,110,162142,1,2,0:0:0:0:
221,273,162298,1,2,0:0:0:0:
221,296,162376,1,2,0:0:0:0:
223,319,162454,2,0,P|225:342|230:365,1,47.5,8|0,0:0|0:0,0:0:0:0:
461,211,162610,6,0,B|411:194|411:194|267:219,1,190,4|2,0:0|0:0,0:0:0:0:
116,197,163079,2,0,B|99:152|99:152|117:108,1,95,8|0,0:0|0:0,0:0:0:0:
340,278,163392,2,0,B|357:323|357:323|339:367,1,95,2|2,0:0|0:0,0:0:0:0:
129,289,163704,1,8,0:0:0:0:
313,194,163860,1,0,0:0:0:0:
116,108,164017,5,2,0:0:0:0:
312,22,164173,1,2,0:0:0:0:
221,245,164329,1,8,0:0:0:0:
214,68,164485,1,0,0:0:0:0:
375,143,164642,2,0,P|401:148|434:148,1,47.5,2|0,0:0|0:0,0:0:0:0:
277,274,164798,2,0,P|251:269|218:269,1,47.5,2|0,0:0|0:0,0:0:0:0:
401,349,164954,1,8,0:0:0:0:
152,230,165110,6,0,B|139:289|144:340|144:340|169:328|192:325,1,142.5,4|0,0:0|0:0,0:0:0:0:
249,341,165423,1,2,0:0:0:0:
59,258,165579,1,8,0:0:0:0:
341,160,165735,1,2,0:0:0:0:
77,184,165892,1,2,0:0:0:0:
341,281,166048,1,2,0:0:0:0:
85,329,166204,1,8,0:0:0:0:
270,126,166360,1,2,0:0:0:0:
270,126,166438,1,2,0:0:0:0:
270,126,166517,6,0,B|283:56|283:56|270:15,1,113.999996520996,2|0,0:3|0:0,0:0:0:0:
149,161,166751,2,0,B|136:231|136:231|149:272,1,113.999996520996,2|0,0:3|0:0,0:0:0:0:
397,222,166985,6,0,B|362:213|362:213|334:228|334:228|297:209|297:209|266:231|212:215,1,190,8|0,0:0|0:0,0:0:0:0:
182,77,167767,1,6,0:0:0:0:
256,192,167845,12,0,170892,0:0:0:0:
