osu file format v14

[General]
AudioFilename: audio.mp3
AudioLeadIn: 0
PreviewTime: 167169
Countdown: 0
SampleSet: Soft
StackLeniency: 0.2
Mode: 0
LetterboxInBreaks: 0
WidescreenStoryboard: 1

[Editor]
Bookmarks: 7286,10110,12934,18581,21404,24228,29875,35522,52463,63757,75051,86345,97639,108934,120228,131522,142816,165404,165639,165875,166110,166345,166581,166816,167051,167286,167522,171051,182345,193639,204934,216228,221875,227522,233169,238816,244463,249757
DistanceSpacing: 0.3
BeatDivisor: 4
GridSize: 32
TimelineZoom: 2.899999

[Metadata]
Title:Polaris
TitleUnicode:Polaris
Artist:Hanatan
ArtistUnicode:花たん
Creator:kisata
Version:Polarized Light
Source:少女前线
Tags:hanatan g.k lucius. gfl girls frontline polarized light event video mobile game mobage apaffy meiikyuu japanese pop
BeatmapID:3146095
BeatmapSetID:1533258

[Difficulty]
HPDrainRate:5
CircleSize:4.5
OverallDifficulty:8
ApproachRate:9.2
SliderMultiplier:3.59999990463257
SliderTickRate:2

[Events]
//Background and Video events
0,0,"polaris.jpg",0,0
Video,0,"polaris-vid.mp4"
//Break Periods
//Storyboard Layer 0 (Background)
//Storyboard Layer 1 (Fail)
//Storyboard Layer 2 (Pass)
//Storyboard Layer 3 (Foreground)
//Storyboard Layer 4 (Overlay)
//Storyboard Sound Samples

[TimingPoints]
7287,705.882352941176,4,2,1,40,1,0
7287,-500,4,2,1,40,0,0
7816,-500,4,2,1,35,0,0
8345,-500,4,2,1,30,0,0
8875,-500,4,2,1,25,0,0
9404,-500,4,2,1,20,0,0
10110,-500,4,2,1,40,0,0
10639,-500,4,2,1,35,0,0
11169,-500,4,2,1,30,0,0
11698,-500,4,2,1,25,0,0
12228,-500,4,2,1,20,0,0
12934,-500,4,2,1,40,0,0
13463,-500,4,2,1,35,0,0
13992,-500,4,2,1,30,0,0
14522,-500,4,2,1,25,0,0
15051,-500,4,2,1,20,0,0
15581,-500,4,2,1,20,0,0
18581,-166.666666666667,4,2,1,40,0,0
18934,-166.666666666667,4,2,1,5,0,0
19110,-200,4,2,1,35,0,0
19463,-200,4,2,1,5,0,0
19639,-250.000000000001,4,2,1,30,0,0
19992,-250.000000000001,4,2,1,5,0,0
20169,-333.333333333334,4,2,1,25,0,0
20522,-333.333333333334,4,2,1,5,0,0
20698,-333.333333333334,4,2,1,20,0,0
21404,-166.666666666667,4,2,1,40,0,0
21757,-166.666666666667,4,2,1,5,0,0
21934,-200,4,2,1,35,0,0
22286,-200,4,2,1,5,0,0
22463,-250.000000000001,4,2,1,30,0,0
22816,-250.000000000001,4,2,1,5,0,0
22992,-333.333333333334,4,2,1,25,0,0
23345,-333.333333333334,4,2,1,5,0,0
23522,-333.333333333334,4,2,1,20,0,0
24228,-166.666666666667,4,2,1,40,0,0
24581,-166.666666666667,4,2,1,5,0,0
24757,-200,4,2,1,35,0,0
25110,-200,4,2,1,5,0,0
25286,-250.000000000001,4,2,1,30,0,0
25639,-250.000000000001,4,2,1,5,0,0
25816,-333.333333333334,4,2,1,25,0,0
26169,-333.333333333334,4,2,1,5,0,0
26345,-500,4,2,1,20,0,0
29875,-166.666666666667,4,2,1,40,0,0
30228,-166.666666666667,4,2,1,5,0,0
30404,-200,4,2,1,35,0,0
30757,-200,4,2,1,5,0,0
30934,-250.000000000001,4,2,1,30,0,0
31286,-250.000000000001,4,2,1,5,0,0
31463,-333.333333333334,4,2,1,25,0,0
31816,-333.333333333334,4,2,1,5,0,0
31992,-333.333333333334,4,2,1,20,0,0
32698,-166.666666666667,4,2,1,40,0,0
33051,-166.666666666667,4,2,1,5,0,0
33228,-200,4,2,1,35,0,0
33581,-200,4,2,1,5,0,0
33757,-250.000000000001,4,2,1,30,0,0
34110,-250.000000000001,4,2,1,5,0,0
34286,-333.333333333334,4,2,1,25,0,0
34639,-333.333333333334,4,2,1,5,0,0
34816,-333.333333333334,4,2,1,20,0,0
35522,-166.666666666667,4,2,1,40,0,0
35875,-166.666666666667,4,2,1,5,0,0
36051,-200,4,2,1,35,0,0
36404,-200,4,2,1,5,0,0
36581,-250,4,2,1,25,0,0
36934,-250,4,2,1,5,0,0
37110,-333.333333333333,4,2,1,20,0,0
37463,-333.333333333333,4,2,1,5,0,0
37639,-500,4,2,1,20,0,0
38169,-500,4,2,1,15,0,0
38698,-500,4,2,1,10,0,0
40286,-500,4,2,1,5,0,0
41169,-166.666666666667,4,2,1,40,0,0
41522,-166.666666666667,4,2,1,5,0,0
41698,-200,4,2,1,35,0,0
42051,-200,4,2,1,5,0,0
42228,-250.000000000001,4,2,1,30,0,0
42581,-250.000000000001,4,2,1,5,0,0
42757,-333.333333333334,4,2,1,25,0,0
43110,-333.333333333334,4,2,1,5,0,0
43286,-500.000000000003,4,2,1,20,0,0
43639,-500.000000000003,4,2,1,5,0,0
43992,-166.666666666667,4,2,1,40,0,0
44345,-166.666666666667,4,2,1,5,0,0
44522,-200,4,2,1,35,0,0
44875,-200,4,2,1,5,0,0
45051,-250.000000000001,4,2,1,30,0,0
45404,-250.000000000001,4,2,1,5,0,0
45581,-333.333333333334,4,2,1,25,0,0
45934,-333.333333333334,4,2,1,5,0,0
46110,-500.000000000003,4,2,1,20,0,0
46463,-500.000000000003,4,2,1,5,0,0
46816,-166.666666666667,4,2,1,40,0,0
47169,-166.666666666667,4,2,1,5,0,0
47345,-200,4,2,1,35,0,0
47698,-200,4,2,1,5,0,0
47875,-250.000000000001,4,2,1,30,0,0
48228,-250.000000000001,4,2,1,5,0,0
48404,-333.333333333334,4,2,1,25,0,0
48757,-333.333333333334,4,2,1,5,0,0
48934,-500.000000000003,4,2,1,20,0,0
49463,-500.000000000003,4,2,1,15,0,0
49992,-500.000000000003,4,2,1,10,0,0
50698,-200,4,2,1,40,0,0
51404,-200,4,2,1,5,0,0
51581,-200,4,2,1,40,0,0
52110,-200,4,2,1,5,0,0
52463,-166.666666666667,4,2,1,40,0,0
52816,-166.666666666667,4,2,1,5,0,0
52992,-200,4,2,1,35,0,0
53345,-200,4,2,1,5,0,0
53522,-250,4,2,1,30,0,0
53875,-250,4,2,1,5,0,0
54051,-333.333333333333,4,2,1,25,0,0
54404,-333.333333333333,4,2,1,5,0,0
54581,-500,4,2,1,20,0,0
54934,-500,4,2,1,5,0,0
55286,-200,4,2,1,20,0,0
75051,-200,4,2,1,30,0,0
97639,-133.333333333333,4,2,1,30,0,0
120228,-117.647058823529,4,2,1,30,0,0
131169,-76.9230769230769,4,2,1,30,0,0
131257,-76.9230769230769,4,2,1,5,0,0
131345,-76.9230769230769,4,2,1,30,0,0
131434,-76.9230769230769,4,2,1,5,0,0
131522,-117.647058823529,4,2,1,30,0,0
133992,-76.9230769230769,4,2,1,30,0,0
134081,-76.9230769230769,4,2,1,5,0,0
134169,-76.9230769230769,4,2,1,30,0,0
134257,-76.9230769230769,4,2,1,5,0,0
134345,-117.647058823529,4,2,1,30,0,0
135581,-333.333333333333,4,2,1,30,0,0
136110,-333.333333333333,4,2,1,30,0,0
136198,-333.333333333333,4,2,1,5,0,0
136286,-333.333333333333,4,2,1,30,0,0
136375,-333.333333333333,4,2,1,5,0,0
136463,-117.647058823529,4,2,1,30,0,0
138404,-333.333333333333,4,2,1,30,0,0
138492,-333.333333333333,4,2,1,5,0,0
138581,-117.647058823529,4,2,1,30,0,0
139992,-333.333333333333,4,2,1,30,0,0
140081,-333.333333333333,4,2,1,5,0,0
140169,-117.647058823529,4,2,1,30,0,0
147051,-200,4,2,1,30,0,0
147669,-200,4,2,1,5,0,0
147757,-200,4,2,1,30,0,0
148375,-200,4,2,1,5,0,0
148463,-200,4,2,1,30,0,0
148816,-200,4,2,1,5,0,0
149169,-200,4,2,1,30,0,0
149875,-333.333333333333,4,2,1,30,0,0
151110,-333.333333333333,4,2,1,5,0,0
151286,-285.714285714286,4,2,1,30,0,0
152522,-285.714285714286,4,2,1,5,0,0
152698,-200,4,2,1,30,0,0
153316,-200,4,2,1,5,0,0
153404,-200,4,2,1,30,0,0
154022,-200,4,2,1,5,0,0
154110,-222.222222222222,4,2,1,30,0,0
156757,-222.222222222222,4,2,1,5,0,0
156934,-166.666666666667,4,2,1,60,0,0
158169,-166.666666666667,4,2,1,5,0,0
158345,-166.666666666667,4,2,1,60,0,0
159581,-166.666666666667,4,2,1,5,0,0
159757,-166.666666666667,4,2,1,70,0,0
165404,-166.666666666667,4,2,1,30,0,0
165639,-100,4,2,1,35,0,0
165757,-100,4,2,1,5,0,0
165875,-100,4,2,1,30,0,0
165992,-100,4,2,1,5,0,0
166110,-100,4,2,1,25,0,0
166228,-100,4,2,1,5,0,0
166345,-100,4,2,1,20,0,0
166463,-100,4,2,1,5,0,0
166581,-100,4,2,1,15,0,0
166698,-100,4,2,1,5,0,0
166816,-100,4,2,1,10,0,0
166934,-100,4,2,1,5,0,0
167522,-200,4,2,1,50,0,0
167786,-200,4,2,1,5,0,0
167875,-200,4,2,1,30,0,0
168139,-200,4,2,1,5,0,0
168228,-200,4,2,1,30,0,0
169286,-105.263157894737,4,2,1,30,0,0
171051,-66.6666666666667,4,2,1,50,0,1
171169,-66.6666666666667,4,2,1,5,0,1
171286,-66.6666666666667,4,2,1,50,0,1
171404,-66.6666666666667,4,2,1,5,0,1
171522,-66.6666666666667,4,2,1,50,0,1
171639,-66.6666666666667,4,2,1,5,0,1
171757,-66.6666666666667,4,2,1,50,0,1
171875,-66.6666666666667,4,2,1,5,0,1
171992,-66.6666666666667,4,2,1,50,0,1
172110,-66.6666666666667,4,2,1,5,0,1
172228,-66.6666666666667,4,2,1,50,0,1
172345,-66.6666666666667,4,2,1,5,0,1
172463,-333.333333333333,4,2,1,50,0,1
173051,-333.333333333333,4,2,1,5,0,1
173169,-333.333333333333,4,2,1,50,0,1
173757,-333.333333333333,4,2,1,5,0,1
173875,-66.6666666666667,4,2,1,50,0,1
173992,-66.6666666666667,4,2,1,5,0,1
174110,-66.6666666666667,4,2,1,50,0,1
174228,-66.6666666666667,4,2,1,5,0,1
174345,-66.6666666666667,4,2,1,50,0,1
174463,-66.6666666666667,4,2,1,5,0,1
174581,-66.6666666666667,4,2,1,50,0,1
174698,-66.6666666666667,4,2,1,5,0,1
174816,-66.6666666666667,4,2,1,50,0,1
174934,-66.6666666666667,4,2,1,5,0,1
175051,-66.6666666666667,4,2,1,50,0,1
175169,-66.6666666666667,4,2,1,5,0,1
175286,-333.333333333333,4,2,1,50,0,1
175875,-333.333333333333,4,2,1,5,0,1
175992,-333.333333333333,4,2,1,50,0,1
176257,-333.333333333333,4,2,9,50,0,1
176581,-333.333333333333,4,2,9,5,0,1
176698,-66.6666666666667,4,2,1,50,0,1
176816,-66.6666666666667,4,2,1,5,0,1
176934,-66.6666666666667,4,2,1,50,0,1
177051,-66.6666666666667,4,2,1,5,0,1
177169,-66.6666666666667,4,2,1,50,0,1
177286,-66.6666666666667,4,2,1,5,0,1
177404,-66.6666666666667,4,2,1,50,0,1
177522,-66.6666666666667,4,2,1,5,0,1
177639,-66.6666666666667,4,2,1,50,0,1
177757,-66.6666666666667,4,2,1,5,0,1
177875,-66.6666666666667,4,2,1,50,0,1
177992,-66.6666666666667,4,2,1,5,0,1
178110,-333.333333333333,4,2,1,50,0,1
178698,-333.333333333333,4,2,1,5,0,1
178816,-333.333333333333,4,2,1,50,0,1
179404,-333.333333333333,4,2,1,5,0,1
179522,-66.6666666666667,4,2,1,50,0,1
179639,-66.6666666666667,4,2,1,5,0,1
179757,-66.6666666666667,4,2,1,50,0,1
180110,-66.6666666666667,4,2,1,5,0,1
180228,-333.333333333333,4,2,1,50,0,1
180816,-333.333333333333,4,2,1,5,0,1
180934,-66.6666666666667,4,2,1,50,0,1
181051,-66.6666666666667,4,2,1,5,0,1
181169,-66.6666666666667,4,2,1,50,0,1
181286,-66.6666666666667,4,2,1,5,0,1
181522,-66.6666666666667,4,2,1,50,0,1
181639,-333.333333333333,4,2,1,50,0,1
181992,-333.333333333333,4,2,1,5,0,1
182110,-66.6666666666667,4,2,1,50,0,1
182228,-66.6666666666667,4,2,1,5,0,1
182345,-66.6666666666667,4,2,1,50,0,1
182463,-66.6666666666667,4,2,1,5,0,1
182816,-66.6666666666667,4,2,1,50,0,1
182934,-66.6666666666667,4,2,1,5,0,1
183051,-133.333333333333,4,2,1,50,0,1
183522,-66.6666666666667,4,2,1,50,0,1
183639,-66.6666666666667,4,2,1,5,0,1
183757,-100,4,2,1,50,0,1
183992,-100,4,2,1,5,0,1
184110,-100,4,2,1,50,0,1
184345,-100,4,2,1,5,0,1
184463,-100,4,2,1,50,0,1
184698,-100,4,2,1,5,0,1
184816,-100,4,2,1,50,0,1
185051,-100,4,2,1,5,0,1
185169,-66.6666666666667,4,2,1,50,0,1
185286,-66.6666666666667,4,2,1,5,0,1
185404,-66.6666666666667,4,2,1,50,0,1
185522,-66.6666666666667,4,2,1,5,0,1
185639,-66.6666666666667,4,2,1,50,0,1
185875,-66.6666666666667,4,2,1,50,0,1
185992,-66.6666666666667,4,2,1,5,0,1
186110,-66.6666666666667,4,2,1,50,0,1
186228,-66.6666666666667,4,2,1,5,0,1
186345,-66.6666666666667,4,2,1,50,0,1
186463,-66.6666666666667,4,2,1,5,0,1
186581,-333.333333333333,4,2,1,50,0,1
187286,-333.333333333333,4,2,1,30,0,1
187639,-66.6666666666667,4,2,1,50,0,1
187875,-66.6666666666667,4,2,1,5,0,1
187992,-66.6666666666667,4,2,1,50,0,1
188110,-66.6666666666667,4,2,1,5,0,1
188228,-66.6666666666667,4,2,1,50,0,1
188345,-66.6666666666667,4,2,1,5,0,1
188463,-66.6666666666667,4,2,1,50,0,1
188581,-66.6666666666667,4,2,1,5,0,1
188698,-66.6666666666667,4,2,1,50,0,1
188816,-66.6666666666667,4,2,1,5,0,1
188934,-66.6666666666667,4,2,1,50,0,1
189051,-66.6666666666667,4,2,1,5,0,1
189169,-66.6666666666667,4,2,1,50,0,1
189286,-66.6666666666667,4,2,1,5,0,1
189404,-333.333333333333,4,2,1,50,0,1
189992,-333.333333333333,4,2,1,5,0,1
190110,-333.333333333333,4,2,1,50,0,1
190345,-333.333333333333,4,2,1,5,0,1
190463,-333.333333333333,4,2,1,50,0,1
190698,-333.333333333333,4,2,1,5,0,1
190816,-66.6666666666667,4,2,1,50,0,1
190934,-66.6666666666667,4,2,1,5,0,1
191051,-66.6666666666667,4,2,1,50,0,1
191169,-66.6666666666667,4,2,1,5,0,1
191522,-100,4,2,1,50,0,1
192139,-100,4,2,1,5,0,1
192228,-100,4,2,1,50,0,1
192581,-100,4,2,1,5,0,1
192698,-333.333333333333,4,2,1,50,0,1
192816,-333.333333333333,4,2,1,5,0,1
192934,-100,4,2,1,50,0,1
193286,-100,4,2,1,5,0,1
193404,-66.6666666666667,4,2,1,50,0,1
193522,-66.6666666666667,4,2,1,5,0,1
193639,-100,4,2,1,50,0,1
193992,-66.6666666666667,4,2,1,50,0,1
195051,-100,4,2,1,50,0,1
195286,-100,4,2,1,5,0,1
195404,-100,4,2,1,50,0,1
195639,-100,4,2,1,5,0,1
195757,-66.6666666666667,4,2,1,50,0,1
196345,-66.6666666666667,4,2,1,50,0,1
196463,-66.6666666666667,4,2,1,50,0,1
196581,-66.6666666666667,4,2,1,5,0,1
196698,-66.6666666666667,4,2,1,50,0,1
196816,-66.6666666666667,4,2,1,5,0,1
196934,-66.6666666666667,4,2,1,50,0,1
197169,-100,4,2,1,50,0,1
197757,-100,4,2,1,5,0,1
197875,-333.333333333333,4,2,1,50,0,1
198463,-333.333333333333,4,2,1,5,0,1
198581,-333.333333333333,4,2,1,50,0,1
198845,-333.333333333333,4,2,9,50,0,1
199169,-333.333333333333,4,2,9,5,0,1
199286,-66.6666666666667,4,2,1,50,0,1
199404,-66.6666666666667,4,2,1,5,0,1
199522,-66.6666666666667,4,2,1,50,0,1
199639,-66.6666666666667,4,2,1,5,0,1
199757,-66.6666666666667,4,2,1,50,0,1
200698,-100,4,2,1,50,0,1
201051,-100,4,2,1,5,0,1
201169,-66.6666666666667,4,2,1,50,0,1
201286,-66.6666666666667,4,2,1,5,0,1
201404,-66.6666666666667,4,2,1,50,0,1
202228,-66.6666666666667,4,2,1,5,0,1
202345,-66.6666666666667,4,2,1,50,0,1
202463,-66.6666666666667,4,2,1,5,0,1
202581,-66.6666666666667,4,2,1,50,0,1
202698,-66.6666666666667,4,2,1,5,0,1
202816,-100,4,2,1,50,0,1
203051,-100,4,2,1,5,0,1
203169,-66.6666666666667,4,2,1,50,0,1
203522,-66.6666666666667,4,2,1,50,0,1
203757,-100,4,2,1,50,0,1
204110,-100,4,2,1,5,0,1
204228,-100,4,2,1,50,0,1
204463,-100,4,2,1,5,0,1
204581,-100,4,2,1,50,0,1
204816,-100,4,2,1,5,0,1
204934,-90.9090909090909,4,2,1,50,0,1
205522,-90.9090909090909,4,2,1,5,0,1
205639,-90.9090909090909,4,2,1,50,0,1
206228,-90.9090909090909,4,2,1,5,0,1
206345,-100,4,2,1,50,0,1
207757,-66.6666666666667,4,2,1,50,0,1
208463,-100,4,2,1,50,0,1
209051,-100,4,2,1,5,0,1
209169,-333.333333333333,4,2,1,50,0,1
209757,-333.333333333333,4,2,1,5,0,1
209875,-333.333333333333,4,2,1,50,0,1
210139,-333.333333333333,4,2,9,50,0,1
210463,-333.333333333333,4,2,9,5,0,1
210581,-66.6666666666667,4,2,1,50,0,1
210698,-66.6666666666667,4,2,1,5,0,1
210816,-66.6666666666667,4,2,1,50,0,1
210934,-66.6666666666667,4,2,1,5,0,1
211051,-66.6666666666667,4,2,1,50,0,1
211169,-66.6666666666667,4,2,1,5,0,1
211286,-66.6666666666667,4,2,1,50,0,1
211992,-76.9230769230769,4,2,1,50,0,1
212934,-66.6666666666667,4,2,1,50,0,1
213404,-66.6666666666667,4,2,1,50,0,1
213522,-66.6666666666667,4,2,1,5,0,1
213639,-66.6666666666667,4,2,1,50,0,1
213757,-66.6666666666667,4,2,1,5,0,1
213875,-66.6666666666667,4,2,1,50,0,1
213992,-66.6666666666667,4,2,1,5,0,1
214110,-66.6666666666667,4,2,1,50,0,1
215522,-100,4,2,1,50,0,1
215581,-100,4,2,1,5,0,1
215639,-100,4,2,1,50,0,1
215698,-100,4,2,1,5,0,1
215757,-100,4,2,1,50,0,1
215816,-100,4,2,1,5,0,1
215875,-100,4,2,1,50,0,1
215934,-100,4,2,1,5,0,1
215992,-100,4,2,1,50,0,1
216051,-100,4,2,1,5,0,1
216110,-100,4,2,1,50,0,1
216169,-100,4,2,1,5,0,1
216228,-100,4,2,1,70,0,0
216345,-100,4,2,1,5,0,0
221875,-166.666666666667,4,2,1,40,0,0
222228,-166.666666666667,4,2,1,5,0,0
222404,-200,4,2,1,35,0,0
222757,-200,4,2,1,5,0,0
222934,-250,4,2,1,30,0,0
223286,-250,4,2,1,5,0,0
223463,-333.333333333333,4,2,1,25,0,0
223816,-333.333333333333,4,2,1,5,0,0
223992,-500,4,2,1,20,0,0
224522,-500,4,2,1,15,0,0
225051,-500,4,2,1,10,0,0
226639,-500,4,2,1,5,0,0
227522,-166.666666666667,4,2,1,40,0,0
227875,-166.666666666667,4,2,1,5,0,0
228051,-200,4,2,1,35,0,0
228404,-200,4,2,1,5,0,0
228581,-250,4,2,1,25,0,0
228934,-250,4,2,1,5,0,0
229110,-333.333333333333,4,2,1,20,0,0
229463,-333.333333333333,4,2,1,5,0,0
229639,-333.333333333333,4,2,1,15,0,0
230345,-166.666666666667,4,2,1,40,0,0
230698,-166.666666666667,4,2,1,5,0,0
230875,-200,4,2,1,35,0,0
231228,-200,4,2,1,5,0,0
231404,-250,4,2,1,30,0,0
231757,-250,4,2,1,5,0,0
231934,-333.333333333333,4,2,1,25,0,0
232286,-333.333333333333,4,2,1,5,0,0
232463,-333.333333333333,4,2,1,20,0,0
233169,-166.666666666667,4,2,1,40,0,0
233522,-166.666666666667,4,2,1,5,0,0
233698,-200,4,2,1,35,0,0
234051,-200,4,2,1,5,0,0
234228,-250,4,2,1,30,0,0
234581,-250,4,2,1,5,0,0
234757,-333.333333333333,4,2,1,25,0,0
235110,-333.333333333333,4,2,1,5,0,0
235286,-500,4,2,1,20,0,0
235816,-500,4,2,1,15,0,0
236345,-500,4,2,1,10,0,0
236875,-500,4,2,1,5,0,0
238816,-166.666666666667,4,2,1,40,0,0
239169,-166.666666666667,4,2,1,5,0,0
239345,-200,4,2,1,35,0,0
239698,-200,4,2,1,5,0,0
239875,-250,4,2,1,25,0,0
240228,-250,4,2,1,5,0,0
240404,-333.333333333333,4,2,1,20,0,0
240757,-333.333333333333,4,2,1,5,0,0
240934,-500,4,2,1,15,0,0
241286,-500,4,2,1,5,0,0
241639,-166.666666666667,4,2,1,40,0,0
241992,-166.666666666667,4,2,1,5,0,0
242169,-200,4,2,1,35,0,0
242522,-200,4,2,1,5,0,0
242698,-250,4,2,1,30,0,0
243051,-250,4,2,1,5,0,0
243228,-333.333333333333,4,2,1,25,0,0
243581,-333.333333333333,4,2,1,5,0,0
243757,-500,4,2,1,20,0,0
244110,-500,4,2,1,5,0,0
244463,-166.666666666667,4,2,1,40,0,0
244816,-166.666666666667,4,2,1,5,0,0
244992,-200,4,2,1,35,0,0
245345,-200,4,2,1,5,0,0
245522,-250,4,2,1,30,0,0
245875,-250,4,2,1,5,0,0
246051,-333.333333333333,4,2,1,25,0,0
246404,-333.333333333333,4,2,1,5,0,0
246581,-500,4,2,1,20,0,0
247110,-500,4,2,1,15,0,0
247639,-500,4,2,1,10,0,0
248169,-500,4,2,1,5,0,0

[Colours]
Combo1 : 113,106,147
Combo2 : 130,57,100

[HitObjects]
470,212,7287,6,0,L|474:155,4,54,2|2|2|2|2,0:1|0:1|0:1|0:1|0:1,0:0:0:0:
42,212,9934,1,2,0:0:0:0:
42,212,10110,6,0,L|38:155,4,54,2|2|2|2|2,0:1|0:1|0:1|0:1|0:1,0:0:0:0:
231,345,12934,6,0,L|288:341,9,54,2|2|2|2|2|2|2|2|2|2,0:1|0:1|0:1|0:1|0:1|0:1|0:1|0:1|0:1|0:1,0:0:0:0:
281,39,18581,6,0,P|216:41|151:59,1,107.999996704102,2|0,0:1|0:0,0:0:0:0:
148,52,19110,6,0,P|106:73|75:105,1,90,2|0,0:1|0:0,0:0:0:0:
54,130,19639,6,0,P|46:165|47:210,1,72,2|0,0:1|0:0,0:0:0:0:
41,233,20169,6,0,P|48:270|58:294,1,53.9999983520508,2|0,0:1|0:0,0:0:0:0:
64,318,20698,5,2,0:1:0:0:
442,274,21404,6,0,P|440:209|422:144,1,107.999996704102,2|0,0:1|0:0,0:0:0:0:
429,141,21934,6,0,P|408:99|376:68,1,90,2|0,0:1|0:0,0:0:0:0:
351,47,22463,6,0,P|316:39|271:40,1,72,2|0,0:1|0:0,0:0:0:0:
248,34,22992,6,0,P|211:41|187:51,1,53.9999983520508,2|0,0:1|0:0,0:0:0:0:
163,57,23521,5,2,0:1:0:0:
32,194,24228,6,0,L|150:184,1,107.999996704102,2|0,0:1|0:0,0:0:0:0:
173,207,24757,6,0,L|268:217,1,90,2|0,0:1|0:0,0:0:0:0:
286,183,25286,6,0,L|365:176,1,72,2|0,0:1|0:0,0:0:0:0:
388,204,25816,6,0,L|441:208,1,53.9999983520508,2|0,0:1|0:0,0:0:0:0:
476,150,26345,6,0,L|491:98,4,54,2|2|2|2|0,0:1|0:1|0:1|0:1|0:0,0:0:0:0:
476,150,29875,6,0,P|425:134|372:142,1,107.999996704102,2|0,0:1|0:0,0:0:0:0:
297,128,30404,6,0,P|283:171|291:212,1,90,2|0,0:1|0:0,0:0:0:0:
270,284,30934,6,0,P|292:318|330:337,1,72,2|0,0:1|0:0,0:0:0:0:
385,375,31463,6,0,P|417:371|445:354,1,53.9999983520508,2|0,0:1|0:0,0:0:0:0:
480,294,31992,5,2,0:1:0:0:
36,234,32522,1,2,0:0:0:0:
36,234,32698,6,0,P|87:250|140:242,1,107.999996704102,2|0,0:1|0:0,0:0:0:0:
215,256,33228,6,0,P|228:212|220:171,1,90,2|0,0:1|0:0,0:0:0:0:
242,100,33757,6,0,P|219:65|181:46,1,72,2|0,0:1|0:0,0:0:0:0:
127,9,34286,6,0,P|94:12|66:29,1,53.9999983520508,2|0,0:1|0:0,0:0:0:0:
32,90,34816,5,2,0:1:0:0:
303,204,35522,6,0,L|413:227,1,107.999996704102,2|0,0:1|0:0,0:0:0:0:
209,180,36051,6,0,L|107:158,1,90,2|0,0:1|0:0,0:0:0:0:
244,239,36581,6,0,L|228:316,1,72,2|0,0:1|0:0,0:0:0:0:
268,145,37110,6,0,L|282:81,1,53.9999983520508,2|0,0:1|0:0,0:0:0:0:
244,239,37639,6,0,L|232:298,5,54,2|2|2|2|2|0,0:1|0:1|0:1|0:1|0:1|0:0,0:0:0:0:
244,239,41169,2,0,P|191:256|141:242,1,107.999996704102,2|0,0:1|0:0,0:0:0:0:
66,244,41698,6,0,P|37:206|39:154,1,90,2|0,0:1|0:0,0:0:0:0:
9,95,42228,6,0,P|35:57|70:42,1,72,2|0,0:1|0:0,0:0:0:0:
129,20,42757,6,0,P|160:29|183:51,1,53.9999983520508,2|0,0:1|0:0,0:0:0:0:
239,83,43286,6,0,P|246:105|245:123,1,36,2|0,0:1|0:0,0:0:0:0:
268,239,43992,6,0,P|321:256|371:242,1,107.999996704102,2|0,0:1|0:0,0:0:0:0:
446,244,44522,6,0,P|475:206|473:154,1,90,2|0,0:1|0:0,0:0:0:0:
503,95,45051,6,0,P|477:57|442:42,1,72,2|0,0:1|0:0,0:0:0:0:
383,20,45581,6,0,P|352:29|329:51,1,53.9999983520508,2|0,0:1|0:0,0:0:0:0:
273,83,46110,6,0,P|266:105|267:123,1,36,2|0,0:1|0:0,0:0:0:0:
303,204,46816,6,0,L|413:227,1,107.999996704102,2|0,0:1|0:0,0:0:0:0:
209,180,47345,6,0,L|107:158,1,90,2|0,0:1|0:0,0:0:0:0:
244,239,47875,6,0,L|228:316,1,72,2|0,0:1|0:0,0:0:0:0:
268,145,48404,6,0,L|282:81,1,53.9999983520508,2|0,0:1|0:0,0:0:0:0:
244,239,48934,6,0,L|232:298,3,54,2|2|2|2,0:1|0:1|0:1|0:1,0:0:0:0:
216,363,50698,5,2,0:0:0:0:
216,363,51051,2,0,L|120:352,1,90,2|0,0:0|0:0,0:0:0:0:
11,316,51581,2,0,P|67:291|128:344,1,135,2|0,0:0|0:0,0:0:0:0:
123,329,52463,6,0,L|231:341,1,107.999996704102,2|0,0:1|0:0,0:0:0:0:
266,359,52992,6,0,L|371:333,1,90,2|0,0:1|0:0,0:0:0:0:
387,349,53522,6,0,L|456:302,1,72,2|0,0:1|0:0,0:0:0:0:
480,315,54051,6,0,L|497:256,1,53.9999983520508,2|0,0:1|0:0,0:0:0:0:
500,234,54581,6,0,L|497:192,1,36,2|0,0:1|0:0,0:0:0:0:
490,125,55110,5,0,0:0:0:0:
490,125,55286,2,0,L|436:119,1,45,2|0,0:1|0:0,0:0:0:0:
369,110,55639,1,0,0:0:0:0:
489,49,55816,5,2,0:1:0:0:
489,49,55992,2,0,L|435:43,1,45,0|0,0:0|0:1,0:0:0:0:
368,34,56345,5,2,0:1:0:0:
289,113,56521,2,0,L|256:151,1,45,0|0,0:0|0:1,0:0:0:0:
274,31,56874,5,2,0:1:0:0:
195,110,57050,2,0,L|162:148,1,45,0|0,0:0|0:1,0:0:0:0:
180,28,57404,5,2,0:1:0:0:
101,107,57580,2,0,L|68:145,1,45
101,28,57933,1,0,0:1:0:0:
195,110,58109,6,0,L|233:143,1,45,2|0,0:1|0:0,0:0:0:0:
225,31,58462,1,0,0:1:0:0:
132,150,58639,6,0,L|99:188,1,45,2|0,0:1|0:0,0:0:0:0:
128,71,58992,1,0,0:1:0:0:
223,161,59168,6,0,L|261:194,1,45,2|0,0:1|0:0,0:0:0:0:
232,87,59521,1,0,0:1:0:0:
143,197,59698,6,0,L|110:235,1,45,2|0,0:1|0:0,0:0:0:0:
165,124,60051,1,0,0:1:0:0:
255,206,60227,6,0,L|293:239,1,45,2|0,0:1|0:0,0:0:0:0:
242,136,60580,1,0,0:1:0:0:
153,246,60757,6,0,L|120:284,1,45,2|0,0:1|0:0,0:0:0:0:
169,170,61109,1,0,0:1:0:0:
259,252,61285,6,0,L|297:285,1,45,2|0,0:1|0:0,0:0:0:0:
245,178,61639,1,0,0:1:0:0:
156,288,61816,6,0,L|123:326,1,45,2|0,0:1|0:0,0:0:0:0:
142,191,62168,1,0,0:1:0:0:
71,181,62345,6,0,L|6:174,1,45,2|0,0:1|0:0,0:0:0:0:
213,201,62698,5,0,0:0:0:0:
163,115,62874,2,0,L|118:119,1,45,0|2,0:0|0:1,0:0:0:0:
142,191,63227,5,0,0:0:0:0:
257,106,63404,1,0,0:0:0:0:
273,248,63581,1,0,0:0:0:0:
223,181,63757,5,2,0:1:0:0:
356,239,63934,2,0,L|398:257,1,45,0|0,0:0|0:1,0:0:0:0:
340,97,64286,1,2,0:1:0:0:
279,234,64462,2,0,L|261:276,1,45,0|0,0:0|0:1,0:0:0:0:
307,164,64815,5,2,0:1:0:0:
438,221,64992,1,0,0:0:0:0:
422,79,65168,1,0,0:1:0:0:
360,222,65345,2,0,L|342:264,1,45,2|0,0:1|0:0,0:0:0:0:
422,79,65698,5,0,0:1:0:0:
438,221,65874,1,2,0:1:0:0:
307,164,66051,1,0,0:0:0:0:
470,145,66227,1,0,0:0:0:0:
360,222,66404,1,0,0:0:0:0:
339,88,66581,6,0,L|297:70,1,45,2|0,0:1|0:0,0:0:0:0:
360,222,66934,1,0,0:0:0:0:
422,79,67110,5,2,0:1:0:0:
470,145,67286,2,0,L|514:139,1,45,0|0,0:0|0:1,0:0:0:0:
360,222,67639,5,2,0:1:0:0:
377,84,67816,2,0,L|421:78,1,45,0|0,0:0|0:1,0:0:0:0:
272,149,68168,5,2,0:1:0:0:
284,23,68345,2,0,L|328:17,1,45,0|0,0:0|0:1,0:0:0:0:
179,88,68698,5,2,0:1:0:0:
272,149,68875,2,0,L|316:143,1,45
228,221,69228,1,0,0:0:0:0:
179,88,69404,5,2,0:1:0:0:
95,102,69581,2,0,L|44:114,1,45
179,88,69934,5,2,0:1:0:0:
150,168,70111,2,0,L|135:218,1,45
179,88,70463,5,2,0:1:0:0:
233,153,70640,2,0,L|268:190,1,45
179,88,70992,5,2,0:1:0:0:
262,73,71169,2,0,L|312:60,1,45
150,168,71522,5,2,0:1:0:0:
233,153,71699,2,0,L|283:140,1,45
121,248,72051,5,2,0:1:0:0:
204,233,72228,2,0,L|254:220,1,45
92,328,72581,5,2,0:1:0:0:
175,313,72758,2,0,L|225:300,1,45
37,263,73110,5,2,0:1:0:0:
65,183,73287,2,0,L|78:133,1,45
121,248,73639,5,2,0:1:0:0:
149,168,73816,2,0,L|162:118,1,45
205,233,74169,5,2,0:1:0:0:
233,153,74346,2,0,L|246:103,1,45
373,203,74698,5,0,0:1:0:0:
289,218,74875,1,0,0:1:0:0:
317,138,75051,5,2,3:1:0:0:
317,138,75228,1,0,2:0:0:0:
373,203,75404,1,0,0:1:0:0:
289,218,75581,5,2,3:1:0:0:
289,218,75758,1,0,2:0:0:0:
373,203,75934,1,0,0:1:0:0:
345,285,76110,5,2,3:1:0:0:
345,285,76287,1,0,2:0:0:0:
373,203,76463,1,0,0:1:0:0:
431,268,76639,5,2,3:1:0:0:
431,268,76816,1,0,2:0:0:0:
373,203,76992,1,0,0:1:0:0:
460,188,77169,5,2,3:1:0:0:
460,188,77346,1,0,2:0:0:0:
345,285,77522,5,0,0:1:0:0:
374,204,77698,1,0,3:0:0:0:
402,121,77875,5,2,3:1:0:0:
402,121,78051,1,0,0:0:0:0:
374,204,78228,1,0,2:0:0:0:
316,138,78404,5,2,3:1:0:0:
316,138,78580,1,0,0:0:0:0:
288,221,78757,1,0,2:0:0:0:
230,155,78933,5,2,3:1:0:0:
230,155,79109,1,0,0:0:0:0:
202,238,79286,1,0,2:0:0:0:
144,172,79463,5,2,3:1:0:0:
144,172,79639,1,0,0:0:0:0:
116,255,79816,1,0,2:0:0:0:
58,189,79992,5,2,3:1:0:0:
58,189,80168,1,0,0:0:0:0:
173,319,80345,5,0,0:0:0:0:
144,172,80522,1,0,3:0:0:0:
87,336,80698,5,2,3:1:0:0:
87,336,80875,1,0,0:0:0:0:
116,255,81051,1,0,0:0:0:0:
31,270,81228,5,2,3:1:0:0:
31,270,81405,1,0,0:0:0:0:
116,255,81581,1,0,0:0:0:0:
59,189,81757,5,2,3:1:0:0:
59,189,81934,1,0,0:0:0:0:
116,255,82110,1,0,0:0:0:0:
144,173,82286,5,2,3:1:0:0:
144,173,82463,1,0,0:0:0:0:
116,255,82639,1,0,0:0:0:0:
200,239,82816,5,2,3:1:0:0:
200,239,82993,1,0,0:0:0:0:
31,270,83169,5,0,0:0:0:0:
173,319,83345,1,0,3:0:0:0:
59,189,83522,5,2,3:1:0:0:
59,189,83698,1,0,0:0:0:0:
116,255,83875,1,0,0:0:0:0:
87,108,84051,5,2,3:1:0:0:
87,108,84227,1,0,0:0:0:0:
144,174,84404,1,0,0:0:0:0:
115,27,84581,5,2,3:1:0:0:
115,27,84757,1,0,0:0:0:0:
172,93,84934,1,0,0:0:0:0:
87,108,85110,5,2,3:1:0:0:
87,108,85286,1,0,0:0:0:0:
172,93,85463,1,0,0:0:0:0:
143,173,85639,5,2,3:1:0:0:
143,173,85815,1,0,0:0:0:0:
115,27,85992,5,0,0:0:0:0:
171,92,86169,1,0,3:0:0:0:
228,158,86345,5,2,3:1:0:0:
228,158,86522,1,0,0:0:0:0:
143,173,86698,1,0,0:0:0:0:
200,238,86875,5,2,3:1:0:0:
200,238,87052,1,0,0:0:0:0:
143,173,87228,1,0,0:0:0:0:
116,255,87404,5,2,3:1:0:0:
116,255,87581,1,0,0:0:0:0:
143,173,87757,1,0,0:0:0:0:
59,191,87934,5,2,3:1:0:0:
59,191,88111,1,0,0:0:0:0:
143,173,88287,1,0,0:0:0:0:
87,108,88463,5,2,3:1:0:0:
87,108,88640,1,0,0:0:0:0:
116,255,88816,5,0,0:0:0:0:
228,158,88992,1,0,3:0:0:0:
228,158,89169,5,2,3:1:0:0:
228,158,89345,1,0,0:0:0:0:
284,223,89522,1,0,0:0:0:0:
228,158,89698,5,2,3:1:0:0:
228,158,89874,1,0,0:0:0:0:
200,239,90051,1,0,0:0:0:0:
228,158,90228,5,2,3:1:0:0:
228,158,90404,1,0,0:0:0:0:
143,175,90581,1,0,0:0:0:0:
228,158,90757,5,2,3:1:0:0:
228,158,90933,1,0,0:0:0:0:
170,92,91110,1,0,0:0:0:0:
228,158,91286,5,2,3:1:0:0:
228,158,91462,1,0,0:0:0:0:
256,74,91639,5,0,0:0:0:0:
149,174,91816,1,0,3:0:0:0:
114,27,91992,5,2,3:1:0:0:
114,27,92169,1,0,0:0:0:0:
185,51,92345,1,0,0:0:0:0:
128,101,92522,5,2,3:1:0:0:
128,101,92699,1,0,0:0:0:0:
199,125,92875,1,0,0:0:0:0:
142,175,93051,5,2,3:1:0:0:
142,175,93228,1,0,0:0:0:0:
213,199,93404,1,0,0:0:0:0:
156,249,93581,5,2,3:1:0:0:
156,249,93758,1,0,0:0:0:0:
227,273,93934,1,0,0:0:0:0:
170,323,94110,5,2,3:1:0:0:
170,323,94287,1,0,0:0:0:0:
241,347,94463,1,0,0:0:0:0:
327,216,94639,1,0,3:1:0:0:
156,249,94816,5,2,3:1:0:0:
341,290,94992,1,0,0:0:0:0:
156,249,95169,5,0,0:0:0:0:
313,142,95345,2,0,L|359:110,1,45,2|0,3:1|0:0,0:0:0:0:
241,290,95698,5,0,0:1:0:0:
227,100,95874,2,0,L|223:44,1,45,2|0,3:1|0:0,0:0:0:0:
320,236,96228,5,0,0:1:0:0:
148,154,96404,2,0,L|98:130,1,45,2|0,3:1|0:0,0:0:0:0:
313,142,96757,5,0,0:1:0:0:
156,249,96933,2,0,L|109:280,1,45,2|0,3:1|0:0,0:0:0:0:
227,100,97286,2,0,L|223:43,1,45,2|0,0:2|0:0,0:0:0:0:
320,236,97639,5,2,3:2:0:0:
320,236,97816,2,0,L|327:312,1,67.5000025749208,0|0,3:2|0:0,0:0:0:0:
313,142,98169,1,0,0:1:0:0:
232,202,98345,2,0,P|206:146|240:68,1,135.000005149842,8|0,0:1|0:0,0:0:0:0:
295,34,98875,2,0,L|366:43,1,67.5000025749208,0|0,3:0|0:0,0:0:0:0:
502,165,99228,2,0,L|431:156,1,67.5000025749208,0|0,3:0|0:0,0:0:0:0:
449,55,99581,1,0,0:0:0:0:
348,130,99757,2,0,L|339:201,1,67.5000025749208,10|0,0:1|0:0,0:0:0:0:
423,306,100110,1,0,0:0:0:0:
389,309,100198,1,0,0:0:0:0:
355,313,100286,1,0,0:0:0:0:
322,316,100374,1,0,0:0:0:0:
288,320,100462,5,0,3:0:0:0:
430,227,100639,2,0,P|480:250|494:347,1,135.000005149842,0|0,3:0|0:0,0:0:0:0:
356,196,101169,2,0,L|347:129,1,67.5000025749208,8|0,0:1|0:0,0:0:0:0:
451,39,101522,1,2,0:0:0:0:
469,175,101698,2,0,L|477:241,1,67.5000025749208,0|0,3:0|0:0,0:0:0:0:
356,196,102051,1,2,0:0:0:0:
451,39,102228,1,0,3:0:0:0:
451,39,102404,1,0,3:0:0:0:
341,116,102581,2,0,L|267:104,1,67.5000025749208,8|0,0:1|0:0,0:0:0:0:
60,23,102934,2,0,L|134:35,1,67.5000025749208,2|0,0:0|0:0,0:0:0:0:
213,23,103286,5,0,3:0:0:0:
141,173,103463,2,0,P|77:178|12:121,1,135.000005149842,0|0,3:0|0:0,0:0:0:0:
197,116,103992,2,0,P|217:147|220:195,1,67.5000025749208,8|0,0:1|0:0,0:0:0:0:
98,94,104345,1,0,0:0:0:0:
168,250,104522,2,0,P|238:268|300:224,1,135.000005149842,0|0,3:0|0:0,0:0:0:0:
341,116,105051,1,2,0:0:0:0:
341,116,105404,2,0,L|351:39,1,67.5000025749208,10|0,0:1|0:0,0:0:0:0:
477,177,105757,1,2,0:1:0:0:
443,181,105845,1,0,0:0:0:0:
410,185,105933,1,0,0:0:0:0:
376,190,106021,1,0,0:0:0:0:
343,194,106109,5,0,3:0:0:0:
209,217,106286,2,0,P|176:286|199:350,1,135.000005149842,0|0,3:0|0:0,0:0:0:0:
351,317,106816,2,0,P|314:311|277:307,1,67.5000025749208,8|0,0:1|0:0,0:0:0:0:
97,307,107169,1,0,0:0:0:0:
249,373,107345,2,0,P|279:330|257:237,1,135.000005149842,0|0,3:0|0:0,0:0:0:0:
141,173,107875,1,2,0:0:0:0:
141,173,108228,2,0,L|51:161,1,67.5000025749208,8|0,0:1|0:0,0:0:0:0:
113,258,108581,1,8,0:1:0:0:
169,88,108757,1,8,0:1:0:0:
286,196,108934,5,0,3:0:0:0:
141,173,109110,2,0,L|51:161,1,67.5000025749208,0|0,3:0|0:0,0:0:0:0:
17,96,109463,1,0,0:0:0:0:
191,118,109639,2,0,P|212:153|171:243,1,135.000005149842,8|0,0:1|0:0,0:0:0:0:
103,106,110169,2,0,L|113:24,1,67.5000025749208,0|0,3:0|0:0,0:0:0:0:
182,235,110522,2,0,L|172:317,1,67.5000025749208,0|0,3:0|0:0,0:0:0:0:
288,99,110875,1,2,0:0:0:0:
377,164,111051,2,0,B|419:166|461:159,1,67.5000025749208,8|0,0:1|0:0,0:0:0:0:
472,28,111404,2,0,B|430:26|388:33,1,67.5000025749208,2|0,0:0|0:0,0:0:0:0:
288,99,111757,5,0,3:0:0:0:
444,161,111934,2,0,B|474:186|474:186|375:202,1,135.000005149842,0|0,3:0|0:0,0:0:0:0:
270,243,112463,2,0,P|260:207|271:163,1,67.5000025749208,8|0,0:1|0:1,0:1:0:0:
288,99,112816,1,0,0:0:0:0:
379,201,112992,2,0,P|403:249|370:338,1,135.000005149842,0|0,3:0|0:0,0:0:0:0:
255,336,113522,2,0,P|218:326|186:295,1,67.5000025749208,0|0,3:1|0:1,0:1:0:0:
21,182,113875,2,0,P|59:176|96:185,1,67.5000025749208,8|0,0:1|0:0,0:0:0:0:
178,288,114228,1,8,0:1:0:0:
219,106,114404,1,0,0:0:0:0:
87,181,114581,5,0,3:0:0:0:
225,204,114757,2,0,L|375:187,1,135.000005149842,0|0,3:0|0:0,0:0:0:0:
487,99,115286,2,0,P|443:92|413:101,1,67.5000025749208,8|0,0:1|0:0,0:0:0:0:
359,188,115639,1,0,0:0:0:0:
442,308,115816,2,0,L|452:174,2,135.000005149842,0|2|2,3:0|0:0|0:0,0:0:0:0:
356,359,116698,2,0,L|282:351,1,67.5000025749208,8|0,0:1|0:0,0:0:0:0:
172,323,117051,1,0,0:0:0:0:
203,310,117139,1,0,0:0:0:0:
237,311,117227,1,0,0:0:0:0:
267,326,117315,1,0,0:0:0:0:
288,351,117403,5,0,3:0:0:0:
105,375,117581,2,0,P|87:317|121:256,1,135.000005149842,0|0,3:0|0:0,0:0:0:0:
252,106,118110,2,0,L|247:178,1,67.5000025749208,8|0,0:1|0:0,0:0:0:0:
237,311,118463,1,0,0:0:0:0:
247,173,118639,2,0,L|259:25,1,135.000005149842,0|0,3:0|0:0,0:0:0:0:
169,22,119169,2,0,B|165:58|168:94,1,67.5000025749208,2|0,0:0|0:0,0:0:0:0:
336,183,119522,2,0,B|340:147|337:111,1,67.5000025749208,8|0,0:1|0:0,0:0:0:0:
165,176,119875,1,8,0:1:0:0:
337,115,120051,1,8,0:1:0:0:
135,82,120228,5,0,3:0:0:0:
337,115,120404,2,0,L|423:107,1,76.5000014591217,0|0,3:0|0:0,0:0:0:0:
459,19,120757,1,0,0:0:0:0:
488,162,120934,2,0,B|493:206|489:246,1,76.5000014591217,8|0,0:1|0:0,0:0:0:0:
378,268,121286,1,0,0:0:0:0:
337,115,121463,2,0,B|332:71|336:31,1,76.5000014591217,0|0,3:0|0:0,0:0:0:0:
459,19,121816,1,0,3:0:0:0:
337,115,121992,2,0,L|248:107,1,76.5000014591217,2|0,0:0|0:0,0:0:0:0:
95,93,122345,1,8,0:1:0:0:
95,93,122698,1,0,0:0:0:0:
68,120,122786,1,0,0:0:0:0:
55,155,122874,1,0,0:0:0:0:
57,193,122962,1,0,0:0:0:0:
75,227,123050,5,0,3:0:0:0:
182,127,123228,2,0,L|171:46,1,76.5000014591217,0|0,3:0|0:0,0:0:0:0:
68,120,123581,1,2,0:0:0:0:
161,244,123757,2,0,L|172:325,1,76.5000014591217,8|0,0:1|0:0,0:0:0:0:
263,188,124110,1,0,0:0:0:0:
90,210,124286,2,0,B|59:251|59:251|164:243,1,153.000002918243,0|0,3:0|0:0,0:0:0:0:
234,105,124816,1,0,3:0:0:0:
292,271,124992,1,0,3:0:0:0:
388,169,125169,2,0,L|294:177,1,76.5000014591217,8|0,0:1|0:0,0:0:0:0:
388,169,125522,2,0,L|482:161,1,76.5000014591217,8|0,0:1|0:0,0:0:0:0:
503,228,125875,5,0,3:0:0:0:
426,94,126051,2,0,P|427:48|441:5,1,76.5000014591217,0|0,3:0|0:0,0:0:0:0:
388,169,126404,1,0,0:0:0:0:
313,123,126581,2,0,P|281:89|260:49,1,76.5000014591217,8|0,0:1|0:0,0:0:0:0:
346,35,126934,1,0,0:0:0:0:
312,208,127110,1,0,3:0:0:0:
312,208,127463,1,0,0:0:0:0:
346,35,127639,1,0,0:0:0:0:
496,127,127816,1,0,0:0:0:0:
434,18,127992,2,0,P|425:55|426:94,1,76.5000014591217,8|0,0:1|0:0,0:0:0:0:
313,123,128345,2,0,P|285:96|266:63,1,76.5000014591217
346,35,128698,5,0,3:0:0:0:
312,208,128875,1,0,3:0:0:0:
450,111,129051,1,0,0:0:0:0:
415,114,129139,1,0,0:0:0:0:
381,117,129227,1,0,0:0:0:0:
347,120,129315,1,0,0:0:0:0:
313,123,129404,2,0,L|225:130,1,76.5000014591217,8|0,0:1|0:0,0:0:0:0:
159,78,129757,1,0,0:0:0:0:
49,201,129934,1,0,3:0:0:0:
49,201,130110,6,0,P|60:156|67:113,1,76.5000014591217
171,224,130463,1,0,0:0:0:0:
166,209,130639,1,0,0:0:0:0:
32,284,130816,1,8,0:1:0:0:
32,284,131169,2,0,P|25:325|9:359,1,58.4999973220826,8|0,0:1|0:0,0:0:0:0:
112,261,131345,2,0,P|131:297|157:325,1,58.4999973220826,8|0,0:1|0:0,0:0:0:0:
247,380,131522,5,0,3:0:0:0:
168,351,131698,2,0,P|106:345|12:398,1,153.000002918243,0|0,3:0|0:0,0:0:0:0:
31,213,132228,1,8,0:1:0:0:
112,261,132404,2,0,L|103:170,1,76.5000014591217
271,280,132757,2,0,L|262:189,1,76.5000014591217,0|0,3:0|0:0,0:0:0:0:
190,232,133110,1,0,3:0:0:0:
422,222,133286,2,0,L|430:299,1,76.5000014591217
497,190,133639,1,8,0:1:0:0:
348,250,133816,1,0,0:0:0:0:
505,342,133992,2,0,P|495:314|491:285,1,58.4999973220826,2|0,0:0|0:0,0:0:0:0:
362,193,134169,2,0,P|358:221|348:249,1,58.4999973220826,2|0,0:0|0:0,0:0:0:0:
322,322,134345,5,0,3:0:0:0:
491,285,134522,1,0,3:0:0:0:
272,262,134698,1,0,0:0:0:0:
249,292,134786,1,0,0:0:0:0:
244,329,134874,1,0,0:0:0:0:
258,365,134962,1,0,0:0:0:0:
322,322,135050,5,8,0:1:0:0:
308,242,135228,1,0,0:0:0:0:
294,162,135404,1,0,0:0:0:0:
178,256,135581,6,0,L|175:284,1,26.9999991760254,0|0,3:0|0:0,0:0:0:0:
166,355,135934,1,0,0:0:0:0:
38,119,136110,2,0,L|48:110,1,13.4999995880127,0|0,3:0|0:0,0:0:0:0:
98,160,136286,2,0,L|94:177,1,13.4999995880127,0|0,3:0|0:0,0:0:0:0:
32,191,136463,1,8,0:1:0:0:
480,191,136816,1,2,0:1:0:0:
482,198,136992,1,0,0:0:0:0:
484,205,137169,5,0,3:0:0:0:
422,144,137345,2,0,L|436:62,1,76.5000014591217,0|0,3:0|0:0,3:0:0:0:
295,242,137698,1,0,0:0:0:0:
364,277,137875,2,0,L|381:351,1,76.5000014591217,8|0,0:1|0:0,0:0:0:0:
283,136,138228,1,0,0:0:0:0:
204,189,138404,2,0,L|210:170,1,13.4999995880127,0|0,3:0|0:0,0:0:0:0:
204,189,138581,2,0,P|242:229|222:333,1,153.000002918243,0|0,3:0|0:0,0:0:0:0:
82,294,139110,1,0,0:0:0:0:
73,370,139286,2,0,L|82:294,1,76.5000014591217,8|0,0:1|0:0,0:0:0:0:
56,159,139639,1,0,0:0:0:0:
48,173,139728,1,0,0:0:0:0:
41,189,139816,1,0,0:0:0:0:
123,226,139992,2,0,L|102:218,1,13.4999995880127,0|0,3:0|0:0,0:0:0:0:
41,189,140169,6,0,B|1:149|31:82|92:57|153:100|145:161|135:162|187:205|268:196|304:142|271:77,1,382.500007295609,2|0,3:1|0:0,0:0:0:0:
162,29,141228,1,0,3:0:0:0:
162,29,141404,6,0,B|112:47|89:84|90:124|90:124|128:137|169:115|190:87|190:87|184:125|192:179|264:214|264:214|311:151|303:93|275:43|211:25,1,612.000011672974,2|4,3:1|3:2,0:0:0:0:
233,33,144228,5,2,0:1:0:0:
232,41,144934,5,0,0:0:0:0:
336,113,145639,5,0,3:0:0:0:
338,120,146345,5,0,3:0:0:0:
249,294,147051,6,0,P|288:338|244:299,1,157.5,2|0,0:0|0:0,0:0:0:0:
238,317,147757,6,0,P|194:356|233:312,1,157.5,2|0,0:0|0:0,0:0:0:0:
214,306,148463,6,0,P|179:306|213:289,1,90,2|0,3:2|0:0,0:0:0:0:
204,281,149169,5,0,3:0:0:0:
480,293,149875,6,0,P|473:253|422:317,1,188.999994232178,2|0,0:0|0:0,0:0:0:0:
471,361,151286,6,0,B|512:299|472:252|480:253|431:208|476:143,1,220.499993270874,2|0,0:0|0:0,0:0:0:0:
496,88,152698,6,0,P|487:29|433:76,1,157.5,2|0,0:0|0:0,0:0:0:0:
431,71,153404,2,0,P|476:24|495:87,1,157.5,2|0,0:0|0:0,0:0:0:0:
495,87,154110,6,0,B|460:35|385:44|348:112|380:157|429:170|456:176|451:181|496:217|495:294|483:382|372:390|276:348|234:267|305:184|335:194|389:205|382:244,1,607.499981460572,2|0,0:0|0:0,0:0:0:0:
382,242,156934,6,0,B|316:275|260:279|202:221|202:221|254:160|314:146|375:177,1,377.999988464356,2|0,0:0|0:0,0:0:0:0:
362,171,158345,6,0,B|317:112|304:58|351:-9|351:-9|420:31|443:87|424:153,1,377.999988464356,2|0,0:0|0:0,0:0:0:0:
427,140,159757,6,0,B|399:109|458:66|493:53|572:130|585:200|492:301|400:284|353:199|353:199|300:100|196:91|114:179|133:266|193:331|276:307,2,863.999973632813,2|2|4,0:0|0:0|0:2,0:0:0:0:
427,140,165639,6,0,P|449:107|442:69,1,60,0|0,3:0|0:0,0:0:0:0:
376,88,165875,2,0,P|336:86|307:111,1,60,0|0,3:0|0:0,0:0:0:0:
356,158,166110,2,0,P|374:193|410:206,1,60,0|0,3:0|0:0,0:0:0:0:
465,211,166345,6,0,P|497:184|509:152,1,60,0|0,3:0|0:0,0:0:0:0:
413,27,166581,2,0,P|373:12|339:18,1,60,0|0,3:0|0:0,0:0:0:0:
279,164,166816,2,0,P|286:205|308:231,1,60,0|0,3:0|0:0,0:0:0:0:
449,87,167051,6,0,P|446:117|427:140,1,60,0|0,3:0|0:0,0:0:0:0:
390,202,167286,2,0,P|366:185|356:158,1,60,0|0,3:0|0:0,0:0:0:0:
323,93,167522,6,0,L|349:20,1,67.5,2|0,0:2|0:0,0:0:0:0:
323,93,167875,2,0,L|297:166,1,67.5,2|0,0:0|0:0,0:0:0:0:
166,30,168228,5,0,3:0:0:0:
176,103,168345,1,0,3:0:0:0:
186,176,168463,1,0,3:0:0:0:
186,176,168581,1,0,3:0:0:0:
346,30,168934,5,0,3:0:0:0:
336,103,169051,1,0,3:0:0:0:
326,176,169169,1,0,3:0:0:0:
326,176,169286,6,0,B|331:138|330:96|435:93|475:147|461:215|373:235|386:238|356:299|401:347|475:369|544:310|484:218,1,455.999987823487,2|0,3:1|0:0,0:0:0:0:
468,168,170345,5,0,3:0:0:0:
390,186,170463,1,0,3:0:0:0:
312,204,170581,1,0,3:0:0:0:
261,275,170698,5,0,3:0:0:0:
183,257,170816,1,0,3:0:0:0:
105,239,170934,1,0,3:0:0:0:
54,176,171051,6,0,P|25:231|44:286,1,90.0000034332277,0|0,3:0|0:0,0:0:0:0:
54,176,171286,2,0,P|116:173|154:129,1,90.0000034332277,0|0,3:0|0:0,0:0:0:0:
54,176,171522,2,0,P|20:123|-36:112,1,90.0000034332277,0|0,3:0|0:0,0:0:0:0:
136,158,171757,6,0,P|98:179|54:176,1,90.0000034332277,0|0,3:0|0:0,0:0:0:0:
0,112,171992,2,0,P|35:135|54:176,1,90.0000034332277,0|0,3:0|0:0,0:0:0:0:
27,256,172228,2,0,P|28:212|54:176,1,90.0000034332277,0|0,3:0|0:0,0:0:0:0:
141,57,172463,6,0,L|235:47,1,89.9999972534181,2|0,3:1|0:0,0:0:0:0:
187,129,173169,2,0,L|283:119,1,89.9999972534181,2|0,0:1|0:0,0:0:0:0:
416,71,173875,6,0,B|423:28|468:19|468:19|461:71,1,90.0000034332277,0|0,3:0|0:0,0:0:0:0:
383,208,174110,2,0,B|416:235|402:279|402:279|360:246,1,90.0000034332277,0|0,3:0|0:0,0:0:0:0:
282,120,174345,2,0,B|241:135|210:100|210:100|259:81,1,90.0000034332277,0|0,3:0|0:0,0:0:0:0:
439,149,174581,6,0,B|479:133|510:168|510:168|461:187,1,90.0000034332277,0|0,3:0|0:0,0:0:0:0:
307,189,174816,2,0,B|300:232|255:241|255:241|262:189,1,90.0000034332277,0|0,3:0|0:0,0:0:0:0:
337,64,175051,2,0,B|303:36|317:-7|317:-7|359:25,1,90.0000034332277,0|0,3:0|0:0,0:0:0:0:
439,149,175286,6,0,P|472:148|444:176,1,89.9999972534181,2|0,3:1|0:0,0:0:0:0:
448,177,175992,2,0,P|465:205|426:193,1,89.9999972534181,2|0,0:1|0:0,0:0:0:0:
425,201,176698,6,0,P|380:223|362:277,1,90.0000034332277,0|0,3:0|0:0,0:0:0:0:
291,215,176934,2,0,P|274:262|300:313,1,90.0000034332277,0|0,3:0|0:0,0:0:0:0:
206,319,177169,2,0,P|228:363|281:381,1,90.0000034332277,0|0,3:0|0:0,0:0:0:0:
425,201,177404,6,0,P|392:163|335:159,1,90.0000034332277,0|0,3:0|0:0,0:0:0:0:
376,75,177640,2,0,P|326:71|283:109,1,90.0000034332277,0|0,3:0|0:0,0:0:0:0:
254,20,177875,2,0,P|216:52|212:109,1,90.0000034332277,0|0,3:0|0:0,0:0:0:0:
178,170,178110,6,0,B|160:188|160:188|88:182,1,89.9999972534181,2|0,3:1|0:0,0:0:0:0:
165,278,178816,2,0,B|150:256|150:256|75:249,1,89.9999972534181,2|0,0:1|0:0,0:0:0:0:
22,178,179522,6,0,P|14:132|30:89,1,90.0000034332277,0|0,3:0|0:0,0:0:0:0:
28,92,179757,6,0,B|59:121|96:94|96:94|92:136|142:187|213:167|224:98,1,270.000010299683,0|0,3:0|0:0,0:0:0:0:
224,32,180228,6,0,L|238:137,1,89.9999972534181,0|0,3:0|0:0,0:0:0:0:
200,194,180934,6,0,P|192:252|216:293,1,90.0000034332277,0|0,3:0|0:0,0:0:0:0:
284,187,181169,2,0,P|304:241|290:287,1,90.0000034332277,0|0,3:0|0:0,0:0:0:0:
403,84,181522,1,0,3:0:0:0:
403,84,181639,2,0,L|472:74,1,53.9999983520508,0|0,3:0|0:0,0:0:0:0:
495,143,182110,6,0,P|477:177|503:242,1,90.0000034332277,0|0,3:0|0:0,0:0:0:0:
487,225,182345,2,0,B|426:218|426:218|452:263,1,90.0000034332277,0|0,3:0|0:0,0:0:0:0:
145,330,182816,6,0,B|206:337|206:337|180:292,1,90.0000034332277,0|0,3:0|0:0,0:0:0:0:
116,256,183051,2,0,P|76:290|81:376,1,135.000005149842,0|0,3:0|0:0,0:0:0:0:
145,330,183522,6,0,B|206:337|206:337|180:292,1,90.0000034332277,0|0,3:0|0:0,0:0:0:0:
116,256,183757,2,0,P|93:190|144:134,1,120,2|0,3:1|0:0,0:0:0:0:
117,43,184110,2,0,P|139:108|88:164,1,120,2|0,0:1|0:0,0:0:0:0:
23,202,184463,2,0,P|69:149|143:166,1,120,2|0,0:1|0:0,0:0:0:0:
207,95,184816,2,0,P|161:148|87:131,1,120,2|0,0:1|0:0,0:0:0:0:
26,56,185169,6,0,L|117:42,1,90.0000034332277,0|0,3:0|0:0,0:0:0:0:
296,82,185404,2,0,L|205:96,1,90.0000034332277,0|0,3:0|0:0,0:0:0:0:
381,120,185639,5,0,3:0:0:0:
296,82,185757,1,0,3:0:0:0:
374,29,185875,2,0,L|465:15,1,90.0000034332277,0|0,3:0|0:0,0:0:0:0:
480,97,186110,2,0,P|458:59|462:15,1,90.0000034332277,0|0,3:0|0:0,0:0:0:0:
488,182,186345,2,0,P|496:138|480:97,1,90.0000034332277,0|0,3:0|0:0,0:0:0:0:
443,256,186581,6,0,L|326:247,1,107.999996704102,0|4,3:0|3:2,0:0:0:0:
82,131,187639,5,0,3:0:0:0:
82,131,187757,2,0,B|65:177|65:177|131:158,1,90.0000034332277,0|0,3:0|0:0,0:0:0:0:
82,131,187992,6,0,P|83:90|45:44,1,90.0000034332277,0|0,3:0|0:0,0:0:0:0:
82,131,188228,2,0,P|117:152|175:142,1,90.0000034332277,0|0,3:0|0:0,0:0:0:0:
82,131,188463,2,0,P|45:150|25:205,1,90.0000034332277,0|0,3:0|0:0,0:0:0:0:
164,148,188698,6,0,P|120:153|82:131,1,90.0000034332277,0|0,3:0|0:0,0:0:0:0:
25,193,188934,2,0,P|43:153|82:131,1,90.0000034332277,0|0,3:0|0:0,0:0:0:0:
56,50,189169,2,0,P|82:86|82:131,1,90.0000034332277,0|0,3:0|0:0,0:0:0:0:
70,262,189404,6,0,L|169:248,1,89.9999972534181,0|0,3:0|0:0,0:0:0:0:
228,206,190110,6,0,P|240:237|237:252,1,35.9999989013672,2|0,0:1|0:0,0:0:0:0:
306,279,190463,2,0,P|285:304|271:309,1,35.9999989013672,2|0,0:1|0:0,0:0:0:0:
204,348,190816,6,0,L|112:343,1,90.0000034332277,0|0,3:0|0:0,0:0:0:0:
204,348,191051,2,0,L|296:353,1,90.0000034332277,0|0,3:0|0:0,0:0:0:0:
395,35,191522,6,0,P|354:89|462:51,1,315,0|0,3:0|0:0,0:0:0:0:
465,54,192228,6,0,B|337:41|337:41|365:113,1,180,0|0,3:0|0:0,0:0:0:0:
426,249,192698,2,0,L|415:225,1,17.9999994506836,2|0,0:1|0:0,0:0:0:0:
396,162,192934,6,0,P|331:181|331:292,1,180,0|0,3:0|0:0,0:0:0:0:
478,352,193404,6,0,P|425:330|380:346,1,90.0000034332277,0|0,3:0|0:0,0:0:0:0:
321,363,193639,6,0,P|257:378|206:348,1,120,0|0,3:0|0:0,0:0:0:0:
155,274,193992,5,2,0:0:0:0:
155,274,194110,1,2,0:0:0:0:
155,274,194228,1,2,3:2:0:0:
155,274,194345,2,0,P|183:309|191:353,1,90.0000034332277,2|2,3:2|0:2,0:0:0:0:
26,280,194581,1,2,0:0:0:0:
32,213,194698,1,2,0:0:0:0:
38,146,194816,1,2,0:0:0:0:
15,82,194934,1,2,0:0:0:0:
55,28,195051,6,0,P|126:20|191:74,1,120,2|0,3:1|0:0,0:0:0:0:
279,55,195404,2,0,P|208:63|143:9,1,120,2|0,0:1|0:0,0:0:0:0:
392,26,195757,5,0,3:0:0:0:
390,53,195875,1,2,0:0:0:0:
388,80,195992,1,2,0:0:0:0:
251,163,196110,1,0,3:0:0:0:
253,190,196228,1,2,0:0:0:0:
255,217,196345,1,2,0:0:0:0:
258,240,196463,6,0,P|313:232|386:271,1,90.0000034332277,0|0,3:0|0:0,0:0:0:0:
382,169,196698,2,0,P|416:212|419:295,1,90.0000034332277,0|0,3:0|0:0,0:0:0:0:
504,242,196934,2,0,P|483:293|413:337,1,90.0000034332277,0|0,3:0|3:0,0:0:0:0:
266,353,197169,6,0,B|244:303|206:290|165:298|138:333|144:333|115:375|51:365|0:311|40:253,1,300,4|0,3:2|0:0,0:0:0:0:
117,76,197875,6,0,P|123:52|84:69,1,89.9999972534181,0|0,3:0|0:0,0:0:0:0:
82,64,198581,2,0,P|64:46|59:88,1,89.9999972534181,2|0,0:1|0:0,0:0:0:0:
56,87,199286,6,0,P|35:140|59:182,1,90.0000034332277,0|0,3:0|0:0,0:0:0:0:
185,221,199522,2,0,P|149:175|101:175,1,90.0000034332277,0|0,3:0|0:0,0:0:0:0:
4,265,199757,2,0,P|60:257|85:215,1,90.0000034332277,0|0,3:0|3:0,0:0:0:0:
186,84,199992,5,2,3:2:0:0:
253,91,200110,1,2,0:0:0:0:
320,98,200228,1,2,0:0:0:0:
356,163,200345,1,2,0:0:0:0:
423,156,200463,1,2,3:2:0:0:
490,149,200581,1,2,0:0:0:0:
503,75,200698,6,0,P|457:114|481:237,1,180,0|0,3:0|0:0,0:0:0:0:
511,285,201169,2,0,P|473:265|401:294,1,90.0000034332277,0|0,3:0|0:0,0:0:0:0:
349,317,201404,1,2,0:0:0:0:
423,156,201639,2,0,P|386:178|375:255,1,90.0000034332277,0|0,3:0|3:0,0:0:0:0:
354,327,201875,1,2,0:2:0:0:
264,173,202110,6,0,P|265:215|326:263,1,90.0000034332277,0|0,3:0|0:0,0:0:0:0:
423,304,202345,2,0,L|520:282,1,90.0000034332277,0|0,3:0|0:0,0:0:0:0:
423,304,202581,2,0,L|326:326,1,90.0000034332277,0|0,3:0|0:0,0:0:0:0:
259,348,202816,6,0,P|209:290|117:298,1,120,0|0,3:0|0:0,0:0:0:0:
34,273,203169,5,2,0:0:0:0:
23,339,203286,1,2,0:0:0:0:
86,316,203404,1,2,0:0:0:0:
34,273,203522,6,0,P|12:315|27:363,1,90.0000034332277,0|0,3:0|0:0,0:0:0:0:
181,338,203757,2,0,B|219:300|269:318|269:318|301:358|373:343,1,180,0|0,3:0|0:0,0:0:0:0:
373,353,204228,2,0,P|413:298|441:337,1,120,0|0,3:0|0:0,0:0:0:0:
486,172,204581,2,0,P|446:227|418:188,1,120,0|0,3:0|0:0,0:0:0:0:
352,97,204934,6,0,P|347:51|294:147,1,330.000010070801,2|0,3:1|0:0,0:0:0:0:
288,148,205639,2,0,P|301:274|207:183,1,330.000010070801,0|0,3:1|0:0,0:0:0:0:
205,187,206345,6,0,P|173:149|95:149,1,120,2|0,0:1|0:0,0:0:0:0:
8,98,206698,2,0,P|40:136|118:136,1,120,2|0,0:1|0:0,0:0:0:0:
195,79,207051,2,0,P|145:88|106:156,1,120,2|0,0:1|0:0,0:0:0:0:
18,205,207404,2,0,P|68:197|107:129,1,120,2|0,0:1|0:0,0:0:0:0:
100,107,207757,6,0,L|80:8,1,90.0000034332277,4|0,3:2|0:0,0:0:0:0:
253,259,207992,2,0,L|273:358,1,90.0000034332277,4|0,3:2|0:0,0:0:0:0:
385,97,208228,2,0,L|365:-2,1,90.0000034332277,4|0,3:2|0:0,0:0:0:0:
465,127,208463,6,0,P|456:196|389:95,1,300,4|0,3:2|0:0,0:0:0:0:
220,40,209169,6,0,L|119:56,1,89.9999972534181,2|0,0:1|0:0,0:0:0:0:
204,123,209875,2,0,L|108:138,1,89.9999972534181,2|0,0:1|0:0,0:0:0:0:
29,133,210581,6,0,P|72:123|114:136,1,90.0000034332277,0|0,3:0|0:0,0:0:0:0:
182,76,210816,2,0,P|202:115|200:159,1,90.0000034332277,0|0,3:0|0:0,0:0:0:0:
276,208,211051,2,0,P|243:238|200:247,1,90.0000034332277,0|0,3:0|0:0,0:0:0:0:
23,276,211286,1,2,3:2:0:0:
88,255,211404,1,2,0:0:0:0:
142,295,211522,1,2,0:0:0:0:
196,335,211639,1,2,0:0:0:0:
259,312,211757,1,2,0:0:0:0:
321,285,211875,1,2,0:0:0:0:
382,317,211992,6,0,B|437:313|491:356|491:356|479:297|540:218,1,233.999989288331,0|0,3:0|0:0,0:0:0:0:
475,146,212463,2,0,B|419:149|366:107|366:107|377:165|317:245,1,233.999989288331,0|0,3:0|0:0,0:0:0:0:
259,312,212934,1,0,3:0:0:0:
192,322,213051,2,0,L|96:334,1,90.0000034332277,0|0,3:0|0:0,0:0:0:0:
15,153,213286,1,0,0:0:0:0:
82,163,213404,6,0,P|131:157|175:133,1,90.0000034332277,0|0,3:0|0:0,0:0:0:0:
188,53,213639,2,0,P|168:98|167:148,1,90.0000034332277,0|0,3:0|0:0,0:0:0:0:
230,199,213875,2,0,P|200:159|157:133,1,90.0000034332277,0|0,3:0|0:0,0:0:0:0:
25,70,214110,5,2,3:2:0:0:
15,153,214228,1,2,0:0:0:0:
5,236,214345,1,2,0:0:0:0:
81,204,214463,1,2,0:0:0:0:
158,171,214580,1,2,3:0:0:0:
91,120,214698,1,2,0:0:0:0:
25,70,214816,6,0,P|6:108|29:169,1,90.0000034332277,2|2,3:2|0:2,0:0:0:0:
154,249,215051,2,0,P|196:246|237:196,1,90.0000034332277,2|2,3:2|0:0,0:0:0:0:
246,52,215286,2,0,P|222:16|158:5,1,90.0000034332277,2|2,3:2|0:2,0:0:0:0:
91,120,215522,6,0,L|84:166,1,30,2|0,3:2|0:0,0:0:0:0:
164,144,215639,2,0,L|157:190,1,30,0|0,3:2|0:0,0:0:0:0:
250,81,215757,6,0,L|245:51,1,30,2|0,3:2|0:0,0:0:0:0:
323,57,215875,2,0,L|318:27,1,30,2|0,3:2|0:0,0:0:0:0:
389,161,215992,6,0,L|393:190,1,30,2|0,3:2|0:0,0:0:0:0:
462,137,216110,2,0,L|466:166,1,30,2|0,3:2|0:0,0:0:0:0:
484,27,216228,5,4,0:2:0:0:
256,192,216345,12,0,221522,0:0:0:0:
303,204,221875,6,0,L|413:227,1,107.999996704102,2|0,0:1|0:0,0:0:0:0:
209,180,222404,6,0,L|107:158,1,90,2|0,0:1|0:0,0:0:0:0:
244,239,222934,6,0,L|228:316,1,72,2|0,0:1|0:0,0:0:0:0:
268,145,223463,6,0,L|282:81,1,53.9999983520508,2|0,0:1|0:0,0:0:0:0:
244,239,223992,6,0,L|232:298,5,54,2|2|2|2|2|0,0:1|0:1|0:1|0:1|0:1|0:0,0:0:0:0:
476,150,227522,6,0,P|425:134|372:142,1,107.999996704102,2|0,0:1|0:0,0:0:0:0:
297,128,228051,6,0,P|283:171|291:212,1,90,2|0,0:1|0:0,0:0:0:0:
270,284,228581,6,0,P|292:318|330:337,1,72,2|0,0:1|0:0,0:0:0:0:
385,375,229110,6,0,P|417:371|445:354,1,53.9999983520508,2|0,0:1|0:0,0:0:0:0:
480,294,229639,5,2,0:1:0:0:
36,234,230169,1,2,0:0:0:0:
36,234,230345,6,0,P|87:250|140:242,1,107.999996704102,2|0,0:1|0:0,0:0:0:0:
215,256,230875,6,0,P|228:212|220:171,1,90,2|0,0:1|0:0,0:0:0:0:
242,100,231404,6,0,P|219:65|181:46,1,72,2|0,0:1|0:0,0:0:0:0:
127,9,231934,6,0,P|94:12|66:29,1,53.9999983520508,2|0,0:1|0:0,0:0:0:0:
32,90,232463,5,2,0:1:0:0:
303,204,232992,5,2,0:0:0:0:
303,204,233169,2,0,L|413:227,1,107.999996704102,2|0,0:1|0:0,0:0:0:0:
209,180,233698,6,0,L|107:158,1,90,2|0,0:1|0:0,0:0:0:0:
244,239,234228,6,0,L|228:316,1,72,2|0,0:1|0:0,0:0:0:0:
268,145,234757,6,0,L|282:81,1,53.9999983520508,2|0,0:1|0:0,0:0:0:0:
244,239,235286,6,0,L|232:298,6,54,2|2|2|2|2|2|0,0:1|0:1|0:1|0:1|0:1|0:1|0:0,0:0:0:0:
159,226,238816,6,0,P|184:274|244:291,1,107.999996704102,2|0,0:1|0:0,0:0:0:0:
147,313,239345,6,0,P|192:312|232:291,1,90,2|0,0:1|0:0,0:0:0:0:
213,359,239875,6,0,P|229:327|232:291,1,72,2|0,0:1|0:0,0:0:0:0:
272,325,240404,6,0,P|256:304|232:291,1,53.9999983520508,2|0,0:1|0:0,0:0:0:0:
256,268,240934,6,0,P|240:275|232:291,1,36,2|0,0:1|0:0,0:0:0:0:
353,158,241463,5,2,0:0:0:0:
353,158,241639,2,0,P|328:110|268:93,1,107.999996704102,2|0,0:1|0:0,0:0:0:0:
364,70,242169,6,0,P|319:71|279:92,1,90,2|0,0:1|0:0,0:0:0:0:
298,24,242698,6,0,P|282:56|279:92,1,72,2|0,0:1|0:0,0:0:0:0:
239,58,243228,6,0,P|255:79|279:92,1,53.9999983520508,2|0,0:1|0:0,0:0:0:0:
255,115,243757,6,0,P|271:108|279:92,1,36,2|0,0:1|0:0,0:0:0:0:
303,204,244286,5,2,0:0:0:0:
303,204,244463,2,0,L|413:227,1,107.999996704102,2|0,0:1|0:0,0:0:0:0:
209,180,244992,6,0,L|107:158,1,90,2|0,0:1|0:0,0:0:0:0:
244,239,245522,6,0,L|228:316,1,72,2|0,0:1|0:0,0:0:0:0:
268,145,246051,6,0,L|282:81,1,53.9999983520508,2|0,0:1|0:0,0:0:0:0:
244,239,246581,6,0,L|232:298,6,54,2|2|2|2|2|2|2,0:1|0:1|0:1|0:1|0:1|0:1|0:1,0:0:0:0:
