osu file format v14

[General]
AudioFilename: audio.mp3
AudioLeadIn: 0
PreviewTime: 175032
Countdown: 0
SampleSet: Soft
StackLeniency: 0.6
Mode: 0
LetterboxInBreaks: 0
WidescreenStoryboard: 1

[Editor]
Bookmarks: 178119
DistanceSpacing: 1.1
BeatDivisor: 4
GridSize: 32
TimelineZoom: 1.9

[Metadata]
Title:Palette
TitleUnicode:Palette
Artist:Hanatan
ArtistUnicode:花たん
Creator:Fall
Version:reealy_'s Normal
Source:
Tags:draw the emotional meola solitude freak rock metal japanese _tranquility seto kousuke star stream star_kor realy0_ garden affirmation marle evilelvis jounzan natteke desu Megurine Luka VOCALOID ユリカ YURiCa ゆよゆっぺ Yuyoyuppe
BeatmapID:4176953
BeatmapSetID:1572337

[Difficulty]
HPDrainRate:3
CircleSize:3.6
OverallDifficulty:4.5
ApproachRate:6
SliderMultiplier:1
SliderTickRate:1

[Events]
//Background and Video events
0,0,"Palette..jpg",0,0
//Break Periods
2,112274,122691
2,126607,129357
2,133273,136024
//Storyboard Layer 0 (Background)
//Storyboard Layer 1 (Fail)
//Storyboard Layer 2 (Pass)
//Storyboard Layer 3 (Foreground)
//Storyboard Layer 4 (Overlay)
//Storyboard Sound Samples

[TimingPoints]
1077,333.333333333333,6,2,1,60,1,0
8741,-100,6,2,5,60,0,0
8908,-100,6,2,6,60,0,0
9074,-100,6,2,5,60,0,0
10408,-100,6,2,6,60,0,0
10574,-100,6,2,5,60,0,0
11824,-100,6,2,6,60,0,0
11908,-100,6,2,5,60,0,0
12408,-100,6,2,6,60,0,0
12491,-100,6,2,5,60,0,0
12741,-100,6,2,6,60,0,0
13074,-100,6,2,5,60,0,0
14408,-100,6,2,6,60,0,0
14574,-100,6,2,5,60,0,0
14741,-100,6,2,6,60,0,0
15074,-100,6,2,5,60,0,0
16408,-100,6,2,6,60,0,0
17074,-100,6,2,5,60,0,0
18408,-100,6,2,6,60,0,0
18574,-100,6,2,5,60,0,0
19824,-100,6,2,6,60,0,0
19908,-100,6,2,5,60,0,0
20408,-100,6,2,6,60,0,0
20491,-100,6,2,5,60,0,0
20741,-100,6,2,6,60,0,0
21074,-100,6,2,5,60,0,0
22408,-100,6,2,6,60,0,0
22574,-100,6,2,5,60,0,0
22741,-100,6,2,6,60,0,0
23074,-100,6,2,5,60,0,0
24408,-100,6,2,6,60,0,0
24824,-100,6,2,5,60,0,0
24908,-100,6,2,6,60,0,0
25074,-100,6,2,5,60,0,0
26408,-100,6,2,6,60,0,0
26574,-100,6,2,5,60,0,0
27824,-100,6,2,6,60,0,0
27908,-100,6,2,5,60,0,0
28408,-100,6,2,6,60,0,0
28491,-100,6,2,5,60,0,0
28741,-100,6,2,6,60,0,0
29074,-100,6,2,5,60,0,0
30408,-100,6,2,6,60,0,0
30574,-100,6,2,5,60,0,0
30741,-100,6,2,6,60,0,0
31074,-100,6,2,5,60,0,0
32074,-100,6,2,5,100,0,0
32408,-100,6,2,5,5,0,0
32741,-100,6,2,1,70,0,0
32908,-100,6,2,1,5,0,0
33076,-90.9090909090909,6,2,2,85,0,1
49076,333.333333333333,5,2,3,70,1,0
49076,-111.111111111111,6,2,3,70,0,0
62409,333.333333333333,6,2,3,75,1,0
62409,-100,6,2,3,75,0,0
77075,-100,6,2,3,75,0,0
78075,-100,6,2,3,75,0,0
78325,-100,6,2,3,5,0,0
78408,-90.9090909090909,6,2,2,85,0,1
78825,-90.9090909090909,6,2,2,5,0,1
78908,-90.9090909090909,6,2,2,85,0,1
79158,-90.9090909090909,6,2,2,5,0,1
79242,-90.9090909090909,6,2,2,85,0,1
79575,-90.9090909090909,6,2,2,5,0,1
79742,-90.9090909090909,6,2,2,85,0,1
80242,-90.9090909090909,6,2,2,5,0,1
80408,-90.9090909090909,6,2,2,85,0,1
80742,-90.9090909090909,6,2,2,5,0,1
80908,-90.9090909090909,6,2,2,85,0,1
81158,-90.9090909090909,6,2,2,5,0,1
81242,-90.9090909090909,6,2,2,85,0,1
81908,-90.9090909090909,6,2,2,5,0,1
82075,-90.9090909090909,6,2,2,85,0,1
82242,-90.9090909090909,6,2,2,5,0,1
82408,-90.9090909090909,6,2,2,85,0,1
82825,-90.9090909090909,6,2,2,5,0,1
82908,-90.9090909090909,6,2,2,85,0,1
83158,-90.9090909090909,6,2,2,5,0,1
83242,-90.9090909090909,6,2,2,85,0,1
83575,-90.9090909090909,6,2,2,5,0,1
83742,-90.9090909090909,6,2,2,85,0,1
84242,-90.9090909090909,6,2,2,5,0,1
84408,-90.9090909090909,6,2,2,85,0,1
84908,-90.9090909090909,6,2,2,85,0,1
85158,-90.9090909090909,6,2,2,5,0,1
85242,-90.9090909090909,6,2,2,85,0,1
85992,-90.9090909090909,6,2,2,5,0,1
86075,-90.9090909090909,6,2,2,85,0,1
86325,-90.9090909090909,6,2,2,5,0,1
86408,-90.9090909090909,6,2,2,85,0,1
86742,-90.9090909090909,6,2,2,5,0,1
86908,-90.9090909090909,6,2,2,85,0,1
87158,-90.9090909090909,6,2,2,5,0,1
87242,-90.9090909090909,6,2,2,85,0,1
87575,-90.9090909090909,6,2,2,5,0,1
87742,-90.9090909090909,6,2,2,85,0,1
88325,-90.9090909090909,6,2,2,5,0,1
88408,-90.9090909090909,6,2,2,85,0,1
88825,-90.9090909090909,6,2,2,5,0,1
88908,-90.9090909090909,6,2,2,85,0,1
89055,-90.9090909090909,6,2,2,5,0,1
89242,-90.9090909090909,6,2,2,85,0,1
89805,-90.9090909090909,6,2,2,5,0,1
90075,-90.9090909090909,6,2,2,85,0,1
90222,-90.9090909090909,6,2,2,5,0,1
90408,-90.9090909090909,6,2,2,85,0,1
90722,-90.9090909090909,6,2,2,5,0,1
90908,-90.9090909090909,6,2,2,85,0,1
91158,-90.9090909090909,6,2,2,5,0,1
91242,-90.9090909090909,6,2,2,85,0,1
91575,-90.9090909090909,6,2,2,5,0,1
91742,-90.9090909090909,6,2,2,85,0,1
92325,-90.9090909090909,6,2,2,5,0,1
92408,-90.9090909090909,6,2,2,85,0,1
92742,-90.9090909090909,6,2,2,5,0,1
92908,-90.9090909090909,6,2,2,85,0,1
93450,-90.9090909090909,6,2,2,5,0,1
93575,-90.9090909090909,6,2,2,85,0,1
93617,-90.9090909090909,6,2,2,5,0,1
93742,-90.9090909090909,6,2,2,85,0,1
93783,-90.9090909090909,6,2,2,5,0,1
93908,-90.9090909090909,6,2,2,85,0,1
93950,-90.9090909090909,6,2,2,5,0,1
94075,-90.9090909090909,6,2,2,85,0,1
94117,-90.9090909090909,6,2,2,5,0,1
94242,-90.9090909090909,6,2,2,85,0,1
94283,-90.9090909090909,6,2,2,5,0,1
94325,-90.9090909090909,6,2,2,5,0,0
94408,-90.9090909090909,6,2,2,85,0,1
94825,-90.9090909090909,6,2,2,5,0,1
94908,-90.9090909090909,6,2,2,85,0,1
95158,-90.9090909090909,6,2,2,5,0,1
95242,-90.9090909090909,6,2,2,85,0,1
95555,-90.9090909090909,6,2,2,5,0,1
95742,-90.9090909090909,6,2,2,85,0,1
96222,-90.9090909090909,6,2,2,5,0,1
96408,-90.9090909090909,6,2,2,85,0,1
96639,-90.9090909090909,6,2,2,5,0,1
96908,-90.9090909090909,6,2,2,85,0,1
97055,-90.9090909090909,6,2,2,5,0,1
97242,-90.9090909090909,6,2,2,85,0,1
97805,-90.9090909090909,6,2,2,5,0,1
98075,-90.9090909090909,6,2,2,85,0,1
98222,-90.9090909090909,6,2,2,5,0,1
98408,-90.9090909090909,6,2,2,85,0,1
98722,-90.9090909090909,6,2,2,5,0,1
98908,-90.9090909090909,6,2,2,85,0,1
99055,-90.9090909090909,6,2,2,5,0,1
99242,-90.9090909090909,6,2,2,85,0,1
99575,-90.9090909090909,6,2,2,5,0,1
99659,-90.9090909090909,6,2,2,85,0,1
100139,-90.9090909090909,6,2,2,5,0,1
100408,-90.9090909090909,6,2,2,85,0,1
100722,-90.9090909090909,6,2,2,5,0,1
100908,-90.9090909090909,6,2,2,85,0,1
101055,-90.9090909090909,6,2,2,5,0,1
101242,-90.9090909090909,6,2,2,85,0,1
101805,-90.9090909090909,6,2,2,5,0,1
102075,-90.9090909090909,6,2,2,85,0,1
102222,-90.9090909090909,6,2,2,5,0,1
102408,-90.9090909090909,6,2,2,85,0,1
102722,-90.9090909090909,6,2,2,5,0,1
102908,-90.9090909090909,6,2,2,85,0,1
103055,-90.9090909090909,6,2,2,5,0,1
103242,-90.9090909090909,6,2,2,85,0,1
103555,-90.9090909090909,6,2,2,5,0,1
103742,-90.9090909090909,6,2,2,85,0,1
104222,-90.9090909090909,6,2,2,5,0,1
104408,-90.9090909090909,6,2,2,85,0,1
104908,-90.9090909090909,6,2,2,85,0,1
105055,-90.9090909090909,6,2,2,5,0,1
105242,-90.9090909090909,6,2,2,85,0,1
105805,-90.9090909090909,6,2,2,5,0,1
106075,-90.9090909090909,6,2,2,85,0,1
106325,-90.9090909090909,6,2,2,5,0,1
106408,-90.9090909090909,6,2,2,85,0,1
106709,-90.9090909090909,6,2,2,5,0,1
106908,-90.9090909090909,6,2,2,85,0,1
107042,-90.9090909090909,6,2,2,5,0,1
107242,-90.9090909090909,6,2,2,85,0,1
107459,-90.9090909090909,6,2,2,5,0,1
107742,-90.9090909090909,6,2,2,85,0,1
108126,-90.9090909090909,6,2,2,5,0,1
108408,-90.9090909090909,6,2,2,85,0,1
108709,-90.9090909090909,6,2,2,5,0,1
108908,-90.9090909090909,6,2,2,85,0,1
109042,-90.9090909090909,6,2,2,5,0,1
109242,-90.9090909090909,6,2,2,85,0,1
110408,333.333333333333,5,2,2,85,1,0
110408,-90.9090909090909,6,2,2,85,0,0
110490,-90.9090909090909,6,2,7,5,0,0
110740,-90.9090909090909,6,2,7,75,0,0
110907,-90.9090909090909,6,2,7,5,0,0
111073,-90.9090909090909,6,2,7,75,0,0
111240,-90.9090909090909,6,2,7,5,0,0
111407,-90.9090909090909,6,2,7,75,0,0
111573,-90.9090909090909,6,2,7,5,0,0
111740,-90.9090909090909,6,2,7,75,0,0
111907,-90.9090909090909,6,2,7,5,0,0
112074,-100,6,2,7,75,0,0
112240,-100,6,2,7,5,0,0
112407,-100,6,2,7,75,0,0
112573,-100,6,2,7,5,0,0
112740,-100,6,2,7,75,0,0
112907,-100,6,2,7,5,0,0
113073,-100,6,2,7,75,0,0
113240,-100,6,2,7,5,0,0
113407,-100,6,2,7,75,0,0
113573,-100,6,2,7,5,0,0
113741,-100,6,2,7,75,0,0
113907,-100,6,2,7,5,0,0
114073,-100,6,2,7,75,0,0
114240,-100,6,2,7,5,0,0
114407,-100,6,2,7,75,0,0
114573,-100,6,2,7,5,0,0
114740,-100,6,2,7,75,0,0
114907,-100,6,2,7,5,0,0
115073,-100,6,2,7,75,0,0
115240,-100,6,2,7,5,0,0
115407,-100,6,2,7,75,0,0
115573,-100,6,2,7,5,0,0
115740,-100,6,2,7,75,0,0
115907,-100,6,2,7,5,0,0
116073,-100,6,2,7,75,0,0
116240,-100,6,2,7,5,0,0
116407,-100,6,2,7,75,0,0
116573,-100,6,2,7,5,0,0
116740,-100,6,2,7,75,0,0
116907,-100,6,2,7,5,0,0
117074,-100,6,2,7,75,0,0
117240,-100,6,2,7,5,0,0
117407,-100,6,2,7,75,0,0
117573,-100,6,2,7,5,0,0
117740,-100,6,2,7,75,0,0
117906,-100,6,2,7,5,0,0
118073,-100,6,2,7,75,0,0
118240,-100,6,2,7,5,0,0
118406,-100,6,2,7,75,0,0
118906,-100,6,2,7,5,0,0
119073,-100,6,2,7,75,0,0
119240,-100,6,2,7,5,0,0
119406,-100,6,2,7,75,0,0
119573,-100,6,2,7,5,0,0
119740,-100,6,2,7,75,0,0
119906,-100,6,2,7,5,0,0
120073,-100,6,2,7,75,0,0
120573,-100,6,2,7,5,0,0
120740,-100,6,2,7,75,0,0
120906,-100,6,2,7,5,0,0
121073,-100,6,2,7,75,0,0
121240,-100,6,2,7,5,0,0
121406,-100,6,2,7,75,0,0
121573,-100,6,2,7,5,0,0
121740,-100,6,2,7,75,0,0
122240,-100,6,2,7,5,0,0
122406,-100,6,2,7,75,0,0
122573,-100,6,2,7,5,0,0
122740,-100,6,2,7,75,0,0
122906,-100,6,2,7,5,0,0
123073,-100,6,2,7,75,0,0
123656,-100,6,2,7,5,0,0
123740,-100,6,2,7,75,0,0
123824,-100,6,2,8,35,0,0
137074,333.333333333333,6,2,5,45,1,0
137074,-100,6,2,5,45,0,0
139074,333.333333333333,3,2,8,25,1,0
139074,-125,6,2,8,25,0,0
154740,-100,6,2,9,40,0,0
155073,-111.111111111111,6,2,9,40,0,0
174073,-100,6,2,2,85,0,0
174907,-100,6,2,2,85,0,0
174989,-100,6,2,2,5,0,0
175073,333.333333333333,6,2,2,95,1,1
175073,-90.9090909090909,6,2,2,95,0,1
190240,-90.9090909090909,6,2,2,5,0,1
190406,-90.9090909090909,6,2,2,95,0,1
190448,-90.9090909090909,6,2,2,5,0,1
190572,-90.9090909090909,6,2,2,95,0,1
190615,-90.9090909090909,6,2,2,5,0,1
190739,-90.9090909090909,6,2,2,95,0,1
190782,-90.9090909090909,6,2,2,5,0,1
190906,-90.9090909090909,6,2,2,95,0,1
190948,-90.9090909090909,6,2,2,5,0,1
190989,-90.9090909090909,6,2,2,5,0,0
191072,-90.9090909090909,6,2,2,95,0,1
206448,-90.9090909090909,6,2,2,5,0,1
206573,-90.9090909090909,6,2,2,95,0,1
206615,-90.9090909090909,6,2,2,5,0,1
206740,-90.9090909090909,6,2,2,95,0,1
206782,-90.9090909090909,6,2,2,5,0,1
206906,-90.9090909090909,6,2,2,95,0,1
206948,-90.9090909090909,6,2,2,5,0,1
206989,-90.9090909090909,6,2,2,95,0,0
207072,-90.9090909090909,6,2,2,95,0,1
215072,-90.9090909090909,6,2,2,95,0,0
217072,-100,6,2,2,75,0,0
219072,-100,6,2,2,55,0,0
221072,-100,6,2,2,35,0,0
222406,-100,6,2,2,15,0,0
222906,-100,6,2,2,5,0,0

[Colours]
Combo1 : 71,141,141
Combo2 : 66,255,160
Combo3 : 0,242,121
Combo4 : 138,255,197

[HitObjects]
256,192,32076,5,12,3:2:0:0:
32,51,33076,5,12,0:2:0:0:
104,133,33410,2,0,P|100:160|98:187,1,55.0000016784668,12|0,0:2|3:0,0:0:0:0:
56,223,33743,2,0,P|53:250|49:277,1,55.0000016784668,12|0,0:2|3:0,0:0:0:0:
94,309,34076,2,0,P|157:304|215:302,1,110.000003356934,12|12,0:2|0:0,0:0:0:0:
279,221,34743,1,8,0:2:0:0:
329,244,34909,1,8,0:2:0:0:
353,294,35076,5,12,0:2:0:0:
463,298,35410,2,0,P|467:271|469:244,1,55.0000016784668,12|0,0:2|3:0,0:0:0:0:
478,189,35743,2,0,P|451:193|424:195,1,55.0000016784668,12|0,0:2|3:0,0:0:0:0:
389,151,36076,2,0,P|417:80|458:45,1,110.000003356934,12|12,0:0|0:0,0:0:0:0:
336,19,36743,1,8,0:2:0:0:
297,58,36909,1,8,0:2:0:0:
291,113,37076,5,10,0:2:0:0:
183,87,37410,1,10,0:2:0:0:
84,136,37743,1,10,0:2:0:0:
98,189,37909,1,8,0:2:0:0:
142,222,38076,5,10,0:2:0:0:
105,326,38410,1,10,0:2:0:0:
208,363,38743,1,10,0:2:0:0:
253,263,39076,6,0,P|251:235|247:208,1,55.0000016784668,10|0,0:2|3:0,0:0:0:0:
300,193,39410,2,0,P|312:167|322:142,1,55.0000016784668,10|0,0:2|3:0,0:0:0:0:
374,158,39743,2,0,P|397:142|418:125,1,55.0000016784668,10|0,0:2|3:0,0:0:0:0:
465,97,40076,6,0,B|376:90|376:90|352:59|352:59|260:49,1,220.000006713867,8|8,0:2|0:2,0:0:0:0:
192,135,41076,6,0,P|165:144|140:155,1,55.0000016784668,12|0,0:2|3:0,0:0:0:0:
87,140,41409,2,0,P|81:112|78:85,1,55.0000016784668,12|0,0:2|3:0,0:0:0:0:
100,35,41743,2,0,P|126:29|153:26,1,55.0000016784668,12|0,0:2|3:0,0:0:0:0:
205,47,42076,2,0,P|249:15|303:4,1,110.000003356934,12|4,0:2|0:0,0:0:0:0:
408,34,42743,1,8,0:2:0:0:
439,79,42909,1,8,0:2:0:0:
435,134,43076,6,0,P|431:161|429:188,1,55.0000016784668,12|0,0:2|3:0,0:0:0:0:
376,205,43409,2,0,P|348:209|321:212,1,55.0000016784668,12|0,0:2|3:0,0:0:0:0:
266,217,43743,2,0,P|238:213|211:209,1,55.0000016784668,12|0,0:2|3:0,0:0:0:0:
156,205,44076,2,0,P|161:268|163:326,1,110.000003356934,12|8,0:2|0:2,0:0:0:0:
257,370,44743,1,8,0:2:0:0:
312,364,44910,1,8,0:2:0:0:
351,325,45076,5,10,0:2:0:0:
459,343,45410,1,10,0:2:0:0:
504,242,45743,1,10,0:2:0:0:
490,190,45909,1,8,0:2:0:0:
445,156,46076,5,10,0:2:0:0:
511,67,46410,1,10,0:2:0:0:
417,8,46743,1,10,0:2:0:0:
337,83,47076,6,0,P|309:87|282:89,1,55.0000016784668,10|0,0:2|3:0,0:0:0:0:
233,64,47409,2,0,P|216:85|198:107,1,55.0000016784668,10|0,0:2|3:0,0:0:0:0:
143,111,47743,2,0,P|126:88|108:68,1,55.0000016784668,10|0,0:2|3:0,0:0:0:0:
56,86,48076,6,0,B|63:175|63:175|94:199|94:199|104:291,1,220.000006713867,8|8,0:2|0:2,0:0:0:0:
188,322,49076,6,0,B|226:298|226:298|315:316,1,134.999995880127,4|8,3:2|0:2,0:0:0:0:
441,269,50076,1,0,3:0:0:0:
387,196,50409,1,0,3:0:0:0:
457,140,50742,2,0,P|467:81|487:22,1,89.9999972534181,0|0,3:0|0:0,0:0:0:0:
443,19,51242,2,0,P|399:30|355:37,1,89.9999972534181,8|0,0:2|3:0,0:0:0:0:
317,12,51742,1,0,3:0:0:0:
265,85,52076,2,0,P|278:109|291:144,1,44.999998626709,0|0,1:0|1:0,0:0:0:0:
258,161,52409,6,0,B|195:174|201:108|132:126,1,134.999995880127,4|8,3:2|0:2,0:0:0:0:
10,166,53409,1,0,3:0:0:0:
57,254,53742,1,0,3:0:0:0:
57,254,53909,1,0,0:0:0:0:
57,254,54075,6,0,B|70:313|82:365|27:379,2,134.999995880127,0|8|0,3:0|0:2|3:0,0:0:0:0:
98,173,55409,1,8,0:2:0:0:
185,195,55742,6,0,P|250:199|296:152,1,134.999995880127,4|8,3:2|0:2,0:0:0:0:
353,30,56742,1,0,3:0:0:0:
440,11,57075,1,0,3:0:0:0:
459,99,57409,2,0,P|469:158|489:217,1,89.9999972534181,0|0,3:0|0:0,0:0:0:0:
445,220,57909,2,0,P|401:209|357:202,1,89.9999972534181,8|0,0:2|3:0,0:0:0:0:
318,225,58409,1,0,3:0:0:0:
252,163,58742,2,0,L|232:122,1,44.999998626709,0|0,1:0|1:0,0:0:0:0:
191,102,59075,6,0,B|155:129|155:129|141:219,1,134.999995880127,4|8,3:2|0:2,0:0:0:0:
47,314,60075,1,0,3:0:0:0:
125,358,60409,1,0,3:0:0:0:
199,307,60742,6,0,B|262:294|256:360|325:342,2,134.999995880127,0|8|0,3:0|0:2|3:0,0:0:0:0:
125,358,62075,1,0,1:2:0:0:
47,314,62409,6,0,B|-30:269|-16:140|73:182,1,200,4|8,3:2|0:2,0:0:0:0:
152,209,63409,2,0,B|288:196|254:117|328:130,1,200,0|8,3:0|0:2,0:0:0:0:
420,166,64409,2,0,P|476:142|473:48,1,150,0|0,3:0|0:0,0:0:0:0:
446,26,65075,1,8,0:2:0:0:
351,0,65409,2,0,P|295:24|298:118,1,150,8|0,0:2|0:0,0:0:0:0:
325,133,66075,1,0,1:0:0:0:
423,118,66408,6,0,B|418:187|418:187|394:207|394:207|384:315,1,200,0|0,3:0|3:0,0:0:0:0:
291,344,67409,2,0,B|300:244|300:244|177:311,1,200,0|8,3:0|0:2,0:0:0:0:
129,235,68409,2,0,L|255:171,1,100,0|0,3:0|3:0,0:0:0:0:
263,168,68909,2,0,L|308:78,1,100
328,33,69409,1,0,1:0:0:0:
426,17,69742,1,0,3:0:0:0:
484,97,70075,1,0,3:0:0:0:
414,169,70408,6,0,B|341:181|358:91|239:89,1,200,4|10,3:2|0:2,0:0:0:0:
145,124,71408,2,0,P|84:131|97:16,1,200,0|10,3:2|0:2,0:0:0:0:
180,19,72408,2,0,P|235:33|287:60,1,100,0|2,3:2|3:2,0:0:0:0:
325,71,72908,1,0,0:0:0:0:
325,71,73074,2,0,P|379:55|393:-2,2,100,10|8|2,0:2|0:2|3:2,0:0:0:0:
224,80,74075,2,0,P|204:100|197:137,1,50,2|0,1:2|1:2,0:0:0:0:
176,166,74408,6,0,L|86:211,2,100,2|2|2,3:2|1:2|1:2,0:0:0:0:
273,187,75408,2,0,B|316:164|316:164|415:192,1,150,2|0,3:2|0:0,0:0:0:0:
462,203,76075,1,2,1:2:0:0:
510,290,76408,2,0,P|490:333|443:337,1,100,2|2,3:2|3:2,0:0:0:0:
398,314,76908,1,0,0:0:0:0:
398,314,77075,2,0,P|350:318|331:361,1,100,2|0,1:2|1:2,0:0:0:0:
195,214,78075,1,0,1:2:0:0:
147,313,78408,5,4,3:2:0:0:
108,351,78575,2,0,P|80:347|-16:341,2,110.000003356934,0|0|0,3:2|3:0|3:2,0:0:0:0:
148,313,79408,2,0,P|203:253|226:231,1,110.000003356934,8|0,0:0|3:0,0:0:0:0:
277,259,79908,1,8,0:2:0:0:
277,259,80075,1,0,3:2:0:0:
373,205,80408,5,2,3:2:0:0:
411,244,80575,2,0,B|403:316|403:316|368:358,2,110.000003356934,0|0|0,3:2|3:2|3:2,0:0:0:0:
460,217,81408,1,8,0:2:0:0:
460,217,81575,1,8,0:2:0:0:
498,177,81742,2,0,B|490:105|490:105|455:63,1,110.000003356934,0|0,3:2|3:0,0:0:0:0:
369,23,82408,6,0,P|333:67|285:38,1,110.000003356934,4|0,3:2|0:0,0:0:0:0:
260,95,82908,2,0,P|203:100|189:46,1,110.000003356934,0|0,3:0|3:2,0:0:0:0:
142,92,83408,2,0,P|87:88|32:82,2,110.000003356934,8|0|0,0:2|3:0|3:0,0:0:0:0:
240,141,84408,6,0,P|276:97|324:126,1,110.000003356934,2|0,3:2|0:0,0:0:0:0:
349,69,84908,2,0,P|405:63|419:117,1,110.000003356934,0|0,3:0|3:2,0:0:0:0:
466,138,85408,1,8,0:0:0:0:
461,248,85742,2,0,B|440:301|440:301|458:373,1,110.000003356934,4|4,3:2|3:2,0:0:0:0:
351,310,86408,5,6,3:2:0:0:
310,347,86575,2,0,P|255:343|200:337,2,110.000003356934,0|0|0,3:2|3:2|3:2,0:0:0:0:
351,310,87408,2,0,P|313:237|296:210,1,110.000003356934,8|0,0:2|3:0,0:0:0:0:
341,178,87908,1,8,0:2:0:0:
341,178,88075,1,0,3:2:0:0:
363,70,88408,6,0,B|326:29|326:29|267:41,1,110.000003356934,2|0,3:2|0:0,0:0:0:0:
229,6,88908,2,0,B|174:2|174:2|141:53,1,110.000003356934,0|0,3:0|3:2,0:3:0:0:
98,76,89408,1,8,0:2:0:0:
98,76,89575,1,8,0:2:0:0:
46,95,89742,2,0,P|74:142|98:201,1,110.000003356934,4|4,3:2|3:2,0:0:0:0:
201,220,90408,5,4,3:2:0:0:
178,270,90575,2,0,P|169:301|124:382,2,110.000003356934,0|0|0,3:2|3:0|3:2,0:0:0:0:
201,220,91408,2,0,P|254:208|309:201,2,110.000003356934,8|0|0,0:2|3:0|3:2,0:0:0:0:
148,123,92408,5,2,3:2:0:0:
108,84,92575,2,0,P|90:59|19:-3,2,110.000003356934,0|0|0,3:2|3:2|3:2,0:0:0:0:
148,123,93408,2,0,P|202:115|256:103,1,110.000003356934,8|0,0:2|3:2,0:0:0:0:
305,78,93908,1,0,3:2:0:0:
347,42,94075,1,0,3:2:0:0:
436,106,94408,5,4,3:2:0:0:
411,155,94575,2,0,B|390:208|390:208|408:280,2,110.000003356934,0|0|0,3:2|3:2|3:2,0:0:0:0:
436,106,95408,2,0,B|461:59|461:59|455:3,1,110.000003356934,8|0,0:2|3:0,0:0:0:0:
403,7,95908,1,8,0:2:0:0:
403,7,96075,1,0,3:0:0:0:
303,54,96408,5,2,3:2:0:0:
258,21,96575,2,0,B|133:13,2,110.000003356934,0|0|0,3:2|3:0|3:2,0:0:0:0:
307,59,97408,1,8,0:2:0:0:
307,59,97575,1,8,0:2:0:0:
325,110,97742,2,0,B|333:235,1,110.000003356934,0|0,3:0|3:2,0:0:0:0:
392,311,98408,6,0,P|440:326|470:284,1,110.000003356934,4|0,3:2|0:0,0:0:0:0:
497,236,98908,2,0,P|440:241|426:187,1,110.000003356934,0|0,3:0|3:2,0:0:0:0:
458,157,99408,2,0,P|463:102|467:47,2,110.000003356934,8|0|0,0:0|3:0|3:0,0:0:0:0:
352,124,100408,6,0,P|303:108|273:150,1,110.000003356934,2|0,3:2|0:0,0:0:0:0:
247,199,100908,2,0,P|304:194|318:248,1,110.000003356934,0|0,3:0|3:0,0:0:0:0:
284,276,101408,1,8,0:2:0:0:
195,341,101742,2,0,B|142:320|142:320|90:332,1,110.000003356934,4|4,3:2|3:2,0:0:0:0:
20,247,102408,5,6,3:2:0:0:
72,229,102575,2,0,B|144:214|144:214|200:233,2,110.000003356934,0|0|0,3:2|3:2|3:2,0:0:0:0:
20,247,103408,2,0,B|1:196|1:196|15:142,1,110.000003356934,8|0,0:2|3:0,0:0:0:0:
41,95,103908,1,8,0:2:0:0:
41,95,104075,1,0,3:0:0:0:
140,48,104408,6,0,L|234:127,1,110.000003356934,2|0,3:2|0:0,0:0:0:0:
243,170,104908,2,0,L|354:118,1,110.000003356934,0|0,3:2|3:2,0:0:0:0:
381,84,105408,1,8,0:2:0:0:
381,84,105575,1,8,0:2:0:0:
436,87,105742,2,0,L|473:190,1,110.000003356934,4|4,3:2|3:2,0:0:0:0:
372,234,106408,5,4,3:2:0:0:
335,274,106575,2,0,P|317:326|257:332,2,110.000003356934,0|0|0,3:2|3:0|3:0,0:0:0:0:
372,234,107408,2,0,P|405:190|442:149,2,110.000003356934,8|0|0,0:0|3:0|3:2,0:0:0:0:
283,167,108408,5,2,3:2:0:0:
243,205,108575,2,0,P|147:217|117:225,1,110.000003356934,0|0,3:2|3:2,0:0:0:0:
49,149,109242,1,0,3:2:0:0:
89,111,109409,2,0,P|185:99|215:91,1,110.000003356934,8|0,0:2|3:2,0:0:0:0:
299,136,110075,1,8,0:2:0:0:
331,91,110242,1,8,0:2:0:0:
340,37,110408,5,4,3:2:0:0:
256,192,110574,12,0,112074,3:2:0:0:
338,98,123741,5,4,3:2:0:0:
199,156,124241,1,2,0:0:0:0:
56,108,124741,5,2,0:0:0:0:
148,71,125074,1,2,0:0:0:0:
199,156,125407,1,2,0:0:0:0:
277,284,125907,1,2,0:0:0:0:
414,223,126407,1,2,0:0:0:0:
174,98,130407,5,2,0:0:0:0:
313,156,130907,1,2,0:0:0:0:
456,108,131407,5,2,0:0:0:0:
364,71,131740,1,2,0:0:0:0:
313,156,132073,1,2,0:0:0:0:
235,284,132573,1,2,0:0:0:0:
98,223,133073,1,2,0:0:0:0:
256,192,137074,5,0,3:2:0:0:
129,103,139074,6,0,P|111:66|60:71,2,80,2|0|0,0:0|0:0|0:0,0:0:0:0:
93,175,140074,2,0,B|135:184|135:184|166:171|213:156|213:156|254:170,1,160,2|0,0:0|0:0,0:0:0:0:
304,220,141074,2,0,P|343:161|366:104,1,120,2|0,0:0|0:0,0:0:0:0:
365,76,141740,1,2,0:0:0:0:
295,35,142074,2,0,P|231:52|197:91,1,120,2|0,0:0|0:0,0:0:0:0:
194,130,142740,1,2,0:0:0:0:
220,205,143074,6,0,B|301:228|323:167|342:110|435:143,1,240,2|0,0:0|0:0,0:0:0:0:
491,199,144407,1,2,0:0:0:0:
468,275,144740,1,2,0:0:0:0:
441,350,145074,2,0,B|387:344|327:331|327:331|306:341|283:345,1,160,2|0,0:0|0:0,0:0:0:0:
211,337,146074,2,0,B|197:294|197:294|170:273|133:240|133:240|125:197,1,160,2|2,0:0|0:0,0:0:0:0:
54,175,147074,6,0,P|46:110|35:80,2,80,2|0|0,0:0|0:0|0:0,0:0:0:0:
134,175,148074,2,0,B|146:168|166:152|166:152|232:149|288:139,1,160,2|0,0:0|0:0,0:0:0:0:
355,99,149074,1,2,0:0:0:0:
507,284,150074,2,0,B|492:289|471:306|471:306|401:309|342:320,1,160,2|0,0:0|0:0,0:0:0:0:
278,291,151074,6,0,P|260:326|209:322,2,80,2|2|2,0:0|0:0|0:0,0:0:0:0:
325,226,152074,2,0,P|370:228|413:241,2,80,2|2|2,0:0|0:0|0:0,0:0:0:0:
264,173,153074,2,0,P|278:141|323:144,2,80,2|2|2,0:0|0:0|0:0,0:0:0:0:
204,225,154073,1,2,0:0:0:0:
24,142,154740,1,2,2:2:0:0:
24,142,155073,6,0,L|216:110,1,179.999994506836,4|0,3:2|2:0,0:0:0:0:
269,53,156073,2,0,B|345:100|345:100|450:83,1,179.999994506836,0|0,1:2|3:0,0:0:0:0:
460,172,157073,2,0,L|361:188,1,89.9999972534181,0|0,3:0|0:0,0:0:0:0:
330,199,157573,1,0,0:0:0:0:
330,199,157740,1,2,2:0:0:0:
250,156,158073,2,0,L|101:181,1,134.999995880127,0|0,1:2|0:0,0:0:0:0:
72,188,158740,1,0,3:0:0:0:
55,276,159073,6,0,L|85:379,2,89.9999972534181,0|0|0,3:0|0:0|2:0,0:0:0:0:
125,219,160073,2,0,L|152:122,2,89.9999972534181,0|0|0,1:2|2:0|3:0,0:0:0:0:
197,273,161073,2,0,B|235:278|235:278|293:242,1,89.9999972534181,0|0,3:0|2:0,0:0:0:0:
321,231,161573,1,0,2:0:0:0:
321,231,161740,1,2,2:0:0:0:
404,196,162073,2,0,B|478:237|478:237|390:306,1,179.999994506836,0|0,1:2|3:0,0:0:0:0:
319,325,163073,6,0,L|288:134,1,179.999994506836,4|0,3:2|2:0,0:0:0:0:
224,85,164073,2,0,B|147:132|147:132|43:115,1,179.999994506836,0|0,1:2|3:0,0:0:0:0:
16,197,165073,2,0,L|121:214,1,89.9999972534181,0|0,3:0|2:0,0:0:0:0:
152,224,165573,1,0,2:0:0:0:
152,224,165740,1,2,2:0:0:0:
239,243,166073,2,0,B|315:195|315:195|419:212,1,179.999994506836,0|0,1:2|3:0,0:0:0:0:
459,138,167073,6,0,L|486:41,2,89.9999972534181,0|0|0,3:0|0:0|2:0,0:0:0:0:
378,178,168073,2,0,L|405:275,2,89.9999972534181,0|0|0,1:2|0:0|3:0,0:0:0:0:
326,104,169073,2,0,B|288:98|288:98|232:133,1,89.9999972534181,0|0,3:0|2:0,0:0:0:0:
210,155,169573,1,0,2:0:0:0:
210,155,169740,1,2,2:0:0:0:
123,172,170073,2,0,B|47:132|47:132|135:63,1,179.999994506836,0|0,1:2|3:0,0:0:0:0:
190,16,171073,5,4,3:2:0:0:
442,112,172073,1,8,1:2:0:0:
338,361,173073,1,0,3:0:0:0:
8,380,174073,1,8,2:2:0:0:
90,153,175073,5,4,3:2:0:0:
65,104,175240,2,0,B|44:51|44:51|62:-21,2,110.000003356934,0|0|0,0:0|3:0|3:0,0:0:0:0:
90,153,176073,2,0,B|162:138|162:138|218:157,1,110.000003356934,8|0,0:0|3:0,0:0:0:0:
297,194,176740,1,0,3:0:0:0:
367,109,177073,5,0,3:0:0:0:
405,69,177240,2,0,B|530:97,2,110.000003356934,0|0|0,0:0|3:2|3:0,0:0:0:0:
367,109,178073,1,8,0:2:0:0:
269,58,178406,1,8,0:2:0:0:
170,95,178739,1,8,0:2:0:0:
170,95,178906,1,8,0:2:0:0:
170,95,179073,6,0,P|122:80|92:122,1,110.000003356934,4|0,3:2|0:0,0:0:0:0:
65,170,179573,2,0,P|122:165|136:219,1,110.000003356934,0|0,3:0|3:0,0:0:0:0:
104,249,180073,2,0,P|99:304|95:359,2,110.000003356934,8|0|0,0:0|0:0|3:0,0:0:0:0:
204,296,181073,6,0,P|252:311|282:269,1,110.000003356934,0|0,3:2|0:0,0:0:0:0:
309,221,181573,2,0,P|252:226|238:172,1,110.000003356934,0|0,3:2|3:0,0:0:0:0:
270,142,182073,1,8,0:2:0:0:
339,57,182406,2,0,B|392:78|392:78|464:60,1,110.000003356934,4|4,3:2|3:2,0:0:0:0:
510,152,183073,5,4,3:2:0:0:
472,191,183240,2,0,P|476:219|482:315,2,110.000003356934,0|0|0,0:0|3:0|3:0,0:0:0:0:
510,152,184073,2,0,P|450:97|428:74,1,110.000003356934,8|0,0:2|3:0,0:0:0:0:
324,47,184739,1,0,3:0:0:0:
266,141,185073,6,0,B|229:182|229:182|170:170,1,110.000003356934,4|0,3:2|0:0,0:0:0:0:
132,205,185573,2,0,B|77:209|77:209|44:158,1,110.000003356934,0|0,3:0|3:0,0:0:0:0:
7,125,186073,2,0,P|14:90|18:59,1,55.0000016784668,8|0,0:2|3:0,0:0:0:0:
55,32,186406,2,0,P|87:40|121:43,1,55.0000016784668,8|0,0:2|3:0,0:0:0:0:
142,86,186739,1,0,3:1:0:0:
245,47,187073,6,0,P|248:101|274:235,1,165.000005035401,4|8,3:2|0:2,0:0:0:0:
321,210,187739,2,0,P|327:253|340:286,1,55.0000016784668,0|0,3:0|0:0,0:0:0:0:
384,275,188073,1,0,3:0:0:0:
487,238,188406,6,0,P|484:210|477:184,1,55.0000016784668,8|0,0:2|3:0,0:0:0:0:
437,146,188739,2,0,P|434:118|427:92,1,55.0000016784668,8|0,0:2|3:0,0:0:0:0:
376,71,189073,6,0,P|295:86|212:93,1,165.000005035401,0|8,3:0|0:2,0:0:0:0:
175,52,189739,2,0,P|148:58|121:61,1,55.0000016784668,8|0,0:2|3:0,0:0:0:0:
81,99,190072,1,8,0:2:0:0:
131,196,190406,1,0,3:0:0:0:
92,235,190572,1,0,3:0:0:0:
121,281,190739,1,0,3:0:0:0:
210,345,191072,5,4,3:2:0:0:
171,383,191239,2,0,P|143:379|47:373,2,110.000003356934,0|0|0,0:0|3:0|3:0,0:0:0:0:
211,345,192072,2,0,P|231:297|296:296,1,110.000003356934,8|0,0:0|3:0,0:0:0:0:
389,319,192739,1,0,3:0:0:0:
470,245,193072,5,0,3:0:0:0:
511,281,193239,2,0,B|503:353|503:353|468:395,2,110.000003356934,0|0|0,0:0|3:0|3:0,0:0:0:0:
470,245,194072,1,8,0:2:0:0:
508,141,194406,1,8,0:2:0:0:
455,56,194739,1,8,0:2:0:0:
455,56,194906,1,8,0:2:0:0:
455,56,195072,6,0,P|401:37|375:87,1,110.000003356934,4|0,3:2|0:0,0:0:0:0:
325,53,195572,2,0,P|274:78|290:132,1,110.000003356934,0|0,3:0|3:0,0:0:0:0:
232,149,196072,2,0,P|177:143|122:135,2,110.000003356934,8|0|0,0:0|0:0|3:0,0:0:0:0:
313,222,197072,6,0,P|366:201|393:251,1,110.000003356934,0|0,3:2|0:0,0:0:0:0:
443,214,197572,2,0,P|494:236|479:290,1,110.000003356934,0|0,3:0|3:0,0:0:0:0:
498,336,198072,1,8,0:0:0:0:
389,353,198406,2,0,B|336:332|336:332|264:350,1,110.000003356934,4|4,3:2|3:2,0:0:0:0:
177,319,199072,5,4,3:2:0:0:
147,365,199239,2,0,P|92:375|38:383,2,110.000003356934,0|0|0,0:0|3:0|3:0,0:0:0:0:
177,319,200072,2,0,P|121:258|97:236,1,110.000003356934,8|0,0:2|3:0,0:0:0:0:
152,142,200739,1,0,3:0:0:0:
251,189,201072,6,0,L|345:110,1,110.000003356934,4|0,3:2|0:0,0:0:0:0:
354,67,201572,2,0,L|465:119,1,110.000003356934,0|0,3:0|3:0,0:0:0:0:
499,143,202072,2,0,L|488:209,1,55.0000016784668,8|0,0:2|0:0,0:0:0:0:
466,246,202405,2,0,L|400:235,1,55.0000016784668,8|0,0:2|3:0,0:0:0:0:
373,197,202739,1,0,3:0:0:0:
264,214,203072,6,0,B|215:187|215:187|110:219,1,165.000005035401,4|8,3:2|0:2,0:0:0:0:
64,189,203739,2,0,L|73:134,1,55.0000016784668,0|0,3:0|0:0,0:0:0:0:
42,89,204072,1,0,3:0:0:0:
131,25,204406,2,0,L|185:34,1,55.0000016784668,8|0,0:2|3:0,0:0:0:0:
221,75,204739,2,0,L|275:84,1,55.0000016784668,8|0,0:2|3:0,0:0:0:0:
310,126,205072,6,0,B|359:153|359:153|464:121,1,165.000005035401,0|8,3:0|0:2,0:0:0:0:
506,155,205739,1,8,0:0:0:0:
450,249,206072,1,8,0:2:0:0:
473,298,206239,1,0,3:0:0:0:
432,335,206406,2,0,P|395:338|361:335,1,55.0000016784668,0|0,3:0|3:0,0:0:0:0:
330,307,206739,2,0,P|302:306|275:309,1,55.0000016784668,0|0,3:0|3:0,0:0:0:0:
228,337,207072,5,0,3:0:0:0:
128,288,207406,2,0,P|132:261|134:234,1,55.0000016784668,0|0,1:2|3:0,0:0:0:0:
133,178,207739,2,0,P|130:151|126:124,1,55.0000016784668,0|0,1:2|3:0,0:0:0:0:
114,69,208072,2,0,P|177:74|235:76,1,110.000003356934,0|0,1:2|1:2,0:0:0:0:
318,131,208739,1,0,1:2:0:0:
343,82,208906,1,0,1:2:0:0:
369,34,209072,5,0,1:2:0:0:
478,44,209406,1,0,1:2:0:0:
491,97,209572,1,0,1:2:0:0:
502,151,209739,2,0,P|497:178|494:205,1,55.0000016784668,0|0,1:2|1:2,0:0:0:0:
449,237,210072,6,0,B|367:230|367:230|339:200|339:200|286:193,1,165.000005035401,0|0,1:2|3:0,0:0:0:0:
243,186,210739,1,0,1:2:0:0:
133,175,211072,2,0,B|115:268|200:230|177:327,1,165.000005035401,0|0,1:2|3:0,0:0:0:0:
228,356,211739,1,0,1:2:0:0:
228,356,211906,1,0,1:2:0:0:
273,325,212072,2,0,P|366:331|457:333,1,165.000005035401,0|0,1:2|3:0,0:0:0:0:
484,303,212739,1,0,1:2:0:0:
419,214,213072,6,0,P|335:207|254:206,1,165.000005035401,0|0,1:2|3:0,0:0:0:0:
221,168,213739,1,0,1:2:0:0:
221,168,213906,1,0,1:2:0:0:
166,175,214072,2,0,B|91:205|91:205|89:121,1,165.000005035401,0|0,1:2|3:0,0:0:0:0:
36,104,214739,2,0,L|12:47,1,55.0000016784668,0|0,1:2|1:2,0:0:0:0:
41,4,215072,5,4,3:2:0:0:
256,192,215239,12,0,222906,0:0:0:0:
