osu file format v14

[General]
AudioFilename: audio.mp3
AudioLeadIn: 0
PreviewTime: 175032
Countdown: 0
SampleSet: Soft
StackLeniency: 0.5
Mode: 0
LetterboxInBreaks: 0
WidescreenStoryboard: 0

[Editor]
Bookmarks: 92706,92789,92872,92956,93039,93122,93206,93289,93372,93456,93539,106454,181619,189289,189372,189456,189539,189622,189706,189789,189872,189956,190039,190122
DistanceSpacing: 0.2
BeatDivisor: 8
GridSize: 8
TimelineZoom: 1.9

[Metadata]
Title:Palette
TitleUnicode:Palette
Artist:Hanatan
ArtistUnicode:花たん
Creator:Fall
Version:"I love you."
Source:
Tags:draw the emotional meola solitude freak rock metal japanese _tranquility seto kousuke star stream star_kor realy0_ garden affirmation marle evilelvis jounzan natteke desu Megurine Luka VOCALOID ユリカ YURiCa ゆよゆっぺ Yuyoyuppe
BeatmapID:3210444
BeatmapSetID:1572337

[Difficulty]
HPDrainRate:5.2
CircleSize:4.2
OverallDifficulty:9.2
ApproachRate:9.4
SliderMultiplier:1.5
SliderTickRate:1

[Events]
//Background and Video events
0,0,"Palette..jpg",0,0
//Break Periods
2,139273,154200
//Storyboard Layer 0 (Background)
//Storyboard Layer 1 (Fail)
//Storyboard Layer 2 (Pass)
//Storyboard Layer 3 (Foreground)
//Storyboard Layer 4 (Overlay)
//Storyboard Sound Samples

[TimingPoints]
1077,333.333333333333,6,2,1,60,1,0
8741,-76.9230769230769,6,2,5,60,0,0
8908,-76.9230769230769,6,2,6,60,0,0
9074,-76.9230769230769,6,2,5,60,0,0
10408,-76.9230769230769,6,2,6,60,0,0
10574,-76.9230769230769,6,2,5,60,0,0
11824,-76.9230769230769,6,2,6,60,0,0
11908,-76.9230769230769,6,2,5,60,0,0
12408,-76.9230769230769,6,2,6,60,0,0
12491,-76.9230769230769,6,2,5,60,0,0
12741,-76.9230769230769,6,2,6,60,0,0
13074,-76.9230769230769,6,2,5,60,0,0
13741,-66.6666666666667,6,2,5,60,0,0
14408,-66.6666666666667,6,2,6,60,0,0
14574,-76.9230769230769,6,2,5,60,0,0
14741,-76.9230769230769,6,2,6,60,0,0
15074,-76.9230769230769,6,2,5,60,0,0
16408,-76.9230769230769,6,2,6,60,0,0
17074,-76.9230769230769,6,2,5,60,0,0
18408,-76.9230769230769,6,2,6,60,0,0
18574,-76.9230769230769,6,2,5,60,0,0
19824,-76.9230769230769,6,2,6,60,0,0
19908,-76.9230769230769,6,2,5,60,0,0
20408,-76.9230769230769,6,2,6,60,0,0
20491,-76.9230769230769,6,2,5,60,0,0
20741,-76.9230769230769,6,2,6,60,0,0
21074,-76.9230769230769,6,2,5,60,0,0
22408,-76.9230769230769,6,2,6,60,0,0
22574,-76.9230769230769,6,2,5,60,0,0
22741,-76.9230769230769,6,2,6,60,0,0
23074,-76.9230769230769,6,2,5,60,0,0
24408,-76.9230769230769,6,2,6,60,0,0
24824,-76.9230769230769,6,2,5,60,0,0
24908,-76.9230769230769,6,2,6,60,0,0
25074,-76.9230769230769,6,2,5,60,0,0
26408,-76.9230769230769,6,2,6,60,0,0
26574,-76.9230769230769,6,2,5,60,0,0
27824,-76.9230769230769,6,2,6,60,0,0
27908,-76.9230769230769,6,2,5,60,0,0
28408,-76.9230769230769,6,2,6,60,0,0
28491,-76.9230769230769,6,2,5,60,0,0
28741,-76.9230769230769,6,2,6,60,0,0
29074,-76.9230769230769,6,2,5,60,0,0
30408,-76.9230769230769,6,2,6,60,0,0
30574,-76.9230769230769,6,2,5,60,0,0
30741,-76.9230769230769,6,2,6,60,0,0
31074,-76.9230769230769,6,2,5,60,0,0
32074,-76.9230769230769,6,2,5,100,0,0
32408,-76.9230769230769,6,2,5,5,0,0
32741,-76.9230769230769,6,2,1,70,0,0
32908,-76.9230769230769,6,2,1,5,0,0
33076,-66.6666666666667,6,2,2,85,0,1
49076,333.333333333333,5,2,1,60,1,0
49076,-100,6,2,3,70,0,0
62409,333.333333333333,6,2,1,60,1,0
62409,-100,6,2,3,75,0,0
77075,-80,6,2,3,75,0,0
78075,-200,6,2,3,75,0,0
78325,-200,6,2,3,5,0,0
78408,-66.6666666666667,6,2,2,85,0,1
78825,-66.6666666666667,6,2,2,5,0,1
78908,-66.6666666666667,6,2,2,85,0,1
79158,-66.6666666666667,6,2,2,5,0,1
79242,-66.6666666666667,6,2,2,85,0,1
79575,-66.6666666666667,6,2,2,5,0,1
79742,-66.6666666666667,6,2,2,85,0,1
80242,-66.6666666666667,6,2,2,5,0,1
80408,-66.6666666666667,6,2,2,85,0,1
80742,-66.6666666666667,6,2,2,5,0,1
80908,-66.6666666666667,6,2,2,85,0,1
81158,-66.6666666666667,6,2,2,5,0,1
81242,-66.6666666666667,6,2,2,85,0,1
81908,-66.6666666666667,6,2,2,5,0,1
82075,-66.6666666666667,6,2,2,85,0,1
82242,-66.6666666666667,6,2,2,5,0,1
82408,-66.6666666666667,6,2,2,85,0,1
82825,-66.6666666666667,6,2,2,5,0,1
82908,-66.6666666666667,6,2,2,85,0,1
83158,-66.6666666666667,6,2,2,5,0,1
83242,-66.6666666666667,6,2,2,85,0,1
83575,-66.6666666666667,6,2,2,5,0,1
83742,-66.6666666666667,6,2,2,85,0,1
84242,-66.6666666666667,6,2,2,5,0,1
84408,-66.6666666666667,6,2,2,85,0,1
84742,-66.6666666666667,6,2,2,5,0,1
84908,-66.6666666666667,6,2,2,85,0,1
85158,-66.6666666666667,6,2,2,5,0,1
85242,-66.6666666666667,6,2,2,85,0,1
85992,-66.6666666666667,6,2,2,5,0,1
86075,-66.6666666666667,6,2,2,85,0,1
86325,-66.6666666666667,6,2,2,5,0,1
86408,-66.6666666666667,6,2,2,85,0,1
86742,-66.6666666666667,6,2,2,5,0,1
86908,-66.6666666666667,6,2,2,85,0,1
87158,-66.6666666666667,6,2,2,5,0,1
87242,-66.6666666666667,6,2,2,85,0,1
87575,-66.6666666666667,6,2,2,5,0,1
87742,-133.333333333333,6,2,2,85,0,1
88325,-66.6666666666667,6,2,2,5,0,1
88408,-66.6666666666667,6,2,2,85,0,1
88825,-66.6666666666667,6,2,2,5,0,1
88908,-66.6666666666667,6,2,2,85,0,1
89055,-66.6666666666667,6,2,2,5,0,1
89242,-66.6666666666667,6,2,2,85,0,1
89805,-66.6666666666667,6,2,2,5,0,1
90075,-66.6666666666667,6,2,2,85,0,1
90222,-66.6666666666667,6,2,2,5,0,1
90408,-66.6666666666667,6,2,2,85,0,1
90722,-66.6666666666667,6,2,2,5,0,1
90908,-66.6666666666667,6,2,2,85,0,1
91158,-66.6666666666667,6,2,2,5,0,1
91242,-66.6666666666667,6,2,2,85,0,1
91575,-66.6666666666667,6,2,2,5,0,1
91742,-66.6666666666667,6,2,2,85,0,1
92325,-66.6666666666667,6,2,2,5,0,1
92408,-66.6666666666667,6,2,2,85,0,1
92742,-66.6666666666667,6,2,2,5,0,1
92908,-66.6666666666667,6,2,2,85,0,1
93450,-66.6666666666667,6,2,2,5,0,1
93575,-66.6666666666667,6,2,2,85,0,1
93617,-66.6666666666667,6,2,2,5,0,1
93658,-66.6666666666667,6,2,2,5,0,0
93742,-66.6666666666667,6,2,2,85,0,1
93783,-66.6666666666667,6,2,2,5,0,1
93825,-66.6666666666667,6,2,2,5,0,0
93908,-66.6666666666667,6,2,2,85,0,1
93950,-66.6666666666667,6,2,2,5,0,1
93992,-66.6666666666667,6,2,2,5,0,0
94075,-66.6666666666667,6,2,2,85,0,1
94117,-66.6666666666667,6,2,2,5,0,1
94158,-66.6666666666667,6,2,2,5,0,0
94242,-66.6666666666667,6,2,2,85,0,1
94283,-66.6666666666667,6,2,2,5,0,1
94325,-66.6666666666667,6,2,2,5,0,1
94408,-66.6666666666667,6,2,2,85,0,1
94825,-66.6666666666667,6,2,2,5,0,1
94908,-66.6666666666667,6,2,2,85,0,1
95158,-66.6666666666667,6,2,2,5,0,1
95242,-66.6666666666667,6,2,2,85,0,1
95555,-66.6666666666667,6,2,2,5,0,1
95742,-66.6666666666667,6,2,2,85,0,1
96222,-66.6666666666667,6,2,2,5,0,1
96408,-66.6666666666667,6,2,2,85,0,1
96639,-66.6666666666667,6,2,2,5,0,1
96908,-66.6666666666667,6,2,2,85,0,1
97055,-66.6666666666667,6,2,2,5,0,1
97242,-66.6666666666667,6,2,2,85,0,1
97805,-66.6666666666667,6,2,2,5,0,1
98075,-66.6666666666667,6,2,2,85,0,1
98222,-66.6666666666667,6,2,2,5,0,1
98408,-66.6666666666667,6,2,2,85,0,1
98722,-66.6666666666667,6,2,2,5,0,1
98908,-66.6666666666667,6,2,2,85,0,1
99055,-66.6666666666667,6,2,2,5,0,1
99242,-66.6666666666667,6,2,2,85,0,1
99575,-66.6666666666667,6,2,2,5,0,1
99659,-66.6666666666667,6,2,2,85,0,1
100139,-66.6666666666667,6,2,2,5,0,1
100408,-66.6666666666667,6,2,2,85,0,1
100722,-66.6666666666667,6,2,2,5,0,1
100908,-66.6666666666667,6,2,2,85,0,1
101055,-66.6666666666667,6,2,2,5,0,1
101242,-66.6666666666667,6,2,2,85,0,1
101805,-66.6666666666667,6,2,2,5,0,1
102075,-66.6666666666667,6,2,2,85,0,1
102222,-66.6666666666667,6,2,2,5,0,1
102408,-66.6666666666667,6,2,2,85,0,1
102722,-66.6666666666667,6,2,2,5,0,1
102908,-66.6666666666667,6,2,2,85,0,1
103055,-66.6666666666667,6,2,2,5,0,1
103242,-66.6666666666667,6,2,2,85,0,1
103555,-66.6666666666667,6,2,2,5,0,1
103742,-133.333333333333,6,2,2,85,0,1
104222,-66.6666666666667,6,2,2,5,0,1
104408,-66.6666666666667,6,2,2,85,0,1
104722,-66.6666666666667,6,2,2,5,0,1
104908,-66.6666666666667,6,2,2,85,0,1
105055,-66.6666666666667,6,2,2,5,0,1
105242,-66.6666666666667,6,2,2,85,0,1
105805,-66.6666666666667,6,2,2,5,0,1
106075,-66.6666666666667,6,2,2,85,0,1
106325,-66.6666666666667,6,2,2,5,0,1
106408,-66.6666666666667,6,2,2,85,0,1
106709,-66.6666666666667,6,2,2,5,0,1
106908,-66.6666666666667,6,2,2,85,0,1
107042,-66.6666666666667,6,2,2,5,0,1
107242,-66.6666666666667,6,2,2,85,0,1
107459,-66.6666666666667,6,2,2,5,0,1
107742,-66.6666666666667,6,2,2,85,0,1
108126,-66.6666666666667,6,2,2,5,0,1
108408,-66.6666666666667,6,2,2,85,0,1
108709,-66.6666666666667,6,2,2,5,0,1
108908,-66.6666666666667,6,2,2,85,0,1
109042,-66.6666666666667,6,2,2,5,0,1
109242,-66.6666666666667,6,2,2,85,0,1
110408,333.333333333333,5,2,1,60,1,0
110408,-100,6,2,2,85,0,0
110491,-100,6,2,7,5,0,0
110741,-100,6,2,7,75,0,0
110908,-100,6,2,7,5,0,0
111074,-100,6,2,7,75,0,0
111241,-100,6,2,7,5,0,0
111408,-100,6,2,7,75,0,0
111574,-100,6,2,7,5,0,0
111741,-100,6,2,7,75,0,0
111908,-100,6,2,7,5,0,0
112074,-100,6,2,7,75,0,0
112241,-100,6,2,7,5,0,0
112408,-100,6,2,7,75,0,0
112574,-100,6,2,7,5,0,0
112741,-100,6,2,7,75,0,0
112908,-100,6,2,7,5,0,0
113074,-100,6,2,7,75,0,0
113241,-100,6,2,7,5,0,0
113408,-100,6,2,7,75,0,0
113574,-100,6,2,7,5,0,0
113741,-100,6,2,7,75,0,0
113908,-100,6,2,7,5,0,0
114074,-100,6,2,7,75,0,0
114241,-100,6,2,7,5,0,0
114408,-100,6,2,7,75,0,0
114574,-100,6,2,7,5,0,0
114741,-100,6,2,7,75,0,0
114908,-100,6,2,7,5,0,0
115074,-100,6,2,7,75,0,0
115241,-100,6,2,7,5,0,0
115408,-100,6,2,7,75,0,0
115574,-100,6,2,7,5,0,0
115741,-100,6,2,7,75,0,0
115908,-100,6,2,7,5,0,0
116074,-100,6,2,7,75,0,0
116241,-100,6,2,7,5,0,0
116408,-100,6,2,7,75,0,0
116574,-100,6,2,7,5,0,0
116741,-100,6,2,7,75,0,0
116908,-100,6,2,7,5,0,0
117074,-100,6,2,7,75,0,0
117241,-100,6,2,7,5,0,0
117408,-100,6,2,7,75,0,0
117574,-100,6,2,7,5,0,0
117741,-100,6,2,7,75,0,0
117907,-100,6,2,7,5,0,0
118074,-100,6,2,7,75,0,0
118241,-100,6,2,7,5,0,0
118407,-100,6,2,7,75,0,0
118907,-100,6,2,7,5,0,0
119074,-100,6,2,7,75,0,0
119241,-100,6,2,7,5,0,0
119407,-100,6,2,7,75,0,0
119574,-100,6,2,7,5,0,0
119741,-100,6,2,7,75,0,0
119907,-100,6,2,7,5,0,0
120074,-100,6,2,7,75,0,0
120574,-100,6,2,7,5,0,0
120741,-100,6,2,7,75,0,0
120907,-100,6,2,7,5,0,0
121074,-100,6,2,7,75,0,0
121241,-100,6,2,7,5,0,0
121407,-100,6,2,7,75,0,0
121574,-100,6,2,7,5,0,0
121741,-100,6,2,7,75,0,0
122241,-100,6,2,7,5,0,0
122407,-100,6,2,7,75,0,0
122574,-100,6,2,7,5,0,0
122741,-100,6,2,7,75,0,0
122907,-100,6,2,7,5,0,0
123074,-142.857142857143,6,2,7,75,0,0
123657,-142.857142857143,6,2,7,5,0,0
123741,-142.857142857143,6,2,7,75,0,0
123824,-100,6,2,8,35,0,0
137074,333.333333333333,6,2,1,60,1,0
137074,-1000,6,2,5,45,0,0
139074,333.333333333333,3,2,1,60,1,0
139074,-1000,6,2,8,25,0,0
154740,-222.222222222222,6,2,9,40,0,0
155073,-166.666666666667,6,2,9,40,0,0
174073,-666.666666666667,6,2,2,85,0,0
174907,-250.000000000001,6,2,2,5,0,0
175073,333.333333333333,6,2,1,60,1,0
175073,-64.5161290322581,6,2,2,95,0,1
175574,-64.5161290322581,6,2,2,95,0,1
176407,-64.5161290322581,6,2,2,95,0,1
176740,-64.5161290322581,6,2,2,95,0,1
177074,-64.5161290322581,6,2,2,95,0,1
177574,-64.5161290322581,6,2,2,95,0,1
179574,-64.5161290322581,6,2,2,95,0,1
180407,-64.5161290322581,6,2,2,95,0,1
180740,-64.5161290322581,6,2,2,95,0,1
181574,-64.5161290322581,6,2,2,95,0,1
182407,-64.5161290322581,6,2,2,95,0,1
182740,-64.5161290322581,6,2,2,95,0,1
183074,-64.5161290322581,6,2,2,95,0,1
183574,-64.5161290322581,6,2,2,95,0,1
184407,-64.5161290322581,6,2,2,95,0,1
184740,-64.5161290322581,6,2,2,95,0,1
185074,-64.5161290322581,6,2,2,95,0,1
185574,-64.5161290322581,6,2,2,95,0,1
187073,-64.5161290322581,6,2,2,95,0,1
187574,-64.5161290322581,6,2,2,95,0,1
188074,-64.5161290322581,6,2,2,95,0,1
188407,-64.5161290322581,6,2,2,95,0,1
189573,-64.5161290322581,6,2,2,95,0,1
190240,-64.5161290322581,6,2,2,5,0,1
190322,-64.5161290322581,6,2,2,5,0,0
190406,-64.5161290322581,6,2,2,95,0,1
190448,-64.5161290322581,6,2,2,5,0,1
190489,-64.5161290322581,6,2,2,5,0,0
190572,-64.5161290322581,6,2,2,95,0,1
190615,-64.5161290322581,6,2,2,5,0,1
190656,-64.5161290322581,6,2,2,5,0,0
190739,-64.5161290322581,6,2,2,95,0,1
190782,-64.5161290322581,6,2,2,5,0,1
190822,-64.5161290322581,6,2,2,5,0,0
190906,-64.5161290322581,6,2,2,95,0,1
190948,-64.5161290322581,6,2,2,5,0,1
190989,-64.5161290322581,6,2,2,5,0,0
191072,-64.5161290322581,6,2,2,95,0,1
191574,-64.5161290322581,6,2,2,95,0,1
192407,-64.5161290322581,6,2,2,95,0,1
192740,-64.5161290322581,6,2,2,95,0,1
193074,-64.5161290322581,6,2,2,95,0,1
193574,-64.5161290322581,6,2,2,95,0,1
195574,-64.5161290322581,6,2,2,95,0,1
196407,-64.5161290322581,6,2,2,95,0,1
196740,-64.5161290322581,6,2,2,95,0,1
197574,-64.5161290322581,6,2,2,95,0,1
198407,-64.5161290322581,6,2,2,95,0,1
198740,-64.5161290322581,6,2,2,95,0,1
199074,-64.5161290322581,6,2,2,95,0,1
199574,-64.5161290322581,6,2,2,95,0,1
200407,-64.5161290322581,6,2,2,95,0,1
200740,-64.5161290322581,6,2,2,95,0,1
201074,-64.5161290322581,6,2,2,95,0,1
201574,-64.5161290322581,6,2,2,95,0,1
202407,-64.5161290322581,6,2,2,95,0,1
203574,-64.5161290322581,6,2,2,95,0,1
204074,-64.5161290322581,6,2,2,95,0,1
204407,-64.5161290322581,6,2,2,95,0,1
205072,-55.5555555555556,6,2,2,95,0,1
206075,-51.2820512820513,6,2,2,95,0,1
206448,-51.2820512820513,6,2,2,5,0,1
206573,-51.2820512820513,6,2,2,95,0,1
206615,-51.2820512820513,6,2,2,5,0,1
206740,-51.2820512820513,6,2,2,95,0,1
206782,-51.2820512820513,6,2,2,5,0,1
206906,-50,6,2,2,95,0,0
206948,-50,6,2,2,5,0,0
206989,-50,6,2,2,95,0,0
207072,-50,6,2,2,95,0,1
208739,-50,6,2,2,95,0,0
209072,-50,6,2,2,95,0,1
210739,-50,6,2,2,95,0,0
211072,-50,6,2,2,95,0,1
211739,-50,6,2,2,95,0,0
212072,-50,6,2,2,95,0,1
212739,-50,6,2,2,95,0,0
213072,-50,6,2,2,95,0,1
213739,-50,6,2,2,95,0,0
214072,-50,6,2,2,95,0,1
214739,-50,6,2,2,95,0,0
215072,-50,6,2,2,95,0,1
215156,-50,6,2,2,95,0,0
217072,-50,6,2,2,75,0,0
219072,-50,6,2,2,55,0,0
221072,-50,6,2,2,35,0,0
222406,-50,6,2,2,15,0,0
222906,-50,6,2,2,5,0,0

[Colours]
Combo1 : 255,138,197
Combo2 : 82,239,86
Combo3 : 0,242,121
Combo4 : 255,128,128
Combo5 : 250,219,97
Combo6 : 196,112,252
Combo7 : 255,169,83
Combo8 : 106,106,255

[HitObjects]
67,126,8743,6,0,L|71:175,2,48.7499977684022,0|0|0,2:0|2:0|0:0,0:0:0:0:
106,57,8993,1,0,0:0:0:0:
106,57,9076,5,0,3:0:0:0:
128,73,9159,1,0,0:0:0:0:
155,82,9242,1,0,2:0:0:0:
183,82,9326,1,0,2:0:0:0:
208,70,9410,6,0,P|189:47|172:39,1,48.7499977684022,0|0,1:0|3:0,0:0:0:0:
283,93,9576,2,0,P|285:63|279:45,1,48.7499977684022,0|0,3:0|3:0,0:0:0:0:
226,148,9743,6,0,B|211:191|211:191|223:249,1,97.4999955368044,0|0,3:0|3:0,0:0:0:0:
420,268,10076,5,0,1:0:0:0:
387,250,10159,1,0,3:0:0:0:
350,246,10242,1,0,3:0:0:0:
314,257,10326,1,0,3:0:0:0:
286,281,10409,1,0,0:0:0:0:
288,299,10493,1,0,0:0:0:0:
290,317,10576,2,0,L|295:384,1,48.7499977684022,0|0,3:0|3:0,0:0:0:0:
435,304,10743,5,0,1:0:0:0:
438,262,10826,1,0,1:0:0:0:
442,221,10909,1,0,1:0:0:0:
445,180,10993,1,0,1:0:0:0:
449,139,11076,2,0,B|371:119|391:197|286:159,1,146.249993305207,0|0,3:0|3:0,0:0:0:0:
247,127,11410,6,0,P|263:108|284:97,1,48.7499977684022,0|0,1:0|2:0,0:0:0:0:
311,166,11576,1,0,3:0:0:0:
229,6,11743,6,0,P|185:29|144:103,1,97.4999955368044,0|0,3:0|1:0,0:0:0:0:
85,97,11993,1,0,1:0:0:0:
85,97,12076,5,0,3:0:0:0:
92,120,12159,1,0,3:0:0:0:
94,144,12242,1,0,3:0:0:0:
91,168,12326,1,0,3:0:0:0:
84,191,12409,5,0,0:0:0:0:
70,231,12493,1,0,1:0:0:0:
66,272,12576,1,0,1:0:0:0:
71,313,12660,1,0,1:0:0:0:
84,354,12743,2,0,L|125:350,6,24.3749988842011,0|0|0|0|0|0|0,1:0|1:0|1:0|1:0|1:0|1:0|1:0,0:0:0:0:
268,243,13076,6,0,P|195:236|135:297,1,146.249993305207,0|0,3:0|2:0,0:0:0:0:
183,341,13410,6,0,L|236:336,1,48.7499977684022,0|0,1:0|3:0,0:0:0:0:
312,319,13576,1,0,3:0:0:0:
312,319,13660,1,0,3:0:0:0:
312,319,13743,2,0,P|353:271|318:187,1,112.500004291535,0|0,2:0|2:0,0:0:0:0:
294,43,14076,5,0,1:0:0:0:
281,67,14159,1,0,3:0:0:0:
276,95,14242,1,0,3:0:0:0:
279,123,14326,1,0,3:0:0:0:
291,148,14409,5,0,0:0:0:0:
307,115,14493,1,0,0:0:0:0:
276,95,14576,2,0,L|213:89,1,48.7499977684022,0|0,3:0|3:0,0:0:0:0:
59,80,14743,5,0,1:0:0:0:
77,124,14826,1,0,1:0:0:0:
113,157,14909,1,0,1:0:0:0:
159,172,14993,1,0,1:0:0:0:
207,166,15076,6,0,P|140:219|124:312,1,146.249993305207,0|0,3:0|3:0,0:0:0:0:
48,303,15410,2,0,P|56:354|54:386,1,48.7499977684022,0|0,1:0|0:0,0:0:0:0:
4,245,15576,1,0,3:0:0:0:
121,274,15743,6,0,B|166:303|166:303|251:286,1,97.4999955368044,0|0,1:0|1:0,0:0:0:0:
282,274,15993,1,0,1:0:0:0:
282,274,16076,1,0,3:0:0:0:
290,296,16159,1,0,3:0:0:0:
292,321,16242,1,0,3:0:0:0:
289,345,16325,1,0,3:0:0:0:
280,367,16409,1,0,1:0:0:0:
261,375,16493,6,0,P|241:378|223:378,4,24.3749988842011,0|0|0|0|0,1:0|1:0|1:0|1:0|1:0,0:0:0:0:
305,314,16742,6,0,P|376:283|412:277,2,64.9999970245363,0|0|0,1:0|1:0|1:0,0:0:0:0:
450,349,17076,6,0,P|416:362|399:359,2,48.7499977684022,0|0|0,3:0|0:0|2:0,0:0:0:0:
426,110,17410,5,0,1:0:0:0:
445,140,17493,1,0,3:0:0:0:
456,175,17576,1,0,3:0:0:0:
456,211,17659,1,0,3:0:0:0:
445,246,17743,2,0,P|409:193|414:157,1,97.4999955368044,0|0,3:0|3:0,0:0:0:0:
511,33,18076,6,0,L|462:37,1,48.7499977684022,0|0,1:0|3:0,0:0:0:0:
393,4,18243,1,0,3:0:0:0:
378,6,18326,1,0,3:0:0:0:
364,7,18410,2,0,P|337:30|331:75,1,48.7499977684022
262,72,18576,1,0,3:0:0:0:
264,87,18659,1,0,3:0:0:0:
265,101,18743,5,0,1:0:0:0:
261,137,18826,1,0,1:0:0:0:
258,173,18909,1,0,1:0:0:0:
255,210,18992,1,0,1:0:0:0:
251,247,19076,6,0,P|168:269|184:209,1,146.249993305207,0|0,3:0|3:0,0:0:0:0:
90,226,19410,2,0,P|87:263|110:313,1,48.7499977684022,0|0,1:0|2:0,0:0:0:0:
140,166,19576,1,0,3:0:0:0:
11,59,19743,6,0,B|43:94|43:94|98:105,1,97.4999955368044,0|0,3:0|1:0,0:0:0:0:
145,45,19993,1,0,1:0:0:0:
145,45,20076,5,0,3:0:0:0:
169,42,20159,1,0,3:0:0:0:
193,40,20242,1,0,3:0:0:0:
217,38,20325,1,0,3:0:0:0:
242,36,20410,2,0,L|247:88,1,48.7499977684022,0|0,0:0|1:0,0:0:0:0:
337,140,20576,2,0,L|331:192,1,48.7499977684022,0|0,1:0|1:0,0:0:0:0:
251,247,20743,6,0,L|253:273,6,24.3749988842011,0|0|0|0|0|0|0,1:0|1:0|1:0|1:0|1:0|1:0|1:0,0:0:0:0:
331,188,21076,6,0,B|419:183|379:277|485:269,1,146.249993305207,0|0,3:0|2:0,0:0:0:0:
512,280,21410,1,0,1:0:0:0:
487,280,21493,1,0,3:0:0:0:
465,291,21576,1,0,3:0:0:0:
449,309,21659,1,0,3:0:0:0:
439,333,21743,2,0,B|391:349|391:349|337:329,1,97.4999955368044,0|0,2:0|2:0,0:0:0:0:
168,212,22076,6,0,P|209:170|229:165,1,48.7499977684022,0|0,1:0|3:0,0:0:0:0:
157,113,22243,1,0,3:0:0:0:
157,113,22326,1,0,3:0:0:0:
157,113,22410,2,0,P|116:71|96:66,1,48.7499977684022
180,15,22576,1,0,3:0:0:0:
180,15,22660,1,0,3:0:0:0:
180,15,22743,5,0,1:0:0:0:
211,32,22826,1,0,1:0:0:0:
247,41,22909,1,0,1:0:0:0:
283,41,22992,1,0,1:0:0:0:
318,32,23076,2,0,B|299:77|299:77|310:193,1,146.249993305207,0|0,3:0|3:0,0:0:0:0:
384,166,23410,2,0,L|377:86,1,48.7499977684022,0|0,1:0|0:0,0:0:0:0:
353,234,23576,1,0,3:0:0:0:
186,379,23743,6,0,P|219:335|265:314,1,97.4999955368044,0|0,1:0|1:0,0:0:0:0:
278,246,23993,1,0,1:0:0:0:
278,246,24076,5,0,3:0:0:0:
254,241,24159,1,0,3:0:0:0:
232,230,24242,1,0,3:0:0:0:
214,213,24325,1,0,3:0:0:0:
202,193,24409,1,0,0:0:0:0:
214,178,24493,6,0,P|228:170|253:167,6,24.3749988842011,0|0|0|0|0|0|0,1:0|1:0|1:0|1:0|1:0|0:0|1:0,0:0:0:0:
168,118,24826,1,0,3:0:0:0:
168,118,24910,2,0,P|135:115|113:98,1,48.7499977684022,0|0,1:0|1:0,0:0:0:0:
27,34,25076,6,0,P|63:89|50:187,1,146.249993305207,0|0,3:0|2:0,0:0:0:0:
6,222,25410,1,0,1:0:0:0:
0,244,25493,1,0,3:0:0:0:
0,268,25576,1,0,3:0:0:0:
0,292,25659,1,0,3:0:0:0:
5,318,25743,2,0,L|114:308,1,97.4999955368044,0|0,3:0|3:0,0:0:0:0:
310,348,26076,5,0,1:0:0:0:
306,324,26159,1,0,3:0:0:0:
293,303,26242,1,0,3:0:0:0:
273,289,26325,1,0,3:0:0:0:
249,284,26410,2,0,P|231:316|230:354,1,48.7499977684022
152,212,26576,2,0,P|170:244|171:282,1,48.7499977684022,0|0,3:0|3:0,0:0:0:0:
210,137,26743,5,0,1:0:0:0:
246,140,26826,1,0,1:0:0:0:
282,143,26909,1,0,1:0:0:0:
319,146,26992,1,0,1:0:0:0:
355,149,27076,2,0,P|315:119|281:147,1,97.4999955368044,0|0,3:0|2:0,0:0:0:0:
302,219,27326,1,0,3:0:0:0:
302,219,27410,6,0,L|358:223,1,48.7499977684022,0|0,1:0|0:0,0:0:0:0:
468,186,27576,2,0,L|411:190,1,48.7499977684022,0|0,3:0|0:0,0:0:0:0:
282,143,27743,1,0,3:0:0:0:
420,268,27910,1,0,1:0:0:0:
420,268,27993,1,0,1:0:0:0:
420,268,28076,5,0,3:0:0:0:
429,290,28159,1,0,3:0:0:0:
431,314,28242,1,0,3:0:0:0:
425,337,28325,1,0,3:0:0:0:
412,358,28409,5,0,0:0:0:0:
381,340,28492,1,0,1:0:0:0:
346,330,28575,1,0,1:0:0:0:
309,328,28660,1,0,1:0:0:0:
274,336,28743,2,0,L|278:380,6,24.3749988842011,0|0|0|0|0|0|0,1:0|1:0|1:0|1:0|1:0|1:0|1:0,0:0:0:0:
216,285,29076,6,0,B|251:247|251:247|242:116,1,146.249993305207,0|0,3:0|2:0,0:0:0:0:
169,158,29410,2,0,L|174:223,1,48.7499977684022,0|0,1:0|3:0,0:0:0:0:
93,163,29576,1,0,3:0:0:0:
93,163,29660,1,0,3:0:0:0:
93,163,29743,2,0,P|115:104|167:84,1,97.4999955368044,0|0,2:0|2:0,0:0:0:0:
273,9,30076,5,0,1:0:0:0:
289,26,30159,1,0,3:0:0:0:
310,39,30242,1,0,3:0:0:0:
333,48,30325,1,0,3:0:0:0:
357,52,30410,5,0,0:0:0:0:
341,34,30493,1,0,0:0:0:0:
310,39,30576,2,0,P|295:63|293:108,1,48.7499977684022,0|0,3:0|3:0,0:0:0:0:
345,148,30743,5,0,1:0:0:0:
357,186,30826,1,0,1:0:0:0:
353,224,30909,1,0,1:0:0:0:
333,256,30992,1,0,1:0:0:0:
303,280,31076,6,0,L|154:267,1,146.249993305207,0|0,3:0|3:0,0:0:0:0:
164,194,31410,2,0,L|255:201,1,48.7499977684022,0|0,1:0|0:0,0:0:0:0:
96,225,31576,1,0,3:0:0:0:
104,52,31743,5,0,1:0:0:0:
100,100,31826,1,0,2:0:0:0:
96,149,31909,1,0,1:0:0:0:
432,11,32076,5,12,3:2:0:0:
372,69,33076,6,0,P|320:116|289:184,1,112.500004291535,12|0,0:2|3:0,0:0:0:0:
362,326,33410,2,0,P|365:256|338:186,1,112.500004291535,12|0,0:2|3:0,0:0:0:0:
163,235,33660,1,0,3:0:0:0:
163,235,33743,2,0,P|233:237|303:210,1,112.500004291535,12|0,0:2|3:0,0:0:0:0:
390,44,34076,6,0,B|335:39|335:39|318:40|318:40|260:35,1,112.500004291535,12|0,0:2|3:0,0:0:0:0:
79,220,34410,2,0,P|148:151|185:158,1,112.500004291535,12|0,0:0|3:0,0:0:0:0:
355,349,34743,5,8,0:2:0:0:
358,307,34826,1,8,0:2:0:0:
343,268,34909,1,8,0:2:0:0:
313,240,34993,1,8,0:2:0:0:
273,226,35076,6,0,L|263:349,1,112.500004291535,12|0,0:2|3:0,0:0:0:0:
488,338,35410,2,0,L|478:225,1,112.500004291535,12|0,0:2|3:0,0:0:0:0:
198,214,35660,1,0,3:0:0:0:
198,214,35743,2,0,L|188:337,1,112.500004291535,12|0,0:2|3:0,0:0:0:0:
328,126,36076,6,0,P|285:106|274:188,1,112.500004291535,12|0,0:0|3:0,0:0:0:0:
478,225,36409,2,0,P|416:177|429:82,1,168.750006437302,12|0,0:0|3:0,0:0:0:0:
434,76,36743,1,8,0:2:0:0:
198,214,36910,1,8,0:2:0:0:
2,63,37076,6,0,P|76:66|99:123,1,112.500004291535,10|0,0:2|3:0,0:0:0:0:
208,229,37410,2,0,B|203:284|203:284|204:301|204:301|199:359,1,112.500004291535,10|0,0:2|3:0,0:0:0:0:
128,370,37660,1,0,3:0:0:0:
128,370,37743,5,10,0:2:0:0:
148,163,37910,1,8,0:2:0:0:
422,375,38076,6,0,B|367:348|367:348|347:290,1,112.500004291535,10|0,0:2|3:0,0:0:0:0:
463,162,38410,2,0,B|436:216|436:216|378:236,1,112.500004291535,10|0,0:2|3:0,0:0:0:0:
208,229,38660,1,0,3:0:0:0:
208,229,38743,2,0,B|265:209|265:209|320:236,1,112.500004291535,10|0,0:2|3:0,0:0:0:0:
461,83,39076,5,10,0:2:0:0:
311,231,39243,1,0,3:0:0:0:
148,93,39410,1,10,0:2:0:0:
0,238,39576,1,0,3:0:0:0:
0,238,39660,1,0,3:0:0:0:
0,238,39743,5,10,0:2:0:0:
221,142,39910,1,0,3:0:0:0:
88,22,40076,5,8,0:2:0:0:
63,55,40159,1,8,0:2:0:0:
56,96,40242,1,0,3:0:0:0:
67,136,40326,1,0,3:0:0:0:
96,167,40410,1,8,3:2:0:0:
121,201,40493,1,0,3:0:0:0:
128,242,40576,1,0,3:0:0:0:
116,282,40660,1,0,3:0:0:0:
88,313,40743,5,8,0:2:0:0:
137,286,40826,1,8,0:2:0:0:
192,281,40909,1,8,0:2:0:0:
245,300,40993,1,8,0:2:0:0:
286,338,41076,6,0,P|202:362|161:337,1,112.500004291535,12|0,0:2|3:0,0:0:0:0:
419,277,41410,2,0,P|376:353|329:364,1,112.500004291535,12|0,0:2|3:0,0:0:0:0:
474,149,41660,1,0,3:0:0:0:
474,149,41743,2,0,P|497:233|473:274,1,112.500004291535,12|0,0:2|3:0,0:0:0:0:
310,62,42076,6,0,B|353:65|353:65|373:80|373:80|436:86,1,112.500004291535,12|0,0:2|3:0,0:0:0:0:
153,33,42409,2,0,P|217:113|214:160,1,112.500004291535,12|0,0:0|3:0,0:0:0:0:
202,194,42660,1,0,3:0:0:0:
202,194,42743,5,8,0:2:0:0:
156,225,42826,1,8,0:2:0:0:
101,237,42909,1,8,0:2:0:0:
46,227,42993,1,8,0:2:0:0:
0,197,43076,6,0,P|54:150|104:171,1,112.500004291535,12|0,0:2|3:0,0:0:0:0:
218,119,43410,2,0,P|289:123|309:174,1,112.500004291535,12|0,0:2|3:0,0:0:0:0:
427,217,43660,1,0,3:0:0:0:
427,217,43743,2,0,P|474:271|453:321,1,112.500004291535,12|0,0:2|3:0,0:0:0:0:
314,374,44076,6,0,P|344:324|423:274,1,112.500004291535,12|0,0:2|3:0,0:0:0:0:
238,309,44410,2,0,B|211:225|152:208|152:208|163:273,1,168.750006437302,8|0,0:2|3:0,0:0:0:0:
105,296,44743,5,8,0:2:0:0:
307,153,44910,1,8,0:2:0:0:
107,0,45076,6,0,P|160:54|159:134,1,112.500004291535,10|0,0:2|3:0,0:0:0:0:
0,168,45410,2,0,B|55:163|55:163|72:164|72:164|130:159,1,112.500004291535,10|0,0:2|3:0,0:0:0:0:
196,165,45660,1,0,3:0:0:0:
196,165,45743,5,10,0:2:0:0:
339,286,45910,1,8,0:2:0:0:
501,99,46076,6,0,P|443:163|438:209,1,112.500004291535,10|0,0:2|3:0,0:0:0:0:
499,362,46410,2,0,P|494:275|465:239,1,112.500004291535,10|0,0:2|3:0,0:0:0:0:
267,249,46660,1,0,3:0:0:0:
297,275,46743,2,0,P|383:270|419:241,1,112.500004291535,10|0,0:2|3:0,0:0:0:0:
501,99,47076,5,10,0:2:0:0:
339,200,47243,1,0,3:0:0:0:
165,109,47410,1,10,0:2:0:0:
316,38,47576,1,0,3:0:0:0:
326,64,47660,1,0,3:0:0:0:
327,91,47743,1,10,0:2:0:0:
182,255,47910,1,0,3:0:0:0:
57,34,48076,5,8,0:2:0:0:
100,0,48159,1,8,0:2:0:0:
153,10,48242,1,0,3:0:0:0:
181,57,48326,1,0,3:0:0:0:
165,109,48410,6,0,L|125:141,6,28.1250010728836,8|0|0|0|0|0|0,3:2|0:0|3:0|0:0|3:0|0:0|3:0,0:0:0:0:
60,116,48743,5,8,0:2:0:0:
64,172,48826,5,8,0:2:0:0:
69,228,48909,5,8,0:2:0:0:
74,284,48993,5,8,0:2:0:0:
79,340,49076,6,0,B|172:307|176:381|231:396|310:349,1,225,4|8,3:2|0:2,0:0:0:0:
258,223,49908,5,0,3:0:0:0:
247,227,50076,2,0,P|231:274|235:304,1,75,0|0,3:0|0:0,0:0:0:0:
401,248,50408,2,0,P|409:274|407:291,3,37.5,0|0|0|0,3:0|0:0|0:0|0:0,0:0:0:0:
505,280,50741,6,0,P|458:265|508:346,1,225,0|8,3:0|0:2,0:0:0:0:
512,156,51576,5,0,3:0:0:0:
503,169,51741,2,0,P|459:176|419:161,1,75,0|0,3:0|0:0,0:0:0:0:
331,15,52076,5,0,1:0:0:0:
350,46,52159,1,0,1:0:0:0:
359,83,52242,1,0,1:0:0:0:
356,120,52326,1,0,1:0:0:0:
342,154,52409,6,0,B|268:121|216:231|284:248|210:297|158:265,1,225,4|8,3:2|0:2,0:0:0:0:
64,161,53241,5,0,3:0:0:0:
72,144,53408,2,0,P|108:151|155:187,1,75,0|0,3:0|0:0,0:0:0:0:
184,273,53741,2,0,P|168:276|147:287,1,37.5,0|0,3:0|0:0,0:0:0:0:
167,372,53908,1,0,0:0:0:0:
167,372,53991,1,0,0:0:0:0:
167,372,54074,6,0,B|206:340|241:375|273:352|273:352|251:339|223:346,1,150,0|0,3:0|0:2,0:0:0:0:
266,232,54574,1,8,0:2:0:0:
212,182,54741,1,0,0:0:0:0:
265,244,54908,1,0,3:0:0:0:
300,108,55074,2,0,B|305:131|319:144|319:144|298:148|279:167,1,75,0|0,3:0|0:0,0:0:0:0:
402,338,55408,5,8,0:2:0:0:
402,338,55574,1,0,3:0:0:0:
479,350,55741,6,0,B|493:302|465:262|370:246|405:150,1,225,4|8,3:2|0:2,0:0:0:0:
505,39,56574,1,0,3:0:0:0:
500,55,56741,2,0,P|460:74|414:78,1,75,0|0,3:0|0:0,0:0:0:0:
248,40,57074,2,0,P|218:26|185:23,3,37.5,0|0|0|0,3:0|0:0|0:0|0:0,0:0:0:0:
332,19,57408,6,0,P|273:34|358:85,1,225,0|8,3:0|0:2,0:0:0:0:
202,5,58241,1,0,3:0:0:0:
193,19,58408,2,0,P|185:68|198:108,1,75,0|0,3:0|0:0,0:0:0:0:
123,201,58741,5,0,1:0:0:0:
134,236,58824,1,0,1:0:0:0:
136,274,58909,1,0,1:0:0:0:
130,310,58991,1,0,1:0:0:0:
116,345,59074,6,0,P|76:302|57:138,1,225,4|8,3:2|0:2,0:0:0:0:
181,41,59908,1,0,3:0:0:0:
183,62,60074,2,0,P|145:88|103:93,1,75,0|0,3:0|0:0,0:0:0:0:
320,156,60408,2,0,P|282:130|240:125,1,75,0|0,3:0|0:0,0:0:0:0:
354,238,60741,6,0,P|399:195|390:108,1,150,0|0,3:0|0:0,0:0:0:0:
274,229,61241,1,8,0:2:0:0:
316,384,61574,5,0,3:0:0:0:
246,350,61741,2,0,P|291:311|327:309,1,75,0|0,3:0|0:0,0:0:0:0:
375,31,62074,5,0,1:2:0:0:
375,31,62241,1,0,3:0:0:0:
292,23,62409,6,0,L|204:16,1,75,4|0,3:2|0:0,0:0:0:0:
156,85,62741,1,0,3:0:0:0:
156,85,62824,1,0,0:0:0:0:
156,85,62908,1,0,0:0:0:0:
219,192,63074,1,8,0:2:0:0:
165,250,63241,1,0,0:0:0:0:
207,315,63408,6,0,L|294:308,1,75,0|0,3:0|0:0,0:0:0:0:
344,356,63741,2,0,L|431:362,1,75,0|0,3:0|0:0,0:0:0:0:
508,226,64074,2,0,B|493:215|489:193|489:193|489:216|478:238,1,75,8|0,0:2|3:0,0:0:0:0:
402,211,64408,6,0,P|400:245|431:296,1,75,0|0,3:0|0:0,0:0:0:0:
332,166,64741,2,0,P|347:132|346:95,1,75,0|0,3:0|0:0,0:0:0:0:
338,77,64991,1,0,0:0:0:0:
324,64,65074,1,8,0:2:0:0:
231,110,65241,1,0,0:0:0:0:
50,91,65408,6,0,L|59:172,1,75,8|0,0:2|0:2,0:2:0:0:
21,260,65741,1,0,0:0:0:0:
22,278,65824,1,0,0:0:0:0:
24,297,65908,1,0,0:0:0:0:
26,315,65991,1,0,0:0:0:0:
28,334,66074,5,0,1:0:0:0:
58,312,66159,1,0,1:0:0:0:
93,299,66242,1,0,1:0:0:0:
130,295,66325,1,0,1:0:0:0:
167,301,66409,6,0,P|144:342|111:365,1,75,0|0,3:0|0:0,0:0:0:0:
222,236,66741,2,0,P|245:277|278:300,1,75,0|0,3:0|0:0,0:0:0:0:
283,303,66991,1,0,0:0:0:0:
301,307,67074,1,0,3:0:0:0:
372,263,67241,1,0,0:0:0:0:
466,295,67408,6,0,L|459:218,1,75,0|0,3:0|0:0,0:0:0:0:
383,168,67741,2,0,L|389:91,1,75,0|0,3:0|0:0,0:0:0:0:
282,13,68074,6,0,L|288:87,1,75,8|0,0:2|0:0,0:0:0:0:
217,148,68408,5,0,3:0:0:0:
217,148,68491,1,0,0:0:0:0:
217,148,68574,1,0,0:0:0:0:
121,113,68741,1,0,3:0:0:0:
32,162,68908,1,0,0:0:0:0:
32,162,68991,1,0,0:0:0:0:
32,162,69074,2,0,P|26:203|40:249,1,75,8|0,0:2|0:0,0:0:0:0:
203,267,69408,5,0,1:0:0:0:
167,255,69491,1,0,1:0:0:0:
131,261,69574,1,0,1:0:0:0:
101,283,69657,1,0,1:0:0:0:
85,317,69741,1,0,3:0:0:0:
101,350,69825,1,0,1:0:0:0:
131,372,69908,1,0,1:0:0:0:
168,377,69991,1,0,1:0:0:0:
203,365,70075,5,0,3:0:0:0:
12,306,70241,1,8,0:2:0:0:
251,203,70408,6,0,P|277:242|283:284,1,75,4|0,3:2|0:0,0:0:0:0:
373,348,70741,1,2,3:2:0:0:
373,348,70824,1,0,0:0:0:0:
373,348,70908,1,0,0:0:0:0:
455,265,71074,2,0,P|464:229|486:199,1,75,10|0,0:2|0:0,0:0:0:0:
395,66,71408,6,0,B|367:80|366:130|366:130|365:80|336:65,1,150,0|2,3:2|3:2,0:0:0:0:
264,28,71908,1,0,0:0:0:0:
139,93,72074,1,10,0:2:0:0:
72,53,72241,1,0,3:2:0:0:
21,107,72408,6,0,B|37:142|37:142|33:188,1,75,0|0,3:2|0:0,0:0:0:0:
25,195,72658,1,0,0:0:0:0:
15,211,72741,1,2,3:2:0:0:
59,284,72908,1,0,0:0:0:0:
12,368,73074,2,0,P|66:382|113:359,1,75,10|0,0:2|0:0,0:0:0:0:
202,354,73408,6,0,P|213:315|140:346,2,150,8|2|2,0:2|3:2|1:2,0:0:0:0:
202,354,74158,1,0,1:2:0:0:
236,340,74241,1,0,1:2:0:0:
273,335,74324,1,0,1:2:0:0:
311,339,74408,6,0,P|360:353|389:379,1,75,2|0,3:2|0:0,0:0:0:0:
468,302,74741,5,2,1:2:0:0:
392,289,74908,1,0,0:0:0:0:
378,367,75074,1,2,1:2:0:0:
459,381,75241,1,0,0:0:0:0:
445,231,75408,6,0,P|426:155|371:97,2,150,2|2|2,3:2|3:2|1:2,0:0:0:0:
445,231,76241,1,0,0:0:0:0:
270,213,76408,6,0,P|300:178|358:243,1,150,2|2,3:2|3:2,0:0:0:0:
234,280,76908,1,0,0:0:0:0:
234,280,77075,2,0,P|219:211|151:152,1,140.625,2|0,1:2|0:0,0:0:0:0:
100,143,77408,6,0,P|103:191|121:215,3,46.875,0|0|0|0,1:2|1:2|3:2|3:2,0:0:0:0:
159,91,77741,5,4,3:2:0:0:
194,87,77824,1,0,3:2:0:0:
229,84,77907,1,0,3:2:0:0:
264,81,77992,1,0,3:2:0:0:
291,59,78075,6,0,B|271:82|271:82|295:96,1,56.25,0|0,1:2|0:0,0:0:0:0:
418,200,78408,5,4,3:2:0:0:
469,140,78574,2,0,P|390:124|346:166,1,112.500004291535,0|0,3:2|0:0,0:0:0:0:
461,349,78907,2,0,P|515:282|489:203,1,168.750006437302,0|0,3:0|0:0,0:0:0:0:
418,199,79241,1,0,3:2:0:0:
391,208,79324,1,0,3:2:0:0:
364,215,79407,6,0,B|252:240|252:240|240:219|203:203,1,168.750006437302,8|0,0:0|0:0,0:0:0:0:
191,208,79741,5,0,3:0:0:0:
366,138,79908,1,8,0:2:0:0:
85,34,80074,2,0,L|76:166,1,112.500004291535,0|0,3:2|0:0,0:0:0:0:
83,314,80408,5,2,3:2:0:0:
92,320,80491,1,2,0:0:0:0:
102,325,80574,2,0,P|161:284|233:308,1,112.500004291535,0|0,3:2|0:0,0:0:0:0:
370,307,80908,2,0,B|316:267|250:307|299:360|220:385|168:362,1,225.000008583069,0|0,3:2|3:2,0:0:0:0:
77,146,81408,5,8,0:2:0:0:
284,0,81574,1,8,0:2:0:0:
491,172,81741,6,0,B|416:150|420:77|420:77|437:109|471:128,1,168.750006437302,0|0,3:2|0:0,0:0:0:0:
511,190,82074,2,0,P|435:194|390:250,1,112.500004291535,0|0,3:0|0:0,0:0:0:0:
125,375,82408,5,4,3:2:0:0:
46,376,82574,2,0,P|90:303|151:305,1,112.500004291535,0|0,3:2|0:0,0:0:0:0:
320,292,82907,2,0,P|250:304|163:220,1,168.750006437302,0|0,3:0|0:0,0:0:0:0:
150,174,83241,1,0,3:2:0:0:
147,140,83324,1,0,3:2:0:0:
145,102,83408,2,0,B|198:108|198:108|215:107|215:107|259:110,1,112.500004291535,8|0,0:2|0:0,0:0:0:0:
397,290,83741,5,0,3:0:0:0:
257,109,83908,1,8,0:2:0:0:
499,6,84074,2,0,P|455:65|417:96,1,112.500004291535,0|0,3:0|0:0,0:0:0:0:
152,178,84407,5,2,3:2:0:0:
141,182,84491,1,2,0:0:0:0:
131,187,84574,2,0,P|98:236|146:317,1,112.500004291535,0|0,3:2|0:0,0:0:0:0:
317,303,84907,2,0,P|214:240|157:258,1,168.750006437302,0|0,3:0|0:0,0:0:0:0:
107,285,85241,1,0,3:2:0:0:
291,373,85407,5,8,0:0:0:0:
500,238,85574,1,8,0:2:0:0:
298,24,85741,6,0,P|328:115|363:63,1,168.750006437302,4|0,3:2|0:0,0:0:0:0:
291,5,86074,2,0,P|233:79|147:99,1,168.750006437302,4|0,3:2|0:0,0:0:0:0:
15,71,86408,5,6,3:2:0:0:
27,0,86574,2,0,P|89:54|75:112,1,112.500004291535,0|0,3:2|0:0,0:0:0:0:
9,291,86907,2,0,B|49:320|98:291|61:251|120:233|162:255,1,168.750006437302,0|0,3:2|3:2,0:0:0:0:
286,321,87241,1,0,3:2:0:0:
263,336,87324,1,0,3:2:0:0:
239,350,87408,2,0,P|159:342|132:304,1,112.500004291535,8|0,0:2|0:0,0:0:0:0:
299,211,87741,5,0,3:0:0:0:
140,321,87908,1,8,0:2:0:0:
280,137,88074,6,0,P|309:131|343:153,1,56.2500021457673,0|0,3:0|0:0,0:0:0:0:
374,206,88408,5,2,3:2:0:0:
266,62,88574,2,0,P|207:113|215:178,1,112.500004291535,0|0,3:2|0:0,0:0:0:0:
460,291,88907,2,0,B|470:204|391:185|391:185|366:215,1,168.750006437302,0|0,3:0|0:0,0:3:0:0:
341,276,89241,1,0,3:2:0:0:
468,100,89408,5,8,0:2:0:0:
218,0,89574,1,8,0:2:0:0:
0,182,89741,6,0,B|41:144|119:175|59:239|175:213,1,168.750006437302,4|0,3:2|0:0,0:0:0:0:
215,182,90075,2,0,B|225:142|225:142|283:186|236:265,1,168.750006437302,4|0,3:2|0:0,0:0:0:0:
206,322,90407,5,4,3:2:0:0:
188,77,90574,2,0,P|275:88|303:124,1,112.500004291535,0|0,3:2|0:0,0:0:0:0:
412,280,90907,2,0,P|343:247|372:131,1,168.750006437302,0|0,3:0|0:0,0:0:0:0:
368,92,91241,1,0,3:2:0:0:
436,281,91408,6,0,P|380:336|384:413,1,112.500004291535,8|0,0:2|0:0,0:0:0:0:
512,186,91741,1,0,3:0:0:0:
320,30,91908,1,8,0:2:0:0:
118,164,92074,2,0,B|189:172|189:172|212:170|212:170|249:174|249:174|237:150|209:154,1,168.750006437302,0|0,3:2|0:0,0:0:0:0:
173,244,92408,5,2,3:2:0:0:
325,178,92574,2,0,P|289:105|231:80,1,112.500004291535,0|0,3:2|0:0,0:0:0:0:
134,0,92908,2,0,B|163:45|126:109|50:67|29:138|47:190,1,225.000008583069,0|0,3:2|3:2,0:0:0:0:
145,324,93408,5,8,0:2:0:0:
145,324,93574,1,0,3:2:0:0:
51,328,93741,6,0,P|22:352|8:385,1,56.2500021457673,0|0,3:2|0:0,0:0:0:0:
179,219,93908,6,0,P|142:216|108:230,1,56.2500021457673,0|0,3:2|0:0,0:0:0:0:
366,216,94074,6,0,P|341:187|308:173,1,56.2500021457673,0|0,3:2|0:0,0:0:0:0:
510,384,94241,6,0,P|513:347|498:313,1,56.2500021457673,0|0,3:2|0:0,0:0:0:0:
476,56,94408,5,4,3:2:0:0:
476,56,94491,1,2,0:0:0:0:
476,56,94574,2,0,P|437:117|439:184,1,112.500004291535,0|0,3:2|0:0,0:0:0:0:
507,329,94908,6,0,B|482:298|437:310|437:310|409:373|333:348,1,168.750006437302,0|0,3:2|0:0,0:0:0:0:
244,214,95241,1,0,3:2:0:0:
272,207,95324,1,0,3:2:0:0:
302,202,95408,2,0,P|336:214|358:308,1,112.500004291535,8|0,0:2|0:0,0:0:0:0:
183,362,95741,5,0,3:0:0:0:
111,192,95908,1,8,0:2:0:0:
176,38,96074,2,0,B|197:74|197:74|180:186,1,112.500004291535,0|0,3:0|0:0,0:0:0:0:
31,268,96407,5,2,3:2:0:0:
0,197,96574,2,0,B|46:192|46:192|59:197|59:197|112:192,1,112.500004291535,0|0,3:2|0:0,0:0:0:0:
349,37,96907,2,0,B|270:45|268:119|268:119|277:96|299:79,1,168.750006437302,0|0,3:0|0:0,0:0:0:0:
372,39,97241,1,0,3:2:0:0:
107,113,97408,5,8,0:2:0:0:
251,308,97574,1,8,0:2:0:0:
464,127,97741,2,0,P|405:111|321:193,1,168.750006437302,0|0,3:0|0:0,0:0:0:0:
442,284,98074,2,0,P|443:222|380:186,1,112.500004291535,0|0,3:2|0:0,0:0:0:0:
108,367,98408,5,4,3:2:0:0:
108,367,98491,1,2,0:0:0:0:
108,367,98574,2,0,B|103:319|103:319|108:305|108:305|103:251,1,112.500004291535,0|0,3:2|0:0,0:0:0:0:
221,76,98907,2,0,P|225:135|134:193,1,168.750006437302,0|0,3:0|0:0,0:0:0:0:
81,141,99241,1,0,3:2:0:0:
70,110,99324,1,0,3:2:0:0:
82,78,99407,2,0,P|125:65|150:121,1,112.500004291535,8|0,0:0|0:0,0:0:0:0:
35,211,99741,5,0,3:0:0:0:
182,8,99908,1,8,0:2:0:0:
344,274,100074,2,0,P|284:216|270:135,1,168.750006437302,0|0,3:0|0:0,0:0:0:0:
371,76,100408,5,2,3:2:0:0:
406,205,100574,2,0,P|474:152|467:82,1,112.500004291535,0|0,3:2|0:0,0:0:0:0:
270,135,100907,2,0,P|306:246|372:284,1,168.750006437302,0|0,3:0|0:0,0:0:0:0:
433,294,101241,1,0,3:0:0:0:
260,60,101408,5,8,0:2:0:0:
0,175,101574,1,8,0:2:0:0:
62,384,101741,6,0,B|68:311|68:311|62:289|62:289|69:217|69:217,1,168.750006437302,4|0,3:2|0:0,0:0:0:0:
75,141,102074,2,0,B|145:141|123:192|162:208|211:210|239:171,1,168.750006437302,4|0,3:2|0:0,0:0:0:0:
341,142,102408,5,6,3:2:0:0:
295,84,102574,2,0,P|210:103|177:169,1,112.500004291535,0|0,3:2|0:0,0:0:0:0:
233,322,102908,2,0,B|259:309|292:318|292:318|304:181,1,168.750006437302,0|0,3:2|0:0,0:0:0:0:
341,142,103241,1,0,3:2:0:0:
161,279,103408,2,0,P|155:334|180:384,1,112.500004291535,8|0,0:2|0:0,0:0:0:0:
392,322,103741,5,0,3:0:0:0:
195,119,103908,1,8,0:2:0:0:
111,265,104074,6,0,P|156:281|173:274,1,56.2500021457673,0|0,3:0|0:0,0:0:0:0:
341,142,104408,5,2,3:2:0:0:
344,69,104574,2,0,B|409:65|382:120|461:110,1,112.500004291535,0|0,3:2|0:0,0:0:0:0:
437,248,104908,2,0,B|432:296|432:296|392:249|414:174,1,168.750006437302,0|0,3:2|0:0,0:0:0:0:
488,173,105241,1,0,3:2:0:0:
372,351,105408,5,8,0:2:0:0:
160,202,105574,1,8,0:2:0:0:
348,34,105741,2,0,B|251:28|291:109|175:94,1,168.750006437302,4|0,3:2|0:0,0:0:0:0:
57,14,106074,2,0,P|116:-17|209:26,1,168.750006437302,4|0,3:2|0:0,0:0:0:0:
229,170,106408,5,4,3:2:0:0:
160,202,106574,2,0,P|227:245|280:225,1,112.500004291535,0|0,3:2|0:0,0:0:0:0:
444,207,106907,2,0,P|373:155|284:228,1,168.750006437302,0|0,3:0|0:0,0:0:0:0:
329,254,107241,1,0,3:0:0:0:
507,157,107407,6,0,B|503:106|503:106|507:93|507:93|504:46,1,112.500004291535,8|0,0:0|0:0,0:0:0:0:
229,170,107741,5,0,3:0:0:0:
412,281,107908,1,8,0:2:0:0:
485,45,108074,2,0,B|371:29|371:29|403:32|422:15,1,168.750006437302,0|0,3:2|0:0,0:0:0:0:
505,46,108408,5,2,3:2:0:0:
231,96,108574,2,0,P|162:132|158:190,1,112.500004291535,0|0,3:2|0:0,0:0:0:0:
175,329,108908,2,0,B|124:331|80:276|145:232|107:204|34:209,1,168.750006437302,0|0,3:2|0:0,0:0:0:0:
1,217,109241,1,0,3:2:0:0:
91,373,109408,5,8,0:2:0:0:
91,373,109491,1,8,0:2:0:0:
91,373,109574,5,0,3:2:0:0:
198,224,109741,1,0,3:2:0:0:
95,37,109908,1,0,3:2:0:0:
8,312,110074,5,8,0:2:0:0:
231,96,110241,1,8,0:2:0:0:
421,92,110407,5,4,3:2:0:0:
421,92,110741,6,0,P|461:109|495:142,1,75,0|0,2:0|0:0,0:0:0:0:
419,123,111074,6,0,P|460:107|507:106,1,75,0|0,2:0|0:0,0:0:0:0:
439,146,111408,6,0,P|456:105|489:71,1,75,0|0,2:0|0:0,0:0:0:0:
471,145,111740,6,0,P|454:103|453:56,1,75,0|0,2:0|0:0,0:0:0:0:
331,258,112073,5,4,3:2:0:0:
331,258,112407,6,0,P|371:240|405:207,1,75,0|0,2:0|0:0,0:0:0:0:
329,227,112741,6,0,P|370:243|417:244,1,75,0|0,2:0|0:0,0:0:0:0:
349,204,113074,6,0,P|366:244|399:278,1,75,0|0,2:0|0:0,0:0:0:0:
380,201,113407,6,0,P|363:241|363:288,1,75,0|0,2:0|0:0,0:0:0:0:
234,65,113740,5,4,3:2:0:0:
234,65,114074,6,0,P|258:94|272:129,1,75,0|0,2:0|0:0,0:0:0:0:
241,131,114407,6,0,P|257:90|258:43,1,75,0|0,2:0|0:0,0:0:0:0:
282,74,114741,6,0,P|252:97|218:111,1,75,0|0,2:0|0:0,0:0:0:0:
215,77,115073,6,0,P|249:91|286:96,1,75,0|0,2:0|0:0,0:0:0:0:
182,210,115407,5,4,3:2:0:0:
182,210,115741,6,0,P|158:239|144:274,1,75,0|0,2:0|0:0,0:0:0:0:
175,276,116074,6,0,P|159:235|158:188,1,75,0|0,2:0|0:0,0:0:0:0:
134,218,116407,6,0,P|163:242|198:256,1,75,0|0,2:0|0:0,0:0:0:0:
196,222,116740,6,0,P|161:236|124:240,1,75,0|0,2:0|0:0,0:0:0:0:
78,57,117073,5,4,3:2:0:0:
78,57,117408,6,0,L|14:110,1,75,0|0,2:0|0:0,0:0:0:0:
88,84,117741,6,0,L|5:76,1,75,0|0,2:0|0:0,0:0:0:0:
75,110,118074,6,0,L|21:46,1,75,0|0,2:0|0:0,0:0:0:0:
26,52,118406,1,0,2:0:0:0:
188,98,118574,1,0,3:2:0:0:
199,252,118740,5,4,3:2:0:0:
199,252,119073,6,0,L|135:198,1,75,0|0,2:0|0:0,0:0:0:0:
209,225,119406,6,0,L|126:232,1,75,0|0,2:0|0:0,0:0:0:0:
196,199,119741,6,0,L|142:262,1,75,0|0,2:0|0:0,0:0:0:0:
147,256,120073,1,0,2:0:0:0:
188,98,120241,1,0,3:2:0:0:
349,118,120406,5,4,3:2:0:0:
349,118,120740,6,0,L|292:70,1,75,0|0,2:0|0:0,0:0:0:0:
282,97,121073,6,0,L|364:89,1,75,0|0,2:0|0:0,0:0:0:0:
342,65,121406,6,0,L|295:123,1,75,0|0,2:0|0:0,0:0:0:0:
295,123,121740,1,0,2:0:0:0:
459,89,121906,1,0,3:2:0:0:
439,247,122073,5,4,3:2:0:0:
439,247,122407,6,0,L|383:296,1,75,0|0,2:0|0:0,0:0:0:0:
373,269,122740,6,0,L|455:276,1,75,0|0,2:0|0:0,0:0:0:0:
436,299,123073,5,0,0:0:0:0:
285,198,123240,1,0,3:0:0:0:
121,378,123406,2,0,P|123:341|160:292,1,78.7499975967408,0|0,1:0|0:0,0:0:0:0:
205,364,123740,5,4,3:2:0:0:
256,192,123823,12,2,126407,0:0:0:0:
256,192,130407,12,2,133074,0:0:0:0:
0,0,137074,6,0,P|12:12|54:74,1,90,8|2,3:2|0:0,0:0:0:0:
65,46,154740,6,0,P|94:52|123:70,1,50.6249984550477,2|0,2:2|2:0,2:0:0:0:
66,122,155073,6,0,P|63:162|82:226,2,89.9999972534181,4|0|0,3:2|2:0|2:0,0:0:0:0:
230,151,156072,6,0,L|135:158,2,89.9999972534181,0|0|0,1:2|0:0|3:0,0:0:0:0:
230,151,157072,1,0,3:0:0:0:
287,92,157406,5,0,2:0:0:0:
299,110,157489,1,0,2:0:0:0:
307,131,157572,1,0,2:0:0:0:
310,153,157656,1,0,2:0:0:0:
307,175,157739,1,2,2:0:0:0:
307,175,158072,6,0,L|401:182,2,89.9999972534181,0|0|0,1:2|2:0|3:0,0:0:0:0:
246,310,159072,6,0,P|282:291|290:242,2,89.9999972534181,4|0|0,3:2|2:0|2:0,0:0:0:0:
235,198,160072,2,0,P|197:219|189:262,2,89.9999972534181,0|0|0,1:2|2:0|3:0,0:0:0:0:
235,198,161072,1,0,3:0:0:0:
280,132,161406,5,0,2:0:0:0:
302,133,161489,1,0,2:0:0:0:
324,135,161572,1,0,2:0:0:0:
347,137,161656,1,0,2:0:0:0:
369,139,161739,1,2,2:0:0:0:
369,139,162072,6,0,P|371:108|357:140,2,89.9999972534181,0|0|0,1:2|2:0|3:0,0:0:0:0:
317,43,163072,6,0,P|358:31|409:46,2,89.9999972534181,4|0|0,3:2|2:0|2:0,0:0:0:0:
156,22,164072,2,0,P|199:34|242:21,2,89.9999972534181,0|0|0,1:2|2:0|3:0,0:0:0:0:
156,22,165072,1,0,3:0:0:0:
102,77,165406,5,0,2:0:0:0:
112,96,165489,1,0,2:0:0:0:
118,118,165572,1,0,2:0:0:0:
119,140,165656,1,0,2:0:0:0:
116,162,165739,1,2,2:0:0:0:
116,162,166072,6,0,P|102:201|101:252,2,89.9999972534181,0|0|0,1:2|2:0|3:0,0:0:0:0:
261,215,167072,6,0,P|222:204|176:221,1,89.9999972534181,0|0,3:0|0:0,0:0:0:0:
176,220,167739,1,0,2:0:0:0:
292,283,168072,6,0,P|331:294|377:277,1,89.9999972534181,0|0,1:2|0:0,0:0:0:0:
377,278,168739,1,0,3:0:0:0:
377,278,169072,1,0,3:0:0:0:
437,228,169406,5,0,2:0:0:0:
421,211,169489,1,0,2:0:0:0:
409,192,169572,1,0,2:0:0:0:
400,171,169656,1,0,2:0:0:0:
396,149,169739,1,2,2:0:0:0:
396,149,170072,6,0,B|403:136|422:136|422:136|482:152,2,89.9999972534181,0|0|0,1:2|2:0|3:0,0:0:0:0:
330,107,171072,6,0,P|320:134|334:198,2,89.9999972534181,4|0|0,3:2|0:0|2:0,0:0:0:0:
253,212,172072,2,0,P|265:238|320:273,2,89.9999972534181,0|0|0,1:2|0:0|3:0,0:0:0:0:
253,212,173072,1,0,3:0:0:0:
196,151,173406,5,0,0:0:0:0:
173,149,173489,1,0,0:0:0:0:
151,147,173572,1,0,0:0:0:0:
129,145,173656,1,0,0:0:0:0:
107,143,173739,1,2,2:0:0:0:
107,143,174073,6,0,P|114:118|141:92,1,61.8749981117249,8|0,2:2|2:2,2:2:0:0:
13,295,175073,6,0,B|62:267|112:304|114:350|167:369|227:337,1,232.500001773834,4|0,3:2|0:0,0:0:0:0:
251,199,175572,2,0,P|184:234|185:290,1,116.250000886917,0|0,3:0|0:0,0:0:0:0:
294,379,175906,1,0,3:0:0:0:
369,123,176072,6,0,B|321:127|321:127|307:122|307:122|252:127,1,116.250000886917,8|0,0:0|0:0,0:0:0:0:
254,271,176406,2,0,B|302:275|302:275|316:270|316:270|371:275,1,116.250000886917,0|0,3:0|0:0,0:0:0:0:
461,86,176739,5,0,3:0:0:0:
251,199,176906,1,0,0:0:0:0:
32,32,177072,6,0,P|124:55|100:179,1,232.500001773834,0|0,3:0|0:0,0:0:0:0:
0,246,177572,2,0,B|-21:148|62:107|62:107|29:148|29:192,1,232.500001773834,0|0,3:2|3:0,0:0:0:0:
31,166,177989,1,0,3:0:0:0:
31,166,178072,1,8,0:2:0:0:
316,60,178239,5,0,3:0:0:0:
287,66,178322,1,0,3:0:0:0:
258,73,178406,1,8,0:2:0:0:
421,291,178572,1,0,3:0:0:0:
258,83,178739,1,8,0:2:0:0:
79,241,178906,1,8,0:2:0:0:
2,38,179072,6,0,B|38:-17|142:38|93:99|148:129|203:110,1,232.500001773834,4|0,3:2|0:0,0:0:0:0:
286,0,179572,2,0,P|210:12|181:48,1,116.250000886917,0|0,3:0|0:0,0:0:0:0:
109,178,179906,1,0,3:0:0:0:
339,301,180072,2,0,P|406:292|312:231,1,232.500001773834,8|0,0:0|0:0,0:0:0:0:
259,324,180572,1,0,0:0:0:0:
493,302,180738,2,0,P|502:232|454:152,1,116.250000886917,0|0,3:0|0:0,0:0:0:0:
185,38,181072,6,0,B|291:48|291:48|320:38|320:38|416:46,1,232.500001773834,0|0,3:2|0:0,0:0:0:0:
343,197,181572,2,0,B|289:202|289:202|275:197|275:197|227:201,1,116.250000886917,0|0,3:2|0:0,0:0:0:0:
11,151,181906,1,0,3:0:0:0:
37,149,181989,1,0,3:0:0:0:
65,147,182072,5,8,0:2:0:0:
322,307,182239,1,0,0:0:0:0:
40,50,182406,6,0,P|133:103|147:149,1,116.250000886917,4|0,3:2|0:0,0:0:0:0:
155,300,182739,2,0,P|126:195|150:153,1,116.250000886917,4|0,3:2|0:0,0:0:0:0:
329,130,183072,6,0,B|272:205|202:158|202:158|240:116|283:153,1,232.500001773834,4|0,3:2|0:0,0:0:0:0:
135,282,183572,2,0,B|57:276|1:356|1:356|36:318|101:320,1,232.500001773834,0|0,3:0|3:0,2:0:0:0:
91,334,183989,1,0,3:0:0:0:
111,354,184072,5,8,0:2:0:0:
277,148,184239,1,0,0:0:0:0:
461,255,184405,6,0,P|491:175|465:93,1,174.375001330376,0|0,3:0|0:0,0:0:0:0:
477,277,184738,2,0,B|359:268|359:268|349:298|321:307,1,174.375001330376,0|0,3:0|0:0,0:0:0:0:
71,252,185072,6,0,P|173:204|288:249,1,232.500001773834,4|0,3:2|0:0,0:0:0:0:
477,277,185572,1,0,3:0:0:0:
320,384,185738,2,0,P|254:346|246:303,1,116.250000886917,0|0,0:0|3:0,0:0:0:0:
262,277,185989,1,0,3:0:0:0:
280,241,186072,5,8,0:2:0:0:
489,91,186239,1,0,3:0:0:0:
403,330,186406,1,8,0:2:0:0:
272,72,186572,1,0,3:0:0:0:
0,208,186738,1,0,3:1:0:0:
0,208,187072,6,0,B|38:161|89:166|127:185|136:240|136:240|117:216|76:215,1,232.500001773834,4|0,3:2|0:0,0:0:0:0:
213,360,187572,1,8,0:2:0:0:
81,289,187739,1,0,3:0:0:0:
213,218,187906,1,0,0:0:0:0:
345,289,188072,6,0,B|401:306|401:306|465:289,1,116.250000886917,0|0,3:0|0:0,0:0:0:0:
464,71,188406,5,8,0:2:0:0:
345,289,188572,1,0,3:0:0:0:
495,142,188739,5,8,0:2:0:0:
277,23,188905,1,0,3:0:0:0:
52,112,189072,6,0,B|99:80|162:133|106:204|182:246|236:212,1,232.500001773834,0|0,3:0|0:0,0:0:0:0:
364,13,189572,5,8,0:2:0:0:
222,219,189739,1,8,0:2:0:0:
318,341,189906,1,0,3:0:0:0:
338,313,189989,1,0,3:0:0:0:
333,278,190072,6,0,B|230:268|268:365|137:342,1,174.375001330376,8|0,0:2|0:0,0:0:0:0:
105,357,190406,6,0,P|107:322|144:286,1,58.1250004434586,0|0,3:0|0:0,0:0:0:0:
97,189,190572,6,0,P|123:165|174:166,1,58.1250004434586,0|0,3:0|0:0,0:0:0:0:
236,58,190739,6,0,P|271:60|307:97,1,58.1250004434586,0|0,3:0|0:0,0:0:0:0:
483,12,190906,6,0,P|506:38|505:89,1,58.1250004434586,0|0,3:0|0:0,0:0:0:0:
426,336,191072,6,0,B|375:302|380:216|458:221|454:152|403:81,1,232.500001773834,4|0,3:2|0:0,0:0:0:0:
290,71,191572,2,0,P|311:126|364:162,1,116.250000886917,0|0,3:0|0:0,0:0:0:0:
511,60,191906,1,0,3:0:0:0:
330,0,192072,6,0,B|270:-34|218:25,1,116.250000886917,8|0,0:0|0:0,0:0:0:0:
224,160,192405,2,0,P|269:125|289:71,1,116.250000886917,0|0,3:0|0:0,0:0:0:0:
128,0,192739,5,0,3:0:0:0:
276,217,192906,1,0,0:0:0:0:
19,163,193071,6,0,B|67:119|136:163|136:163|157:235|207:236,1,232.500001773834,0|0,3:0|0:0,0:0:0:0:
434,344,193571,2,0,P|317:370|262:247,1,232.500001773834,0|0,3:0|3:0,0:0:0:0:
448,124,194072,1,8,0:2:0:0:
512,316,194239,1,0,3:0:0:0:
508,350,194322,1,0,3:0:0:0:
503,384,194406,5,8,0:2:0:0:
302,145,194572,1,0,3:0:0:0:
156,329,194739,1,8,0:2:0:0:
0,135,194906,1,8,0:2:0:0:
232,14,195071,6,0,B|145:-22|92:62|140:129|227:101|205:38,1,232.500001773834,4|0,3:2|0:0,0:0:0:0:
65,27,195571,2,0,P|68:99|112:152,1,116.250000886917,0|0,3:0|0:0,0:0:0:0:
269,333,195905,1,0,3:0:0:0:
393,158,196072,6,0,B|297:166|297:166|264:155|264:155|156:166,1,232.500001773834,8|0,0:0|0:0,0:0:0:0:
269,333,196572,1,0,0:0:0:0:
392,81,196739,2,0,P|467:170|454:196,1,116.250000886917,0|0,3:0|0:0,0:0:0:0:
269,333,197072,6,0,B|322:308|360:265|294:215|345:157|399:156,1,232.500001773834,0|0,3:2|0:0,0:0:0:0:
512,275,197571,2,0,P|450:264|447:198,1,116.250000886917,0|0,3:0|0:0,0:0:0:0:
494,100,197905,1,0,3:0:0:0:
489,128,197989,1,0,3:0:0:0:
469,150,198072,1,8,0:0:0:0:
266,39,198239,1,0,0:0:0:0:
0,94,198406,6,0,B|71:100|71:100|89:127|89:127|186:136,1,174.375001330376,4|0,3:2|0:0,0:0:0:0:
231,196,198739,2,0,B|302:189|302:189|320:162|320:162|417:153,1,174.375001330376,4|0,3:2|0:0,0:0:0:0:
375,69,199072,6,0,P|320:112|390:248,1,232.500001773834,4|0,3:2|0:0,0:0:0:0:
512,361,199572,2,0,B|468:397|404:374|435:305|350:288|287:351,1,232.500001773834,0|0,3:0|3:0,0:0:0:0:
283,355,199989,1,0,3:0:0:0:
278,383,200072,1,8,0:2:0:0:
449,212,200239,1,0,0:0:0:0:
210,34,200406,6,0,P|172:77|159:134,1,116.250000886917,0|0,3:0|0:0,0:0:0:0:
23,272,200738,2,0,P|61:315|74:371,1,116.250000886917,0|0,3:0|0:0,0:0:0:0:
296,92,201072,6,0,B|241:67|205:148|249:215|330:174|337:261,1,232.500001773834,4|0,3:2|0:0,0:0:0:0:
374,93,201572,2,0,B|427:69|463:150|418:218|337:176|333:244,1,232.500001773834,0|0,3:0|3:0,0:0:0:0:
337,320,201989,1,0,3:0:0:0:
337,320,202072,5,8,0:2:0:0:
170,197,202239,1,0,0:0:0:0:
0,384,202406,1,8,0:2:0:0:
266,286,202572,1,0,3:0:0:0:
173,118,202739,6,0,P|102:155|106:243,1,174.375001330376,0|0,3:0|0:0,0:0:0:0:
168,275,203072,6,0,B|236:338|180:422|99:406|89:314|156:309,1,232.500001773834,4|0,3:2|0:0,0:0:0:0:
229,49,203572,1,8,0:2:0:0:
326,224,203739,2,0,B|375:220|375:220|389:225|389:225|444:220,1,116.250000886917,0|0,3:0|0:0,0:0:0:0:
461,0,204072,6,0,B|507:51|507:51|471:171,1,174.375001330376,0|0,3:0|0:0,0:0:0:0:
441,220,204406,5,8,0:2:0:0:
194,137,204572,1,0,3:0:0:0:
396,158,204739,5,8,0:2:0:0:
323,355,204905,1,0,3:0:0:0:
208,71,205072,6,0,B|284:17|196:-86|70:36|177:80|231:59|180:174,1,269.999991760254,0|0,3:0|3:0,0:0:0:0:
113,361,205572,1,8,0:2:0:0:
1,181,205739,2,0,P|84:169|135:192,1,134.999995880127,8|0,0:0|3:0,0:0:0:0:
441,320,206072,5,8,0:2:0:0:
323,355,206239,1,0,3:0:0:0:
198,281,206406,1,0,3:0:0:0:
327,38,206572,5,0,3:0:0:0:
446,171,206739,1,0,3:0:0:0:
323,355,206906,1,0,3:0:0:0:
33,123,207072,5,0,3:0:0:0:
33,123,207155,5,0,3:0:0:0:
33,123,207238,5,0,3:0:0:0:
33,123,207322,5,0,3:0:0:0:
33,123,207405,6,0,P|73:118|119:129,1,75,0|0,1:2|1:2,0:0:0:0:
229,250,207571,5,0,3:0:0:0:
229,250,207655,5,0,3:0:0:0:
229,250,207738,6,0,P|197:225|172:184,1,75,0|0,1:2|3:0,0:0:0:0:
263,53,207905,5,0,3:0:0:0:
263,53,207989,5,0,3:0:0:0:
263,53,208072,6,0,P|238:84|197:109,1,75,0|0,1:2|3:0,0:0:0:0:
320,176,208238,5,0,3:0:0:0:
320,176,208322,5,0,3:0:0:0:
320,176,208405,6,0,B|346:170|346:170|405:181,1,75,0|0,1:2|3:0,0:0:0:0:
118,130,208571,5,0,3:0:0:0:
118,130,208655,5,0,3:0:0:0:
118,130,208739,5,0,1:2:0:0:
112,185,208822,5,0,1:2:0:0:
106,241,208905,5,0,1:2:0:0:
100,297,208989,5,0,1:2:0:0:
94,353,209072,6,0,L|88:277,1,75,0|0,1:2|3:0,0:0:0:0:
16,94,209238,6,0,L|24:169,1,75,0|0,1:2|3:0,0:0:0:0:
181,347,209405,6,0,L|175:271,1,75,0|0,1:2|3:0,0:0:0:0:
110,55,209571,6,0,L|118:130,1,75,0|0,1:2|3:0,0:0:0:0:
268,341,209738,6,0,L|262:265,1,75,0|0,1:2|3:0,0:0:0:0:
204,16,209905,6,0,L|212:91,1,75,0|0,1:2|3:0,0:0:0:0:
461,247,210072,5,0,1:2:0:0:
410,271,210155,5,0,1:2:0:0:
355,267,210238,5,0,3:0:0:0:
309,235,210322,5,0,3:0:0:0:
285,185,210405,5,0,3:0:0:0:
261,135,210489,5,0,3:0:0:0:
215,104,210571,5,0,3:0:0:0:
159,99,210656,5,0,3:0:0:0:
109,123,210739,5,0,1:2:0:0:
203,4,210906,5,0,3:0:0:0:
436,367,211072,5,0,1:2:0:0:
391,334,211155,5,0,1:2:0:0:
370,282,211238,5,0,3:0:0:0:
380,228,211322,5,0,3:0:0:0:
418,187,211405,5,0,3:0:0:0:
462,154,211489,5,0,3:0:0:0:
483,102,211572,5,0,3:0:0:0:
473,48,211656,5,0,3:0:0:0:
435,7,211739,5,0,1:2:0:0:
461,276,211906,5,0,1:2:0:0:
169,58,212072,5,0,1:2:0:0:
116,39,212155,5,0,1:2:0:0:
64,56,212238,5,0,3:0:0:0:
32,101,212322,5,0,3:0:0:0:
34,157,212405,5,0,3:0:0:0:
69,199,212488,5,0,3:0:0:0:
122,213,212572,5,0,3:0:0:0:
173,191,212655,5,0,3:0:0:0:
200,143,212738,5,0,1:2:0:0:
118,370,212906,5,0,1:2:0:0:
294,185,213072,5,0,1:2:0:0:
347,166,213155,5,0,1:2:0:0:
399,183,213238,5,0,3:0:0:0:
431,228,213321,5,0,3:0:0:0:
429,284,213406,5,0,3:0:0:0:
394,326,213489,5,0,3:0:0:0:
341,340,213573,5,0,3:0:0:0:
290,318,213656,5,0,3:0:0:0:
263,270,213739,5,0,1:2:0:0:
64,56,213905,5,0,1:2:0:0:
401,21,214072,5,0,1:2:0:0:
401,21,214156,5,0,1:2:0:0:
401,21,214239,6,0,L|313:34,1,75,0|0,3:0|3:0,0:0:0:0:
36,201,214406,5,0,3:0:0:0:
36,201,214490,5,0,3:0:0:0:
36,201,214572,6,0,L|124:214,1,75,0|0,3:0|3:0,0:0:0:0:
420,366,214738,5,0,1:2:0:0:
214,23,214905,5,0,1:2:0:0:
17,384,215071,5,4,3:2:0:0:
256,192,215155,12,0,222905,0:0:0:0:
