osu file format v14

[General]
AudioFilename: audio.mp3
AudioLeadIn: 0
PreviewTime: 175032
Countdown: 0
SampleSet: Soft
StackLeniency: 0.6
Mode: 0
LetterboxInBreaks: 0
WidescreenStoryboard: 1

[Editor]
DistanceSpacing: 1.3
BeatDivisor: 4
GridSize: 8
TimelineZoom: 1.9

[Metadata]
Title:Palette
TitleUnicode:Palette
Artist:Hanatan
ArtistUnicode:花たん
Creator:Fall
Version:Garden's Hard
Source:
Tags:draw the emotional meola solitude freak rock metal japanese _tranquility seto kousuke star stream star_kor realy0_ garden affirmation marle evilelvis jounzan natteke desu Megurine Luka VOCALOID ユリカ YURiCa ゆよゆっぺ Yuyoyuppe
BeatmapID:3217093
BeatmapSetID:1572337

[Difficulty]
HPDrainRate:4
CircleSize:4
OverallDifficulty:6
ApproachRate:8
SliderMultiplier:1.5
SliderTickRate:1

[Events]
//Background and Video events
0,0,"Palette..jpg",0,0
//Break Periods
2,123941,136324
//Storyboard Layer 0 (Background)
//Storyboard Layer 1 (Fail)
//Storyboard Layer 2 (Pass)
//Storyboard Layer 3 (Foreground)
//Storyboard Layer 4 (Overlay)
//Storyboard Sound Samples

[TimingPoints]
1077,333.333333333333,6,2,1,60,1,0
32074,-133.333333333333,6,2,5,100,0,0
32408,-133.333333333333,6,2,5,5,0,0
32741,-133.333333333333,6,2,1,70,0,0
33076,-90.9090909090909,6,2,2,85,0,1
49076,333.333333333333,5,2,1,60,1,0
49076,-117.647058823529,6,2,3,70,0,0
62409,333.333333333333,6,2,1,60,1,0
62409,-100,6,2,3,75,0,0
77075,-100,6,2,3,75,0,0
78075,-66.6666666666667,6,2,3,75,0,0
78325,-100,6,2,3,5,0,0
78408,-90.9090909090909,6,2,2,85,0,1
94325,-90.9090909090909,6,2,2,5,0,0
94408,-90.9090909090909,6,2,2,85,0,1
110408,333.333333333333,5,2,2,60,1,0
110408,-100,6,2,2,85,0,0
112074,-133.333333333333,6,2,7,75,0,0
113741,-200,6,2,7,75,0,0
123824,-100,6,2,8,35,0,0
137074,333.333333333333,6,2,1,60,1,0
137074,-100,6,2,5,45,0,0
139074,333.333333333333,3,2,1,60,1,0
139074,-200,6,2,8,25,0,0
154740,-166.666666666667,6,2,9,40,0,0
155073,-166.666666666667,6,2,9,40,0,0
174073,-333.333333333333,6,2,2,85,0,0
174907,-100,6,2,2,5,0,0
175073,333.333333333333,6,2,2,95,1,1
175073,-90.9090909090909,6,2,2,95,0,1
190989,-90.9090909090909,6,2,2,5,0,0
191072,-90.9090909090909,6,2,2,95,0,1
206989,-90.9090909090909,6,2,2,95,0,0
207072,-90.9090909090909,6,2,2,95,0,1
215072,-90.9090909090909,6,2,2,95,0,0
217072,-100,6,2,2,75,0,0
219072,-100,6,2,2,55,0,0
221072,-100,6,2,2,35,0,0
222406,-100,6,2,2,15,0,0
222906,-100,6,2,2,5,0,0

[Colours]
Combo1 : 71,141,141
Combo2 : 66,255,160
Combo3 : 0,242,121
Combo4 : 138,255,197

[HitObjects]
486,294,32076,6,0,B|510:299|510:299|514:307|514:307|553:225|425:233|478:131,1,225.000008583069,12|0,3:2|0:0,0:0:0:0:
475,136,33076,6,0,P|442:121|372:112,1,82.5000025177003,12|0,0:2|3:0,0:0:0:0:
297,122,33410,2,0,P|281:83|276:43,1,82.5000025177003,12|0,0:2|3:0,0:0:0:0:
359,199,33743,2,0,P|334:231|296:255,1,82.5000025177003,12|0,0:2|3:0,0:0:0:0:
334,344,34076,6,0,P|285:280|205:276,1,165.000005035401,12|12,0:2|0:0,0:0:0:0:
117,307,34576,1,0,3:0:0:0:
117,307,34660,1,0,3:0:0:0:
117,307,34743,2,0,L|103:353,3,41.2500012588501,8|8|8|8,0:2|0:2|0:2|0:2,0:0:0:0:
78,363,35076,6,0,P|32:360|1:328,1,82.5000025177003,12|0,0:2|3:0,0:0:0:0:
0,237,35410,2,0,L|20:133,1,82.5000025177003,12|0,0:2|3:0,0:0:0:0:
129,80,35743,2,0,L|114:162,1,82.5000025177003,12|0,0:2|3:0,0:0:0:0:
195,218,36076,6,0,L|235:207,3,41.2500012588501,4|0|0|0,0:0|3:0|3:0|3:0,0:0:0:0:
271,201,36410,2,0,P|313:231|359:221,1,82.5000025177003,4|0,0:0|0:0,0:0:0:0:
424,174,36743,1,8,0:2:0:0:
484,252,36910,1,8,0:2:0:0:
405,311,37076,6,0,P|314:332|239:359,1,165.000005035401,10|10,0:2|0:2,0:0:0:0:
158,310,37576,2,0,L|104:329,2,41.2500012588501,0|0|10,3:0|3:0|0:2,0:0:0:0:
231,242,37910,1,8,0:2:0:0:
144,194,38076,6,0,P|151:148|169:89,1,82.5000025177003,10|0,0:2|3:0,0:0:0:0:
249,68,38410,1,10,0:2:0:0:
172,22,38576,1,0,3:0:0:0:
172,22,38660,1,0,3:0:0:0:
172,22,38743,2,0,L|123:15,3,41.2500012588501,10|8|0|0,0:2|0:0|3:0|3:0,0:0:0:0:
97,13,39076,6,0,P|28:52|28:131,1,165.000005035401,10|10,0:2|0:2,0:0:0:0:
120,190,39576,1,0,3:0:0:0:
120,190,39660,1,0,3:0:0:0:
120,190,39743,2,0,P|106:240|101:294,1,82.5000025177003,10|0,0:2|3:0,0:0:0:0:
135,363,40076,6,0,L|196:342,3,41.2500012588501,8|8|0|0,0:2|0:2|3:0|3:0,0:0:0:0:
191,316,40410,2,0,L|252:295,3,41.2500012588501,8|0|0|0,3:2|3:0|3:0|3:0,0:0:0:0:
250,271,40743,2,0,L|311:250,3,41.2500012588501,8|8|8|8,0:2|0:2|0:2|0:2,0:0:0:0:
323,268,41076,6,0,P|362:294|416:287,1,82.5000025177003,12|0,0:2|3:0,0:0:0:0:
512,325,41410,2,0,P|490:359|453:375,1,82.5000025177003,12|0,0:2|3:0,0:0:0:0:
478,232,41743,2,0,P|482:191|464:155,1,82.5000025177003,12|0,0:2|3:0,0:0:0:0:
500,62,42076,6,0,P|465:114|358:124,1,165.000005035401,12|4,0:2|0:0,0:0:0:0:
287,91,42576,1,0,3:0:0:0:
287,91,42660,1,0,3:0:0:0:
287,91,42743,2,0,L|300:23,3,41.2500012588501,8|8|8|8,0:2|0:2|0:2|0:2,0:0:0:0:
265,28,43076,6,0,P|228:27|178:71,1,82.5000025177003,12|0,0:2|3:0,0:0:0:0:
127,127,43410,2,0,L|115:224,1,82.5000025177003,12|0,0:2|3:0,0:0:0:0:
204,294,43743,2,0,L|215:213,1,82.5000025177003,12|0,0:2|3:0,0:0:0:0:
304,169,44076,6,0,L|352:150,3,41.2500012588501,12|8|0|0,0:2|0:0|3:0|3:0,0:0:0:0:
355,124,44410,2,0,P|390:99|438:103,1,82.5000025177003,8|0,0:2|0:0,0:0:0:0:
504,163,44743,1,8,0:2:0:0:
435,234,44910,1,8,0:2:0:0:
504,163,45076,6,0,P|481:249|477:331,1,165.000005035401,10|10,0:2|0:2,0:0:0:0:
379,342,45576,2,0,P|373:371|375:396,2,41.2500012588501,0|0|10,3:0|3:0|0:2,0:0:0:0:
336,251,45910,1,8,0:2:0:0:
275,328,46076,6,0,P|231:348|171:359,1,82.5000025177003,10|0,0:2|3:0,0:0:0:0:
164,349,46326,1,0,3:0:0:0:
164,349,46410,2,0,P|166:323|172:295,3,41.2500012588501,10|0|0|0,0:2|3:0|3:0|3:0,0:0:0:0:
141,275,46743,2,0,P|143:250|153:219,3,41.2500012588501,10|0|0|0,0:2|3:0|3:0|3:0,0:0:0:0:
181,211,47076,6,0,P|260:190|340:165,1,165.000005035401,10|10,0:2|0:2,0:0:0:0:
417,103,47576,1,0,3:0:0:0:
417,103,47660,1,0,3:0:0:0:
417,103,47743,2,0,P|411:43|373:22,1,82.5000025177003,10|0,0:2|3:0,0:0:0:0:
298,16,48076,6,0,P|278:22|256:28,3,41.2500012588501,8|8|0|0,0:2|0:2|3:0|3:0,0:0:0:0:
235,58,48410,2,0,P|215:64|193:70,3,41.2500012588501,8|0|0|0,3:2|3:0|3:0|3:0,0:0:0:0:
176,103,48743,2,0,P|156:109|134:115,3,41.2500012588501,8|8|8|8,0:2|0:2|0:2|0:2,0:0:0:0:
118,146,49076,6,0,P|27:123|53:34,1,191.250003647804,4|8,3:2|0:2,0:0:0:0:
206,97,49909,1,0,3:0:0:0:
206,97,50076,2,0,P|202:166|182:237,1,127.50000243187,0|0,3:0|3:0,0:0:0:0:
113,361,50742,6,0,P|178:304|236:324,1,127.50000243187,0|0,3:0|0:0,0:0:0:0:
279,357,51242,1,8,0:2:0:0:
440,309,51576,1,0,3:0:0:0:
440,309,51742,2,0,P|450:267|448:223,1,63.7500012159348,0|0,3:0|0:0,0:0:0:0:
401,178,52076,2,0,P|379:182|352:192,3,31.8750006079674,0|0|0|0,1:0|1:0|1:0|1:0,0:0:0:0:
337,173,52409,6,0,P|355:95|465:118,1,191.250003647804,4|8,3:2|0:2,0:0:0:0:
361,259,53242,1,0,3:0:0:0:
361,259,53409,2,0,P|292:267|221:292,1,127.50000243187,0|0,3:0|3:0,0:0:0:0:
184,349,53909,1,0,0:0:0:0:
105,323,54075,6,0,P|68:270|102:216,1,127.50000243187,0|0,3:0|0:0,0:0:0:0:
163,174,54575,2,0,B|159:87|113:146|105:44,1,127.50000243187,8|0,0:2|0:0,0:0:0:0:
164,5,55075,1,0,3:0:0:0:
246,149,55409,2,0,P|282:142|310:124,1,63.7500012159348,8|0,0:2|3:0,0:0:0:0:
348,57,55742,6,0,P|460:54|476:143,1,191.250003647804,4|8,3:2|0:2,0:0:0:0:
503,282,56575,1,0,3:0:0:0:
503,282,56742,2,0,P|456:229|394:253,1,127.50000243187,0|0,3:0|3:0,0:0:0:0:
299,366,57409,6,0,P|242:352|159:344,1,127.50000243187,0|0,3:0|0:0,0:0:0:0:
95,372,57909,1,8,0:2:0:0:
212,255,58242,1,0,3:0:0:0:
212,255,58409,2,0,P|226:208|206:178,1,63.7500012159348,0|0,3:0|0:0,0:0:0:0:
151,152,58742,2,0,P|128:147|107:148,3,31.8750006079674,0|0|0|0,1:0|1:0|1:0|1:0,0:0:0:0:
86,140,59075,6,0,P|130:39|206:50,1,191.250003647804,4|8,3:2|0:2,0:0:0:0:
366,39,59909,1,0,3:0:0:0:
366,39,60075,2,0,P|349:78|350:119,1,63.7500012159348,0|0,3:0|0:0,0:0:0:0:
403,160,60409,2,0,P|444:172|482:168,1,63.7500012159348,0|0,3:0|0:0,0:0:0:0:
319,177,60742,6,0,P|268:230|294:289,1,127.50000243187,0|0,3:0|0:0,0:0:0:0:
354,313,61242,2,0,P|280:327|213:346,1,127.50000243187,8|0,0:2|0:0,0:0:0:0:
147,332,61742,2,0,P|154:295|170:254,1,63.7500012159348,0|0,3:0|0:0,0:0:0:0:
81,241,62075,2,0,P|99:177|110:113,1,127.50000243187,0|4,1:2|3:2,0:0:0:0:
109,116,62742,5,0,3:0:0:0:
169,49,63075,5,8,0:2:0:0:
256,26,63409,5,0,3:0:0:0:
343,49,63742,5,0,3:0:0:0:
402,117,64075,6,0,P|419:148|426:201,1,75,8|0,0:2|3:0,0:0:0:0:
417,277,64409,5,0,3:0:0:0:
416,187,64742,5,0,3:0:0:0:
356,119,65075,5,8,0:2:0:0:
267,102,65409,5,8,0:2:0:0:
187,144,65742,5,0,3:0:0:0:
141,221,66075,6,0,P|140:247|149:268,3,37.5,0|0|0|0,1:0|1:0|1:0|1:0,0:0:0:0:
151,279,66408,5,0,3:0:0:0:
221,223,66742,5,0,3:0:0:0:
308,241,67075,5,0,3:0:0:0:
333,327,67409,5,0,3:0:0:0:
421,344,67742,5,0,3:0:0:0:
480,276,68075,6,0,P|474:227|451:199,1,75,8|0,0:2|0:0,0:0:0:0:
392,147,68409,5,0,3:0:0:0:
453,81,68742,5,0,3:0:0:0:
373,39,69075,5,8,0:2:0:0:
312,105,69409,6,0,P|289:113|266:114,3,37.5,0|0|0|0,1:0|1:0|1:0|1:0,0:0:0:0:
252,141,69742,6,0,P|229:149|206:150,3,37.5,0|0|0|0,3:0|1:0|1:0|1:0,0:0:0:0:
180,130,70075,6,0,P|168:89|165:40,1,75,0|8,3:0|0:2,0:0:0:0:
83,12,70408,5,4,3:2:0:0:
21,77,70742,5,2,3:2:0:0:
41,164,71075,5,10,0:2:0:0:
123,199,71408,5,0,3:2:0:0:
146,286,71742,5,2,3:2:0:0:
93,359,72075,6,0,P|57:372|13:376,1,75,10|0,0:2|3:2,0:0:0:0:
151,290,72408,5,0,3:2:0:0:
231,329,72742,5,2,3:2:0:0:
319,314,73075,5,10,0:2:0:0:
384,252,73408,5,8,0:2:0:0:
391,162,73742,5,2,3:2:0:0:
337,89,74075,6,0,P|341:64|352:45,3,37.5,2|0|0|0,1:2|1:2|1:2|1:2,0:0:0:0:
362,37,74408,5,2,3:2:0:0:
442,78,74742,5,2,1:2:0:0:
476,160,75075,5,2,1:2:0:0:
459,248,75408,5,2,3:2:0:0:
393,310,75742,5,2,3:2:0:0:
303,309,76075,6,0,P|277:283|272:227,1,75,2|0,1:2|0:0,0:0:0:0:
304,164,76408,5,2,3:2:0:0:
360,234,76742,5,2,3:2:0:0:
311,309,77075,5,2,1:2:0:0:
375,372,77408,6,0,P|395:377|415:375,7,37.5,0|0|0|0|4|0|0|0,1:2|1:2|3:2|3:2|3:2|3:2|3:2|3:2,0:0:0:0:
441,359,78075,6,0,B|468:363|468:363|485:285|410:319|439:227,1,168.750006437302,0|0,1:2|0:0,0:0:0:0:
452,218,78408,5,4,3:2:0:0:
506,134,78575,2,0,P|496:79|463:58,1,82.5000025177003,0|0,3:2|0:0,0:0:0:0:
381,37,78908,2,0,B|291:60|363:118|245:147,1,165.000005035401,0|0,3:0|3:2,0:0:0:0:
236,147,79325,1,0,3:2:0:0:
236,147,79408,2,0,P|189:77|103:83,1,165.000005035401,8|0,0:0|3:0,0:0:0:0:
15,68,79908,2,0,B|-5:162|76:129|70:233,1,165.000005035401,8|0,0:2|0:0,0:0:0:0:
130,299,80408,5,2,3:2:0:0:
130,299,80575,2,0,P|49:303|-5:381,2,165.000005035401,0|0|0,3:2|3:2|3:2,0:0:0:0:
223,265,81408,1,8,0:2:0:0:
202,362,81575,1,8,0:2:0:0:
295,328,81742,2,0,P|344:312|396:311,1,82.5000025177003,0|0,3:2|0:0,0:0:0:0:
465,268,82075,2,0,P|475:302|483:360,1,82.5000025177003,0|0,3:0|0:0,0:0:0:0:
380,216,82408,5,4,3:2:0:0:
380,216,82575,2,0,P|365:168|360:127,1,82.5000025177003,0|0,3:2|0:0,0:0:0:0:
453,101,82908,2,0,P|436:35|337:46,1,165.000005035401,0|0,3:0|3:2,0:0:0:0:
324,51,83325,1,0,3:2:0:0:
324,51,83408,2,0,B|222:53|280:118|159:122,1,165.000005035401,8|0,0:2|3:0,0:0:0:0:
93,75,83908,1,8,0:2:0:0:
178,121,84075,2,0,P|194:165|201:220,1,82.5000025177003,0|0,3:0|0:0,0:0:0:0:
167,294,84408,5,2,3:2:0:0:
167,294,84575,2,0,P|257:297|303:374,2,165.000005035401,0|0|0,3:2|3:0|3:2,0:0:0:0:
71,306,85408,1,8,0:0:0:0:
134,384,85575,1,8,0:2:0:0:
71,306,85742,2,0,P|81:261|103:211,1,82.5000025177003,4|0,3:2|0:0,0:0:0:0:
5,90,86075,2,0,P|-3:129|17:164,1,82.5000025177003,4|0,3:2|0:0,0:0:0:0:
116,141,86408,5,6,3:2:0:0:
116,141,86575,2,0,P|172:130|230:108,1,82.5000025177003,0|0,3:2|0:0,0:0:0:0:
257,47,86908,2,0,P|343:44|386:118,1,165.000005035401,0|0,3:2|3:2,0:0:0:0:
389,137,87325,1,0,3:2:0:0:
389,137,87408,2,0,P|376:171|369:221,1,82.5000025177003,8|0,0:2|0:0,0:0:0:0:
461,265,87742,1,0,3:0:0:0:
461,265,87908,1,8,0:2:0:0:
409,349,88075,2,0,P|375:373|320:372,1,82.5000025177003,0|0,3:2|0:2,0:0:0:0:
264,306,88408,5,2,3:2:0:0:
165,318,88575,2,0,P|132:352|126:420,1,82.5000025177003,0|0,3:2|0:0,0:0:0:0:
268,304,88908,2,0,B|261:215|199:254|198:153,1,165.000005035401,0|0,3:0|3:2,0:0:0:0:
257,81,89408,1,8,0:2:0:0:
175,24,89575,1,8,0:2:0:0:
257,81,89742,2,0,P|301:72|345:53,1,82.5000025177003,4|0,3:2|0:0,0:0:0:0:
198,161,90075,2,0,P|154:170|110:189,1,82.5000025177003,4|0,3:2|0:0,0:0:0:0:
285,206,90408,5,4,3:2:0:0:
218,279,90575,2,0,P|137:306|37:325,2,165.000005035401,0|0|0,3:2|3:0|3:2,0:0:0:0:
315,296,91408,2,0,P|377:368|446:344,1,165.000005035401,8|0,0:2|3:0,0:0:0:0:
493,272,91908,2,0,B|477:180|423:236|411:115,1,165.000005035401,8|0,0:2|0:0,0:0:0:0:
434,39,92408,5,2,3:2:0:0:
434,39,92575,2,0,P|473:15|536:19,1,82.5000025177003,0|0,3:2|0:0,0:0:0:0:
418,135,92908,2,0,P|343:176|261:179,1,165.000005035401,0|0,3:2|3:2,0:0:0:0:
169,153,93408,2,0,P|152:115|151:72,1,82.5000025177003,8|0,0:2|3:2,0:0:0:0:
230,13,93742,5,0,3:2:0:0:
297,85,93908,5,0,3:2:0:0:
264,179,94075,5,0,3:2:0:0:
331,251,94242,5,0,3:2:0:0:
299,336,94408,5,4,3:2:0:0:
299,336,94575,2,0,P|263:355|218:363,1,82.5000025177003,0|0,3:2|0:0,0:0:0:0:
123,366,94908,2,0,P|82:294|99:193,1,165.000005035401,0|0,3:2|3:2,0:0:0:0:
119,199,95325,1,0,3:2:0:0:
119,199,95408,2,0,B|119:107|19:150|61:28,1,165.000005035401,8|0,0:2|3:0,0:0:0:0:
143,19,95908,2,0,P|236:21|272:97,1,165.000005035401,8|0,0:2|0:0,0:0:0:0:
369,107,96408,5,2,3:2:0:0:
369,107,96575,2,0,P|288:106|224:185,2,165.000005035401,0|0|0,3:2|3:0|3:2,0:0:0:0:
452,160,97408,1,8,0:2:0:0:
365,208,97575,1,8,0:2:0:0:
446,264,97742,2,0,P|448:314|429:365,1,82.5000025177003,0|0,3:0|0:0,0:0:0:0:
343,370,98075,2,0,P|300:368|262:352,1,82.5000025177003,0|0,3:2|0:0,0:0:0:0:
199,240,98408,5,4,3:2:0:0:
199,240,98575,2,0,P|240:258|288:260,1,82.5000025177003,0|0,3:2|0:0,0:0:0:0:
365,208,98908,2,0,P|411:136|374:72,1,165.000005035401,0|0,3:0|3:2,0:0:0:0:
347,82,99325,1,0,3:2:0:0:
347,82,99408,2,0,B|245:80|303:15|182:11,1,165.000005035401,8|0,0:0|3:0,0:0:0:0:
113,51,99908,1,8,0:2:0:0:
190,113,100075,2,0,P|209:153|213:212,1,82.5000025177003,0|0,3:0|0:0,0:0:0:0:
127,235,100408,5,2,3:2:0:0:
127,235,100575,2,0,P|217:238|263:315,2,165.000005035401,0|0|0,3:2|3:0|3:0,0:0:0:0:
44,290,101408,1,8,0:2:0:0:
2,199,101575,1,8,0:2:0:0:
44,290,101742,2,0,P|35:330|22:369,1,82.5000025177003,4|0,3:2|0:0,0:0:0:0:
127,235,102075,2,0,P|143:192|128:148,1,82.5000025177003,4|0,3:2|0:0,0:0:0:0:
94,72,102408,5,6,3:2:0:0:
94,72,102575,2,0,P|150:61|208:39,1,82.5000025177003,0|0,3:2|0:0,0:0:0:0:
252,113,102908,2,0,P|337:131|400:73,1,165.000005035401,0|0,3:2|3:2,0:0:0:0:
448,3,103408,2,0,B|407:103|494:73|454:180,1,165.000005035401,8|0,0:2|3:0,0:0:0:0:
393,233,103908,1,8,0:2:0:0:
435,322,104075,2,0,P|478:343|537:337,1,82.5000025177003,0|0,3:0|0:0,0:0:0:0:
396,235,104408,5,2,3:2:0:0:
330,308,104575,2,0,P|309:345|307:393,1,82.5000025177003,0|0,3:2|0:0,0:0:0:0:
399,239,104908,2,0,B|392:150|330:189|329:88,1,165.000005035401,0|0,3:2|3:2,0:0:0:0:
361,2,105408,1,8,0:2:0:0:
446,51,105575,1,8,0:2:0:0:
335,100,105742,2,0,P|296:115|256:123,1,82.5000025177003,4|0,3:2|0:0,0:0:0:0:
107,75,106075,2,0,P|145:59|186:52,1,82.5000025177003,4|0,3:2|0:0,0:0:0:0:
205,199,106408,5,4,3:2:0:0:
205,199,106575,2,0,P|217:286|258:376,2,165.000005035401,0|0|0,3:2|3:0|3:0,0:0:0:0:
256,114,107408,2,0,P|334:105|376:171,1,165.000005035401,8|0,0:0|3:0,0:0:0:0:
512,212,107908,2,0,B|420:206|472:275|345:272,1,165.000005035401,8|0,0:2|0:0,0:0:0:0:
317,360,108408,5,2,3:2:0:0:
317,360,108575,2,0,P|262:356|215:340,1,82.5000025177003,0|0,3:2|0:0,0:0:0:0:
139,373,108908,2,0,P|136:307|176:211,1,165.000005035401,0|0,3:2|3:2,0:0:0:0:
130,126,109408,2,0,P|132:74|230:32,1,165.000005035401,8|0,0:2|3:2,0:0:0:0:
329,49,109908,1,0,3:2:0:0:
329,49,109992,1,0,3:0:0:0:
329,49,110075,1,8,0:2:0:0:
347,146,110242,1,8,0:2:0:0:
256,192,110408,1,4,3:2:0:0:
256,192,110491,12,0,112074,3:2:0:0:
166,289,113741,6,0,P|304:318|389:204,1,300,2|0,3:2|2:0,0:0:0:0:
346,95,115408,2,0,P|208:66|124:181,1,300,2|0,3:2|2:0,0:0:0:0:
170,323,117074,6,0,P|205:177|227:28,1,300,4|0,3:2|0:0,0:0:0:0:
297,0,118574,1,0,3:2:0:0:
342,61,118741,2,0,P|306:206|284:355,1,300,2|0,3:2|0:0,0:0:0:0:
359,360,120241,1,0,3:2:0:0:
386,290,120407,6,0,P|343:284|87:211,1,300,4|0,3:2|0:0,0:0:0:0:
70,144,121907,1,0,3:2:0:0:
126,94,122074,2,0,P|169:100|425:173,1,300,4|0,3:2|1:0,0:0:0:0:
256,32,123741,5,4,3:2:0:0:
256,192,137074,5,8,3:2:0:0:
23,340,139074,6,0,L|110:319,1,75,2|0,0:0|0:0,0:0:0:0:
166,266,139740,1,0,0:0:0:0:
166,266,140074,2,0,P|217:317|300:301,1,150,2|0,0:0|0:0,0:0:0:0:
370,348,141074,6,0,L|384:199,1,150,2|0,0:0|0:0,0:0:0:0:
463,155,142074,2,0,P|475:116|461:82,1,75,2|0,0:0|0:0,0:0:0:0:
389,33,142740,1,2,0:0:0:0:
463,85,143074,6,0,B|406:112|336:55|386:54|336:0|248:37,1,225,2|0,0:0|0:0,0:0:0:0:
187,84,144407,2,0,P|186:125|204:166,1,75,2|0,0:0|0:0,0:0:0:0:
276,199,145074,2,0,P|321:195|357:178,2,75,2|0|0,0:0|0:0|0:0,0:0:0:0:
197,156,146074,6,0,P|116:147|70:205,1,150,2|0,0:0|0:0,0:0:0:0:
28,271,147074,2,0,P|109:280|155:222,1,150,2|0,0:0|0:0,0:0:0:0:
197,156,148074,2,0,P|187:121|184:74,1,75,2|0,0:0|0:0,0:0:0:0:
231,6,148740,1,2,0:0:0:0:
314,39,149074,6,0,P|202:55|92:79,2,225,2|2|2,0:0|0:0|0:0,0:0:0:0:
397,72,151407,2,0,P|408:108|410:152,1,75,2|2,0:0|0:0,0:0:0:0:
342,204,152074,2,0,P|303:214|253:216,2,75,2|2|2,0:0|0:0|0:0,0:0:0:0:
425,237,153074,5,2,0:0:0:0:
355,294,153407,2,0,P|354:329|364:379,1,75,2|2,0:0|0:0,0:0:0:0:
425,237,154073,5,2,0:0:0:0:
495,180,154407,2,0,P|495:144|486:95,1,75,2|2,0:0|2:2,0:0:0:0:
493,6,155073,6,0,P|422:13|389:110,1,179.999994506836,4|0,3:2|2:0,0:0:0:0:
386,204,156073,2,0,P|430:194|474:190,2,89.9999972534181,0|0|0,1:2|0:0|3:0,0:0:0:0:
287,195,157073,6,0,P|318:279|328:368,1,179.999994506836,0|2,3:0|2:0,0:0:0:0:
231,348,158073,2,0,P|186:351|134:370,1,89.9999972534181,0|0,1:2|2:0,0:0:0:0:
53,322,158740,1,0,3:0:0:0:
135,267,159073,6,0,B|138:160|63:215|78:85,1,179.999994506836,4|0,3:2|2:0,0:0:0:0:
132,23,160073,1,0,1:2:0:0:
132,23,160407,2,0,P|82:18|42:7,1,89.9999972534181,0|0,2:0|3:0,0:0:0:0:
171,108,161073,6,0,P|269:112|360:134,1,179.999994506836,0|2,3:0|2:0,0:0:0:0:
438,87,162073,2,0,P|449:43|453:-1,2,89.9999972534181,0|0|0,1:2|2:0|3:0,0:0:0:0:
348,130,163073,6,0,P|264:121|209:205,1,179.999994506836,4|0,3:2|2:0,0:0:0:0:
208,289,164073,2,0,P|252:284|296:275,1,89.9999972534181,0|0,1:2|2:0,0:0:0:0:
379,221,164740,1,0,3:0:0:0:
471,254,165073,6,0,P|463:169|442:71,1,179.999994506836,0|2,3:0|2:0,0:0:0:0:
360,22,166073,2,0,P|317:26|263:42,1,89.9999972534181,0|0,1:2|2:0,0:0:0:0:
224,125,166740,1,0,3:0:0:0:
322,135,167073,6,0,P|315:250|275:209,2,269.999991760254,0|0|0,3:0|1:2|3:0,0:0:0:0:
224,125,169407,2,0,L|233:85,4,22.4999993133545,0|0|0|0|2,2:0|2:0|2:0|2:0|2:0,0:0:0:0:
275,211,170073,6,0,P|272:252|257:302,1,89.9999972534181,0|0,1:2|2:0,0:0:0:0:
175,352,170740,1,0,3:0:0:0:
87,306,171073,2,0,P|89:219|123:120,1,179.999994506836,4|0,3:2|2:0,0:0:0:0:
71,43,172073,6,0,P|125:106|219:92,1,179.999994506836,0|0,1:2|3:0,0:0:0:0:
288,30,173073,1,0,3:0:0:0:
356,102,173407,2,0,L|351:132,4,22.4999993133545,0|0|0|0|2,0:0|0:0|0:0|0:0|2:0,0:0:0:0:
484,0,174073,6,0,B|466:6|466:6|452:99,1,112.499996566773,8|0,2:2|0:0,0:0:0:0:
463,114,175073,6,0,B|378:77|320:159|320:159|311:212|252:215,1,247.500007553101,4|0,3:2|3:0,0:0:0:0:
79,155,175906,1,0,3:0:0:0:
79,155,176073,2,0,P|123:157|151:192,1,82.5000025177003,8|0,0:0|0:0,0:0:0:0:
231,129,176406,2,0,P|189:188|171:304,1,165.000005035401,0|0,3:0|3:0,0:0:0:0:
229,362,176906,1,0,3:0:0:0:
229,362,177073,6,0,P|322:363|353:283,1,165.000005035401,2|0,3:2|0:0,0:0:0:0:
369,210,177573,2,0,P|411:222|464:231,1,82.5000025177003,0|0,3:2|0:0,0:0:0:0:
512,158,177906,1,0,3:0:0:0:
512,158,177989,1,0,3:0:0:0:
512,158,178073,2,0,P|508:106|469:80,1,82.5000025177003,8|0,0:2|3:0,0:0:0:0:
404,43,178406,1,8,0:2:0:0:
404,43,178573,1,0,3:0:0:0:
336,114,178739,2,0,P|283:106|248:91,1,82.5000025177003,10|8,0:2|0:2,0:0:0:0:
197,15,179073,6,0,B|177:8|168:2|168:2|86:29|111:120,1,165.000005035401,4|0,3:2|0:0,0:0:0:0:
17,146,179573,2,0,P|103:134|156:183,1,165.000005035401,2|0,3:2|3:0,0:0:0:0:
193,275,180073,1,8,0:0:0:0:
512,374,180739,6,0,P|505:333|480:279,1,82.5000025177003,2|0,3:2|0:0,0:0:0:0:
492,195,181073,2,0,P|476:267|386:291,1,165.000005035401,2|0,3:2|0:0,0:0:0:0:
321,229,181573,2,0,P|350:200|394:195,1,82.5000025177003,2|0,3:2|0:0,0:0:0:0:
447,116,181906,1,0,3:0:0:0:
447,116,181989,1,0,3:0:0:0:
447,116,182073,2,0,P|442:72|405:32,1,82.5000025177003,8|0,0:2|0:0,0:0:0:0:
328,3,182406,2,0,P|311:66|302:141,1,123.75000377655,4|0,3:2|0:0,0:0:0:0:
278,146,182739,2,0,P|231:148|173:124,1,82.5000025177003,4|0,3:2|0:0,0:0:0:0:
149,50,183073,6,0,B|94:32|36:69|28:128|28:128|94:120|115:173,1,247.500007553101,4|0,3:2|3:0,0:0:0:0:
40,344,183906,1,0,3:0:0:0:
40,344,183989,1,0,3:0:0:0:
40,344,184073,2,0,P|59:298|65:244,1,82.5000025177003,8|0,0:2|0:0,0:0:0:0:
158,231,184406,2,0,P|206:231|252:255,1,82.5000025177003,0|0,3:0|0:0,0:0:0:0:
311,310,184739,2,0,P|389:307|419:260,1,123.75000377655,2|0,3:2|0:0,0:0:0:0:
450,274,185073,6,0,P|417:184|419:91,1,165.000005035401,4|0,3:2|0:0,0:0:0:0:
503,69,185573,2,0,P|461:22|352:43,1,165.000005035401,2|0,3:2|3:0,0:0:0:0:
346,57,185989,1,0,3:0:0:0:
346,57,186073,2,0,P|311:39|253:35,1,82.5000025177003,10|0,0:2|3:0,0:0:0:0:
181,76,186406,1,8,0:2:0:0:
181,76,186573,1,0,3:0:0:0:
260,134,186739,2,0,P|262:173|241:229,1,82.5000025177003,2|0,3:2|0:0,0:0:0:0:
288,306,187073,6,0,P|199:224|79:234,1,247.500007553101,4|8,3:2|0:2,0:0:0:0:
3,297,187739,2,0,P|35:328|89:328,1,82.5000025177003,0|0,3:0|0:0,0:0:0:0:
164,298,188073,2,0,P|164:170|129:143,1,165.000005035401,0|8,3:0|0:2,0:0:0:0:
62,96,188573,1,0,3:0:0:0:
137,32,188739,2,0,P|193:36|223:61,1,82.5000025177003,8|0,0:2|3:0,0:0:0:0:
262,136,189073,6,0,B|348:161|395:102|361:90|414:34|489:64,1,247.500007553101,4|8,3:2|0:2,0:0:0:0:
458,156,189739,1,8,0:2:0:0:
366,171,189906,1,0,3:0:0:0:
366,171,189989,1,0,3:0:0:0:
366,171,190072,2,0,P|344:205|343:255,1,82.5000025177003,8|0,0:2|0:0,0:0:0:0:
412,315,190406,5,0,3:2:0:0:
485,249,190572,5,0,3:2:0:0:
480,149,190739,5,0,3:2:0:0:
410,78,190906,5,0,3:2:0:0:
311,74,191072,6,0,B|275:80|248:112|248:112|134:99|224:30|80:41,1,247.500007553101,4|0,3:2|3:0,0:0:0:0:
3,243,191906,1,0,3:0:0:0:
3,243,192072,2,0,P|51:243|94:207,1,82.5000025177003,8|0,0:0|0:0,0:0:0:0:
103,135,192406,2,0,P|118:215|164:283,1,165.000005035401,0|0,3:0|3:0,0:0:0:0:
216,373,192906,1,0,0:0:0:0:
216,373,193072,6,0,P|278:302|253:235,1,165.000005035401,2|0,3:2|0:0,0:0:0:0:
201,161,193572,2,0,P|212:121|225:82,1,82.5000025177003,0|0,3:0|0:0,0:0:0:0:
302,18,193906,1,0,3:0:0:0:
302,18,193989,1,0,3:0:0:0:
302,18,194072,2,0,P|319:35|323:62,3,41.2500012588501,8|8|0|0,0:2|0:0|3:2|3:2,0:0:0:0:
325,83,194406,2,0,P|372:78|410:57,1,82.5000025177003,8|0,0:2|3:0,0:0:0:0:
494,100,194739,1,8,0:2:0:0:
413,158,194906,1,8,0:2:0:0:
502,200,195072,6,0,B|509:220|515:229|515:229|488:311|397:286,1,165.000005035401,4|0,3:2|0:0,0:0:0:0:
332,348,195572,2,0,P|321:282|266:177,1,165.000005035401,2|0,3:2|3:0,0:0:0:0:
204,128,196072,1,10,0:0:0:0:
17,352,196739,6,0,P|58:345|112:320,1,82.5000025177003,2|0,3:2|0:0,0:0:0:0:
154,250,197072,2,0,P|234:234|286:304,1,165.000005035401,2|0,3:2|0:0,0:0:0:0:
336,375,197572,2,0,P|378:370|418:351,1,82.5000025177003,2|0,3:2|0:0,0:0:0:0:
449,264,197906,1,0,3:0:0:0:
449,264,197989,1,0,3:0:0:0:
449,264,198072,2,0,P|444:220|407:180,1,82.5000025177003,10|0,0:0|0:0,0:0:0:0:
346,124,198406,2,0,P|392:86|384:27,1,123.75000377655,4|0,3:2|0:0,0:0:0:0:
359,5,198739,2,0,P|315:15|259:33,1,82.5000025177003,4|0,3:2|0:0,0:0:0:0:
241,117,199072,6,0,B|157:147|96:65|96:65|47:65|31:117,1,247.500007553101,4|0,3:2|3:0,0:0:0:0:
61,313,199906,1,0,3:0:0:0:
61,313,199989,1,0,3:0:0:0:
61,313,200072,2,0,P|107:332|161:338,1,82.5000025177003,8|0,0:2|0:0,0:0:0:0:
228,292,200406,2,0,P|242:253|247:212,1,82.5000025177003,0|0,3:0|0:0,0:0:0:0:
158,168,200739,2,0,P|219:111|266:118,1,123.75000377655,2|0,3:2|0:0,0:0:0:0:
287,124,201072,6,0,B|320:140|320:140|344:111|344:111|436:71,1,165.000005035401,4|0,3:2|0:0,0:0:0:0:
488,0,201572,2,0,B|454:24|449:65|449:65|512:79|503:142,1,165.000005035401,2|0,3:2|3:0,0:0:0:0:
484,153,201989,1,0,3:0:0:0:
484,153,202072,2,0,P|458:180|466:244,1,82.5000025177003,8|0,0:2|0:0,0:0:0:0:
512,310,202406,1,8,0:2:0:0:
512,310,202572,1,0,3:0:0:0:
426,359,202739,2,0,P|379:360|332:331,1,82.5000025177003,2|0,3:2|0:0,0:0:0:0:
248,355,203072,6,0,B|238:280|302:240|317:269|379:216|348:133,1,247.500007553101,4|8,3:2|0:2,0:0:0:0:
359,49,203739,2,0,P|318:51|286:76,1,82.5000025177003,0|0,3:0|0:0,0:0:0:0:
248,167,204072,2,0,P|224:48|182:24,1,165.000005035401,0|8,3:0|0:2,0:0:0:0:
95,16,204572,1,0,3:0:0:0:
132,107,204739,2,0,P|131:152|96:193,1,82.5000025177003,8|0,0:2|3:0,0:0:0:0:
14,205,205072,6,0,B|78:178|131:234|97:246|144:305|230:280,1,247.500007553101,2|8,3:2|0:2,0:0:0:0:
321,245,205739,1,8,0:0:0:0:
303,342,205906,1,0,3:0:0:0:
395,307,206072,2,0,P|442:291|499:279,1,82.5000025177003,8|0,0:2|3:0,0:0:0:0:
473,283,206322,1,0,3:0:0:0:
473,283,206406,5,2,3:2:0:0:
507,190,206572,5,2,3:2:0:0:
457,104,206739,5,2,3:2:0:0:
364,69,206906,5,2,3:2:0:0:
270,101,207072,6,0,B|245:196|325:171|305:272,1,165.000005035401,4|0,3:2|1:2,0:0:0:0:
246,333,207572,1,0,3:0:0:0:
246,333,207656,1,0,3:0:0:0:
246,333,207739,2,0,P|208:350|163:357,1,82.5000025177003,0|0,1:2|3:0,0:0:0:0:
81,307,208072,2,0,P|70:283|68:247,3,41.2500012588501,0|0|0|0,1:2|3:0|3:0|3:0,0:0:0:0:
69,236,208406,2,0,P|113:231|149:220,1,82.5000025177003,0|0,1:2|3:0,0:0:0:0:
198,133,208739,1,8,0:0:0:0:
148,53,208906,1,8,0:0:0:0:
148,53,208989,1,8,0:0:0:0:
148,53,209072,6,0,P|196:38|233:34,1,82.5000025177003,0|0,1:2|1:2,0:0:0:0:
314,84,209406,2,0,P|364:75|408:63,1,82.5000025177003,0|0,1:2|1:2,0:0:0:0:
486,104,209739,1,2,1:2:0:0:
406,163,209906,1,2,1:2:0:0:
496,202,210072,6,0,P|495:224|490:261,3,41.2500012588501,0|0|0|0,1:2|1:2|3:0|3:0,0:0:0:0:
461,263,210406,2,0,P|460:285|455:322,3,41.2500012588501,0|0|0|0,3:0|3:0|3:0|3:0,0:0:0:0:
431,338,210739,2,0,P|484:345|528:354,1,82.5000025177003,2|0,1:2|3:0,0:0:0:0:
365,276,211072,6,0,P|326:274|269:266,1,82.5000025177003,0|0,1:2|3:0,0:0:0:0:
210,200,211406,2,0,P|213:173|221:144,3,41.2500012588501,0|0|0|0,3:0|3:0|3:0|3:0,0:0:0:0:
226,122,211739,1,2,1:2:0:0:
160,47,211906,1,2,1:2:0:0:
77,103,212072,6,0,P|64:145|56:204,1,82.5000025177003,0|0,1:2|3:0,0:0:0:0:
82,212,212322,1,0,3:0:0:0:
82,212,212406,2,0,P|71:244|69:266,3,41.2500012588501,0|0|0|0,3:0|3:0|3:0|3:0,0:0:0:0:
89,281,212739,1,2,1:2:0:0:
11,343,212906,1,2,1:2:0:0:
104,375,213072,6,0,P|148:367|205:350,1,82.5000025177003,0|0,1:2|3:0,0:0:0:0:
209,335,213322,1,0,3:0:0:0:
209,335,213406,2,0,L|220:279,3,41.2500012588501,0|0|0|0,3:0|3:0|3:0|3:0,0:0:0:0:
227,261,213739,1,2,1:2:0:0:
302,325,213906,1,2,1:2:0:0:
372,255,214072,6,0,P|426:241|479:232,1,82.5000025177003,0|0,1:2|3:0,0:0:0:0:
468,211,214322,1,0,3:0:0:0:
468,211,214406,2,0,P|471:183|478:158,3,41.2500012588501,0|0|0|0,3:0|3:0|3:0|3:0,0:0:0:0:
446,138,214739,1,2,1:2:0:0:
351,165,214906,1,2,1:2:0:0:
256,192,215072,1,4,3:2:0:0:
256,192,215156,12,2,218239,0:0:0:0:
256,192,218322,12,0,222906,0:0:0:0:
