osu file format v14

[General]
AudioFilename: audio.mp3
AudioLeadIn: 0
PreviewTime: 175032
Countdown: 0
SampleSet: Soft
StackLeniency: 0.7
Mode: 0
LetterboxInBreaks: 0
WidescreenStoryboard: 0

[Editor]
DistanceSpacing: 0.4
BeatDivisor: 4
GridSize: 4
TimelineZoom: 1.8

[Metadata]
Title:Palette
TitleUnicode:Palette
Artist:Hanatan
ArtistUnicode:花たん
Creator:Fall
Version:EvilElvis' Extra
Source:
Tags:draw the emotional meola solitude freak rock metal japanese _tranquility seto kousuke star stream star_kor realy0_ garden affirmation marle evilelvis jounzan natteke desu Megurine Luka VOCALOID ユリカ YURiCa ゆよゆっぺ Yuyoyuppe
BeatmapID:4458013
BeatmapSetID:1572337

[Difficulty]
HPDrainRate:7
CircleSize:4
OverallDifficulty:8
ApproachRate:9
SliderMultiplier:1.6
SliderTickRate:1

[Events]
//Background and Video events
0,0,"Palette..jpg",0,0
//Break Periods
//Storyboard Layer 0 (Background)
//Storyboard Layer 1 (Fail)
//Storyboard Layer 2 (Pass)
//Storyboard Layer 3 (Foreground)
//Storyboard Layer 4 (Overlay)
//Storyboard Sound Samples

[TimingPoints]
1077,333.333333333333,6,2,1,60,1,0
1077,-250,3,2,1,45,0,0
4076,-500,3,2,1,35,0,0
5076,-250,3,2,1,45,0,0
8076,-500,3,2,1,35,0,0
8743,-500,3,2,5,45,0,0
8908,-500,3,2,6,60,0,0
9074,-500,3,2,5,60,0,0
9410,-100,3,2,5,60,0,0
10408,-100,3,2,6,60,0,0
10574,-100,3,2,5,60,0,0
11824,-100,3,2,6,60,0,0
11908,-100,3,2,5,60,0,0
12408,-100,3,2,6,60,0,0
12491,-100,3,2,5,60,0,0
12741,-100,3,2,6,60,0,0
13074,-100,3,2,5,60,0,0
14408,-100,3,2,6,60,0,0
14574,-100,3,2,5,60,0,0
14741,-100,3,2,6,60,0,0
15074,-100,3,2,5,60,0,0
16408,-100,3,2,6,60,0,0
17074,-100,3,2,5,60,0,0
18408,-100,3,2,6,60,0,0
18574,-100,3,2,5,60,0,0
19824,-100,3,2,6,60,0,0
19908,-100,3,2,5,60,0,0
20408,-100,3,2,6,60,0,0
20491,-100,3,2,5,60,0,0
20741,-100,3,2,6,60,0,0
21074,-100,3,2,5,60,0,0
22408,-100,3,2,6,60,0,0
22574,-100,3,2,5,60,0,0
22741,-100,3,2,6,60,0,0
23074,-100,3,2,5,60,0,0
24408,-100,3,2,6,60,0,0
24824,-100,3,2,5,60,0,0
24908,-100,3,2,6,60,0,0
25074,-100,3,2,5,60,0,0
26408,-100,3,2,6,60,0,0
26574,-100,3,2,5,60,0,0
27824,-100,3,2,6,60,0,0
27908,-100,3,2,5,60,0,0
28408,-100,3,2,6,60,0,0
28491,-100,3,2,5,60,0,0
28741,-100,3,2,6,60,0,0
29074,-100,3,2,5,60,0,0
30408,-100,3,2,6,60,0,0
30574,-100,3,2,5,60,0,0
30741,-100,3,2,6,60,0,0
31074,-100,3,2,5,60,0,0
32074,-100,3,2,5,100,0,0
32410,-500,3,2,5,70,0,0
32743,-500,3,2,1,70,0,0
32908,-500,3,2,1,70,0,0
33076,-90.9090909090909,3,2,2,85,0,0
49076,333.333333333333,5,2,3,70,1,0
62409,333.333333333333,6,2,3,75,1,0
78075,-333.333333333333,6,2,3,75,0,0
78325,-333.333333333333,6,2,3,75,0,0
78408,-76.9230769230769,6,2,2,85,0,1
78825,-76.9230769230769,6,2,2,85,0,1
78908,-76.9230769230769,6,2,2,85,0,1
79158,-76.9230769230769,6,2,2,85,0,1
79242,-76.9230769230769,6,2,2,85,0,1
79575,-76.9230769230769,6,2,2,85,0,1
79742,-76.9230769230769,6,2,2,85,0,1
80242,-76.9230769230769,6,2,2,85,0,1
80408,-76.9230769230769,6,2,2,85,0,1
80742,-76.9230769230769,6,2,2,85,0,1
80908,-76.9230769230769,6,2,2,85,0,1
81158,-76.9230769230769,6,2,2,85,0,1
81242,-76.9230769230769,6,2,2,85,0,1
81908,-76.9230769230769,6,2,2,85,0,1
82075,-76.9230769230769,6,2,2,85,0,1
82242,-76.9230769230769,6,2,2,85,0,1
82408,-76.9230769230769,6,2,2,85,0,1
82825,-76.9230769230769,6,2,2,85,0,1
82908,-76.9230769230769,6,2,2,85,0,1
83158,-76.9230769230769,6,2,2,85,0,1
83242,-76.9230769230769,6,2,2,85,0,1
83575,-76.9230769230769,6,2,2,85,0,1
83742,-76.9230769230769,6,2,2,85,0,1
84242,-76.9230769230769,6,2,2,85,0,1
84408,-76.9230769230769,6,2,2,85,0,1
84742,-76.9230769230769,6,2,2,85,0,1
84908,-76.9230769230769,6,2,2,85,0,1
85158,-76.9230769230769,6,2,2,85,0,1
85242,-76.9230769230769,6,2,2,85,0,1
85992,-76.9230769230769,6,2,2,85,0,1
86075,-76.9230769230769,6,2,2,85,0,1
86325,-76.9230769230769,6,2,2,85,0,1
86408,-76.9230769230769,6,2,2,85,0,1
86742,-76.9230769230769,6,2,2,85,0,1
86908,-76.9230769230769,6,2,2,85,0,1
87158,-76.9230769230769,6,2,2,85,0,1
87242,-76.9230769230769,6,2,2,85,0,1
87575,-76.9230769230769,6,2,2,85,0,1
87742,-76.9230769230769,6,2,2,85,0,1
88325,-76.9230769230769,6,2,2,85,0,1
88408,-76.9230769230769,6,2,2,85,0,1
88825,-76.9230769230769,6,2,2,85,0,1
88908,-76.9230769230769,6,2,2,85,0,1
89055,-76.9230769230769,6,2,2,85,0,1
89242,-76.9230769230769,6,2,2,85,0,1
89805,-76.9230769230769,6,2,2,85,0,1
90075,-76.9230769230769,6,2,2,85,0,1
90222,-76.9230769230769,6,2,2,85,0,1
90408,-76.9230769230769,6,2,2,85,0,1
90722,-76.9230769230769,6,2,2,85,0,1
90908,-76.9230769230769,6,2,2,85,0,1
91158,-76.9230769230769,6,2,2,85,0,1
91242,-76.9230769230769,6,2,2,85,0,1
91575,-76.9230769230769,6,2,2,85,0,1
91742,-76.9230769230769,6,2,2,85,0,1
92325,-76.9230769230769,6,2,2,85,0,1
92408,-76.9230769230769,6,2,2,85,0,1
92742,-76.9230769230769,6,2,2,85,0,1
92908,-76.9230769230769,6,2,2,85,0,1
93450,-76.9230769230769,6,2,2,85,0,1
93575,-76.9230769230769,6,2,2,85,0,1
93617,-76.9230769230769,6,2,2,85,0,1
93742,-76.9230769230769,6,2,2,85,0,1
93783,-76.9230769230769,6,2,2,85,0,1
93908,-76.9230769230769,6,2,2,85,0,1
93950,-76.9230769230769,6,2,2,85,0,1
94075,-76.9230769230769,6,2,2,85,0,1
94117,-76.9230769230769,6,2,2,85,0,1
94242,-76.9230769230769,6,2,2,85,0,1
94283,-76.9230769230769,6,2,2,85,0,1
94408,-76.9230769230769,6,2,2,85,0,1
94825,-76.9230769230769,6,2,2,85,0,1
94908,-76.9230769230769,6,2,2,85,0,1
95158,-76.9230769230769,6,2,2,85,0,1
95242,-76.9230769230769,6,2,2,85,0,1
95555,-76.9230769230769,6,2,2,85,0,1
95742,-76.9230769230769,6,2,2,85,0,1
96222,-76.9230769230769,6,2,2,85,0,1
96408,-76.9230769230769,6,2,2,85,0,1
96639,-76.9230769230769,6,2,2,85,0,1
96908,-76.9230769230769,6,2,2,85,0,1
97055,-76.9230769230769,6,2,2,85,0,1
97242,-76.9230769230769,6,2,2,85,0,1
97805,-76.9230769230769,6,2,2,85,0,1
98075,-76.9230769230769,6,2,2,85,0,1
98222,-76.9230769230769,6,2,2,85,0,1
98408,-76.9230769230769,6,2,2,85,0,1
98722,-76.9230769230769,6,2,2,85,0,1
98908,-76.9230769230769,6,2,2,85,0,1
99055,-76.9230769230769,6,2,2,85,0,1
99242,-76.9230769230769,6,2,2,85,0,1
99575,-76.9230769230769,6,2,2,85,0,1
99659,-76.9230769230769,6,2,2,85,0,1
100139,-76.9230769230769,6,2,2,85,0,1
100408,-76.9230769230769,6,2,2,85,0,1
100722,-76.9230769230769,6,2,2,85,0,1
100908,-76.9230769230769,6,2,2,85,0,1
101055,-76.9230769230769,6,2,2,85,0,1
101242,-76.9230769230769,6,2,2,85,0,1
101805,-76.9230769230769,6,2,2,85,0,1
102075,-76.9230769230769,6,2,2,85,0,1
102222,-76.9230769230769,6,2,2,85,0,1
102408,-76.9230769230769,6,2,2,85,0,1
102722,-76.9230769230769,6,2,2,85,0,1
102908,-76.9230769230769,6,2,2,85,0,1
103055,-76.9230769230769,6,2,2,85,0,1
103242,-76.9230769230769,6,2,2,85,0,1
103555,-76.9230769230769,6,2,2,85,0,1
103742,-76.9230769230769,6,2,2,85,0,1
104222,-76.9230769230769,6,2,2,85,0,1
104408,-76.9230769230769,6,2,2,85,0,1
104722,-76.9230769230769,6,2,2,85,0,1
104908,-76.9230769230769,6,2,2,85,0,1
105055,-76.9230769230769,6,2,2,85,0,1
105242,-76.9230769230769,6,2,2,85,0,1
105805,-76.9230769230769,6,2,2,85,0,1
106075,-76.9230769230769,6,2,2,85,0,1
106325,-76.9230769230769,6,2,2,85,0,1
106408,-76.9230769230769,6,2,2,85,0,1
106709,-76.9230769230769,6,2,2,85,0,1
106908,-76.9230769230769,6,2,2,85,0,1
107042,-76.9230769230769,6,2,2,85,0,1
107242,-76.9230769230769,6,2,2,85,0,1
107459,-76.9230769230769,6,2,2,85,0,1
107742,-76.9230769230769,6,2,2,85,0,1
108126,-76.9230769230769,6,2,2,85,0,1
108408,-76.9230769230769,6,2,2,85,0,1
108709,-76.9230769230769,6,2,2,85,0,1
108908,-76.9230769230769,6,2,2,85,0,1
109042,-76.9230769230769,6,2,2,85,0,1
109242,-76.9230769230769,6,2,2,85,0,1
110408,333.333333333333,5,2,2,85,1,1
110408,-76.9230769230769,6,2,2,85,0,0
110491,-76.9230769230769,6,2,7,5,0,0
110741,-76.9230769230769,6,2,7,75,0,0
110908,-76.9230769230769,6,2,7,75,0,0
111074,-76.9230769230769,6,2,7,75,0,0
111241,-76.9230769230769,6,2,7,75,0,0
111408,-76.9230769230769,6,2,7,75,0,0
111574,-76.9230769230769,6,2,7,75,0,0
111741,-333.333333333333,6,2,7,75,0,0
111908,-333.333333333333,6,2,7,75,0,0
112074,-333.333333333333,6,2,7,75,0,0
112241,-333.333333333333,6,2,7,75,0,0
112408,-333.333333333333,6,2,7,75,0,0
112574,-333.333333333333,6,2,7,75,0,0
112741,-333.333333333333,6,2,7,75,0,0
112908,-333.333333333333,6,2,7,75,0,0
113074,-333.333333333333,6,2,7,75,0,0
113241,-333.333333333333,6,2,7,75,0,0
113408,-333.333333333333,6,2,7,75,0,0
113574,-333.333333333333,6,2,7,75,0,0
113741,-333.333333333333,6,2,7,75,0,0
113908,-333.333333333333,6,2,7,75,0,0
114074,-333.333333333333,6,2,7,75,0,0
114241,-333.333333333333,6,2,7,75,0,0
114408,-333.333333333333,6,2,7,75,0,0
114574,-333.333333333333,6,2,7,75,0,0
114741,-333.333333333333,6,2,7,75,0,0
114908,-333.333333333333,6,2,7,75,0,0
115074,-333.333333333333,6,2,7,75,0,0
115241,-333.333333333333,6,2,7,75,0,0
115408,-333.333333333333,6,2,7,75,0,0
115574,-333.333333333333,6,2,7,75,0,0
115741,-333.333333333333,6,2,7,75,0,0
115908,-333.333333333333,6,2,7,75,0,0
116074,-333.333333333333,6,2,7,75,0,0
116241,-333.333333333333,6,2,7,75,0,0
116408,-333.333333333333,6,2,7,75,0,0
116574,-333.333333333333,6,2,7,75,0,0
116741,-333.333333333333,6,2,7,75,0,0
116908,-333.333333333333,6,2,7,75,0,0
117074,-333.333333333333,6,2,7,75,0,0
117241,-333.333333333333,6,2,7,75,0,0
117408,-333.333333333333,6,2,7,75,0,0
117574,-333.333333333333,6,2,7,75,0,0
117741,-333.333333333333,6,2,7,75,0,0
117907,-333.333333333333,6,2,7,75,0,0
118074,-333.333333333333,6,2,7,75,0,0
118241,-333.333333333333,6,2,7,75,0,0
118407,-333.333333333333,6,2,7,75,0,0
118907,-333.333333333333,6,2,7,75,0,0
119074,-333.333333333333,6,2,7,75,0,0
119241,-333.333333333333,6,2,7,75,0,0
119407,-333.333333333333,6,2,7,75,0,0
119574,-333.333333333333,6,2,7,75,0,0
119741,-333.333333333333,6,2,7,75,0,0
119907,-333.333333333333,6,2,7,75,0,0
120074,-333.333333333333,6,2,7,75,0,0
120574,-333.333333333333,6,2,7,75,0,0
120741,-333.333333333333,6,2,7,75,0,0
120907,-333.333333333333,6,2,7,75,0,0
121074,-333.333333333333,6,2,7,75,0,0
121241,-333.333333333333,6,2,7,75,0,0
121407,-333.333333333333,6,2,7,75,0,0
121574,-333.333333333333,6,2,7,75,0,0
121741,-333.333333333333,6,2,7,75,0,0
122241,-333.333333333333,6,2,7,75,0,0
122407,-333.333333333333,6,2,7,75,0,0
122574,-333.333333333333,6,2,7,75,0,0
122741,-333.333333333333,6,2,7,75,0,0
122907,-333.333333333333,6,2,7,75,0,0
123074,-333.333333333333,6,2,7,75,0,0
123657,-333.333333333333,6,2,7,75,0,0
123741,-333.333333333333,6,2,7,75,0,0
123824,-333.333333333333,6,2,8,35,0,0
137074,333.333333333333,6,2,5,45,1,0
139074,333.333333333333,3,2,8,25,1,1
139074,-500,3,2,8,25,0,0
154740,-500,3,2,9,40,0,0
155073,-83.3333333333333,3,2,9,40,0,0
157075,-500,3,2,9,40,0,0
158073,-83.3333333333333,3,2,9,40,0,0
161407,-100,3,2,9,40,0,0
162073,-83.3333333333333,3,2,9,40,0,0
165073,-500,3,2,9,40,0,0
166073,-83.3333333333333,3,2,9,40,0,0
169407,-100,3,2,9,40,0,0
170073,-83.3333333333333,3,2,9,40,0,0
173407,-500,3,2,9,40,0,0
174073,-1000,3,2,2,85,0,0
174990,-1000,3,2,2,5,0,0
175073,333.333333333333,6,2,2,95,1,0
175073,-66.6666666666667,6,2,2,95,0,1
190240,-66.6666666666667,6,2,2,95,0,1
190406,-66.6666666666667,6,2,2,95,0,1
190448,-66.6666666666667,6,2,2,95,0,1
190572,-66.6666666666667,6,2,2,95,0,1
190615,-66.6666666666667,6,2,2,95,0,1
190739,-66.6666666666667,6,2,2,95,0,1
190782,-66.6666666666667,6,2,2,95,0,1
190906,-66.6666666666667,6,2,2,95,0,1
190948,-66.6666666666667,6,2,2,95,0,1
191072,-58.8235294117647,6,2,2,95,0,1
205072,-100,6,2,2,95,0,1
206448,-100,6,2,2,95,0,1
206573,-100,6,2,2,95,0,1
206615,-100,6,2,2,95,0,1
206740,-100,6,2,2,95,0,1
206782,-100,6,2,2,95,0,1
206906,-100,6,2,2,95,0,1
206948,-100,6,2,2,95,0,1
206989,-100,6,2,2,95,0,1
207072,-100,3,2,2,95,0,1
215072,-100,3,2,2,95,0,0
217072,-100,3,2,2,75,0,0
219072,-100,3,2,2,55,0,0
221072,-100,3,2,2,35,0,0
222406,-100,3,2,2,15,0,0
222906,-100,3,2,2,5,0,0
223905,-100,3,2,2,5,0,0

[Colours]
Combo1 : 71,141,141
Combo2 : 66,255,160
Combo3 : 0,242,121
Combo4 : 138,255,197

[HitObjects]
26,117,1077,5,2,0:0:0:0:
100,85,1243,2,0,P|106:76|108:67,2,16,2|0|2,0:0|0:0|0:0,0:0:0:0:
47,145,1576,5,2,0:0:0:0:
132,155,1742,2,0,P|140:147|144:139,2,16,2|0|2,0:0|0:0|0:0,0:0:0:0:
30,177,2076,5,2,0:0:0:0:
189,227,2243,2,0,P|198:222|204:215,2,16,2|0|2,0:0|0:0|0:0,0:0:0:0:
277,142,2576,5,2,0:0:0:0:
272,134,2743,1,2,0:0:0:0:
268,128,2910,1,2,0:0:0:0:
298,224,3076,6,0,P|302:250|309:259,2,32,2|2|2,0:0|0:0|0:0,0:0:0:0:
429,190,3576,2,0,P|425:164|418:155,2,32,2|2|2,0:0|0:0|0:0,0:0:0:0:
298,224,4077,6,0,P|305:234|312:240,2,16,2|2|2,0:0|0:0|0:0,0:0:0:0:
429,190,4576,2,0,P|424:180|417:175,2,16,2|2|2,0:0|0:0|0:0,0:0:0:0:
490,51,5076,5,2,0:0:0:0:
416,19,5242,2,0,P|410:10|408:1,2,16,2|0|2,0:0|0:0|0:0,0:0:0:0:
469,79,5575,5,2,0:0:0:0:
384,89,5743,2,0,P|375:81|371:73,2,16,2|0|2,0:0|0:0|0:0,0:0:0:0:
481,112,6075,5,2,0:0:0:0:
327,161,6242,2,0,P|317:156|311:149,2,16,2|0|2,0:0|0:0|0:0,0:0:0:0:
243,77,6576,5,2,0:0:0:0:
248,69,6743,1,2,0:0:0:0:
252,63,6910,1,2,0:0:0:0:
217,183,7076,6,0,P|213:209|206:218,2,32,2|2|2,0:0|0:0|0:0,0:0:0:0:
86,149,7576,2,0,P|90:123|97:114,2,32,2|2|2,0:0|0:0|0:0,0:0:0:0:
217,183,8077,6,0,P|209:193|202:199,2,16,2|2|2,0:0|0:0|0:0,0:0:0:0:
86,149,8576,2,0,P|94:139|101:133,1,16,2|2,0:0|2:0,0:0:0:0:
104,136,8826,1,0,2:0:0:0:
111,139,8910,1,0,0:0:0:0:
112,146,8993,1,0,0:0:0:0:
106,151,9076,1,0,3:0:0:0:
75,355,9410,5,0,1:0:0:0:
77,347,9493,1,0,3:0:0:0:
90,353,9576,1,0,3:0:0:0:
88,361,9659,1,0,3:0:0:0:
84,350,9743,1,0,3:0:0:0:
135,291,9910,1,0,3:0:0:0:
84,220,10076,5,0,1:0:0:0:
91,223,10159,1,0,3:0:0:0:
83,235,10242,1,0,3:0:0:0:
75,231,10325,1,0,3:0:0:0:
87,229,10409,1,0,0:0:0:0:
135,291,10576,1,0,3:0:0:0:
214,285,10743,6,0,L|250:273,1,26.6666666666667,0|0,1:0|0:0,0:0:0:0:
224,289,10854,2,0,L|260:277,1,26.6666666666667,2|0,0:0|1:0,0:0:0:0:
221,296,10965,2,0,L|257:284,1,26.6666666666667,2|0,0:0|0:0,0:0:0:0:
213,297,11076,5,0,3:0:0:0:
338,238,11243,1,0,0:0:0:0:
338,238,11326,1,0,3:0:0:0:
448,300,11493,1,0,2:0:0:0:
448,300,11576,1,0,3:0:0:0:
377,325,11743,1,0,3:0:0:0:
408,212,11910,1,0,1:0:0:0:
412,205,11993,1,0,1:0:0:0:
403,200,12076,6,0,L|330:183,2,53.3333333333333,0|0|0,3:0|3:0|3:0,0:0:0:0:
411,190,12410,1,0,0:0:0:0:
452,188,12493,1,0,1:0:0:0:
469,154,12576,1,0,1:0:0:0:
451,123,12660,1,0,1:0:0:0:
454,114,12743,6,0,L|481:106,7,20,0|0|0|0|0|0|0|0,1:0|1:0|1:0|1:0|1:0|1:0|1:0|0:0,0:0:0:0:
448,111,13076,5,0,3:0:0:0:
378,70,13243,1,0,0:0:0:0:
380,63,13326,1,0,2:0:0:0:
447,13,13493,1,0,3:0:0:0:
445,20,13576,1,0,3:0:0:0:
286,255,14076,5,0,1:0:0:0:
278,252,14160,1,0,3:0:0:0:
270,249,14243,1,0,3:0:0:0:
262,246,14326,1,0,3:0:0:0:
254,243,14410,1,0,0:0:0:0:
267,234,14493,1,0,0:0:0:0:
281,228,14576,1,0,3:0:0:0:
204,182,14743,2,0,L|167:174,1,26.6666666666667,0|0,1:0|0:0,0:0:0:0:
207,175,14854,2,0,L|170:167,1,26.6666666666667,2|0,0:0|1:0,0:0:0:0:
203,169,14965,2,0,L|166:161,1,26.6666666666667,2|0,0:0|0:0,0:0:0:0:
213,162,15076,5,0,3:0:0:0:
142,86,15243,1,0,0:0:0:0:
146,81,15326,1,0,3:0:0:0:
47,122,15493,1,0,0:0:0:0:
51,117,15576,1,0,3:0:0:0:
112,199,15743,1,0,1:0:0:0:
213,162,15910,1,0,1:0:0:0:
223,174,15993,1,0,1:0:0:0:
234,162,16076,2,0,L|251:107,2,53.3333333333333,0|0|0,3:0|3:0|3:0,0:0:0:0:
250,194,16410,6,0,L|260:230,5,26.6666666666667,0|0|0|0|0|0,1:0|1:0|1:0|1:0|0:0|0:0,0:0:0:0:
321,162,16743,5,0,1:0:0:0:
326,180,16854,5,0,1:0:0:0:
334,164,16965,5,0,1:0:0:0:
397,212,17076,5,0,3:0:0:0:
397,212,17410,1,0,1:0:0:0:
403,206,17493,1,0,3:0:0:0:
422,216,17576,1,0,3:0:0:0:
416,210,17659,1,0,3:0:0:0:
411,197,17743,1,0,3:0:0:0:
427,125,17910,1,0,3:0:0:0:
375,25,18076,5,0,1:0:0:0:
369,31,18159,1,0,3:0:0:0:
350,21,18242,1,0,3:0:0:0:
356,27,18325,1,0,3:0:0:0:
361,40,18409,1,0,0:0:0:0:
345,112,18576,1,0,3:0:0:0:
252,55,18743,6,0,L|283:60,1,26.6666666666667,0|0,1:0|0:0,0:0:0:0:
247,62,18854,2,0,L|278:67,1,26.6666666666667,2|0,0:0|1:0,0:0:0:0:
251,70,18965,2,0,L|282:75,1,26.6666666666667,2|0,0:0|0:0,0:0:0:0:
238,65,19076,1,0,3:0:0:0:
142,26,19243,1,0,0:0:0:0:
142,26,19326,1,0,3:0:0:0:
56,74,19493,1,0,2:0:0:0:
56,74,19576,1,0,3:0:0:0:
6,11,19743,1,0,3:0:0:0:
70,151,19910,5,0,1:0:0:0:
60,161,19993,1,0,1:0:0:0:
73,166,20076,2,0,L|130:182,2,53.3333333333333,0|0|0,3:0|3:0|3:0,0:0:0:0:
41,186,20410,1,0,0:0:0:0:
28,224,20493,1,0,1:0:0:0:
57,266,20576,1,0,1:0:0:0:
109,252,20659,1,0,1:0:0:0:
114,259,20743,2,0,L|109:284,7,20,0|0|0|0|0|0|0|0,1:0|1:0|1:0|1:0|1:0|1:0|1:0|0:0,0:0:0:0:
117,254,21076,5,0,3:0:0:0:
216,179,21243,1,0,0:0:0:0:
213,193,21326,1,0,2:0:0:0:
284,230,21493,1,0,3:0:0:0:
287,216,21576,1,0,3:0:0:0:
475,75,22076,5,0,1:0:0:0:
483,72,22160,1,0,3:0:0:0:
491,69,22243,1,0,3:0:0:0:
499,66,22326,1,0,3:0:0:0:
507,63,22410,1,0,0:0:0:0:
494,54,22493,1,0,0:0:0:0:
480,48,22576,1,0,3:0:0:0:
474,171,22743,2,0,L|489:208,1,26.6666666666667,0|0,1:0|0:0,0:0:0:0:
466,172,22854,2,0,L|481:209,1,26.6666666666667,2|0,0:0|1:0,0:0:0:0:
464,180,22965,2,0,L|479:217,1,26.6666666666667,2|0,0:0|0:0,0:0:0:0:
459,173,23076,5,0,3:0:0:0:
386,282,23243,1,0,0:0:0:0:
390,271,23326,1,0,3:0:0:0:
302,199,23493,1,0,0:0:0:0:
306,210,23576,1,0,3:0:0:0:
258,280,23743,1,0,1:0:0:0:
222,212,23910,1,0,1:0:0:0:
233,181,23993,1,0,1:0:0:0:
198,189,24076,2,0,L|143:197,2,53.3333333333333,0|0|0,3:0|3:0|3:0,0:0:0:0:
211,157,24410,2,0,L|205:119,5,26.6666666666667,0|0|0|0|0|0,0:0|0:0|0:0|1:0|0:0|0:0,0:0:0:0:
207,56,24743,5,0,1:0:0:0:
139,15,24910,1,0,1:0:0:0:
138,24,24993,1,0,1:0:0:0:
127,19,25076,1,0,3:0:0:0:
0,163,25410,5,0,1:0:0:0:
2,155,25493,1,0,3:0:0:0:
15,161,25576,1,0,3:0:0:0:
13,174,25659,1,0,3:0:0:0:
0,176,25743,1,0,3:0:0:0:
83,113,25910,1,0,3:0:0:0:
129,203,26076,1,0,1:0:0:0:
127,211,26159,1,0,3:0:0:0:
114,205,26242,1,0,3:0:0:0:
116,192,26325,1,0,3:0:0:0:
129,190,26409,1,0,0:0:0:0:
198,158,26576,1,0,3:0:0:0:
165,66,26743,6,0,L|201:54,1,26.6666666666667,0|0,1:0|0:0,0:0:0:0:
161,74,26854,2,0,L|197:62,1,26.6666666666667,2|0,0:0|1:0,0:0:0:0:
166,80,26965,2,0,L|202:68,1,26.6666666666667,2|0,0:0|0:0,0:0:0:0:
149,89,27076,5,0,3:0:0:0:
266,49,27243,1,0,2:0:0:0:
266,49,27326,1,0,3:0:0:0:
356,115,27493,1,0,0:0:0:0:
356,115,27576,1,0,3:0:0:0:
414,68,27743,1,0,3:0:0:0:
431,154,27910,1,0,1:0:0:0:
435,147,27993,1,0,1:0:0:0:
426,142,28076,6,0,L|419:86,2,53.3333333333333,0|0|0,3:0|3:0|3:0,0:0:0:0:
407,178,28410,1,0,0:0:0:0:
451,210,28493,1,0,1:0:0:0:
431,254,28576,1,0,1:0:0:0:
407,285,28660,1,0,1:0:0:0:
419,294,28743,6,0,L|446:286,7,20,0|0|0|0|0|0|0|0,1:0|1:0|1:0|1:0|1:0|1:0|1:0|0:0,0:0:0:0:
409,300,29076,5,0,3:0:0:0:
441,377,29243,1,0,0:0:0:0:
443,370,29326,1,0,2:0:0:0:
512,326,29493,1,0,3:0:0:0:
510,333,29576,1,0,3:0:0:0:
315,229,30076,5,0,1:0:0:0:
307,232,30160,1,0,3:0:0:0:
299,235,30243,1,0,3:0:0:0:
291,238,30326,1,0,3:0:0:0:
283,241,30410,1,0,0:0:0:0:
296,250,30493,1,0,0:0:0:0:
310,256,30576,1,0,3:0:0:0:
388,361,30743,2,0,L|351:353,1,26.6666666666667,0|0,1:0|0:0,0:0:0:0:
391,354,30854,2,0,L|354:346,1,26.6666666666667,2|0,0:0|1:0,0:0:0:0:
387,348,30965,2,0,L|350:340,1,26.6666666666667,2|0,0:0|0:0,0:0:0:0:
415,363,31076,5,0,3:0:0:0:
427,356,31160,1,0,0:0:0:0:
440,368,31243,1,0,0:0:0:0:
508,303,31410,1,0,1:0:0:0:
494,303,31494,1,0,0:0:0:0:
488,286,31577,1,0,3:0:0:0:
415,255,31743,1,0,1:0:0:0:
409,272,31826,1,0,2:0:0:0:
395,272,31910,1,0,1:0:0:0:
250,188,32076,5,12,3:2:0:0:
250,188,32410,1,0,0:0:0:0:
252,194,32743,2,0,L|256:165,1,24
165,91,33076,6,0,B|142:132|142:132|184:198,1,88.000002685547,12|0,0:2|3:0,0:0:0:0:
344,237,33410,2,0,B|368:198|368:198|325:130,1,88.000002685547,12|0,0:2|3:0,0:0:0:0:
89,261,33743,2,0,L|256:225,1,132.00000402832,12|0,0:2|0:0,0:0:0:0:
252,194,34076,2,0,L|269:84,1,88.000002685547,12|0,0:2|3:0,0:0:0:0:
351,345,34410,2,0,L|261:255,1,88.000002685547,12|0,0:0|3:0,0:0:0:0:
265,107,34743,1,8,0:2:0:0:
277,129,34826,1,8,0:2:0:0:
275,155,34910,1,8,0:2:0:0:
293,180,34993,1,8,0:2:0:0:
293,180,35076,6,0,P|320:143|315:102,1,88.000002685547,12|0,0:2|3:0,0:0:0:0:
143,28,35410,2,0,P|116:65|121:106,1,88.000002685547,12|0,0:2|3:0,0:0:0:0:
20,203,35743,2,0,B|107:172|101:273|197:250,2,176.000005371094,12|4|4,0:2|0:0|0:0,0:0:0:0:
152,338,36660,1,0,3:0:0:0:
152,338,36743,1,8,0:2:0:0:
255,225,36910,1,8,0:2:0:0:
385,350,37076,6,0,B|420:325|420:325|402:262,1,88.000002685547,10|0,0:2|3:0,0:0:0:0:
492,83,37410,2,0,B|457:108|457:108|475:171,1,88.000002685547,10|0,0:2|3:0,0:0:0:0:
364,183,37743,1,10,0:2:0:0:
507,244,37910,1,8,0:2:0:0:
259,332,38076,6,0,L|236:177,1,132.00000402832,10|0,0:2|0:0,0:0:0:0:
232,168,38410,2,0,L|132:183,1,88.000002685547,10|0,0:2|3:0,0:0:0:0:
31,145,38743,1,10,0:2:0:0:
14,119,38826,1,0,3:0:0:0:
18,88,38910,1,0,3:0:0:0:
41,68,38993,1,0,3:0:0:0:
71,62,39076,2,0,P|166:49|223:48,1,132.00000402832,10|0,0:2|0:0,0:0:0:0:
230,35,39410,2,0,L|319:27,1,88.000002685547,10|0,0:2|3:0,0:0:0:0:
427,12,39743,1,10,0:2:0:0:
443,115,39910,1,0,3:0:0:0:
335,128,40076,1,8,0:2:0:0:
311,148,40160,1,8,0:2:0:0:
304,177,40243,1,0,3:0:0:0:
313,206,40326,1,0,3:0:0:0:
338,224,40410,5,8,3:2:0:0:
350,221,40493,1,0,3:0:0:0:
360,229,40576,1,0,3:0:0:0:
361,241,40660,1,0,3:0:0:0:
392,252,40743,5,8,0:2:0:0:
357,270,40826,1,8,0:2:0:0:
349,309,40910,1,8,0:2:0:0:
370,342,40993,1,8,0:2:0:0:
370,342,41076,6,0,B|413:358|413:358|457:325,1,88.000002685547,12|0,0:2|3:0,0:0:0:0:
304,177,41410,2,0,B|261:161|261:161|217:194,1,88.000002685547,12|0,0:2|3:0,0:0:0:0:
381,237,41743,2,0,L|401:97,1,132.00000402832,12|0,0:2|0:0,0:0:0:0:
401,67,42076,2,0,L|309:52,1,88.000002685547,12|0,0:2|3:0,0:0:0:0:
73,22,42410,2,0,L|165:7,1,88.000002685547,12|0,0:0|3:0,0:0:0:0:
196,132,42743,1,8,0:2:0:0:
185,160,42826,1,8,0:2:0:0:
193,189,42910,1,8,0:2:0:0:
189,219,42993,1,8,0:2:0:0:
189,219,43076,6,0,P|185:269|189:308,1,88.000002685547,12|0,0:2|3:0,0:0:0:0:
357,363,43410,2,0,P|361:313|357:274,1,88.000002685547,12|0,0:2|3:0,0:0:0:0:
307,165,43743,2,0,P|371:146|469:194,2,176.000005371094,12|12|8,0:2|0:2|0:2,0:0:0:0:
246,127,44576,1,0,0:0:0:0:
239,120,44660,1,0,3:0:0:0:
242,113,44743,1,8,0:2:0:0:
262,16,44910,1,8,0:2:0:0:
394,230,45076,6,0,B|418:267|418:267|390:328,1,88.000002685547,10|0,0:2|3:0,0:0:0:0:
127,235,45410,2,0,B|191:227|191:227|195:222|195:222|274:213,1,132.00000402832,10|0,0:2|3:0,0:0:0:0:
286,224,45743,1,10,0:2:0:0:
103,219,45910,1,8,0:2:0:0:
204,384,46076,6,0,L|210:285,1,88.000002685547,10|0,0:2|3:0,0:0:0:0:
291,384,46410,2,0,L|297:285,1,88.000002685547,10|0,0:2|3:0,0:0:0:0:
371,384,46743,2,0,L|377:285,1,88.000002685547,10|0,0:2|3:0,0:0:0:0:
75,127,47076,6,0,P|81:248|63:332,2,176.000005371094,10|10|10,0:2|0:2|0:2,0:0:0:0:
7,85,47910,1,0,3:0:0:0:
161,162,48076,1,8,0:2:0:0:
196,180,48160,1,8,0:2:0:0:
234,173,48243,1,0,3:0:0:0:
257,141,48326,1,0,3:0:0:0:
277,157,48410,5,8,3:2:0:0:
299,142,48493,1,0,3:0:0:0:
325,142,48576,1,0,3:0:0:0:
347,155,48660,1,0,3:0:0:0:
363,129,48743,6,0,L|378:88,1,29.3333342285157,8|0,0:2|0:0,0:0:0:0:
374,130,48854,2,0,L|389:89,1,29.3333342285157,2|8,0:0|0:2,0:0:0:0:
377,141,48965,2,0,L|392:100,1,29.3333342285157,0|0,0:0|0:2,0:0:0:0:
417,37,49076,5,4,3:2:0:0:
500,236,49576,1,8,0:2:0:0:
422,356,49909,1,0,3:0:0:0:
350,350,50076,2,0,P|345:269|342:173,1,160,0|0,3:0|3:0,0:0:0:0:
263,178,50576,1,0,0:0:0:0:
257,186,50659,1,0,0:0:0:0:
246,167,50742,5,0,3:0:0:0:
222,7,51242,1,8,0:2:0:0:
79,30,51576,1,0,3:0:0:0:
94,100,51742,2,0,P|101:144|107:192,1,80,0|0,3:0|0:0,0:0:0:0:
512,358,52076,5,0,1:0:0:0:
466,367,52159,1,0,1:0:0:0:
432,334,52242,1,0,1:0:0:0:
385,343,52326,1,0,1:0:0:0:
388,337,52409,5,4,3:2:0:0:
326,206,52909,1,8,0:2:0:0:
348,112,53242,1,0,3:0:0:0:
341,38,53409,2,0,L|255:27,2,80,0|0|0,3:0|0:0|3:0,0:0:0:0:
348,112,53909,1,0,0:0:0:0:
355,119,53992,1,0,0:0:0:0:
349,148,54075,5,0,3:0:0:0:
137,103,54575,1,8,0:2:0:0:
38,208,54909,1,0,3:0:0:0:
86,261,55075,2,0,P|83:309|78:340,1,80,0|0,3:0|0:0,0:0:0:0:
152,231,55409,1,8,0:2:0:0:
43,112,55575,1,0,3:0:0:0:
261,25,55742,5,4,3:2:0:0:
336,197,56242,1,8,0:2:0:0:
270,303,56575,1,0,3:0:0:0:
317,367,56742,2,0,P|351:348|475:343,1,160,0|0,3:0|3:0,0:0:0:0:
508,257,57242,1,0,0:0:0:0:
505,265,57325,1,0,0:0:0:0:
475,271,57409,5,0,3:0:0:0:
286,165,57909,1,8,0:2:0:0:
149,211,58242,1,0,3:0:0:0:
78,195,58409,2,0,P|76:147|73:107,1,80,0|0,3:0|0:0,0:0:0:0:
512,47,58742,5,0,1:0:0:0:
466,56,58825,1,0,1:0:0:0:
432,23,58908,1,0,1:0:0:0:
385,32,58992,1,0,1:0:0:0:
388,26,59075,5,4,3:2:0:0:
412,147,59575,1,8,0:2:0:0:
387,239,59909,1,0,3:0:0:0:
416,311,60075,2,0,L|313:331,1,80,0|0,3:0|0:0,0:0:0:0:
264,356,60409,2,0,L|185:340,1,80,0|0,3:0|0:0,0:0:0:0:
23,299,60742,5,0,3:0:0:0:
79,178,61242,1,8,0:2:0:0:
40,71,61575,1,0,3:0:0:0:
101,22,61742,2,0,L|191:1,1,80,0|0,3:0|0:0,0:0:0:0:
241,54,62075,1,0,1:2:0:0:
241,54,62242,1,0,3:0:0:0:
299,206,62409,5,4,3:2:0:0:
301,283,62742,1,0,3:0:0:0:
259,350,63075,1,8,0:2:0:0:
30,158,63409,5,0,3:0:0:0:
30,158,63575,1,0,0:0:0:0:
28,81,63742,1,0,3:0:0:0:
28,81,63909,1,0,0:0:0:0:
70,14,64075,1,8,0:2:0:0:
187,323,64409,5,0,3:0:0:0:
172,247,64742,1,0,3:0:0:0:
195,177,65075,1,8,0:2:0:0:
484,16,65409,5,8,0:2:0:0:
484,16,65575,1,0,0:2:0:0:
512,94,65742,1,0,0:0:0:0:
512,94,65909,1,0,0:0:0:0:
506,171,66075,1,0,1:0:0:0:
461,167,66159,1,0,1:0:0:0:
413,199,66242,1,0,1:0:0:0:
368,195,66326,1,0,1:0:0:0:
324,225,66409,5,0,3:0:0:0:
252,150,66742,1,0,3:0:0:0:
279,54,67075,5,0,3:0:0:0:
279,54,67242,1,0,0:0:0:0:
276,158,67409,5,0,3:0:0:0:
172,205,67742,1,0,3:0:0:0:
266,140,67909,5,0,0:0:0:0:
273,135,67992,1,0,0:0:0:0:
265,131,68075,1,8,0:2:0:0:
335,229,68242,1,0,0:0:0:0:
243,264,68409,5,0,3:0:0:0:
162,106,68742,1,0,3:0:0:0:
360,132,69075,1,8,0:2:0:0:
125,363,69409,5,0,1:0:0:0:
82,353,69492,1,0,1:0:0:0:
38,345,69575,1,0,1:0:0:0:
320,305,69742,1,0,3:0:0:0:
363,295,69825,1,0,1:0:0:0:
407,287,69908,1,0,1:0:0:0:
418,260,69992,1,0,1:0:0:0:
461,250,70075,1,0,3:0:0:0:
505,242,70158,1,0,0:0:0:0:
511,212,70242,1,8,0:2:0:0:
458,118,70408,5,4,3:2:0:0:
395,88,70575,1,0,0:0:0:0:
395,88,70742,1,2,3:2:0:0:
395,88,70908,1,0,0:0:0:0:
371,13,71075,1,10,0:2:0:0:
91,330,71408,5,0,3:2:0:0:
25,361,71575,1,0,0:0:0:0:
95,249,71742,1,2,3:2:0:0:
91,330,71908,1,0,0:0:0:0:
21,219,72075,1,10,0:2:0:0:
258,185,72408,5,0,3:2:0:0:
347,222,72742,1,2,3:2:0:0:
448,193,73075,1,10,0:2:0:0:
469,202,73158,1,0,0:0:0:0:
482,222,73242,1,0,0:0:0:0:
486,245,73325,1,0,0:0:0:0:
480,268,73408,1,8,0:2:0:0:
410,340,73742,1,2,3:2:0:0:
302,317,74075,1,2,1:2:0:0:
294,273,74158,1,0,1:2:0:0:
304,227,74242,1,0,1:2:0:0:
296,183,74325,1,0,1:2:0:0:
315,139,74408,5,2,3:2:0:0:
232,107,74575,1,0,0:0:0:0:
149,139,74908,5,0,0:0:0:0:
232,107,75075,1,2,1:2:0:0:
299,306,75408,5,2,3:2:0:0:
393,340,75575,1,0,0:0:0:0:
475,282,75742,5,2,3:2:0:0:
393,340,75909,1,0,0:0:0:0:
377,249,76075,1,2,1:2:0:0:
254,25,76408,6,0,L|236:133,1,80,2|0,3:2|0:0,0:0:0:0:
39,355,76908,2,0,L|57:247,1,80,0|2,0:0|1:2,0:0:0:0:
28,203,77408,1,0,1:2:0:0:
75,191,77492,1,0,1:2:0:0:
121,180,77575,1,0,3:2:0:0:
166,166,77658,1,0,3:2:0:0:
158,162,77742,5,4,3:2:0:0:
151,157,77825,1,0,3:2:0:0:
144,152,77908,1,0,3:2:0:0:
137,147,77992,1,0,3:2:0:0:
131,143,78075,6,0,L|146:105,1,35.9999989013672,0|0,1:2|0:0,0:0:0:0:
139,35,78408,5,4,3:2:0:0:
257,195,78574,1,0,3:2:0:0:
257,195,78908,6,0,P|273:120|274:15,1,155.999992858887,0|0,3:0|0:0,0:0:0:0:
276,40,79241,1,0,3:2:0:0:
134,185,79408,1,8,0:0:0:0:
457,310,79741,5,0,3:0:0:0:
390,260,79908,1,8,0:2:0:0:
388,344,80074,1,0,3:2:0:0:
388,344,80241,1,0,0:0:0:0:
473,226,80408,5,2,3:2:0:0:
297,355,80574,2,0,P|187:366|59:323,1,207.999990478516,0|0,3:2|3:2,0:0:0:0:
93,341,81241,1,0,3:2:0:0:
178,231,81408,1,8,0:2:0:0:
146,160,81574,1,8,0:2:0:0:
261,17,81741,2,0,L|150:47,1,103.999995239258,0|0,3:2|0:0,0:0:0:0:
91,8,82074,1,0,3:0:0:0:
91,8,82241,1,0,0:0:0:0:
39,200,82408,5,4,3:2:0:0:
138,332,82574,1,0,3:2:0:0:
493,132,82908,5,0,3:0:0:0:
394,0,83074,2,0,P|380:88|392:201,1,155.999992858887,0|0,0:0|3:2,0:0:0:0:
386,202,83408,2,0,L|265:224,1,103.999995239258,8|0,0:2|0:0,0:0:0:0:
463,254,83741,1,0,3:0:0:0:
463,254,83908,1,8,0:2:0:0:
283,220,84074,1,0,3:0:0:0:
208,244,84241,1,0,0:0:0:0:
42,177,84408,5,2,3:2:0:0:
80,384,84574,2,0,P|105:296|109:204,1,155.999992858887,0|0,3:2|0:0,0:0:0:0:
122,198,84908,1,0,3:0:0:0:
32,252,85074,1,0,0:0:0:0:
406,358,85408,6,0,B|435:313|435:313|404:250,1,103.999995239258,8|8,0:0|0:2,0:0:0:0:
217,177,85741,2,0,B|188:132|188:132|219:69,1,103.999995239258,4|0,3:2|0:0,0:0:0:0:
262,246,86074,1,4,3:2:0:0:
427,180,86241,1,0,0:0:0:0:
371,29,86407,5,6,3:2:0:0:
211,87,86574,1,0,3:2:0:0:
211,87,86907,2,0,P|305:89|364:143,1,155.999992858887,0|0,3:2|0:2,0:0:0:0:
369,155,87241,1,0,3:2:0:0:
201,214,87407,1,8,0:2:0:0:
462,292,87741,1,0,3:0:0:0:
505,355,87907,1,8,0:2:0:0:
505,355,88074,1,0,3:2:0:0:
134,353,88407,6,0,P|162:309|209:151,1,207.999990478516,2|0,3:2|0:0,0:0:0:0:
186,85,88907,1,0,3:0:0:0:
224,17,89074,1,0,0:0:0:0:
465,191,89407,2,0,B|507:227|507:227|480:293,1,103.999995239258,8|8,0:2|0:2,0:0:0:0:
343,358,89741,2,0,B|304:328|304:328|328:256,1,103.999995239258,4|0,3:2|0:0,0:0:0:0:
239,260,90074,2,0,P|290:200|367:199,1,155.999992858887,4|0,3:2|0:0,0:0:0:0:
423,149,90407,5,4,3:2:0:0:
446,347,90574,1,0,3:2:0:0:
503,300,90907,1,0,3:0:0:0:
362,197,91075,1,0,0:0:0:0:
362,197,91241,1,0,3:2:0:0:
363,13,91407,2,0,L|345:135,1,103.999995239258,8|0,0:2|0:0,0:0:0:0:
363,13,91741,1,0,3:0:0:0:
314,377,91907,2,0,L|332:255,1,103.999995239258,8|0,0:2|3:2,0:0:0:0:
314,377,92241,1,0,0:0:0:0:
235,244,92407,5,2,3:2:0:0:
392,187,92574,1,0,3:2:0:0:
272,135,92741,1,0,0:0:0:0:
334,279,92907,1,0,3:2:0:0:
307,215,93074,1,0,0:0:0:0:
307,215,93241,1,0,3:2:0:0:
39,361,93407,5,8,0:2:0:0:
48,355,93491,1,0,3:0:0:0:
52,345,93574,1,0,3:2:0:0:
118,373,93741,5,0,3:2:0:0:
200,166,93907,1,0,3:2:0:0:
383,241,94074,5,0,3:2:0:0:
301,34,94242,1,0,3:2:0:0:
373,69,94407,5,4,3:2:0:0:
200,166,94574,1,0,3:2:0:0:
200,166,94907,2,0,P|252:143|356:156,1,155.999992858887,0|0,3:2|0:0,0:0:0:0:
386,171,95241,1,0,3:2:0:0:
232,28,95407,1,8,0:2:0:0:
58,184,95741,1,0,3:0:0:0:
123,155,95907,1,8,0:2:0:0:
233,309,96074,1,0,3:0:0:0:
179,361,96241,1,0,0:0:0:0:
164,253,96407,5,2,3:2:0:0:
277,78,96574,1,0,3:2:0:0:
277,78,96907,2,0,P|280:161|298:243,1,155.999992858887,0|0,3:0|0:0,0:0:0:0:
329,249,97241,1,0,3:2:0:0:
133,100,97407,1,8,0:2:0:0:
191,52,97574,1,8,0:2:0:0:
155,264,97741,2,0,P|90:272|41:288,1,103.999995239258,0|0,3:0|0:0,0:0:0:0:
254,310,98074,1,0,3:2:0:0:
180,180,98241,1,0,0:0:0:0:
353,59,98407,5,4,3:2:0:0:
459,201,98574,2,0,P|371:210|291:91,1,207.999990478516,0|0,3:2|3:0,0:0:0:0:
234,80,99241,1,0,3:2:0:0:
243,75,99324,1,0,3:2:0:0:
244,64,99407,1,8,0:0:0:0:
169,5,99574,1,0,0:0:0:0:
108,169,99741,1,0,3:0:0:0:
33,110,99908,1,8,0:2:0:0:
89,275,100074,2,0,P|40:248|47:188,1,103.999995239258,0|0,3:0|0:0,0:0:0:0:
106,372,100407,5,2,3:2:0:0:
224,270,100574,2,0,P|308:239|446:261,1,207.999990478516,0|0,3:2|3:0,0:0:0:0:
491,123,101241,1,0,3:0:0:0:
409,95,101407,2,0,B|371:64|371:64|378:0,1,103.999995239258,8|8,0:2|0:2,0:0:0:0:
391,336,101741,2,0,B|429:305|429:305|422:241,1,103.999995239258,4|0,3:2|0:0,0:0:0:0:
346,210,102074,1,4,3:2:0:0:
491,123,102241,1,0,0:0:0:0:
498,228,102407,5,6,3:2:0:0:
409,95,102574,1,0,3:2:0:0:
409,95,102907,2,0,P|392:221|415:277,1,155.999992858887,0|0,3:2|0:0,0:0:0:0:
417,274,103241,1,0,3:2:0:0:
253,372,103407,1,8,0:2:0:0:
194,322,103574,1,0,0:0:0:0:
63,308,103741,1,0,3:0:0:0:
124,266,103907,1,8,0:2:0:0:
55,233,104074,2,0,P|7:211|-2:161,1,103.999995239258,0|0,3:0|0:0,0:0:0:0:
128,357,104407,5,2,3:2:0:0:
362,140,104907,1,0,3:2:0:0:
282,51,105241,1,0,3:2:0:0:
357,30,105407,5,8,0:2:0:0:
278,150,105574,1,8,0:2:0:0:
322,241,105741,2,0,L|299:365,1,103.999995239258,4|0,3:2|0:0,0:0:0:0:
244,249,106074,2,0,L|221:373,1,103.999995239258,4|0,3:2|0:0,0:0:0:0:
192,178,106407,5,4,3:2:0:0:
278,150,106574,1,0,3:2:0:0:
195,85,106741,1,0,0:0:0:0:
109,113,106908,1,0,3:0:0:0:
195,67,107074,1,0,0:0:0:0:
195,67,107241,1,0,3:0:0:0:
271,347,107407,5,8,0:0:0:0:
195,67,107741,1,0,3:0:0:0:
271,347,107907,1,8,0:2:0:0:
339,307,108074,2,0,B|381:275|381:275|373:224,1,103.999995239258,0|0,3:2|0:0,0:0:0:0:
337,383,108407,5,2,3:2:0:0:
269,271,108574,1,0,3:2:0:0:
431,182,108741,1,0,0:0:0:0:
509,312,108907,1,0,3:2:0:0:
439,284,109074,1,0,0:0:0:0:
445,257,109241,1,0,3:2:0:0:
339,372,109407,1,8,0:2:0:0:
194,330,109574,1,0,3:2:0:0:
157,153,109741,1,0,3:2:0:0:
208,75,109907,1,0,3:2:0:0:
153,16,110074,1,8,0:2:0:0:
112,5,110157,1,0,0:0:0:0:
90,19,110241,1,8,0:2:0:0:
86,28,110324,1,0,0:0:0:0:
91,34,110407,5,4,3:2:0:0:
173,46,110741,1,0,2:0:0:0:
253,25,111074,1,0,2:0:0:0:
334,42,111407,1,0,2:0:0:0:
416,32,111741,2,0,L|422:10,2,11.9999996337891,0|0|0,2:0|0:0|0:0,0:0:0:0:
437,110,112074,5,0,3:2:0:0:
360,128,112407,1,0,2:0:0:0:
267,99,112741,1,0,2:0:0:0:
190,81,113074,1,0,2:0:0:0:
110,111,113407,1,0,2:0:0:0:
497,332,113741,5,2,3:2:0:0:
497,332,114074,1,0,2:0:0:0:
507,254,114241,1,0,0:0:0:0:
324,290,114574,1,0,0:0:0:0:
334,212,114741,1,0,2:0:0:0:
340,133,114907,1,0,0:0:0:0:
347,55,115074,2,0,L|363:47,2,11.9999996337891,0|0|0,2:0|0:0|0:0,0:0:0:0:
274,89,115407,5,0,3:2:0:0:
198,52,115741,1,0,2:0:0:0:
204,124,115907,1,0,0:0:0:0:
196,148,116241,1,0,0:0:0:0:
223,219,116407,1,0,2:0:0:0:
204,291,116574,1,0,0:0:0:0:
222,355,116741,2,0,L|218:334,2,11.9999996337891,0|0|0,2:0|0:0|0:0,0:0:0:0:
127,329,117074,5,4,3:2:0:0:
138,250,117407,1,0,2:0:0:0:
67,276,117741,1,0,2:0:0:0:
78,197,118074,1,0,2:0:0:0:
6,228,118407,5,0,2:0:0:0:
6,228,118574,1,0,3:2:0:0:
158,208,118741,5,0,3:2:0:0:
168,133,119074,1,0,2:0:0:0:
233,186,119407,1,0,2:0:0:0:
243,111,119740,1,0,2:0:0:0:
307,158,120074,5,0,2:0:0:0:
307,158,120241,1,0,3:2:0:0:
157,130,120407,5,2,3:2:0:0:
186,42,120741,1,0,2:0:0:0:
157,130,120907,1,0,0:0:0:0:
71,204,121241,1,0,0:0:0:0:
163,142,121407,1,0,2:0:0:0:
239,209,121574,1,0,0:0:0:0:
291,162,121741,1,0,2:0:0:0:
310,232,121907,1,0,3:2:0:0:
481,104,122074,5,0,3:2:0:0:
453,198,122407,1,0,2:0:0:0:
435,277,122741,1,0,2:0:0:0:
417,351,123074,5,0,0:0:0:0:
453,198,123241,1,0,3:0:0:0:
479,59,123407,1,0,1:0:0:0:
453,198,123574,1,0,0:0:0:0:
294,243,123741,6,0,P|311:231|314:201,1,47.9999985351563,4|0,3:2|0:0,0:0:0:0:
218,141,124241,2,0,P|201:153|198:183,1,47.9999985351563,2|0,0:0|0:0,0:0:0:0:
222,248,124741,1,2,0:0:0:0:
315,203,125074,1,2,0:0:0:0:
278,110,125407,1,2,0:0:0:0:
282,104,125907,1,2,0:0:0:0:
286,95,126407,1,2,0:0:0:0:
219,68,126741,1,2,0:0:0:0:
152,39,127074,5,2,0:0:0:0:
198,157,127574,1,2,0:0:0:0:
241,266,128074,1,2,0:0:0:0:
137,340,128407,5,2,0:0:0:0:
211,359,128741,1,2,0:0:0:0:
283,379,129074,5,2,0:0:0:0:
241,266,129574,1,2,0:0:0:0:
196,159,130074,1,2,0:0:0:0:
280,237,130407,6,0,P|263:225|260:195,1,47.9999985351563,2|0,0:0|0:0,0:0:0:0:
356,135,130907,2,0,P|373:147|376:177,1,47.9999985351563,2|0,0:0|0:0,0:0:0:0:
352,242,131407,1,2,0:0:0:0:
259,197,131740,1,2,0:0:0:0:
296,104,132073,1,2,0:0:0:0:
292,98,132573,1,2,0:0:0:0:
288,89,133073,1,2,0:0:0:0:
355,62,133407,1,2,0:0:0:0:
424,35,133740,5,2,0:0:0:0:
379,152,134240,1,2,0:0:0:0:
340,263,134740,1,2,0:0:0:0:
437,334,135073,5,2,0:0:0:0:
363,353,135407,1,2,0:0:0:0:
292,376,135740,5,2,0:0:0:0:
333,260,136240,1,2,0:0:0:0:
370,148,136741,2,0,L|363:123,1,23.9999992675781,2|2,0:0|0:0,0:0:0:0:
30,282,137074,5,8,3:2:0:0:
30,282,139074,6,0,P|24:267|21:249,2,32,2|0|0,0:0|0:0|0:0,0:0:0:0:
181,330,140074,2,0,P|175:315|172:297,2,32,2|0|0,0:0|0:0|0:0,0:0:0:0:
107,269,141074,6,0,P|101:254|98:236,2,32,2|0|2,0:0|0:0|0:0,0:0:0:0:
258,317,142074,2,0,P|252:302|249:284,2,32,2|0|2,0:0|0:0|0:0,0:0:0:0:
185,336,143074,6,0,P|179:321|176:303,2,32,2|0|0,0:0|0:0|0:0,0:0:0:0:
336,384,144074,2,0,P|330:369|327:351,2,32,0|2|2,0:0|0:0|0:0,0:0:0:0:
185,336,145074,6,0,P|179:321|176:303,2,32,2|0|0,0:0|0:0|0:0,0:0:0:0:
336,384,146074,2,0,P|330:369|327:351,2,32,2|0|2,0:0|0:0|0:0,0:0:0:0:
480,107,147074,6,0,P|486:92|489:74,2,32,2|0|0,0:0|0:0|0:0,0:0:0:0:
329,155,148074,2,0,P|335:140|338:122,2,32,2|0|0,0:0|0:0|0:0,0:0:0:0:
403,94,149074,6,0,P|409:79|412:61,2,32,2|0|0,0:0|0:0|0:0,0:0:0:0:
252,142,150074,2,0,P|258:127|261:109,2,32,2|0|0,0:0|0:0|0:0,0:0:0:0:
325,161,151074,6,0,P|331:146|334:128,2,32,2|2|2,0:0|0:0|0:0,0:0:0:0:
174,209,152074,2,0,P|180:194|183:176,2,32,2|2|2,0:0|0:0|0:0,0:0:0:0:
325,161,153074,6,0,P|331:146|334:128,2,32,2|2|2,0:0|0:0|0:0,0:0:0:0:
174,209,154073,2,0,P|180:194|183:176,2,32,2|2|2,0:0|0:0|2:2,0:0:0:0:
178,222,154823,1,0,0:0:0:0:
165,220,154907,1,0,0:0:0:0:
103,172,155073,6,0,P|32:175|51:269,1,191.999994140625,4|0,3:2|2:0,0:0:0:0:
121,287,155740,1,0,2:0:0:0:
390,174,156073,6,0,P|461:171|442:77,1,191.999994140625,0|0,1:2|0:0,0:0:0:0:
372,59,156740,1,0,3:0:0:0:
341,125,157073,1,0,3:0:0:0:
296,63,157407,2,0,L|294:58,9,5.33333333333333,0|0|0|0|0|0|2|0|0|0,2:0|0:0|0:0|2:0|0:0|0:0|2:0|0:0|0:0|0:0,0:0:0:0:
442,77,158073,6,0,P|472:156|390:174,1,191.999994140625,0|0,1:2|2:0,0:0:0:0:
327,137,158740,1,0,3:0:0:0:
328,214,159073,1,4,3:2:0:0:
259,174,159407,1,0,2:0:0:0:
345,157,159740,1,0,2:0:0:0:
300,220,160073,2,0,L|290:318,1,95.9999970703126,0|0,1:2|0:0,0:0:0:0:
268,147,160407,1,0,2:0:0:0:
345,157,160740,1,0,3:0:0:0:
300,220,161073,1,0,3:0:0:0:
268,147,161407,2,0,B|261:139|261:139|264:115,9,26.6666666666667,0|0|0|0|0|0|2|0|0|0,2:0|0:0|0:0|2:0|0:0|0:0|2:0|0:0|0:0|0:0,0:0:0:0:
137,138,162073,6,0,P|181:111|101:32,1,191.999994140625,0|0,1:2|2:0,0:0:0:0:
116,25,162740,1,0,3:0:0:0:
60,213,163073,6,0,P|16:240|96:319,1,191.999994140625,4|0,3:2|2:0,0:0:0:0:
133,270,163740,1,0,2:0:0:0:
336,137,164073,6,0,P|408:181|356:249,1,191.999994140625,0|0,1:2|2:0,0:0:0:0:
287,219,164740,1,0,3:0:0:0:
300,291,165073,1,0,3:0:0:0:
228,268,165407,2,0,L|227:273,9,5.33333333333333,0|0|0|0|0|0|2|0|0|0,2:0|0:0|0:0|2:0|0:0|0:0|2:0|0:0|0:0|0:0,0:0:0:0:
92,375,166073,6,0,P|5:318|52:239,1,191.999994140625,0|0,1:2|2:0,0:0:0:0:
30,250,166740,1,0,3:0:0:0:
176,22,167073,6,0,P|263:79|216:158,1,191.999994140625,0|0,3:0|0:0,0:0:0:0:
171,115,167740,1,0,2:0:0:0:
92,375,168073,6,0,P|5:318|52:239,1,191.999994140625,0|0,1:2|0:0,0:0:0:0:
95,289,168740,1,0,3:0:0:0:
95,289,169073,1,0,3:0:0:0:
230,205,169407,6,0,B|238:196|238:196|233:173,9,26.6666666666667,0|0|0|0|0|0|2|0|0|0,2:0|0:0|0:0|2:0|0:0|0:0|2:0|0:0|0:0|0:0,0:0:0:0:
394,23,170073,6,0,P|399:96|293:118,1,191.999994140625,0|0,1:2|2:0,0:0:0:0:
300,122,170740,1,0,3:0:0:0:
118,361,171073,6,0,P|113:288|219:266,1,191.999994140625,4|0,3:2|0:0,0:0:0:0:
261,323,171740,1,0,2:0:0:0:
414,231,172073,6,0,P|501:219|508:131,1,191.999994140625,0|0,1:2|0:0,0:0:0:0:
442,105,172740,1,0,3:0:0:0:
501,60,173073,1,0,3:0:0:0:
432,32,173407,2,0,L|431:27,9,5.33333333333333,0|0|0|0|0|0|2|0|0|0,0:0|0:0|0:0|0:0|0:0|0:0|2:0|0:0|0:0|0:0,0:0:0:0:
262,366,174073,6,0,L|258:322,1,44,8|0,2:2|2:2,2:2:0:0:
235,13,175073,6,0,B|278:128|189:77|220:224,1,180.000006866455,4|0,3:2|0:0,0:0:0:0:
213,184,175406,1,0,0:0:0:0:
56,139,175573,2,0,B|31:87|31:87|71:21,1,120.000004577637,0|0,3:0|0:0,0:0:0:0:
56,139,175906,1,0,3:0:0:0:
366,35,176073,2,0,B|395:89|395:89|351:153,1,120.000004577637,8|0,0:0|0:0,0:0:0:0:
311,85,176406,1,0,3:0:0:0:
311,85,176573,1,0,0:0:0:0:
400,255,176739,2,0,L|544:212,1,120.000004577637,0|0,3:0|0:0,0:0:0:0:
286,371,177073,5,0,3:0:0:0:
142,146,177239,2,0,P|251:177|266:314,2,240.000009155274,0|0|0,0:0|3:2|3:0,0:0:0:0:
18,241,178073,1,8,0:2:0:0:
13,249,178156,1,0,3:0:0:0:
17,258,178239,1,0,3:0:0:0:
166,224,178406,1,8,0:2:0:0:
17,167,178573,1,0,3:0:0:0:
233,19,178739,5,8,0:2:0:0:
474,108,178906,1,8,0:2:0:0:
430,42,179073,5,4,3:2:0:0:
466,359,179239,2,0,P|447:267|431:166,1,180.000006866455
433,182,179573,2,0,L|289:205,1,120.000004577637,0|0,3:0|0:0,0:0:0:0:
511,205,179906,1,0,3:0:0:0:
227,156,180073,2,0,B|182:110|182:110|216:43,1,120.000004577637,8|0,0:0|0:0,0:0:0:0:
280,78,180406,1,0,0:0:0:0:
281,6,180573,1,0,0:0:0:0:
23,274,180739,6,0,B|109:229|111:353|216:315,1,180.000006866455,0|0,3:0|0:0,0:0:0:0:
228,303,181073,1,0,3:2:0:0:
207,60,181239,2,0,P|213:139|219:189,1,120.000004577637
512,215,181573,2,0,P|390:225|253:238,1,240.000009155274,0|0,3:2|3:0,0:0:0:0:
267,237,181989,1,0,3:0:0:0:
270,229,182073,2,0,B|316:190|316:190|281:98,1,120.000004577637,8|0,0:2|0:0,0:0:0:0:
29,384,182406,2,0,B|75:345|75:345|40:253,1,120.000004577637,4|0,3:2|0:0,0:0:0:0:
220,125,182739,6,0,B|200:67|200:67|278:7,1,120.000004577637,4|0,3:2|0:0,0:0:0:0:
348,376,183073,1,4,3:2:0:0:
479,255,183239,2,0,L|260:261,1,180.000006866455
268,257,183573,1,0,3:0:0:0:
344,139,183739,1,0,0:0:0:0:
328,46,183906,1,0,3:0:0:0:
418,169,184073,5,8,0:2:0:0:
305,347,184239,1,0,0:0:0:0:
252,177,184406,1,0,3:0:0:0:
481,334,184573,1,0,0:0:0:0:
408,333,184739,1,0,3:0:0:0:
442,272,184906,1,0,0:0:0:0:
74,320,185073,6,0,P|196:283|315:253,1,240.000009155274,4|0,3:2|0:0,0:0:0:0:
309,16,185573,2,0,P|187:53|68:83,1,240.000009155274,0|0,3:0|3:0,0:0:0:0:
67,90,185989,1,0,3:0:0:0:
78,94,186073,6,0,L|261:111,1,180.000006866455,8|0,0:2|0:0,0:0:0:0:
501,368,186406,2,0,L|318:351,1,180.000006866455,8|0,0:2|0:0,0:0:0:0:
291,363,186739,1,0,3:1:0:0:
283,93,186906,1,0,0:0:0:0:
341,147,187073,5,4,3:2:0:0:
119,253,187239,1,0,0:0:0:0:
449,72,187406,5,0,0:0:0:0:
227,178,187572,1,8,0:2:0:0:
441,75,187739,1,0,3:0:0:0:
219,181,187905,1,0,0:0:0:0:
111,38,188073,5,0,3:0:0:0:
333,144,188239,1,0,0:0:0:0:
119,41,188406,1,8,0:2:0:0:
341,147,188572,1,0,3:0:0:0:
234,88,188739,5,8,0:2:0:0:
482,211,188906,1,0,3:0:0:0:
472,214,188989,1,0,3:0:0:0:
469,204,189073,5,0,3:0:0:0:
199,187,189239,1,0,0:0:0:0:
461,117,189406,1,0,0:0:0:0:
260,262,189572,1,8,0:2:0:0:
390,55,189739,1,8,0:2:0:0:
396,310,189906,5,0,3:0:0:0:
391,319,189989,1,0,3:0:0:0:
398,329,190072,1,8,0:2:0:0:
472,332,190239,1,0,0:0:0:0:
501,189,190406,5,0,3:0:0:0:
305,74,190572,1,0,3:0:0:0:
199,360,190739,1,0,3:0:0:0:
3,245,190905,1,0,3:0:0:0:
117,377,191072,6,0,P|73:317|125:236,1,136.000002593994,4|0,3:2|0:0,0:0:0:0:
17,59,191406,2,0,P|61:119|9:200,1,136.000002593994,0|0,0:0|3:0,0:0:0:0:
3,245,191739,1,0,0:0:0:0:
154,170,191906,1,0,3:0:0:0:
245,231,192072,2,0,L|289:69,1,136.000002593994,8|0,0:0|0:0,0:0:0:0:
320,298,192406,2,0,L|364:136,1,136.000002593994,0|0,3:0|0:0,0:0:0:0:
343,0,192739,1,0,3:0:0:0:
421,43,192906,1,0,0:0:0:0:
228,319,193072,6,0,B|167:298|167:298|165:183,1,136.000002593994,0|0,3:0|0:0,0:0:0:0:
320,298,193406,1,0,0:0:0:0:
293,115,193572,2,0,B|357:138|357:138|356:251,1,136.000002593994,0|0,3:0|0:0,0:0:0:0:
201,155,193906,1,0,3:0:0:0:
206,151,193989,1,0,3:0:0:0:
200,141,194072,1,8,0:2:0:0:
135,96,194239,1,0,3:0:0:0:
293,115,194406,2,0,B|398:49|406:198|517:130,1,204.000003890991,8|0,0:2|0:0,0:0:0:0:
500,111,194739,1,8,0:2:0:0:
437,340,194906,1,8,0:2:0:0:
501,278,195072,5,4,3:2:0:0:
442,46,195239,1,0,0:0:0:0:
501,278,195572,5,0,3:0:0:0:
288,256,195739,1,0,0:0:0:0:
452,358,195906,1,0,3:0:0:0:
343,154,196072,2,0,B|308:104|308:104|338:21,1,136.000002593994,8|0,0:0|0:0,0:0:0:0:
343,342,196406,1,0,0:0:0:0:
450,175,196572,1,0,0:0:0:0:
411,88,196739,1,0,3:0:0:0:
450,26,196906,1,0,0:0:0:0:
499,294,197072,6,0,L|343:240,1,136.000002593994,0|0,3:2|0:0,0:0:0:0:
250,339,197406,1,0,0:0:0:0:
26,287,197572,2,0,L|182:341,1,136.000002593994,0|0,3:0|0:0,0:0:0:0:
202,261,197906,1,0,3:0:0:0:
318,15,198072,1,8,0:0:0:0:
274,89,198406,1,4,3:2:0:0:
234,149,198739,1,4,3:2:0:0:
318,15,199072,5,4,3:2:0:0:
468,189,199239,2,0,B|521:153|521:153|511:82,1,136.000002593994
362,196,199572,1,0,3:0:0:0:
450,267,199739,1,0,0:0:0:0:
403,343,199906,1,0,3:0:0:0:
49,293,200072,6,0,L|276:207,1,204.000003890991,8|0,0:2|0:0,0:0:0:0:
257,190,200406,2,0,L|284:35,1,136.000002593994,0|0,3:0|0:0,0:0:0:0:
55,17,200739,1,0,3:0:0:0:
38,87,200906,1,0,0:0:0:0:
146,53,201072,5,4,3:2:0:0:
262,301,201239,1,0,0:0:0:0:
318,254,201406,1,0,0:0:0:0:
247,232,201572,1,0,3:0:0:0:
333,331,201739,1,0,0:0:0:0:
385,200,201906,1,0,3:0:0:0:
376,201,201989,1,0,3:0:0:0:
378,186,202072,5,8,0:2:0:0:
496,41,202239,1,0,0:0:0:0:
294,253,202406,5,8,0:2:0:0:
496,41,202573,1,0,3:0:0:0:
493,183,202739,6,0,B|405:143|405:143|402:144|402:144|288:85,1,204.000003890991,0|0,3:0|0:0,0:0:0:0:
266,73,203072,1,4,3:2:0:0:
328,26,203239,1,0,0:0:0:0:
351,222,203406,1,0,0:0:0:0:
289,269,203573,1,8,0:2:0:0:
358,299,203739,1,0,3:0:0:0:
358,299,203906,1,0,0:0:0:0:
80,365,204072,6,0,B|25:331|25:331|47:239,1,136.000002593994,0|0,3:0|0:0,0:0:0:0:
176,316,204406,2,0,B|121:282|121:282|143:190,1,136.000002593994,8|0,0:2|3:0,0:0:0:0:
225,241,204739,1,8,0:2:0:0:
225,241,204906,1,0,3:0:0:0:
5,69,205072,6,0,P|98:83|178:96,1,160,0|0,3:0|3:0,0:0:0:0:
175,19,205572,1,8,0:2:0:0:
150,202,205738,1,8,0:0:0:0:
351,225,205905,1,0,3:0:0:0:
376,31,206072,1,8,0:2:0:0:
340,98,206238,1,0,3:0:0:0:
457,127,206405,2,0,P|451:198|445:232,1,80,0|0,3:0|3:0,0:0:0:0:
451,52,206738,1,0,3:0:0:0:
512,293,206905,1,0,3:0:0:0:
260,205,207072,5,0,3:0:0:0:
260,205,207239,1,0,3:0:0:0:
271,128,207405,1,0,1:2:0:0:
276,113,207488,1,0,1:2:0:0:
281,98,207572,1,0,3:0:0:0:
322,244,207738,1,0,1:2:0:0:
330,257,207822,1,0,3:0:0:0:
339,270,207905,1,0,3:0:0:0:
184,212,208072,1,0,1:2:0:0:
168,217,208155,1,0,3:0:0:0:
152,221,208238,1,0,3:0:0:0:
122,48,208405,5,0,1:2:0:0:
139,67,208488,1,0,3:0:0:0:
157,87,208571,1,0,3:0:0:0:
175,107,208655,1,0,3:0:0:0:
193,127,208738,1,0,1:2:0:0:
260,201,208905,1,0,1:2:0:0:
351,316,209072,1,0,1:2:0:0:
334,297,209155,1,0,3:0:0:0:
316,277,209238,1,0,1:2:0:0:
121,293,209405,5,0,1:2:0:0:
343,87,209572,1,0,1:2:0:0:
406,190,209738,5,0,1:2:0:0:
93,203,209905,1,0,1:2:0:0:
251,189,210072,5,0,1:2:0:0:
258,187,210155,1,0,1:2:0:0:
250,181,210238,1,0,3:0:0:0:
202,109,210405,1,0,3:0:0:0:
296,264,210572,1,0,3:0:0:0:
171,242,210738,5,0,1:2:0:0:
336,136,210905,1,0,3:0:0:0:
482,218,211072,5,0,1:2:0:0:
475,257,211155,1,0,1:2:0:0:
469,296,211238,1,0,3:0:0:0:
251,192,211405,1,0,3:0:0:0:
251,192,211572,1,0,3:0:0:0:
70,95,211738,5,0,1:2:0:0:
251,192,211905,1,0,1:2:0:0:
20,218,212072,5,0,1:2:0:0:
27,257,212155,1,0,1:2:0:0:
33,296,212238,1,0,3:0:0:0:
251,192,212405,1,0,3:0:0:0:
251,192,212572,1,0,3:0:0:0:
432,95,212738,5,0,1:2:0:0:
251,192,212905,1,0,1:2:0:0:
469,296,213072,5,0,1:2:0:0:
475,257,213155,1,0,1:2:0:0:
482,218,213238,1,0,3:0:0:0:
251,192,213405,5,0,3:0:0:0:
257,153,213488,1,0,3:0:0:0:
264,114,213571,1,0,3:0:0:0:
469,296,213738,5,0,1:2:0:0:
251,192,213905,1,0,1:2:0:0:
135,30,214072,5,0,1:2:0:0:
142,69,214155,1,0,1:2:0:0:
148,108,214238,1,0,3:0:0:0:
385,159,214405,5,0,3:0:0:0:
392,198,214488,1,0,3:0:0:0:
398,237,214571,1,0,3:0:0:0:
385,159,214738,5,0,1:2:0:0:
135,30,214905,1,0,1:2:0:0:
108,346,215072,5,4,3:2:0:0:
256,192,215155,12,0,223905,0:0:0:0:
