osu file format v14

[General]
AudioFilename: audio.mp3
AudioLeadIn: 0
PreviewTime: 175032
Countdown: 0
SampleSet: Soft
StackLeniency: 0.5
Mode: 0
LetterboxInBreaks: 0
WidescreenStoryboard: 1

[Editor]
Bookmarks: 216047,223714
DistanceSpacing: 1.1
BeatDivisor: 4
GridSize: 16
TimelineZoom: 1.9

[Metadata]
Title:Palette
TitleUnicode:Palette
Artist:Hanatan
ArtistUnicode:花たん
Creator:Fall
Version:AF's Insane
Source:
Tags:draw the emotional meola solitude freak rock metal japanese _tranquility seto kousuke star stream star_kor realy0_ garden affirmation marle evilelvis jounzan natteke desu Megurine Luka VOCALOID ユリカ YURiCa ゆよゆっぺ Yuyoyuppe
BeatmapID:3247757
BeatmapSetID:1572337

[Difficulty]
HPDrainRate:5
CircleSize:4
OverallDifficulty:7.8
ApproachRate:9
SliderMultiplier:1
SliderTickRate:1

[Events]
//Background and Video events
0,0,"Palette..jpg",0,0
//Break Periods
2,123941,138474
//Storyboard Layer 0 (Background)
//Storyboard Layer 1 (Fail)
//Storyboard Layer 2 (Pass)
//Storyboard Layer 3 (Foreground)
//Storyboard Layer 4 (Overlay)
//Storyboard Sound Samples

[TimingPoints]
1077,333.333333333333,6,2,1,60,1,0
8741,-100,6,2,5,60,0,0
8908,-100,6,2,6,60,0,0
9074,-100,6,2,5,60,0,0
10408,-100,6,2,6,60,0,0
10574,-100,6,2,5,60,0,0
11824,-100,6,2,6,60,0,0
11908,-100,6,2,5,60,0,0
12408,-100,6,2,6,60,0,0
12491,-100,6,2,5,60,0,0
12741,-100,6,2,6,60,0,0
13074,-100,6,2,5,60,0,0
14408,-100,6,2,6,60,0,0
14574,-100,6,2,5,60,0,0
14741,-100,6,2,6,60,0,0
15074,-100,6,2,5,60,0,0
16408,-100,6,2,6,60,0,0
17074,-100,6,2,5,60,0,0
18408,-100,6,2,6,60,0,0
18574,-100,6,2,5,60,0,0
19824,-100,6,2,6,60,0,0
19908,-100,6,2,5,60,0,0
20408,-100,6,2,6,60,0,0
20491,-100,6,2,5,60,0,0
20741,-100,6,2,6,60,0,0
21074,-100,6,2,5,60,0,0
22408,-100,6,2,6,60,0,0
22574,-100,6,2,5,60,0,0
22741,-100,6,2,6,60,0,0
23074,-100,6,2,5,60,0,0
24408,-100,6,2,6,60,0,0
24824,-100,6,2,5,60,0,0
24908,-100,6,2,6,60,0,0
25074,-100,6,2,5,60,0,0
26408,-100,6,2,6,60,0,0
26574,-100,6,2,5,60,0,0
27824,-100,6,2,6,60,0,0
27908,-100,6,2,5,60,0,0
28408,-100,6,2,6,60,0,0
28491,-100,6,2,5,60,0,0
28741,-100,6,2,6,60,0,0
29074,-100,6,2,5,60,0,0
30408,-100,6,2,6,60,0,0
30574,-100,6,2,5,60,0,0
30741,-100,6,2,6,60,0,0
31074,-100,6,2,5,60,0,0
32076,-166.666666666667,4,2,5,100,0,0
32408,-166.666666666667,4,2,5,5,0,0
32741,-166.666666666667,4,2,1,70,0,0
32908,-166.666666666667,4,2,1,5,0,0
33076,-62.5,4,2,2,85,0,0
49075,-62.5,4,2,3,70,0,0
49076,333.333333333333,5,2,3,70,1,0
49076,-71.4285714285714,3,2,3,70,0,0
62409,333.333333333333,6,2,3,75,1,0
62409,-71.4285714285714,6,2,3,75,0,0
78075,-100,6,2,3,75,0,0
78325,-100,6,2,3,5,0,0
78408,-62.5,6,2,2,85,0,0
78825,-62.5,6,2,2,5,0,0
78908,-62.5,6,2,2,85,0,0
79158,-62.5,6,2,2,5,0,0
79242,-62.5,6,2,2,85,0,0
79575,-62.5,6,2,2,5,0,0
79742,-62.5,6,2,2,85,0,0
80242,-62.5,6,2,2,5,0,0
80408,-62.5,6,2,2,85,0,0
80742,-62.5,6,2,2,5,0,0
80908,-62.5,6,2,2,85,0,0
81158,-62.5,6,2,2,5,0,0
81242,-62.5,6,2,2,85,0,0
81908,-62.5,6,2,2,5,0,0
82075,-62.5,6,2,2,85,0,0
82242,-62.5,6,2,2,5,0,0
82408,-62.5,6,2,2,85,0,0
82825,-62.5,6,2,2,5,0,0
82908,-62.5,6,2,2,85,0,0
83158,-62.5,6,2,2,5,0,0
83242,-62.5,6,2,2,85,0,0
83575,-62.5,6,2,2,5,0,0
83742,-62.5,6,2,2,85,0,0
84242,-62.5,6,2,2,5,0,0
84408,-62.5,6,2,2,85,0,0
84742,-62.5,6,2,2,5,0,0
84908,-62.5,6,2,2,85,0,0
85158,-62.5,6,2,2,5,0,0
85242,-62.5,6,2,2,85,0,0
85992,-62.5,6,2,2,5,0,0
86075,-62.5,6,2,2,85,0,0
86325,-62.5,6,2,2,5,0,0
86408,-62.5,6,2,2,85,0,0
86742,-62.5,6,2,2,5,0,0
86908,-62.5,6,2,2,85,0,0
87158,-62.5,6,2,2,5,0,0
87242,-62.5,6,2,2,85,0,0
87575,-62.5,6,2,2,5,0,0
87742,-62.5,6,2,2,85,0,0
88325,-62.5,6,2,2,5,0,0
88408,-62.5,6,2,2,85,0,0
88825,-62.5,6,2,2,5,0,0
88908,-62.5,6,2,2,85,0,0
89055,-62.5,6,2,2,5,0,0
89242,-62.5,6,2,2,85,0,0
89805,-62.5,6,2,2,5,0,0
90075,-62.5,6,2,2,85,0,0
90222,-62.5,6,2,2,5,0,0
90408,-62.5,6,2,2,85,0,0
90722,-62.5,6,2,2,5,0,0
90908,-62.5,6,2,2,85,0,0
91158,-62.5,6,2,2,5,0,0
91242,-62.5,6,2,2,85,0,0
91742,-62.5,6,2,2,85,0,0
92325,-62.5,6,2,2,5,0,0
92408,-62.5,6,2,2,85,0,0
92742,-62.5,6,2,2,5,0,0
92908,-62.5,6,2,2,85,0,0
93450,-62.5,6,2,2,5,0,0
93575,-62.5,6,2,2,85,0,0
93617,-62.5,6,2,2,5,0,0
93742,-62.5,6,2,2,85,0,0
93783,-62.5,6,2,2,5,0,0
93908,-62.5,6,2,2,85,0,0
93950,-62.5,6,2,2,5,0,0
94075,-62.5,6,2,2,85,0,0
94117,-62.5,6,2,2,5,0,0
94242,-62.5,6,2,2,85,0,0
94283,-62.5,6,2,2,5,0,0
94408,-62.5,6,2,2,85,0,0
94825,-62.5,6,2,2,5,0,0
94908,-62.5,6,2,2,85,0,0
95158,-62.5,6,2,2,5,0,0
95242,-62.5,6,2,2,85,0,0
95555,-62.5,6,2,2,5,0,0
95742,-62.5,6,2,2,85,0,0
96222,-62.5,6,2,2,5,0,0
96408,-62.5,6,2,2,85,0,0
96639,-62.5,6,2,2,5,0,0
96908,-62.5,6,2,2,85,0,0
97055,-62.5,6,2,2,5,0,0
97242,-62.5,6,2,2,85,0,0
97805,-62.5,6,2,2,5,0,0
98075,-62.5,6,2,2,85,0,0
98222,-62.5,6,2,2,5,0,0
98408,-62.5,6,2,2,85,0,0
98722,-62.5,6,2,2,5,0,0
98908,-62.5,6,2,2,85,0,0
99055,-62.5,6,2,2,5,0,0
99242,-62.5,6,2,2,85,0,0
99575,-62.5,6,2,2,5,0,0
99659,-62.5,6,2,2,85,0,0
100139,-62.5,6,2,2,5,0,0
100408,-62.5,6,2,2,85,0,0
100722,-62.5,6,2,2,5,0,0
100908,-62.5,6,2,2,85,0,0
101055,-62.5,6,2,2,5,0,0
101242,-62.5,6,2,2,85,0,0
101805,-62.5,6,2,2,5,0,0
102075,-62.5,6,2,2,85,0,0
102222,-62.5,6,2,2,5,0,0
102408,-62.5,6,2,2,85,0,0
102722,-62.5,6,2,2,5,0,0
102908,-62.5,6,2,2,85,0,0
103055,-62.5,6,2,2,5,0,0
103242,-62.5,6,2,2,85,0,0
103555,-62.5,6,2,2,5,0,0
103742,-62.5,6,2,2,85,0,0
104222,-62.5,6,2,2,5,0,0
104408,-62.5,6,2,2,85,0,0
104722,-62.5,6,2,2,5,0,0
104908,-62.5,6,2,2,85,0,0
105055,-62.5,6,2,2,5,0,0
105242,-62.5,6,2,2,85,0,0
105805,-62.5,6,2,2,5,0,0
106075,-62.5,6,2,2,85,0,0
106325,-62.5,6,2,2,5,0,0
106408,-62.5,6,2,2,85,0,0
106709,-62.5,6,2,2,5,0,0
106908,-62.5,6,2,2,85,0,0
107042,-62.5,6,2,2,5,0,0
107242,-62.5,6,2,2,85,0,0
107459,-62.5,6,2,2,5,0,0
107742,-62.5,6,2,2,85,0,0
108126,-62.5,6,2,2,5,0,0
108408,-62.5,6,2,2,85,0,0
108709,-62.5,6,2,2,5,0,0
108908,-62.5,6,2,2,85,0,0
109042,-62.5,6,2,2,5,0,0
109242,-62.5,6,2,2,85,0,0
110408,333.333333333333,5,2,2,85,1,0
110490,-62.5,3,2,7,5,0,0
110740,-62.5,3,2,7,75,0,0
110907,-62.5,3,2,7,5,0,0
111073,-62.5,3,2,7,75,0,0
111240,-62.5,3,2,7,5,0,0
111407,-62.5,3,2,7,75,0,0
111573,-62.5,3,2,7,5,0,0
111740,-62.5,3,2,7,75,0,0
111907,-62.5,3,2,7,5,0,0
112073,-62.5,3,2,7,75,0,0
112240,-62.5,3,2,7,5,0,0
112334,-128.205128205128,3,2,7,5,0,0
112407,-128.205128205128,3,2,7,75,0,0
112573,-128.205128205128,3,2,7,5,0,0
112740,-128.205128205128,3,2,7,75,0,0
112907,-128.205128205128,3,2,7,5,0,0
113073,-128.205128205128,3,2,7,75,0,0
113240,-128.205128205128,3,2,7,5,0,0
113407,-128.205128205128,3,2,7,75,0,0
113573,-128.205128205128,3,2,7,5,0,0
113740,-128.205128205128,3,2,7,75,0,0
113907,-128.205128205128,3,2,7,5,0,0
114073,-128.205128205128,3,2,7,75,0,0
114240,-128.205128205128,3,2,7,5,0,0
114407,-128.205128205128,3,2,7,75,0,0
114573,-128.205128205128,3,2,7,5,0,0
114740,-128.205128205128,3,2,7,75,0,0
114907,-128.205128205128,3,2,7,5,0,0
115073,-128.205128205128,3,2,7,75,0,0
115240,-128.205128205128,3,2,7,5,0,0
115407,-128.205128205128,3,2,7,75,0,0
115573,-128.205128205128,3,2,7,5,0,0
115740,-128.205128205128,3,2,7,75,0,0
115907,-128.205128205128,3,2,7,5,0,0
116073,-128.205128205128,3,2,7,75,0,0
116240,-128.205128205128,3,2,7,5,0,0
116407,-128.205128205128,3,2,7,75,0,0
116573,-128.205128205128,3,2,7,5,0,0
116740,-128.205128205128,3,2,7,75,0,0
116907,-128.205128205128,3,2,7,5,0,0
117073,-128.205128205128,3,2,7,75,0,0
117240,-128.205128205128,3,2,7,5,0,0
117407,-128.205128205128,3,2,7,75,0,0
117573,-128.205128205128,3,2,7,5,0,0
117740,-128.205128205128,3,2,7,75,0,0
117906,-128.205128205128,3,2,7,5,0,0
118073,-128.205128205128,3,2,7,75,0,0
118240,-128.205128205128,3,2,7,5,0,0
118406,-128.205128205128,3,2,7,75,0,0
118906,-128.205128205128,3,2,7,5,0,0
119073,-128.205128205128,3,2,7,75,0,0
119240,-128.205128205128,3,2,7,5,0,0
119406,-128.205128205128,3,2,7,75,0,0
119573,-128.205128205128,3,2,7,5,0,0
119740,-128.205128205128,3,2,7,75,0,0
119906,-128.205128205128,3,2,7,5,0,0
120073,-128.205128205128,3,2,7,75,0,0
120573,-128.205128205128,3,2,7,5,0,0
120740,-128.205128205128,3,2,7,75,0,0
120906,-128.205128205128,3,2,7,5,0,0
121073,-128.205128205128,3,2,7,75,0,0
121240,-128.205128205128,3,2,7,5,0,0
121406,-128.205128205128,3,2,7,75,0,0
121573,-128.205128205128,3,2,7,5,0,0
121740,-128.205128205128,3,2,7,75,0,0
122240,-128.205128205128,3,2,7,5,0,0
122406,-128.205128205128,3,2,7,75,0,0
122573,-128.205128205128,3,2,7,5,0,0
122740,-128.205128205128,3,2,7,75,0,0
122906,-128.205128205128,3,2,7,5,0,0
123073,-128.205128205128,3,2,7,75,0,0
123656,-128.205128205128,3,2,7,5,0,0
123740,-128.205128205128,3,2,7,75,0,0
123823,-128.205128205128,3,2,8,35,0,0
137073,-128.205128205128,3,2,5,45,0,0
137074,333.333333333333,6,2,5,45,1,0
139074,333.333333333333,3,2,8,25,1,0
139074,-125,3,2,8,25,0,0
141000,-125,3,2,8,25,0,0
154739,-125,3,2,9,40,0,0
174072,-133.333333333333,3,2,2,85,0,0
174907,-125,3,2,2,5,0,0
175072,-125,3,2,2,95,0,0
175073,333.333333333333,6,2,2,95,1,0
175073,-62.5,6,2,2,95,0,0
190240,-62.5,6,2,2,5,0,0
190406,-62.5,6,2,2,95,0,0
190448,-62.5,6,2,2,5,0,0
190572,-62.5,6,2,2,95,0,0
190615,-62.5,6,2,2,5,0,0
190739,-62.5,6,2,2,95,0,0
190782,-62.5,6,2,2,5,0,0
190906,-62.5,6,2,2,95,0,0
190948,-62.5,6,2,2,5,0,0
191072,-62.5,6,2,2,95,0,0
206448,-62.5,6,2,2,5,0,0
206573,-62.5,6,2,2,95,0,0
206615,-62.5,6,2,2,5,0,0
206740,-62.5,6,2,2,95,0,0
206782,-62.5,6,2,2,5,0,0
206906,-62.5,6,2,2,95,0,0
206948,-62.5,6,2,2,5,0,0
206989,-62.5,6,2,2,95,0,0
217072,-62.5,6,2,2,75,0,0
219072,-62.5,6,2,2,55,0,0
221072,-62.5,6,2,2,35,0,0
222406,-62.5,6,2,2,15,0,0
222906,-62.5,6,2,2,5,0,0

[Colours]
Combo1 : 71,141,141
Combo2 : 66,255,160
Combo3 : 0,242,121
Combo4 : 138,255,197

[HitObjects]
255,204,32076,6,0,L|418:178,1,164.9999949646,12|0,3:2|0:0,0:0:0:0:
429,184,33076,6,0,L|349:172,1,80,12|0,0:2|3:0,0:0:0:0:
265,28,33410,2,0,P|238:56|240:95,1,80,12|0,0:2|3:0,0:0:0:0:
287,334,33743,2,0,B|304:357|304:357|334:321|310:270,1,120,12|0,0:2|0:0,0:0:0:0:
306,262,34076,6,0,P|345:268|385:274,1,80,12|0,0:2|3:0,0:0:0:0:
176,336,34410,2,0,P|182:296|188:256,1,80,12|0,0:0|3:0,0:0:0:0:
96,94,34743,1,8,0:2:0:0:
96,94,34826,1,8,0:2:0:0:
96,94,34910,1,8,0:2:0:0:
96,94,34993,1,8,0:2:0:0:
96,94,35076,6,0,P|102:133|108:173,1,80,12|0,0:2|3:0,0:0:0:0:
83,306,35410,2,0,P|43:311|3:318,1,80,12|0,0:2|3:0,0:0:0:0:
228,126,35743,2,0,B|271:114|271:114|314:124|309:169,1,120,12|0,0:2|0:0,0:0:0:0:
303,180,36076,6,0,P|307:140|318:101,1,80,12|0,0:0|3:0,0:0:0:0:
201,237,36410,2,0,P|181:270|190:308,1,80,12|0,0:0|3:0,0:0:0:0:
423,257,36743,2,0,L|383:248,1,40,8|0,0:2|0:0,0:0:0:0:
361,241,36910,2,0,L|400:232,1,40,8|0,0:2|0:0,0:0:0:0:
351,357,37076,6,0,P|319:333|279:332,1,80,10|0,0:2|3:0,0:0:0:0:
492,361,37410,2,0,P|497:321|506:282,1,80,10|0,0:2|3:0,0:0:0:0:
399,79,37743,2,0,L|407:119,1,40,10|0,0:2|0:0,0:0:0:0:
411,142,37910,2,0,L|419:102,1,40,8|0,0:2|0:0,0:0:0:0:
320,15,38076,6,0,L|240:31,1,80,10|0,0:2|3:0,0:0:0:0:
69,95,38410,2,0,P|88:128|125:138,1,80,10|0,0:2|3:0,0:0:0:0:
318,149,38743,2,0,P|262:147|248:201,1,120,10|0,0:2|0:0,0:0:0:0:
252,213,39076,6,0,P|212:207|172:204,1,80,10|0,0:2|3:0,0:0:0:0:
405,253,39410,1,10,0:2:0:0:
338,295,39576,1,0,3:0:0:0:
389,103,39743,2,0,B|422:88|422:88|470:96|474:146,1,120,10|0,0:2|0:0,0:0:0:0:
473,157,40076,6,0,L|512:150,1,40,8|8,0:2|0:2,0:0:0:0:
360,48,40243,2,0,L|368:87,1,40,0|0,3:0|3:0,0:0:0:0:
283,184,40410,6,0,L|276:223,3,40,8|0|0|0,3:2|3:0|3:0|3:0,0:0:0:0:
195,99,40743,5,8,0:2:0:0:
159,85,40826,1,8,0:2:0:0:
124,102,40910,1,8,0:2:0:0:
111,138,40993,1,8,0:2:0:0:
128,173,41076,6,0,P|90:163|53:178,1,80,12|0,0:2|3:0,0:0:0:0:
275,223,41410,2,0,P|312:233|349:218,1,80,12|0,0:2|3:0,0:0:0:0:
221,41,41743,2,0,B|193:19|193:19|169:55|195:99,1,120,12|0,0:2|0:0,0:0:0:0:
203,109,42076,6,0,P|241:99|280:88,1,80,12|0,0:2|3:0,0:0:0:0:
148,251,42410,2,0,P|136:212|127:173,1,80,12|0,0:0|3:0,0:0:0:0:
363,221,42743,2,0,P|345:211|326:207,1,40,8|8,0:2|0:2,0:0:0:0:
224,318,42910,1,8,0:2:0:0:
224,318,42993,1,8,0:2:0:0:
224,318,43076,6,0,B|256:313|285:328|273:337|302:353|335:348,1,120,12|0,0:2|0:0,0:0:0:0:
348,344,43410,2,0,B|387:337|387:337|411:369,1,80,12|0,0:2|3:0,0:0:0:0:
351,145,43743,2,0,B|324:126|324:126|300:166|326:207,1,120,12|0,0:2|0:0,0:0:0:0:
332,216,44076,6,0,B|306:215|306:215|282:225|282:225|256:224,1,80,12|0,0:2|3:0,0:0:0:0:
60,148,44410,2,0,B|98:133|98:133|138:133|158:177,1,120,8|0,0:2|3:0,0:0:0:0:
130,265,44743,2,0,L|90:259,1,40,8|0,0:2|0:0,0:0:0:0:
108,277,44910,2,0,L|68:271,1,40,8|0,0:2|0:0,0:0:0:0:
218,363,45076,6,0,P|266:332|268:274,1,120,10|0,0:2|0:0,0:0:0:0:
264,263,45410,2,0,P|303:269|342:277,1,80,10|0,0:2|3:0,0:0:0:0:
449,132,45743,2,0,L|455:172,1,40,10|0,0:2|0:0,0:0:0:0:
437,154,45910,2,0,L|443:194,1,40,8|0,0:2|0:0,0:0:0:0:
445,376,46076,6,0,B|399:336|399:336|424:282,1,120,10|0,0:2|0:0,0:0:0:0:
430,272,46410,1,10,0:2:0:0:
272,166,46576,1,0,3:0:0:0:
339,121,46743,2,0,P|344:82|347:42,1,80,10|0,0:2|3:0,0:0:0:0:
133,57,47076,6,0,B|177:20|213:51|213:51|198:78,1,120,10|0,0:2|0:0,0:0:0:0:
191,88,47410,2,0,P|177:124|194:159,1,80,10|0,0:2|3:0,0:0:0:0:
414,225,47743,2,0,B|386:202|348:205|348:205|340:224|314:239,1,120,10|0,0:2|0:0,0:0:0:0:
304,245,48076,6,0,P|293:261|286:280,1,40,8|8,0:2|0:2,0:0:0:0:
194,159,48243,2,0,P|183:142|176:123,1,40,0|0,3:0|3:0,0:0:0:0:
157,282,48410,6,0,L|117:287,3,40,8|0|0|0,3:2|3:0|3:0|3:0,0:0:0:0:
34,317,48743,5,8,0:2:0:0:
39,277,48826,1,8,0:2:0:0:
45,237,48910,1,8,0:2:0:0:
51,198,48993,1,8,0:2:0:0:
57,158,49076,6,0,B|102:150|102:150|146:165|146:165|192:158,1,139.999995727539,4|0,3:2|0:0,0:0:0:0:
331,63,49576,2,0,B|296:41|296:41|314:137,1,139.999995727539,8|0,0:2|3:0,0:0:0:0:
374,197,50076,1,0,3:0:0:0:
472,56,50409,1,0,3:0:0:0:
374,197,50742,6,0,B|319:185|319:185|272:200|276:248,1,139.999995727539,0|0,3:0|0:0,0:0:0:0:
453,311,51242,2,0,B|443:272|453:233|462:252|472:213|462:175,1,139.999995727539,8|0,0:2|3:0,0:0:0:0:
405,111,51742,1,0,3:0:0:0:
276,248,52076,1,0,1:0:0:0:
276,248,52159,1,0,1:0:0:0:
276,248,52242,1,0,1:0:0:0:
276,248,52326,1,0,1:0:0:0:
276,248,52409,6,0,B|242:225|228:198|228:198|224:230|200:263,1,139.999995727539,4|0,3:2|0:0,0:0:0:0:
0,233,52909,2,0,P|66:214|134:195,1,139.999995727539,8|0,0:2|3:0,0:0:0:0:
179,124,53409,1,0,3:0:0:0:
251,324,53742,1,0,3:0:0:0:
179,124,54075,6,0,P|121:89|59:115,1,139.999995727539,0|0,3:0|0:0,0:0:0:0:
272,174,54575,2,0,B|311:176|348:160|327:154|364:138|404:140,1,139.999995727539,8|0,0:2|0:0,0:0:0:0:
466,198,55075,1,0,3:0:0:0:
294,59,55409,1,8,0:2:0:0:
294,59,55575,1,0,3:0:0:0:
366,15,55742,6,0,B|417:5|417:5|464:19|455:74,1,139.999995727539,4|0,3:2|0:0,0:0:0:0:
398,247,56242,2,0,P|330:230|261:214,1,139.999995727539,8|0,0:2|3:0,0:0:0:0:
193,263,56742,1,0,3:0:0:0:
384,162,57075,1,0,3:0:0:0:
193,263,57409,6,0,P|140:223|154:158,1,139.999995727539,0|0,3:0|0:0,0:0:0:0:
284,34,57909,2,0,B|384:50|384:50|392:71|404:82,1,139.999995727539,8|0,0:2|3:0,0:0:0:0:
481,116,58409,1,0,3:0:0:0:
283,312,58742,1,0,1:0:0:0:
283,312,58825,1,0,1:0:0:0:
283,312,58909,1,0,1:0:0:0:
283,312,58992,1,0,1:0:0:0:
283,312,59075,6,0,B|242:273|288:217|288:217|310:240,1,139.999995727539,4|0,3:2|0:0,0:0:0:0:
492,322,59575,2,0,B|399:338|399:338|371:327|378:303,1,139.999995727539,8|0,0:2|3:0,0:0:0:0:
439,245,60075,1,0,3:0:0:0:
351,71,60409,1,0,3:0:0:0:
439,245,60742,6,0,P|466:204|452:109,1,139.999995727539,0|0,3:0|0:0,0:0:0:0:
218,176,61242,2,0,B|280:154|280:154|311:179|348:181,1,139.999995727539,8|0,0:2|0:0,0:0:0:0:
505,30,61742,2,0,B|459:10|459:10|402:8|381:45,1,139.999995727539,0|0,3:0|1:2,0:0:0:0:
417,121,62242,1,0,3:0:0:0:
263,285,62409,6,0,B|178:302|178:302|155:286|158:254,1,139.999995727539,4|0,3:2|3:0,0:0:0:0:
213,192,62909,1,0,0:0:0:0:
362,287,63075,2,0,P|346:318|349:352,1,69.9999978637696,8|0,0:2|0:0,0:0:0:0:
437,211,63409,2,0,P|385:201|337:180,1,104.999996795654,0|0,3:0|0:0,0:0:0:0:
327,171,63742,6,0,B|337:136|337:136|333:102,1,69.9999978637696,0|0,3:0|0:0,0:0:0:0:
151,137,64075,1,8,0:2:0:0:
213,192,64242,1,0,3:0:0:0:
362,23,64409,2,0,P|306:63|238:59,1,139.999995727539,0|0,3:0|3:0,0:0:0:0:
30,303,65075,6,0,P|60:284|95:280,1,69.9999978637696,8|0,0:2|0:0,0:0:0:0:
250,332,65409,2,0,P|215:327|185:309,1,69.9999978637696,8|0,0:2|0:0,0:0:0:0:
135,191,65742,2,0,B|199:178|199:178|221:187|216:209,1,104.999996795654,0|0,3:0|0:0,0:0:0:0:
293,259,66075,1,0,1:0:0:0:
293,259,66158,1,0,1:0:0:0:
293,259,66242,2,0,L|299:224,1,34.9999989318848,0|0,1:0|1:0,0:0:0:0:
356,118,66408,6,0,P|371:186|385:254,1,139.999995727539,0|0,3:0|3:0,0:0:0:0:
459,214,66909,1,0,0:0:0:0:
375,101,67075,2,0,P|382:66|389:32,1,69.9999978637696,0|0,3:0|0:0,0:0:0:0:
197,129,67409,6,0,P|231:135|265:143,1,69.9999978637696,0|0,3:0|0:0,0:0:0:0:
105,42,67742,2,0,P|139:34|173:27,1,69.9999978637696,0|0,3:0|0:0,0:0:0:0:
35,165,68075,2,0,P|28:130|20:96,1,69.9999978637696,8|0,0:2|0:0,0:0:0:0:
149,231,68409,6,0,B|205:272|161:325|161:325|137:307,1,139.999995727539,0|0,3:0|3:0,0:0:0:0:
11,283,68909,2,0,P|35:259|70:256,1,69.9999978637696,0|8,0:0|0:2,0:0:0:0:
137,307,69242,1,0,0:0:0:0:
304,216,69409,5,0,1:0:0:0:
307,181,69492,1,0,1:0:0:0:
311,146,69575,1,0,1:0:0:0:
317,111,69658,1,0,1:0:0:0:
325,77,69742,1,0,3:0:0:0:
226,142,69908,1,0,1:0:0:0:
211,110,69992,1,0,1:0:0:0:
195,79,70075,1,0,3:0:0:0:
307,181,70242,1,8,0:2:0:0:
232,320,70408,6,0,B|273:293|318:296|318:296|337:314|360:320,1,139.999995727539,4|2,3:2|3:2,0:0:0:0:
489,251,70908,1,0,0:0:0:0:
419,203,71075,2,0,P|422:168|430:134,1,69.9999978637696,10|0,0:2|0:0,0:0:0:0:
211,164,71408,6,0,B|258:152|258:152|284:174|306:180,1,104.999996795654,0|0,3:2|0:0,0:0:0:0:
317,179,71742,2,0,P|320:144|328:110,1,69.9999978637696,2|0,3:2|0:0,0:0:0:0:
148,8,72075,1,10,0:2:0:0:
111,84,72242,1,0,3:2:0:0:
212,197,72408,6,0,B|222:236|212:275|203:256|193:295|203:334,1,139.999995727539,0|2,3:2|3:2,0:0:0:0:
366,362,72908,2,0,P|368:327|357:294,1,69.9999978637696,0|10,0:0|0:2,0:0:0:0:
286,337,73242,1,0,0:0:0:0:
393,195,73408,6,0,B|430:150|477:164|477:164|491:185|511:192,1,139.999995727539,8|2,0:2|3:2,0:0:0:0:
244,80,74075,2,0,P|248:96|252:113,1,34.9999989318848,2|0,1:2|1:2,0:0:0:0:
212,197,74242,1,0,1:2:0:0:
212,197,74325,1,0,1:2:0:0:
212,197,74408,6,0,B|176:148|116:184|116:184|130:211,1,139.999995727539,2|2,3:2|1:2,0:0:0:0:
275,289,74908,2,0,P|303:267|337:262,1,69.9999978637696,0|2,0:0|1:2,0:0:0:0:
400,317,75242,1,0,0:0:0:0:
503,160,75408,6,0,B|464:162|432:141|447:132|414:111|376:113,1,139.999995727539,2|2,3:2|3:2,0:0:0:0:
375,113,76075,2,0,B|341:119|341:119|373:132,1,69.9999978637696,2|0,1:2|0:0,0:0:0:0:
480,304,76408,6,0,P|489:234|500:165,1,139.999995727539,2|2,3:2|3:2,0:0:0:0:
445,23,76908,2,0,P|451:58|456:93,1,69.9999978637696,0|2,0:0|1:2,0:0:0:0:
500,165,77242,1,0,0:0:0:0:
341,250,77408,5,0,1:2:0:0:
307,259,77492,1,0,1:2:0:0:
273,253,77575,1,0,3:2:0:0:
245,233,77658,1,0,3:2:0:0:
230,202,77742,2,0,L|233:167,1,34.9999989318848,4|0,3:2|3:2,0:0:0:0:
147,192,77908,2,0,L|150:157,1,34.9999989318848,0|0,3:2|3:2,0:0:0:0:
194,56,78075,6,0,P|218:68|190:69,1,75,0|0,1:2|0:0,0:0:0:0:
116,47,78408,5,4,3:2:0:0:
316,4,78575,2,0,P|354:9|383:37,1,80,0|0,3:2|0:0,0:0:0:0:
230,202,78908,2,0,B|272:208|310:187|292:163|329:143|372:149,1,160,0|0,3:0|3:2,0:0:0:0:
492,232,79325,1,0,3:2:0:0:
492,232,79408,6,0,P|453:225|414:218,1,80,8|0,0:0|0:0,0:0:0:0:
347,262,79742,1,0,3:0:0:0:
423,34,79908,1,8,0:2:0:0:
346,59,80075,2,0,P|288:47|228:41,1,120,0|0,3:2|0:0,0:0:0:0:
352,75,80408,5,2,3:2:0:0:
230,202,80575,2,0,P|263:182|277:145,1,80,0|0,3:2|0:0,0:0:0:0:
121,172,80908,2,0,P|125:93|87:24,1,160,0|0,3:2|3:2,0:0:0:0:
75,237,81408,1,8,0:2:0:0:
277,145,81575,1,8,0:2:0:0:
341,190,81742,6,0,P|380:185|418:173,1,80,0|0,3:2|0:0,0:0:0:0:
297,310,82075,2,0,B|274:258|222:266|222:266|203:282,1,120,0|0,3:0|0:0,0:0:0:0:
307,325,82408,5,4,3:2:0:0:
418,173,82575,2,0,P|438:138|468:113,1,80,0|0,3:2|0:0,0:0:0:0:
197,118,82908,2,0,B|248:73|306:118|306:118|276:144,1,160,0|0,3:0|3:2,0:0:0:0:
170,199,83325,1,0,3:2:0:0:
170,199,83408,6,0,P|173:159|178:119,1,80,8|0,0:2|0:0,0:0:0:0:
109,78,83742,1,0,3:0:0:0:
238,275,83908,1,8,0:2:0:0:
299,223,84075,2,0,P|356:224|386:273,1,120,0|0,3:0|0:0,0:0:0:0:
309,210,84408,5,2,3:2:0:0:
156,313,84575,2,0,P|109:306|53:278,1,80,0|0,3:2|0:0,0:0:0:0:
109,78,84908,2,0,B|170:113|153:175|153:175|114:157,1,160,0|0,3:0|3:2,0:0:0:0:
280,130,85408,5,8,0:0:0:0:
445,102,85575,1,8,0:2:0:0:
378,146,85742,2,0,B|361:109|361:109|372:71,1,80,4|0,3:2|0:0,0:0:0:0:
398,237,86075,2,0,P|338:228|279:219,1,120,4|0,3:2|0:0,0:0:0:0:
408,226,86408,5,6,3:2:0:0:
257,362,86575,2,0,P|238:328|251:291,1,80,0|0,3:2|0:0,0:0:0:0:
280,130,86908,2,0,P|232:191|155:192,1,160,0|0,3:2|3:2,0:0:0:0:
339,64,87408,6,0,P|305:43|265:42,1,80,8|0,0:2|0:0,0:0:0:0:
49,52,87742,1,0,3:0:0:0:
155,192,87908,1,8,0:2:0:0:
94,243,88075,2,0,P|54:234|15:226,1,80,0|0,3:2|0:2,3:2:0:0:
261,179,88408,5,2,3:2:0:0:
302,347,88575,2,0,P|310:307|318:268,1,80,0|0,3:2|0:0,0:0:0:0:
406,126,88908,2,0,B|454:102|454:102|497:153|459:198,1,160,0|0,3:0|3:2,0:3:0:0:
328,69,89408,5,8,0:2:0:0:
187,142,89575,1,8,0:2:0:0:
113,105,89742,2,0,P|114:65|141:36,1,80,4|0,3:2|0:0,0:0:0:0:
261,179,90075,2,0,P|259:218|232:247,1,80,4|0,3:2|0:0,0:0:0:0:
354,43,90408,5,4,3:2:0:0:
459,197,90575,2,0,P|456:236|430:264,1,80,0|0,3:2|0:0,0:0:0:0:
282,308,90908,2,0,B|327:304|369:323|345:330|387:349|433:345,1,160,0|0,3:0|3:2,0:0:0:0:
230,369,91408,5,8,0:2:0:0:
261,179,91575,1,0,0:0:0:0:
172,103,91742,5,0,3:0:0:0:
203,293,91908,1,8,0:2:0:0:
144,238,92075,6,0,B|91:197|31:239|31:239|60:262,1,160,0|2,3:2|3:2,0:0:0:0:
282,308,92575,2,0,P|276:228|270:148,1,160,0|0,3:2|3:2,0:0:0:0:
270,148,93242,1,0,3:2:0:0:
435,310,93408,6,0,P|396:321|358:333,1,80,8|0,0:2|3:2,0:0:0:0:
282,308,93742,1,0,3:2:0:0:
282,308,93908,1,0,3:2:0:0:
282,308,94075,1,0,3:2:0:0:
282,308,94242,1,0,3:2:0:0:
395,176,94408,5,4,3:2:0:0:
366,33,94575,2,0,P|354:71|347:110,1,80,0|0,3:2|0:0,0:0:0:0:
144,238,94908,2,0,P|166:161|181:82,1,160,0|0,3:2|3:2,0:0:0:0:
321,231,95408,2,0,B|288:191|236:205|236:205|232:217|227:228,1,120,8|0,0:2|0:0,0:0:0:0:
333,235,95742,5,0,3:0:0:0:
118,350,95908,1,8,0:2:0:0:
191,381,96075,2,0,P|197:341|203:302,1,80,0|0,3:0|0:0,0:0:0:0:
296,94,96408,5,2,3:2:0:0:
345,156,96575,2,0,P|338:195|332:234,1,80,0|0,3:2|0:0,0:0:0:0:
12,228,96908,2,0,B|54:186|106:196|106:196|122:222|143:237,1,160,0|0,3:0|3:2,0:0:0:0:
345,156,97408,5,8,0:2:0:0:
143,237,97575,1,8,0:2:0:0:
204,287,97742,2,0,P|244:293|283:300,1,80,0|0,3:0|0:0,0:0:0:0:
277,114,98075,2,0,P|224:135|227:191,1,120,0|0,3:2|0:0,0:0:0:0:
270,99,98408,5,4,3:2:0:0:
91,45,98575,2,0,P|53:31|15:17,1,80,0|0,3:2|0:0,0:0:0:0:
12,228,98908,2,0,B|54:186|106:196|106:196|122:222|143:237,1,160,0|0,3:0|3:2,0:0:0:0:
236,112,99325,1,0,3:2:0:0:
236,112,99408,2,0,P|230:151|227:191,1,80,8|0,0:0|0:0,0:0:0:0:
282,249,99742,5,0,3:0:0:0:
457,105,99908,1,8,0:2:0:0:
393,153,100075,2,0,B|360:132|360:132|347:88|367:53,1,120,0|0,3:0|0:0,0:0:0:0:
403,170,100408,5,2,3:2:0:0:
378,335,100575,2,0,P|374:295|368:255,1,80,0|0,3:2|0:0,0:0:0:0:
196,115,100908,2,0,B|149:178|194:219|194:219|227:190,1,160,0|0,3:0|3:0,0:0:0:0:
413,54,101408,6,0,P|374:46|336:35,1,80,8|8,0:2|0:2,0:0:0:0:
60,97,101742,2,0,B|87:59|129:70|129:70|144:94|157:98,1,120,4|0,3:2|0:0,0:0:0:0:
169,97,102075,2,0,B|161:136|161:136|195:114,1,80,4|0,3:2|0:0,0:0:0:0:
88,311,102408,5,6,3:2:0:0:
18,172,102575,2,0,P|3:209|2:249,1,80,0|0,3:2|0:0,0:0:0:0:
172,351,102908,2,0,P|233:304|310:316,1,160,0|0,3:2|3:2,0:0:0:0:
433,179,103408,2,0,B|400:183|371:168|383:159|354:143|321:148,1,120,8|0,0:2|0:0,0:0:0:0:
446,169,103742,5,0,3:0:0:0:
237,219,103908,1,8,0:2:0:0:
168,176,104075,2,0,P|175:137|196:104,1,80,0|0,3:0|0:0,0:0:0:0:
306,262,104408,5,2,3:2:0:0:
115,281,104575,2,0,P|122:320|143:353,1,80,0|0,3:2|0:0,0:0:0:0:
237,218,104908,2,0,P|298:170|376:177,1,160,0|0,3:2|3:2,0:0:0:0:
225,303,105408,5,8,0:2:0:0:
40,234,105575,1,8,0:2:0:0:
106,188,105742,2,0,P|109:149|119:110,1,80,4|0,3:2|0:0,0:0:0:0:
312,39,106075,2,0,B|293:63|293:63|248:83|207:63,1,120,4|0,3:2|0:0,0:0:0:0:
323,23,106408,5,4,3:2:0:0:
411,157,106575,2,0,P|442:135|449:97,1,80,0|0,3:2|0:0,0:0:0:0:
219,219,106908,2,0,B|271:187|318:203|318:203|338:234|358:240,1,160,0|0,3:0|3:0,0:0:0:0:
165,352,107408,2,0,P|160:312|152:273,1,80,8|0,0:0|0:0,0:0:0:0:
84,315,107742,5,0,3:0:0:0:
290,362,107908,1,8,0:2:0:0:
358,321,108075,2,0,P|416:333|473:351,1,120,0|0,3:2|0:0,0:0:0:0:
350,307,108408,5,2,3:2:0:0:
479,218,108575,2,0,B|485:175|464:137|440:155|420:118|426:75,2,160,0|0|0,3:2|3:2|3:2,0:0:0:0:
346,40,109408,2,0,P|306:31|267:22,1,80,8|0,0:2|3:2,0:0:0:0:
235,45,109658,1,0,3:2:0:0:
196,44,109742,1,0,3:2:0:0:
233,57,109825,1,0,3:2:0:0:
256,89,109908,1,0,3:2:0:0:
256,128,109992,1,0,3:2:0:0:
232,159,110075,5,8,0:2:0:0:
7,132,110242,1,8,0:2:0:0:
22,145,110408,5,4,3:2:0:0:
37,158,112074,5,0,3:2:0:0:
52,171,113741,5,2,3:2:0:0:
67,184,115408,5,0,3:2:0:0:
480,192,117074,6,0,P|325:214|171:239,1,312.000010473633,4|0,3:2|2:0,0:0:0:0:
80,292,118574,5,0,3:2:0:0:
111,372,118741,2,0,P|127:296|196:57,1,312.000010473633,0|0,3:2|2:0,0:0:0:0:
305,23,120241,5,0,3:2:0:0:
387,43,120407,2,0,P|422:161|311:107,1,312.000010473633,2|0,3:2|2:0,0:0:0:0:
191,70,121907,5,0,3:2:0:0:
117,114,122074,2,0,B|112:174|137:229|178:207|202:262|198:322,1,234.000007855225,0|0,3:2|0:0,0:0:0:0:
280,288,123241,5,0,3:0:0:0:
436,333,123407,1,0,1:0:0:0:
280,288,123741,5,4,3:2:0:0:
245,84,139074,6,0,B|197:133|241:189|241:189|271:159,1,160,2|2,0:0|0:0,0:0:0:0:
333,106,140074,2,0,P|409:110|442:179,1,160,2|2,0:0|0:0,0:0:0:0:
413,255,141074,6,0,L|491:269,2,80,2|0|2,0:0|0:0|0:0,0:0:0:0:
344,213,142074,2,0,B|299:210|262:234|280:244|243:268|199:266,1,160,2|2,0:0|0:0,0:0:0:0:
140,322,143074,6,0,P|150:242|167:164,1,160
212,98,144074,1,0,0:0:0:0:
273,149,144407,2,0,P|312:146|349:131,1,80,2|2,0:0|0:0,0:0:0:0:
414,175,145074,6,0,P|386:101|337:39,1,160,2|0,0:0|0:0,0:0:0:0:
264,5,146074,2,0,P|224:13|185:19,1,80,2|0,0:0|0:0,0:0:0:0:
131,78,146740,1,2,0:0:0:0:
188,133,147074,6,0,P|192:212|197:292,1,160,2|0,0:0|0:0,0:0:0:0:
263,338,148074,2,0,B|286:280|340:282|340:282|365:304|391:306,1,160,2|0,0:0|0:0,0:0:0:0:
454,257,149074,5,2,0:0:0:0:
217,80,149740,1,0,0:0:0:0:
275,25,150074,2,0,P|327:82|318:159,1,160,2|0,0:0|0:0,0:0:0:0:
260,213,151074,6,0,B|184:192|184:192|157:222|113:230,1,160,2|2,0:0|0:0,0:0:0:0:
45,271,152074,2,0,P|123:286|201:302,1,160,2|2,0:0|0:0,0:0:0:0:
263,353,153074,5,2,0:0:0:0:
433,289,153740,1,2,0:0:0:0:
470,358,154073,2,0,P|480:278|497:200,1,160,2|2,0:0|2:2,0:0:0:0:
457,95,155073,6,0,B|411:62|357:88|357:88|343:111|313:117,1,160,4|0,3:2|2:0,0:0:0:0:
233,107,156073,2,0,B|301:109|292:189|292:189|274:182|250:186,1,160,0|0,1:2|3:0,0:0:0:0:
181,225,157073,6,0,P|189:304|200:383,1,160,0|2,3:0|2:0,0:0:0:0:
272,346,158073,1,0,1:2:0:0:
66,188,158740,1,0,3:0:0:0:
123,131,159073,2,0,P|200:127|250:186,1,160,4|0,3:2|2:0,0:0:0:0:
325,160,160073,2,0,P|321:199|316:239,2,80,0|0|0,1:2|2:0|3:0,0:0:0:0:
389,112,161073,5,0,3:0:0:0:
319,72,161407,2,0,L|299:73,4,20,0|0|0|0|2,2:0|2:0|2:0|2:0|2:0,0:0:0:0:
386,28,162073,2,0,L|465:35,2,80,0|0|0,1:2|2:0|3:0,0:0:0:0:
319,72,163073,5,4,3:2:0:0:
165,27,163740,1,0,2:0:0:0:
100,73,164073,2,0,B|82:113|92:156|107:143|118:186|100:227,1,160,0|0,1:2|3:0,0:0:0:0:
44,286,165073,5,0,3:0:0:0:
9,213,165407,2,0,L|10:193,4,20,0|0|0|0|2,2:0|2:0|2:0|2:0|2:0,0:0:0:0:
44,286,166073,2,0,P|122:297|192:336,1,160,0|0,1:2|3:0,0:0:0:0:
260,378,167073,5,0,3:0:0:0:
347,172,167740,1,0,2:0:0:0:
285,120,168073,2,0,P|290:81|296:41,2,80,0|0|0,1:2|0:0|3:0,0:0:0:0:
220,168,169073,5,0,3:0:0:0:
276,224,169407,2,0,L|295:221,4,20,0|0|0|0|2,2:0|2:0|2:0|2:0|2:0,0:0:0:0:
224,286,170073,2,0,P|148:295|93:241,1,160,0|0,1:2|3:0,0:0:0:0:
64,166,171073,5,4,3:2:0:0:
278,71,171740,1,0,2:0:0:0:
333,128,172073,2,0,P|254:114|175:98,1,160,0|0,1:2|3:0,0:0:0:0:
126,35,173073,5,0,3:0:0:0:
71,93,173407,2,0,L|51:92,4,20,0|0|0|0|2,0:0|0:0|0:0|0:0|2:0,0:0:0:0:
189,207,174073,6,0,P|119:218|179:183,1,187.500007152558,8|0,2:2|0:0,2:2:0:0:
288,190,175073,6,0,P|283:269|280:349,1,160,4|0,3:2|0:0,0:0:0:0:
435,167,175573,2,0,P|398:151|358:152,1,80,0|0,3:0|0:0,0:0:0:0:
288,190,175906,1,0,3:0:0:0:
48,128,176073,6,0,B|91:134|130:113|114:102|153:81|197:87,2,160,8|0|0,0:0|3:0|3:0,0:0:0:0:
153,298,177073,6,0,B|198:317|198:317|188:206,1,160,0|0,3:0|0:0,0:0:0:0:
7,281,177573,2,0,P|43:265|83:259,1,80,0|0,3:2|0:0,0:0:0:0:
153,298,177906,1,0,3:0:0:0:
152,307,177989,1,0,3:0:0:0:
151,317,178073,5,8,0:2:0:0:
222,353,178239,1,0,3:0:0:0:
337,224,178406,1,8,0:2:0:0:
266,188,178573,1,0,3:0:0:0:
352,330,178739,1,8,0:2:0:0:
384,121,178906,1,8,0:2:0:0:
188,206,179073,6,0,P|140:144|154:67,1,160,4|0,3:2|0:0,0:0:0:0:
337,223,179573,2,0,P|376:216|415:211,1,80,0|0,3:0|0:0,0:0:0:0:
474,266,179906,1,0,3:0:0:0:
436,45,180073,6,0,B|383:36|383:36|333:53|333:53|281:45,2,160,8|0|0,0:0|0:0|3:0,0:0:0:0:
186,147,181073,6,0,B|143:175|143:175|153:66,1,160,0|0,3:2|0:0,0:0:0:0:
361,203,181573,2,0,B|335:237|335:237|279:253|258:193|258:193|274:195,1,160,0|0,3:2|3:0,0:0:0:0:
285,203,181989,1,0,3:0:0:0:
295,210,182073,6,0,P|307:247|290:282,1,80,8|0,0:2|0:0,0:0:0:0:
145,351,182406,2,0,P|133:314|150:279,1,80,4|0,3:2|0:0,0:0:0:0:
186,147,182739,2,0,B|112:133|112:133|98:148|74:156,1,120,4|0,3:2|0:0,0:0:0:0:
197,156,183073,6,0,B|210:115|197:74|169:88|156:47|169:6,1,160,4|0,3:2|0:0,0:0:0:0:
411,36,183573,2,0,B|354:12|354:12|295:30|307:87,1,160,0|0,3:0|3:0,2:0:0:0:
313,98,183989,1,0,3:0:0:0:
319,109,184073,6,0,P|280:99|241:90,1,80,8|0,0:2|0:0,0:0:0:0:
392,269,184406,2,0,P|414:237|409:198,1,80,0|0,3:0|0:0,0:0:0:0:
179,266,184739,2,0,P|220:224|278:230,1,120,0|0,3:0|0:0,0:0:0:0:
176,279,185073,6,0,P|97:265|18:252,1,160,4|0,3:2|0:0,0:0:0:0:
53,65,185573,2,0,B|83:33|83:33|136:74|93:135,1,160,0|0,3:0|3:0,0:0:0:0:
85,143,185989,1,0,3:0:0:0:
77,151,186073,6,0,P|116:157|155:163,1,80,8|0,0:2|3:0,0:0:0:0:
387,45,186406,1,8,0:2:0:0:
308,32,186573,1,0,3:0:0:0:
229,19,186739,1,0,3:1:0:0:
325,342,187073,6,0,B|375:318|375:318|392:214,1,160,4|0,3:2|0:0,0:0:0:0:
156,163,187573,1,8,0:2:0:0:
224,120,187739,2,0,P|271:155|291:211,1,120,0|0,3:0|0:0,0:0:0:0:
294,223,188073,6,0,P|255:224|215:228,1,80,0|0,3:0|0:0,0:0:0:0:
33,165,188406,1,8,0:2:0:0:
161,347,188573,1,0,3:0:0:0:
188,192,188739,1,8,0:2:0:0:
6,320,188906,1,0,3:0:0:0:
275,307,189073,6,0,B|390:290|390:290|401:314|418:322,1,160,0|0,3:0|0:0,0:0:0:0:
481,136,189572,5,8,0:2:0:0:
313,121,189739,1,8,0:2:0:0:
145,106,189906,2,0,L|105:109,1,40,0|0,3:0|3:0,0:0:0:0:
230,40,190072,6,0,L|225:120,1,80,8|0,0:2|0:0,0:0:0:0:
188,192,190406,1,0,3:0:0:0:
188,192,190572,1,0,3:0:0:0:
188,192,190739,1,0,3:0:0:0:
188,192,190906,1,0,3:0:0:0:
389,292,191072,6,0,B|447:243|394:191|394:191|366:221,1,160,4|0,3:2|0:0,0:0:0:0:
113,197,191572,2,0,B|169:181|169:181|187:191,1,80,0|0,3:0|0:0,0:0:0:0:
235,256,191906,1,0,3:0:0:0:
360,62,192072,6,0,B|337:56|308:68|308:68|287:60|273:37|273:37|246:47|214:45,2,160,8|0|0,0:0|3:0|3:0,0:0:0:0:
472,268,193072,6,0,B|398:287|398:287|351:266|365:220,1,160,0|0,3:0|0:0,0:0:0:0:
139,319,193572,2,0,P|178:324|217:332,1,80,0|0,3:0|0:0,0:0:0:0:
297,345,193906,1,0,3:0:0:0:
298,335,193989,1,0,3:2:0:0:
298,325,194072,5,8,0:2:0:0:
275,247,194239,1,0,3:0:0:0:
360,62,194406,1,8,0:2:0:0:
383,140,194572,1,0,3:0:0:0:
171,241,194739,1,8,0:2:0:0:
204,83,194906,1,8,0:2:0:0:
375,225,195072,6,0,P|451:236|504:181,1,160,4|0,3:2|0:0,0:0:0:0:
366,352,195572,2,0,P|336:325|297:324,1,80,0|0,3:0|0:0,0:0:0:0:
228,366,195906,1,0,3:0:0:0:
169,168,196072,6,0,P|160:247|151:327,2,160,8|0|0,0:0|0:0|3:0,0:0:0:0:
0,57,197072,6,0,B|44:54|80:36|80:36|106:68|139:83,1,160,0|0,3:2|0:0,0:0:0:0:
344,44,197572,2,0,B|320:14|320:14|258:61|306:118,1,160,0|0,3:0|3:0,0:0:0:0:
114,214,198072,6,0,P|131:179|168:167,1,80,8|0,0:0|0:0,0:0:0:0:
288,341,198406,2,0,P|251:325|211:319,1,80,4|0,3:2|0:0,0:0:0:0:
383,220,198739,2,0,B|412:240|412:240|429:286|403:320,1,120,4|0,3:2|0:0,0:0:0:0:
374,207,199072,6,0,P|387:128|399:49,1,160,4|0,3:2|0:0,0:0:0:0:
179,50,199572,2,0,B|167:107|209:144|209:144|223:116|247:105,1,160,0|0,3:0|3:0,0:0:0:0:
259,102,199989,1,0,3:0:0:0:
271,99,200072,6,0,P|309:107|347:120,1,80,8|0,0:2|0:0,0:0:0:0:
154,247,200406,2,0,P|115:238|77:225,1,80,0|0,3:0|0:0,0:0:0:0:
267,311,200739,2,0,P|303:267|282:214,1,120,0|0,3:0|0:0,0:0:0:0:
254,319,201072,6,0,B|371:309|371:309|387:322|408:330,1,160,4|0,3:2|0:0,0:0:0:0:
476,132,201572,2,0,B|430:110|430:110|363:144|392:197,1,160,0|0,3:0|3:0,0:0:0:0:
401,206,201989,1,0,3:0:0:0:
410,215,202072,6,0,P|449:222|488:231,1,80,8|0,0:2|0:0,0:0:0:0:
291,128,202406,2,0,P|283:88|274:49,1,80,8|0,0:2|3:0,0:0:0:0:
81,217,202739,2,0,P|108:167|165:168,1,120,0|0,3:0|0:0,0:0:0:0:
78,228,203072,6,0,B|120:221|158:242|140:266|177:286|220:280,1,160,4|0,3:2|0:0,0:0:0:0:
439,201,203572,1,8,0:2:0:0:
497,267,203739,2,0,B|513:302|513:302|486:332,1,80,0|0,3:0|0:0,0:0:0:0:
381,135,204072,6,0,P|385:95|393:56,1,80,0|0,3:0|0:0,0:0:0:0:
312,251,204406,5,8,0:2:0:0:
467,117,204572,1,0,3:0:0:0:
274,49,204739,5,8,0:2:0:0:
439,201,204906,1,0,3:0:0:0:
419,286,205072,6,0,P|341:285|294:224,1,160,0|0,3:0|3:0,0:0:0:0:
351,157,205572,1,8,0:2:0:0:
163,57,205739,2,0,P|123:62|83:68,1,80,8|0,0:0|3:0,0:0:0:0:
259,43,206072,5,8,0:2:0:0:
259,43,206239,1,0,3:0:0:0:
210,202,206406,5,0,3:0:0:0:
358,74,206572,1,0,3:0:0:0:
163,57,206739,5,0,3:0:0:0:
351,157,206906,1,0,3:0:0:0:
163,267,207072,6,0,L|157:227,3,40,0|0|0|0,3:0|3:0|3:0|3:0,0:0:0:0:
264,302,207406,2,0,L|269:262,3,40,8|8|0|0,0:2|0:2|3:2|3:0,0:0:0:0:
151,347,207739,2,0,P|111:344|84:316,1,80,8|0,0:2|3:0,0:0:0:0:
244,92,208072,6,0,L|283:98,3,40,0|0|0|0,1:2|3:0|3:0|3:0,0:0:0:0:
156,117,208406,2,0,L|149:77,3,40,0|0|0|0,1:2|3:0|3:0|3:0,0:0:0:0:
224,181,208739,5,0,1:2:0:0:
193,339,208906,1,0,1:2:0:0:
72,197,209072,6,0,P|90:189|109:184,1,40,0|0,1:2|3:0,0:0:0:0:
201,277,209239,2,0,P|183:269|164:264,1,40,0|0,1:2|3:0,0:0:0:0:
73,319,209406,2,0,P|82:300|87:281,1,40,0|0,1:2|3:0,0:0:0:0:
184,145,209572,2,0,P|189:164|197:182,1,40,0|0,1:2|3:0,0:0:0:0:
201,277,209739,5,0,1:2:0:0:
426,255,209906,1,0,1:2:0:0:
301,342,210072,6,0,P|303:302|306:262,1,80,0|0,1:2|3:0,0:0:0:0:
459,144,210406,6,0,L|498:137,3,40,0|0|0|0,3:0|3:0|3:0|3:0,0:0:0:0:
511,233,210739,2,0,P|471:226|431:220,1,80,0|0,1:2|3:0,0:0:0:0:
236,77,211072,6,0,L|242:37,3,40,0|0|0|0,1:2|1:2|3:0|3:0,0:0:0:0:
145,89,211406,2,0,L|151:128,3,40,0|0|0|0,3:0|3:0|3:0|3:0,0:0:0:0:
231,180,211739,5,0,1:2:0:0:
21,142,211906,1,0,1:2:0:0:
128,276,212072,6,0,P|129:256|129:236,3,40,0|0|0|0,1:2|1:2|3:0|3:0,0:0:0:0:
204,317,212406,2,0,P|202:336|202:356,3,40,0|0|0|0,3:0|3:0|3:0|3:0,0:0:0:0:
268,253,212739,5,0,1:2:0:0:
470,298,212906,1,0,1:2:0:0:
387,99,213072,6,0,P|367:97|347:97,3,40,0|0|0|0,1:2|1:2|3:0|3:0,0:0:0:0:
345,179,213406,2,0,P|364:180|384:180,3,40,0|0|0|0,3:0|3:0|3:0|3:0,0:0:0:0:
464,142,213739,5,0,1:2:0:0:
197,40,213906,1,0,1:2:0:0:
126,92,214072,6,0,L|130:131,3,40,0|0|0|0,1:2|1:2|3:0|3:0,0:0:0:0:
216,175,214406,2,0,L|211:214,3,40,0|0|0|0,3:0|3:0|3:0|3:0,0:0:0:0:
118,256,214739,5,0,1:2:0:0:
318,62,214906,1,0,1:2:0:0:
386,332,215072,5,4,3:2:0:0:
256,192,215156,12,0,222906,0:0:0:0:
