osu file format v14

[General]
AudioFilename: audio.mp3
AudioLeadIn: 0
PreviewTime: 80308
Countdown: 0
SampleSet: Soft
StackLeniency: 0.7
Mode: 0
LetterboxInBreaks: 0
WidescreenStoryboard: 0

[Editor]
DistanceSpacing: 0.3
BeatDivisor: 8
GridSize: 16
TimelineZoom: 2.1

[Metadata]
Title:Orange
TitleUnicode:オレンジ
Artist:Hanatan
ArtistUnicode:花たん
Creator:sainoo
Version:Tragic Love
Source:
Tags:japanese pop jpop j-pop yurica utaite tohma トーマ azalea no shinzou アザレアの心臓 KoldNoodl Kowari
BeatmapID:3518682
BeatmapSetID:1721720

[Difficulty]
HPDrainRate:5
CircleSize:4
OverallDifficulty:8
ApproachRate:8
SliderMultiplier:1.59999990463257
SliderTickRate:1

[Events]
//Background and Video events
0,0,"wp4975062-aesthetic-desktop-wallpapers.jpg",0,0
//Break Periods
2,100840,107891
2,212641,213891
2,231507,241558
//Storyboard Layer 0 (Background)
//Storyboard Layer 1 (Fail)
//Storyboard Layer 2 (Pass)
//Storyboard Layer 3 (Foreground)
//Storyboard Layer 4 (Overlay)
//Storyboard Sound Samples

[TimingPoints]
1975,666.666666666667,4,2,0,60,1,0
11975,-83.3333333333333,4,2,0,55,0,0
12641,-80,4,2,0,50,0,0
16975,-117.647058823529,4,2,0,60,0,0
17975,-71.4285714285714,4,2,0,60,0,0
26975,-125,4,2,0,60,0,0
27975,-71.4285714285714,4,2,0,60,0,0
28641,-62.5,4,2,0,60,0,0
39308,-60.6060606060606,4,2,0,60,0,0
49308,-117.647058823529,4,2,0,60,0,0
49975,-60.6060606060606,4,2,0,60,0,0
60641,-222.222222222222,4,2,0,60,0,0
65975,-100,4,2,0,60,0,0
68641,-60.6060606060606,4,2,0,60,0,0
71308,-222.222222222222,4,2,0,60,0,0
76641,-66.6666666666667,4,2,0,60,0,0
77308,-58.8235294117647,4,2,0,60,0,0
79308,-58.8235294117647,4,2,0,70,0,0
81975,-55.5555555555556,4,2,0,75,0,0
90975,-71.4285714285714,4,2,0,60,0,0
91641,-55.5555555555556,4,2,0,60,0,0
99641,-200,4,2,0,60,0,0
108641,-86.9565217391304,4,2,0,55,0,0
111308,-166.666666666667,4,2,0,40,0,0
113975,-60.6060606060606,4,2,0,60,0,0
121308,-117.647058823529,4,2,0,60,0,0
122141,-60.6060606060606,4,2,0,60,0,0
132641,-58.8235294117647,4,2,0,65,0,0
148641,-66.6666666666667,4,2,0,65,0,0
149308,-58.8235294117647,4,2,0,65,0,0
153975,-55.5555555555556,4,2,0,75,0,0
162975,-71.4285714285714,4,2,0,85,0,0
163641,-55.5555555555556,4,2,0,75,0,0
172641,-52.6315789473684,4,2,0,80,0,0
191308,-55.5555555555556,4,2,0,72,0,0
201975,-50,4,2,0,75,0,0
207308,-55.5555555555556,4,2,0,75,0,0
208641,-71.4285714285714,4,2,0,70,0,0
209641,-333.333333333333,4,2,0,60,0,0
212641,-142.857142857143,4,2,0,40,0,0
214641,-333.333333333333,4,2,0,85,0,0
215308,-55.5555555555556,4,2,0,75,0,0
221641,-71.4285714285714,4,2,0,85,0,0
222308,-55.5555555555556,4,2,0,75,0,0
230308,-200,4,2,0,75,0,0
242308,-166.666666666667,4,2,0,30,0,0

[Colours]
Combo1 : 250,160,122
Combo2 : 251,208,121

[HitObjects]
429,88,11975,6,0,L|438:41,1,47.9999956741335,0|0,1:0|1:0,0:0:0:0:
475,162,12308,1,2,1:3:0:0:
475,162,12641,6,0,P|427:165|368:205,1,99.9999940395356,4|0,1:2|1:0,0:0:0:0:
319,295,13308,2,0,P|313:245|307:195,1,99.9999940395356,8|2,1:0|0:3,0:0:0:0:
296,119,13808,1,4,0:3:0:0:
228,169,13975,2,0,P|203:172|178:174,1,49.9999970197678,0|0,1:0|0:0,0:0:0:0:
212,39,14308,2,0,P|214:64|219:89,1,49.9999970197678,0|0,1:0|0:0,0:0:0:0:
135,100,14641,2,0,P|86:91|42:68,1,99.9999940395356,8|2,1:0|0:3,0:0:0:0:
48,183,15141,1,2,0:3:0:0:
166,278,15308,6,0,P|140:235|126:187,2,99.9999940395356,0|0|8,1:0|1:0|1:0,0:0:0:0:
228,325,16142,1,8,0:3:0:0:
259,174,16308,2,0,P|237:183|218:200,1,49.9999970197678,4|4,0:3|0:3,0:0:0:0:
155,357,16641,1,8,1:0:0:0:
360,258,16975,6,2,P|421:250|495:228,1,135.999994487762,4|8,1:0|1:0,0:1:0:0:
333,326,17808,1,8,1:0:0:0:
214,210,17975,6,0,P|170:155|182:96,1,111.999989906311,6|0,1:0|1:0,0:0:0:0:
347,39,18475,1,8,0:3:0:0:
347,39,18641,2,0,P|291:51|238:66,1,111.999989906311,10|0,1:0|0:0,0:0:0:0:
89,132,19141,1,4,0:3:0:0:
89,132,19308,2,0,P|83:104|75:77,1,55.9999949531557,2|0,1:0|0:0,0:0:0:0:
22,224,19641,2,0,P|49:230|75:239,1,55.9999949531557,2|8,1:0|0:3,0:0:0:0:
246,287,19975,2,0,P|177:301|125:336,1,111.999989906311,10|8,1:0|0:3,0:0:0:0:
98,381,20475,1,4,0:3:0:0:
321,314,20641,6,0,P|358:262|361:192,1,111.999989906311,2|0,1:0|1:0,0:0:0:0:
311,161,21141,1,8,0:3:0:0:
393,22,21308,2,0,P|383:70|384:142,1,111.999989906311,10|0,1:0|0:0,0:0:0:0:
474,253,21808,1,4,0:3:0:0:
474,252,21975,2,0,P|484:225|488:198,1,55.9999949531557,2|0,1:0|0:0,0:0:0:0:
306,88,22308,2,0,P|279:77|252:73,1,55.9999949531557,2|8,1:0|0:3,0:0:0:0:
138,215,22641,2,0,P|176:192|198:121,1,111.999989906311,10|8,1:0|0:3,0:0:0:0:
179,59,23141,1,4,0:3:0:0:
47,180,23308,6,0,P|58:235|66:290,1,111.999989906311,2|0,1:0|1:0,0:0:0:0:
192,341,23808,1,8,0:3:0:0:
192,341,23975,2,0,P|230:300|283:287,1,111.999989906311,10|8,1:0|0:3,0:0:0:0:
404,313,24475,1,4,0:3:0:0:
404,313,24641,2,0,P|373:320|349:326,1,55.9999949531557,2|0,1:0|0:0,0:0:0:0:
196,263,24975,2,0,P|165:256|141:249,1,55.9999949531557,2|8,1:0|0:3,0:0:0:0:
319,215,25308,2,0,P|350:169|365:116,1,111.999989906311,10|8,1:0|0:3,0:0:0:0:
321,49,25808,1,4,0:3:0:0:
432,191,25975,6,0,P|455:179|482:167,1,55.9999949531557,2|0,1:0|2:0,2:0:0:0:
152,112,26308,2,0,P|210:120|266:133,1,111.999989906311,2|8,1:0|1:0,0:0:0:0:
270,126,26975,2,2,P|230:136|189:214,1,127.999992370606,2|0,1:0|1:0,0:1:0:0:
188,207,27975,1,10,1:0:0:0:
296,337,28141,1,8,0:3:0:0:
178,306,28308,2,0,P|204:296|232:291,1,55.9999949531557,4|0,0:3|0:0,0:0:0:0:
442,327,28641,6,0,P|437:260|437:199,1,127.999992370606,6|0,1:0|1:0,0:0:0:0:
303,236,29141,1,8,0:3:0:0:
394,132,29308,1,10,1:0:0:0:
265,23,29808,1,4,0:3:0:0:
313,147,29975,2,0,P|318:116|325:84,1,63.9999961853028,2|0,1:0|0:0,0:0:0:0:
116,181,30308,2,0,P|146:190|176:202,1,63.9999961853028,2|8,1:0|0:3,0:0:0:0:
224,384,30641,2,0,P|269:340|287:279,1,127.999992370606,10|8,1:0|0:3,0:0:0:0:
255,206,31141,1,4,0:3:0:0:
360,332,31308,6,0,P|419:319|486:312,1,127.999992370606,2|0,1:0|1:0,0:0:0:0:
495,147,31808,1,8,0:3:0:0:
391,244,31975,1,10,1:0:0:0:
418,108,32475,1,4,0:3:0:0:
469,226,32641,2,0,P|479:195|479:162,1,63.9999961853028,2|0,1:0|0:0,0:0:0:0:
282,7,32975,2,0,P|282:38|292:69,1,63.9999961853028,2|8,1:0|0:3,0:0:0:0:
199,252,33308,2,0,P|239:224|320:203,1,127.999992370606,10|8,1:0|0:3,0:0:0:0:
340,128,33808,1,4,0:3:0:0:
122,175,33975,6,0,P|117:243|108:306,1,127.999992370606,2|0,1:0|1:0,0:0:0:0:
215,215,34475,1,8,0:3:0:0:
146,94,34641,2,0,P|114:92|82:88,1,63.9999961853028,10|0,1:0|0:0,0:0:0:0:
28,143,34975,1,8,0:3:0:0:
28,143,35142,1,4,0:3:0:0:
231,124,35308,2,0,P|282:121|364:169,1,127.999992370606,2|0,1:0|1:0,0:0:0:0:
314,228,35808,1,8,0:3:0:0:
423,116,35975,2,0,P|428:147|444:175,1,63.9999961853028,10|0,1:0|0:0,0:0:0:0:
344,305,36308,2,0,P|312:310|284:326,1,63.9999961853028,4|0,0:3|0:0,0:0:0:0:
511,376,36641,6,0,P|476:289|394:242,1,191.999988555908,6|8,1:0|0:3,0:0:0:0:
504,124,37308,1,2,1:0:0:0:
504,124,37808,1,4,0:3:0:0:
410,44,37975,2,0,P|441:45|481:47,1,63.9999961853028,2|0,1:0|0:0,0:0:0:0:
277,172,38308,2,0,P|277:109|267:35,1,127.999992370606,2|10,1:0|1:0,0:0:0:0:
371,128,38808,1,8,0:3:0:0:
221,229,38975,1,4,0:3:0:0:
221,229,39308,6,0,P|186:242|159:262,1,65.9999966955185,6|0,1:0|0:0,0:0:0:0:
21,317,39641,2,0,P|40:344|51:376,1,65.9999966955185,2|8,1:0|0:3,0:0:0:0:
85,126,39975,2,0,P|81:194|83:257,1,131.999993391037,10|0,1:0|0:0,0:0:0:0:
5,204,40475,5,8,0:3:0:0:
176,151,40642,1,2,1:0:0:0:
51,47,40808,1,8,0:3:0:0:
85,126,40975,1,0,1:0:0:0:
85,126,41141,2,0,P|117:122|150:117,1,65.9999966955185,4|8,0:3|1:0,0:0:0:0:
265,7,41475,1,8,0:3:0:0:
222,81,41641,1,4,0:3:0:0:
297,42,41808,5,4,0:3:0:0:
297,42,41975,2,0,P|327:61|368:75,1,65.9999966955185,2|0,1:0|0:0,0:0:0:0:
446,155,42308,2,0,P|476:135|517:121,1,65.9999966955185,2|0,1:0|0:0,0:0:0:0:
391,285,42641,2,0,P|365:227|357:158,1,131.999993391037,10|8,1:0|0:3,0:0:0:0:
445,52,43141,5,8,0:3:0:0:
443,162,43308,1,2,1:0:0:0:
352,64,43475,1,8,0:3:0:0:
352,64,43641,1,0,1:0:0:0:
352,64,43808,2,0,P|348:36|342:-2,1,65.9999966955185,4|8,0:3|1:0,0:0:0:0:
219,114,44141,1,8,0:3:0:0:
269,48,44308,1,4,0:3:0:0:
252,126,44475,1,4,0:3:0:0:
141,50,44641,6,0,P|108:45|76:38,1,65.9999966955185,2|0,1:0|0:0,0:0:0:0:
108,225,44975,2,0,P|115:260|120:289,1,65.9999966955185,2|0,1:0|0:0,0:0:0:0:
9,162,45308,2,0,P|73:147|138:135,1,131.999993391037,10|0,1:0|0:0,0:0:0:0:
358,155,45808,1,8,0:3:0:0:
208,207,45975,1,2,1:0:0:0:
249,77,46142,1,8,0:3:0:0:
284,166,46308,1,0,1:0:0:0:
284,166,46475,2,0,P|288:198|293:231,1,65.9999966955185,4|8,0:3|1:0,0:0:0:0:
286,360,46808,1,8,0:3:0:0:
230,295,46975,1,4,0:3:0:0:
305,338,47141,1,4,0:3:0:0:
372,253,47308,6,0,P|436:238|517:208,1,131.999993391037,2|2,1:0|1:0,0:0:0:0:
241,96,47975,2,0,P|177:81|96:46,1,131.999993391037,10|8,1:0|0:3,0:0:0:0:
27,142,48475,1,4,0:3:0:0:
158,291,48641,2,0,P|148:219|139:160,1,131.999993391037,2|0,1:0|1:0,0:0:0:0:
384,100,49141,5,8,0:3:0:0:
355,170,49308,2,0,P|334:190|231:202,1,135.999994487762,10|4,1:0|1:2,0:0:0:0:
306,285,50142,1,8,0:3:0:0:
370,329,50308,2,0,P|402:334|435:341,1,65.9999966955185,2|8,1:0|0:3,0:0:0:0:
512,277,50641,2,0,P|449:262|383:248,1,131.999993391037,10|0,1:0|0:0,0:0:0:0:
417,98,51141,5,8,0:3:0:0:
471,187,51308,1,2,1:0:0:0:
384,172,51475,1,8,0:3:0:0:
492,49,51641,2,0,P|495:82|510:112,1,65.9999966955185,2|4,1:0|0:3,0:0:0:0:
289,145,51975,2,0,P|251:165|198:261,1,131.999993391037,10|8,1:0|0:3,0:0:0:0:
237,341,52475,1,4,0:3:0:0:
116,384,52641,6,0,P|128:354|129:319,1,65.9999966955185,2|0,1:0|0:0,0:0:0:0:
30,152,52975,2,0,P|17:122|16:87,1,65.9999966955185,2|0,1:0|0:0,0:0:0:0:
111,221,53308,1,10,1:0:0:0:
111,221,53475,2,0,P|125:163|156:69,1,131.999993391037,8|4,0:3|0:3,0:0:0:0:
340,12,53975,5,2,1:0:0:0:
209,44,54141,1,8,0:3:0:0:
287,158,54308,1,2,1:0:0:0:
350,90,54475,2,0,P|317:84|286:77,1,65.9999966955185,4|8,0:3|1:0,0:0:0:0:
398,206,54808,1,8,0:3:0:0:
430,114,54975,1,4,0:3:0:0:
374,175,55141,1,4,0:3:0:0:
432,277,55308,6,0,P|465:283|496:290,1,65.9999966955185,2|0,1:0|0:0,0:0:0:0:
281,238,55641,2,0,P|274:205|267:173,1,65.9999966955185,0|0,1:0|0:0,0:0:0:0:
235,384,55975,2,0,P|287:346|351:334,1,131.999993391037,10|0,1:0|0:0,0:0:0:0:
471,208,56475,5,8,0:3:0:0:
323,260,56642,1,2,1:0:0:0:
455,361,56808,1,8,0:3:0:0:
417,283,56975,1,2,1:0:0:0:
417,283,57141,2,0,P|419:263|426:195,1,65.9999966955185,4|8,0:3|1:0,0:0:0:0:
334,82,57475,1,8,0:3:0:0:
378,153,57641,1,4,0:3:0:0:
368,57,57808,1,4,0:3:0:0:
249,146,57975,6,0,P|218:155|189:171,1,65.9999966955185,2|0,1:0|0:0,0:0:0:0:
152,261,58308,1,2,1:0:0:0:
47,362,58475,1,8,0:3:0:0:
47,362,58559,1,8,0:3:0:0:
47,362,58641,2,0,P|67:308|80:214,1,131.999993391037,10|0,1:0|0:0,0:0:0:0:
157,38,59141,1,8,0:3:0:0:
101,89,59308,6,0,P|102:122|110:154,1,65.9999966955185,2|0,1:0|0:0,0:0:0:0:
252,248,59641,2,0,P|284:252|319:272,1,65.9999966955185,2|0,1:0|0:0,0:0:0:0:
239,383,59975,5,10,1:0:0:0:
175,224,60141,1,8,0:3:0:0:
318,137,60308,1,8,0:3:0:0:
272,65,60474,1,4,0:3:0:0:
478,367,60641,6,0,L|512:378,1,35.9999967556001,10|8,1:0|1:0,0:0:0:0:
478,16,61975,6,0,L|512:5,1,35.9999967556001,10|8,1:0|1:0,0:0:0:0:
34,16,63308,6,0,L|0:5,1,35.9999967556001,10|8,1:0|1:0,0:0:0:0:
34,368,64641,6,0,L|0:379,1,35.9999967556001,6|8,1:0|1:0,0:0:0:0:
256,192,65308,5,10,1:0:0:0:
256,192,65475,1,8,0:3:0:0:
256,192,65641,1,4,0:3:0:0:
187,361,65975,6,0,P|164:330|156:291,1,79.9999952316285,10|8,1:0|1:0,0:0:0:0:
394,26,67308,6,0,P|386:64|362:96,1,79.9999952316285,10|8,1:0|1:0,0:0:0:0:
288,120,67808,1,0,1:0:0:0:
288,120,67891,1,0,1:0:0:0:
288,120,67975,1,8,1:0:0:0:
345,227,68141,1,8,0:3:0:0:
438,149,68308,1,4,0:3:0:0:
375,337,68475,1,8,1:0:0:0:
121,237,68641,6,0,P|194:233|244:205,1,131.999993391037,6|8,1:0|0:3,0:0:0:0:
99,102,69141,1,4,0:3:0:0:
48,168,69308,2,0,P|40:231|29:298,1,131.999993391037,10|8,1:0|0:3,0:0:0:0:
168,152,69808,1,4,0:3:0:0:
0,87,69975,2,0,P|63:79|130:68,1,131.999993391037,2|8,1:0|0:3,0:0:0:0:
370,14,70475,5,4,0:3:0:0:
370,14,70558,1,4,0:3:0:0:
370,14,70641,1,10,1:0:0:0:
213,71,70808,1,8,1:0:0:0:
331,187,70975,1,8,0:3:0:0:
18,349,71308,6,0,L|25:384,1,35.9999967556001,10|8,1:0|1:0,0:0:0:0:
256,192,72641,6,0,L|263:157,1,35.9999967556001,10|8,1:0|1:0,0:0:0:0:
491,0,73975,6,0,L|498:35,1,35.9999967556001,10|8,1:0|1:0,0:0:0:0:
256,192,75308,5,4,1:0:0:0:
256,192,75641,1,10,1:0:0:0:
271,110,75975,5,10,1:0:0:0:
341,210,76141,1,8,0:3:0:0:
242,279,76308,1,8,0:3:0:0:
173,176,76475,1,4,0:3:0:0:
256,192,76641,6,2,P|239:119|220:13,1,179.999996137619,4|0,1:0|0:0,0:1:0:0:
221,262,77308,1,8,1:0:0:0:
314,372,77808,1,8,0:3:0:0:
218,273,77975,2,0,P|255:285|277:304,1,67.9999972438812,2|0,1:0|0:0,0:0:0:0:
428,126,78308,2,0,P|454:97|464:69,1,67.9999972438812,2|0,1:0|0:0,0:0:0:0:
404,277,78641,1,10,1:0:0:0:
512,366,79141,5,8,0:3:0:0:
417,272,79308,2,0,P|421:288|432:345,1,67.9999972438812,8|0,1:0|0:0,0:0:0:0:
259,149,79641,2,0,P|263:133|274:76,1,67.9999972438812,8|0,1:0|0:0,0:0:0:0:
83,327,79975,2,0,P|146:298|221:281,1,135.999994487762,8|4,1:0|1:2,0:0:0:0:
493,298,81808,5,2,0:3:0:0:
493,298,81891,1,2,0:3:0:0:
493,298,81975,2,0,P|421:302|361:340,1,143.9999870224,6|0,1:0|1:0,0:0:0:0:
336,156,82475,1,4,0:3:0:0:
257,135,82641,2,0,P|260:171|274:205,1,71.9999935112002,8|0,1:0|0:0,0:0:0:0:
165,322,82975,1,8,0:3:0:0:
302,286,83141,2,0,P|263:281|231:278,1,71.9999935112002,2|0,1:0|1:0,0:0:0:0:
0,158,83475,6,0,P|73:194|147:188,1,143.9999870224,10|8,1:0|0:3,0:0:0:0:
140,183,83891,1,8,0:3:0:0:
149,175,83975,2,0,L|163:253,1,71.9999935112002,10|4,1:0|0:3,0:0:0:0:
85,107,84308,1,2,1:0:0:0:
239,36,84475,1,0,1:0:0:0:
136,51,84641,6,0,P|170:57|207:61,1,71.9999935112002,4|0,1:2|0:0,0:0:0:0:
374,141,84975,2,0,P|368:106|363:70,1,71.9999935112002,2|0,1:0|0:0,0:0:0:0:
254,210,85308,1,8,1:0:0:0:
254,210,85641,2,0,P|289:213|388:277,1,143.9999870224,2|8,1:0|0:3,0:0:0:0:
443,194,86141,5,10,1:0:0:0:
288,295,86308,1,8,0:3:0:0:
446,375,86475,1,8,0:3:0:0:
470,281,86641,5,10,1:0:0:0:
355,356,86808,1,4,0:3:0:0:
208,277,86975,1,2,1:0:0:0:
132,341,87141,5,4,0:3:0:0:
132,341,87225,1,4,0:3:0:0:
132,341,87308,2,0,B|131:252|100:289|108:178,1,143.9999870224,6|0,1:0|1:0,0:0:0:0:
286,163,87808,1,4,0:3:0:0:
250,98,87975,2,0,P|214:100|181:115,1,71.9999935112002,10|0,1:0|0:0,0:0:0:0:
35,165,88308,1,8,0:3:0:0:
93,47,88475,2,0,P|98:84|102:118,1,71.9999935112002,2|0,1:0|1:0,0:0:0:0:
271,302,88808,6,0,P|329:256|401:250,1,143.9999870224,10|8,1:0|0:3,0:0:0:0:
407,260,89225,1,8,0:3:0:0:
414,270,89308,1,10,1:0:0:0:
374,143,89475,1,8,0:3:0:0:
509,205,89641,1,4,0:3:0:0:
482,90,89808,1,0,1:0:0:0:
318,212,89975,6,0,P|282:220|247:219,1,71.9999935112002,6|0,1:0|0:0,0:0:0:0:
20,103,90308,2,0,P|54:112|144:44,1,143.9999870224,4|8,1:2|1:0,0:0:0:0:
131,49,90975,2,2,P|134:132|141:216,1,167.999984859467,4|0,1:0|0:0,0:1:0:0:
94,353,91641,2,2,P|58:354|23:357,1,71.9999935112002,4|0,0:3|0:3,0:1:0:0:
222,200,91975,1,10,1:0:0:0:
319,237,92141,1,8,0:3:0:0:
260,334,92308,1,8,0:3:0:0:
165,296,92475,1,4,0:3:0:0:
348,262,92641,6,0,P|403:231|487:227,1,143.9999870224,6|0,1:0|1:0,0:0:0:0:
365,86,93141,1,8,0:3:0:0:
449,59,93308,2,0,P|443:94|438:130,1,71.9999935112002,10|0,1:0|0:0,0:0:0:0:
178,115,93641,2,0,P|213:120|244:138,1,71.9999935112002,4|4,0:3|0:3,0:0:0:0:
249,149,93891,1,4,0:3:0:0:
250,161,93975,2,0,P|239:196|239:232,1,71.9999935112002,2|0,1:0|0:0,0:0:0:0:
399,369,94308,2,0,P|398:333|387:298,1,71.9999935112002,2|0,1:0|0:0,0:0:0:0:
175,362,94641,2,0,P|220:326|308:311,1,143.9999870224,10|8,1:0|0:3,0:0:0:0:
33,274,95141,1,4,0:3:0:0:
89,197,95308,6,0,P|87:161|83:125,1,71.9999935112002,4|0,1:2|0:0,0:0:0:0:
5,188,95641,1,8,0:3:0:0:
123,285,95808,1,0,1:0:0:0:
175,145,95975,1,10,1:0:0:0:
279,89,96141,1,0,1:0:0:0:
273,186,96308,1,8,0:3:0:0:
194,56,96475,1,4,0:3:0:0:
356,45,96641,6,0,P|390:39|426:31,1,71.9999935112002,2|8,1:0|1:0,0:0:0:0:
400,240,96975,1,8,0:3:0:0:
436,115,97141,2,0,P|443:150|450:185,1,71.9999935112002,2|8,1:0|1:0,0:0:0:0:
369,337,97475,1,2,1:0:0:0:
227,232,97641,1,8,0:3:0:0:
370,162,97808,1,4,0:3:0:0:
282,372,97975,6,0,P|297:301|310:230,2,143.9999870224,4|8|8,1:0|0:3|1:0,0:0:0:0:
369,337,98808,1,0,1:0:0:0:
216,272,98975,1,8,0:3:0:0:
309,230,99141,1,4,0:3:0:0:
205,149,99308,1,10,1:0:0:0:
205,149,99641,2,0,P|214:121|231:29,1,119.999992847443,4|0,1:0|0:0,0:0:0:0:
358,103,108641,6,0,P|371:59|389:17,1,91.9999962711334,8|0,1:0|1:0,0:0:0:0:
389,17,109058,1,0,1:0:0:0:
389,17,109141,1,0,1:0:0:0:
389,17,109225,1,0,1:0:0:0:
389,17,109308,1,8,1:0:0:0:
280,69,109475,6,0,P|254:64|227:60,1,45.9999981355667,8|0,1:0|0:0,0:0:0:0:
282,152,109808,1,8,0:3:0:0:
390,264,109975,2,0,P|365:225|354:180,1,91.9999962711334,8|8,1:0|0:3,0:0:0:0:
445,194,110475,5,4,0:3:0:0:
445,194,110558,1,4,0:3:0:0:
445,194,110641,1,10,1:0:0:0:
416,351,110808,1,8,1:0:0:0:
295,258,110975,1,8,0:3:0:0:
295,258,111308,6,0,P|248:269|202:282,3,95.9999913482669,4|2|2|8,1:2|0:3|0:3|1:0,0:0:0:0:
21,281,113475,1,8,0:3:0:0:
119,299,113641,1,4,0:3:0:0:
25,369,113808,1,8,1:0:0:0:
136,199,113975,6,0,P|141:165|138:133,1,65.9999966955185,6|0,1:0|0:0,0:0:0:0:
9,3,114308,2,0,P|6:35|11:68,1,65.9999966955185,2|0,1:0|0:0,0:0:0:0:
219,49,114641,2,0,B|146:37|165:64|85:60,1,131.999993391037,10|0,1:0|0:0,0:0:0:0:
294,96,115141,5,0,1:0:0:0:
222,243,115308,1,2,1:0:0:0:
138,133,115475,1,8,0:3:0:0:
225,154,115641,1,2,1:0:0:0:
225,154,115808,2,0,P|258:150|290:146,1,65.9999966955185,4|8,0:3|1:0,0:0:0:0:
435,211,116141,1,8,0:3:0:0:
365,165,116308,1,4,0:3:0:0:
405,241,116475,5,4,0:3:0:0:
405,241,116641,2,0,P|409:274|413:306,1,65.9999966955185,2|0,1:0|0:0,0:0:0:0:
424,96,116975,2,0,P|428:63|432:31,1,65.9999966955185,2|8,1:0|0:3,0:0:0:0:
290,145,117308,2,0,P|229:128|136:110,1,131.999993391037,10|0,1:0|0:0,0:0:0:0:
65,27,117808,5,8,0:3:0:0:
77,152,117975,1,2,1:0:0:0:
147,31,118141,1,4,0:3:0:0:
18,95,118308,1,0,1:0:0:0:
18,95,118475,2,0,P|22:130|24:160,1,65.9999966955185,4|8,0:3|1:0,0:0:0:0:
68,291,118808,1,8,0:3:0:0:
117,219,118975,1,8,0:3:0:0:
44,249,119141,1,4,0:3:0:0:
187,312,119308,6,0,P|265:303|331:298,1,131.999993391037,2|2,1:0|1:0,0:0:0:0:
462,142,119975,2,0,P|429:86|415:22,1,131.999993391037,10|8,1:0|0:3,0:0:0:0:
319,102,120475,1,4,0:3:0:0:
237,258,120641,2,0,P|294:223|358:211,1,131.999993391037,2|2,1:0|1:0,0:0:0:0:
424,255,121141,1,8,0:3:0:0:
206,166,121308,6,0,P|203:101|192:24,1,135.999994487762,10|4,1:0|1:2,0:0:0:0:
46,106,122141,1,8,0:3:0:0:
109,200,122308,2,0,P|113:167|116:134,1,65.9999966955185,2|8,1:0|0:3,0:0:0:0:
64,354,122641,6,0,P|130:357|196:365,1,131.999993391037,10|0,1:0|0:0,0:0:0:0:
241,244,123141,1,0,1:0:0:0:
142,277,123308,1,2,1:0:0:0:
225,284,123475,1,8,0:3:0:0:
225,284,123641,2,0,P|257:287|290:289,1,65.9999966955185,2|4,1:0|0:3,0:0:0:0:
479,144,123975,2,0,P|418:198|363:204,1,131.999993391037,8|8,1:0|0:3,0:0:0:0:
372,194,124641,6,0,P|385:225|385:261,1,65.9999966955185,2|0,1:0|0:0,0:0:0:0:
247,108,124975,2,0,P|247:75|260:44,1,65.9999966955185,2|8,1:0|0:3,0:0:0:0:
256,209,125308,1,10,1:0:0:0:
256,209,125475,2,0,P|223:205|105:202,1,131.999993391037,8|4,0:3|0:3,0:0:0:0:
23,74,125975,5,2,1:0:0:0:
119,100,126141,1,8,0:3:0:0:
22,175,126308,1,2,1:0:0:0:
51,263,126475,2,0,P|49:226|47:197,1,65.9999966955185,4|8,0:3|1:0,0:0:0:0:
82,331,126808,1,8,0:3:0:0:
164,278,126975,1,8,0:3:0:0:
112,350,127141,1,4,0:3:0:0:
262,315,127308,6,0,P|312:303|332:300,1,65.9999966955185,2|0,1:0|0:0,0:0:0:0:
404,167,127641,2,0,P|395:135|390:103,1,65.9999966955185,2|0,1:0|0:0,0:0:0:0:
441,320,127975,2,0,P|415:260|357:232,1,131.999993391037,10|4,1:0|0:3,0:0:0:0:
145,173,128475,5,8,0:3:0:0:
258,269,128641,1,2,1:0:0:0:
258,108,128808,1,8,0:3:0:0:
226,191,128975,1,2,1:0:0:0:
226,191,129141,1,4,0:3:0:0:
226,191,129308,2,0,P|223:122|216:60,1,131.999993391037,8|8,1:0|0:3,0:0:0:0:
221,49,129975,6,0,P|254:52|287:54,1,65.9999966955185,2|0,1:0|0:0,0:0:0:0:
72,108,130308,1,0,1:0:0:0:
72,108,130475,2,0,P|105:105|138:103,1,65.9999966955185,8|8,0:3|1:0,0:0:0:0:
182,253,130808,1,8,0:3:0:0:
104,186,130975,1,0,1:0:0:0:
96,292,131141,5,4,0:3:0:0:
96,292,131225,1,4,0:3:0:0:
96,292,131308,2,0,P|161:304|231:362,1,131.999993391037,0|8,1:0|1:0,0:0:0:0:
330,243,131808,1,8,0:3:0:0:
197,158,131975,1,8,0:3:0:0:
351,102,132141,1,0,0:3:0:0:
255,32,132308,1,4,0:3:0:0:
255,32,132641,6,0,P|256:74|301:174,1,135.999994487762,4|0,1:2|1:0,0:0:0:0:
399,162,133141,1,8,0:3:0:0:
323,307,133308,2,0,P|336:276|339:242,1,67.9999972438812,10|0,1:0|1:0,0:0:0:0:
256,252,133641,1,4,0:3:0:0:
269,370,133808,2,0,P|335:358|402:346,1,135.999994487762,10|8,1:0|0:3,0:0:0:0:
171,220,134308,2,0,P|177:253|183:286,1,67.9999972438812,2|0,1:0|0:0,0:0:0:0:
13,360,134641,2,0,P|68:323|96:257,1,135.999994487762,10|8,1:0|0:3,0:0:0:0:
56,188,135141,5,4,0:3:0:0:
56,188,135225,1,4,0:3:0:0:
56,188,135308,2,0,P|49:151|36:94,1,67.9999972438812,2|0,1:0|0:0,0:0:0:0:
157,45,135641,1,8,0:3:0:0:
157,45,135975,2,0,P|90:32|23:17,1,135.999994487762,10|4,1:0|0:3,0:0:0:0:
145,129,136475,1,8,1:0:0:0:
270,75,136641,2,0,P|279:26|290:-22,1,67.9999972438812,8|0,0:3|0:0,0:0:0:0:
229,168,136975,2,0,P|244:242|258:317,1,135.999994487762,0|10,1:0|1:0,0:0:0:0:
255,301,137641,1,4,0:3:0:0:
447,139,137975,6,0,P|479:149|512:157,1,67.9999972438812,2|0,1:0|0:0,0:0:0:0:
335,235,138308,2,0,P|367:224|400:216,1,67.9999972438812,0|0,1:0|0:0,0:0:0:0:
493,376,138641,1,8,1:0:0:0:
373,318,138808,1,8,0:3:0:0:
485,233,138975,1,4,0:3:0:0:
452,309,139141,5,8,1:0:0:0:
452,309,139308,2,0,P|412:303|385:296,1,67.9999972438812,2|0,1:0|0:0,0:0:0:0:
266,151,139641,2,0,P|240:182|221:202,1,67.9999972438812,2|0,1:0|0:0,0:0:0:0:
146,365,139975,2,0,P|196:320|262:307,1,135.999994487762,8|8,1:0|0:3,0:0:0:0:
271,317,140641,6,0,P|236:316|203:298,1,67.9999972438812,4|0,1:2|0:0,0:0:0:0:
98,207,140975,1,8,0:3:0:0:
98,207,141141,2,0,P|93:244|88:283,1,67.9999972438812,4|10,0:3|1:0,0:0:0:0:
24,149,141475,1,8,0:3:0:0:
130,99,141641,2,0,P|153:75|168:45,1,67.9999972438812,0|4,1:0|0:3,0:0:0:0:
208,194,141975,6,0,P|245:189|284:184,1,67.9999972438812,2|0,1:0|0:0,0:0:0:0:
443,156,142308,1,8,1:0:0:0:
285,77,142475,1,8,0:3:0:0:
375,230,142641,1,8,0:3:0:0:
414,77,142808,1,4,0:3:0:0:
360,148,142975,1,4,0:3:0:0:
360,148,143308,6,0,P|362:82|370:12,1,135.999994487762,6|0,1:0|1:0,0:0:0:0:
265,116,143808,1,0,0:0:0:0:
146,229,143975,2,0,P|179:225|213:224,1,67.9999972438812,10|0,1:0|1:0,0:0:0:0:
389,240,144308,1,8,0:3:0:0:
324,335,144475,2,0,P|306:292|291:197,1,135.999994487762,10|4,1:0|0:3,0:0:0:0:
439,121,144975,2,0,P|454:84|457:44,1,67.9999972438812,2|0,1:0|0:0,0:0:0:0:
219,21,145308,2,0,P|271:64|332:92,1,135.999994487762,10|8,1:0|0:3,0:0:0:0:
180,137,145808,5,4,0:3:0:0:
180,137,145891,1,4,0:3:0:0:
179,136,145975,2,0,P|112:147|56:185,1,135.999994487762,2|2,1:0|1:0,0:0:0:0:
26,254,146475,1,8,0:3:0:0:
98,366,146641,2,0,P|105:330|112:298,1,67.9999972438812,10|0,1:0|1:0,0:0:0:0:
270,290,146975,1,8,0:3:0:0:
149,223,147141,6,0,P|215:211|289:189,1,135.999994487762,10|0,1:0|0:0,0:0:0:0:
432,351,147641,2,0,P|399:327|372:317,1,67.9999972438812,2|0,1:0|0:0,0:0:0:0:
356,153,147975,2,0,P|369:122|374:88,1,67.9999972438812,10|0,1:0|0:0,0:0:0:0:
439,226,148308,1,2,1:0:0:0:
439,226,148641,6,2,P|365:243|260:278,1,179.999996137619,4|0,1:0|0:0,0:1:0:0:
497,157,149308,1,8,1:0:0:0:
442,27,149808,1,8,0:3:0:0:
491,144,149975,2,0,P|501:110|507:78,1,67.9999972438812,2|0,1:0|0:0,0:0:0:0:
279,138,150308,2,0,P|311:126|344:118,1,67.9999972438812,2|0,1:0|0:0,0:0:0:0:
105,48,150641,1,10,1:0:0:0:
46,153,151141,5,4,0:3:0:0:
95,34,151308,2,0,P|99:68|112:100,1,67.9999972438812,2|0,1:0|0:0,0:0:0:0:
253,251,151641,2,0,P|256:218|270:187,1,67.9999972438812,8|0,1:0|0:0,0:0:0:0:
6,241,151975,2,0,P|73:233|130:197,1,135.999994487762,8|0,1:0|1:0,0:0:0:0:
177,134,152475,1,2,0:3:0:0:
36,326,152641,5,8,0:3:0:0:
205,382,152808,1,8,0:3:0:0:
166,301,152975,1,4,0:3:0:0:
108,349,153141,1,4,0:3:0:0:
298,336,153308,5,2,1:0:0:0:
373,256,153475,5,0,1:0:0:0:
342,120,153641,5,10,1:0:0:0:
192,43,153808,5,8,1:0:0:0:
244,184,153975,6,0,P|266:118|274:43,1,143.9999870224,6|0,1:0|1:0,0:0:0:0:
210,0,154475,1,8,0:3:0:0:
80,130,154641,2,0,P|116:127|151:123,1,71.9999935112002,10|0,1:0|0:0,0:0:0:0:
263,189,154975,1,8,0:3:0:0:
172,275,155141,2,0,P|168:239|156:205,1,71.9999935112002,2|0,1:0|1:0,0:0:0:0:
387,122,155475,2,0,P|416:101|438:73,1,71.9999935112002,4|4,0:3|0:3,0:0:0:0:
443,0,155808,5,2,1:0:0:0:
385,217,155975,1,8,1:0:0:0:
385,217,156141,1,8,0:3:0:0:
333,284,156308,1,8,0:3:0:0:
472,239,156475,1,4,0:3:0:0:
353,135,156641,6,0,P|347:98|341:57,1,71.9999935112002,4|0,1:0|0:0,0:0:0:0:
415,311,156975,2,0,P|409:346|403:382,1,71.9999935112002,4|0,1:2|0:0,0:0:0:0:
151,245,157308,1,8,1:0:0:0:
147,256,157641,2,0,P|214:237|308:235,1,143.9999870224,2|0,1:0|1:0,0:0:0:0:
342,288,158141,5,8,0:3:0:0:
210,324,158308,1,2,1:0:0:0:
162,168,158475,1,4,0:3:0:0:
322,143,158641,5,10,1:0:0:0:
256,217,158808,1,0,1:0:0:0:
162,9,158975,1,2,1:0:0:0:
228,77,159141,5,4,0:3:0:0:
228,77,159225,1,4,0:3:0:0:
228,77,159308,2,0,P|205:134|148:223,1,143.9999870224,6|0,1:0|1:0,0:0:0:0:
21,370,159808,1,8,0:3:0:0:
67,308,159975,2,0,P|98:291|133:282,1,71.9999935112002,10|0,1:0|0:0,0:0:0:0:
193,330,160308,1,8,0:3:0:0:
341,247,160475,2,0,L|316:164,1,71.9999935112002,2|0,1:0|1:0,0:0:0:0:
477,300,160808,6,0,P|406:306|347:346,1,143.9999870224,2|4,1:0|0:3,0:0:0:0:
346,357,161225,1,4,0:3:0:0:
348,367,161308,1,10,1:0:0:0:
245,249,161475,1,8,1:3:0:0:
310,127,161641,1,4,0:3:0:0:
413,194,161808,1,0,1:0:0:0:
409,83,161975,6,0,P|415:47|419:11,1,71.9999935112002,4|0,1:0|0:0,0:0:0:0:
215,160,162308,2,0,P|180:162|144:169,1,71.9999935112002,4|0,1:2|0:0,0:0:0:0:
86,217,162641,1,8,1:0:0:0:
86,217,162975,2,2,P|122:220|271:256,1,167.999984859467,4|0,1:0|0:0,0:1:0:0:
424,333,163641,2,0,P|405:302|396:267,1,71.9999935112002,4|0,0:3|0:0,0:0:0:0:
447,214,163975,1,8,1:0:0:0:
313,303,164141,1,8,0:3:0:0:
221,219,164308,1,8,0:3:0:0:
149,273,164475,1,4,0:3:0:0:
222,350,164641,6,0,P|235:278|243:207,1,143.9999870224,4|0,1:0|1:0,0:0:0:0:
172,22,165141,1,8,0:3:0:0:
253,42,165308,2,0,P|235:73|231:110,1,71.9999935112002,10|0,1:0|0:0,0:0:0:0:
423,215,165641,2,0,P|418:179|400:148,1,71.9999935112002,8|4,0:3|0:3,0:0:0:0:
389,143,165891,1,4,0:3:0:0:
377,138,165975,2,0,P|337:144|305:149,1,71.9999935112002,2|0,1:0|0:0,0:0:0:0:
119,86,166308,2,0,P|79:80|47:74,1,71.9999935112002,2|0,1:0|0:0,0:0:0:0:
93,286,166641,2,0,P|123:220|183:169,1,143.9999870224,10|8,1:0|0:3,0:0:0:0:
193,262,167141,1,4,0:3:0:0:
70,358,167308,6,0,P|32:366|0:373,1,71.9999935112002,4|0,1:2|0:0,0:0:0:0:
266,232,167641,1,2,1:0:0:0:
158,346,167808,1,0,1:0:0:0:
93,200,167975,1,8,1:0:0:0:
197,139,168141,1,8,0:3:0:0:
177,254,168308,1,4,0:3:0:0:
93,77,168475,1,0,1:0:0:0:
237,144,168641,6,0,P|267:130|306:116,1,71.9999935112002,2|0,1:0|0:0,0:0:0:0:
464,136,168975,1,8,0:3:0:0:
383,12,169141,2,0,P|392:47|406:81,1,71.9999935112002,2|8,1:0|1:0,0:0:0:0:
442,293,169475,1,8,0:3:0:0:
301,201,169641,1,8,0:3:0:0:
386,169,169808,5,4,0:3:0:0:
386,169,169891,1,4,0:3:0:0:
386,169,169975,2,0,P|377:234|351:308,2,143.9999870224,6|4|8,1:0|0:3|1:0,0:0:0:0:
461,274,170808,1,0,1:0:0:0:
267,333,170975,2,0,P|227:340|188:352,1,71.9999935112002,8|4,0:3|0:3,0:0:0:0:
134,69,171308,5,10,1:0:0:0:
31,227,171475,1,8,1:0:0:0:
206,168,171641,1,2,1:0:0:0:
18,112,171808,1,8,0:3:0:0:
141,278,171975,2,0,L|124:207,1,71.9999935112002,8|0,1:0|1:0,0:0:0:0:
239,67,172308,1,8,0:3:0:0:
231,244,172475,1,4,0:3:0:0:
457,123,172641,6,0,P|381:128|313:97,1,151.999986881257,14|0,1:0|1:0,0:0:0:0:
313,25,173141,1,8,0:3:0:0:
360,243,173308,2,0,P|364:205|382:172,1,75.9999934406283,10|0,1:0|0:0,0:0:0:0:
457,123,173641,1,0,1:0:0:0:
257,310,173808,2,0,P|293:316|331:325,1,75.9999934406283,4|8,0:3|1:0,0:0:0:0:
407,305,174141,5,8,0:3:0:0:
290,177,174308,1,0,1:0:0:0:
457,123,174475,2,0,P|465:86|473:48,1,75.9999934406283,2|8,1:0|1:0,0:0:0:0:
371,205,174808,1,0,1:0:0:0:
365,95,174975,1,8,0:3:0:0:
478,219,175141,1,4,0:3:0:0:
171,160,175308,6,0,P|95:170|19:175,1,151.999986881257,10|0,1:0|1:0,0:0:0:0:
142,247,175808,1,8,0:3:0:0:
273,104,175975,2,0,P|268:66|266:29,1,75.9999934406283,10|0,1:0|0:0,0:0:0:0:
91,117,176308,1,8,0:3:0:0:
183,67,176475,1,4,0:3:0:0:
27,44,176641,2,0,P|64:41|102:36,1,75.9999934406283,10|0,1:0|0:0,0:0:0:0:
286,207,176975,5,0,1:0:0:0:
243,311,177141,2,0,P|230:275|215:240,1,75.9999934406283,2|8,1:0|1:0,0:0:0:0:
4,167,177475,1,0,1:0:0:0:
156,301,177642,1,8,0:3:0:0:
158,119,177808,1,4,0:3:0:0:
52,348,177975,6,0,P|41:311|31:274,1,75.9999934406283,14|0,1:0|0:0,0:0:0:0:
315,177,178308,2,0,P|326:139|335:103,1,75.9999934406283,2|0,1:0|0:0,0:0:0:0:
94,204,178641,2,0,P|169:211|243:245,1,151.999986881257,10|2,1:0|1:0,0:0:0:0:
428,263,179141,1,8,0:3:0:0:
371,342,179308,2,0,P|348:312|335:277,1,75.9999934406283,10|0,1:0|0:0,0:0:0:0:
501,176,179641,1,0,1:0:0:0:
464,35,179808,1,8,0:3:0:0:
464,35,179891,1,8,0:3:0:0:
464,35,179975,2,0,P|447:108|409:174,1,151.999986881257,10|8,1:0|0:3,0:0:0:0:
339,194,180475,1,4,0:3:0:0:
72,115,180641,6,0,P|96:76|202:50,1,151.999986881257,14|0,1:0|1:0,0:0:0:0:
248,100,181141,1,8,0:3:0:0:
183,279,181308,2,0,P|182:197|178:127,1,151.999986881257,10|0,1:0|1:0,0:0:0:0:
258,186,181808,5,4,0:3:0:0:
96,254,181975,1,10,1:0:0:0:
240,364,182141,1,8,0:3:0:0:
311,337,182308,2,0,P|346:327|386:326,1,75.9999934406283,2|4,1:0|0:3,0:0:0:0:
392,335,182558,1,4,0:3:0:0:
398,344,182641,1,8,1:0:0:0:
478,217,182808,1,8,1:0:0:0:
414,103,182975,1,2,1:0:0:0:
414,103,183308,6,0,P|402:178|359:251,1,151.999986881257,6|0,1:0|1:0,0:0:0:0:
248,355,183808,1,8,0:3:0:0:
283,220,183975,2,0,P|290:257|298:295,1,75.9999934406283,10|0,1:0|0:0,0:0:0:0:
147,72,184308,5,2,1:0:0:0:
147,72,184475,1,8,0:3:0:0:
166,236,184641,1,10,1:0:0:0:
277,108,184808,1,8,0:3:0:0:
174,146,184975,6,0,P|137:154|100:164,1,75.9999934406283,2|8,1:0|0:3,0:0:0:0:
91,173,185225,1,8,0:3:0:0:
85,179,185308,2,0,P|45:195|3:292,1,151.999986881257,8|8,1:0|0:3,0:0:0:0:
171,324,185808,1,4,0:3:0:0:
9,384,185975,2,0,P|48:361|76:340,1,75.9999934406283,10|0,1:0|0:0,0:0:0:0:
306,190,186308,2,0,P|321:224|340:257,1,75.9999934406283,2|0,1:0|0:0,0:0:0:0:
241,76,186641,2,0,P|230:133|203:223,1,151.999986881257,10|0,1:0|1:0,0:0:0:0:
262,284,187141,6,0,P|273:320|285:357,1,75.9999934406283,8|8,0:3|1:0,0:0:0:0:
400,164,187475,1,8,0:3:0:0:
339,265,187641,1,0,1:0:0:0:
411,159,187808,2,0,P|428:125|438:88,1,75.9999934406283,4|8,0:3|1:0,0:0:0:0:
293,167,188141,1,8,0:3:0:0:
450,267,188308,1,2,1:0:0:0:
391,367,188475,5,4,0:3:0:0:
391,367,188558,1,4,0:3:0:0:
391,367,188641,2,0,P|380:319|343:194,2,151.999986881257,14|4|8,1:0|0:3|1:0,0:0:0:0:
391,367,189641,1,2,1:0:0:0:
292,311,189808,1,8,0:3:0:0:
415,149,189975,1,8,1:0:0:0:
198,86,190141,1,8,1:0:0:0:
269,196,190308,2,0,P|283:140|314:50,1,151.999986881257,2|8,1:0|0:3,0:0:0:0:
313,50,190975,1,4,0:3:0:0:
58,375,191308,6,0,P|20:314|22:244,1,143.9999870224,6|0,1:0|1:0,0:0:0:0:
80,192,191808,1,8,0:3:0:0:
80,192,191975,1,10,1:0:0:0:
201,295,192141,1,8,0:3:0:0:
175,137,192308,2,0,P|168:173|159:207,1,71.9999935112002,2|0,1:0|0:0,0:0:0:0:
247,98,192641,1,2,1:0:0:0:
122,283,192808,6,0,P|87:293|53:306,1,71.9999935112002,8|8,1:0|0:3,0:0:0:0:
317,212,193141,1,4,0:3:0:0:
374,155,193308,2,0,P|389:123|385:76,1,71.9999935112002,10|8,1:0|0:3,0:0:0:0:
381,77,193558,1,8,0:3:0:0:
371,67,193641,1,8,0:3:0:0:
241,206,193808,1,4,0:3:0:0:
354,330,193975,6,0,P|413:291|485:286,1,143.9999870224,6|0,1:0|1:0,0:0:0:0:
399,191,194475,1,8,0:3:0:0:
465,105,194641,2,0,P|470:142|476:176,1,71.9999935112002,10|0,1:0|0:0,0:0:0:0:
243,98,194975,1,10,1:0:0:0:
243,98,195141,1,0,1:0:0:0:
168,17,195308,5,2,1:0:0:0:
347,68,195475,1,0,1:0:0:0:
206,201,195641,1,2,1:0:0:0:
126,118,195808,1,8,0:3:0:0:
216,278,195975,2,0,P|251:283|286:290,1,71.9999935112002,10|0,1:0|1:0,0:0:0:0:
62,220,196308,1,8,0:3:0:0:
62,368,196475,5,4,0:3:0:0:
62,368,196558,1,4,0:3:0:0:
62,368,196641,2,0,P|120:321|133:253,1,143.9999870224,6|0,1:0|1:0,0:0:0:0:
62,63,197141,1,8,0:3:0:0:
4,129,197308,2,0,P|37:133|82:147,1,71.9999935112002,10|0,1:0|0:0,0:0:0:0:
317,36,197641,1,8,0:3:0:0:
241,51,197808,2,0,P|225:83|219:118,1,71.9999935112002,4|0,0:3|1:0,0:0:0:0:
306,240,198141,5,10,1:0:0:0:
156,176,198308,1,0,1:0:0:0:
350,166,198475,1,8,0:3:0:0:
215,260,198641,1,8,1:0:0:0:
215,260,198725,1,0,1:0:0:0:
215,260,198808,1,0,1:0:0:0:
251,333,198975,2,0,P|216:342|182:351,1,71.9999935112002,8|4,0:3|0:3,0:0:0:0:
437,182,199308,6,0,B|469:119|469:119|437:23,1,143.9999870224,6|0,1:0|1:0,0:0:0:0:
387,8,199808,1,8,0:3:0:0:
224,1,199975,2,0,B|191:63|191:63|223:159,1,143.9999870224,10|0,1:0|1:0,0:0:0:0:
262,187,200474,1,8,0:3:0:0:
368,86,200641,2,0,P|331:94|297:102,1,71.9999935112002,2|8,1:0|1:0,0:0:0:0:
46,176,200975,1,2,1:0:0:0:
154,287,201141,1,8,0:3:0:0:
136,137,201308,2,0,P|128:174|120:208,1,71.9999935112002,10|0,1:0|1:0,0:0:0:0:
113,217,201558,1,0,1:0:0:0:
107,225,201641,1,8,1:0:0:0:
132,365,201808,1,8,1:0:0:0:
328,243,201975,6,0,P|411:238|484:290,1,159.999990463257,6|0,1:0|1:0,0:0:0:0:
385,341,202475,1,0,1:0:0:0:
385,341,202558,1,0,1:0:0:0:
385,341,202641,1,12,1:2:0:0:
202,204,202808,1,0,1:0:0:0:
255,303,202975,2,0,P|247:267|237:213,1,79.9999952316285,8|4,0:3|0:3,0:0:0:0:
356,23,203308,5,0,1:0:0:0:
484,35,203475,2,0,P|446:46|415:71,1,79.9999952316285,10|0,1:0|1:0,0:0:0:0:
352,213,203808,1,8,0:3:0:0:
464,169,203975,1,10,1:0:0:0:
303,113,204141,1,0,1:0:0:0:
166,161,204308,1,8,0:3:0:0:
219,92,204475,5,4,0:3:0:0:
219,92,204558,1,4,0:3:0:0:
219,92,204641,2,0,P|218:165|225:251,1,159.999990463257,2|0,1:0|1:0,0:0:0:0:
107,322,205141,1,8,0:3:0:0:
34,224,205308,2,0,P|73:223|113:225,1,79.9999952316285,10|0,1:0|0:0,0:0:0:0:
290,310,205641,1,8,0:3:0:0:
204,345,205808,1,4,0:3:0:0:
224,251,205975,5,2,1:0:0:0:
372,345,206141,1,8,1:0:0:0:
475,205,206308,1,0,1:0:0:0:
324,135,206475,1,8,0:3:0:0:
353,238,206641,5,10,1:0:0:0:
399,62,206808,1,8,0:3:0:0:
224,98,206975,1,4,0:3:0:0:
416,345,207308,6,0,P|422:302|438:259,1,71.9999935112002,4|0,1:0|0:0,0:0:0:0:
147,149,207641,2,0,P|131:107|125:64,1,71.9999935112002,4|0,1:2|0:0,0:0:0:0:
285,142,208641,6,0,L|277:198,1,55.9999949531557,0|8,1:0|0:3,0:0:0:0:
417,85,208975,1,0,1:0:0:0:
174,17,209308,1,8,0:3:0:0:
245,368,209641,2,2,P|223:313|214:254,1,119.999989185334,4|2,1:0|0:3,0:1:0:0:
256,192,214641,5,10,1:0:0:0:
46,338,214808,2,0,L|76:316,1,35.9999967556001,4|6,0:0|1:0,0:0:0:0:
150,161,215641,6,0,P|135:129|130:94,1,71.9999935112002,2|0,1:0|0:0,0:0:0:0:
217,303,215975,1,8,1:0:0:0:
217,303,216308,2,0,P|146:282|77:270,1,143.9999870224,2|0,1:0|1:0,0:0:0:0:
214,212,216808,5,8,1:0:0:0:
113,356,216975,1,8,0:3:0:0:
32,208,217141,1,4,0:3:0:0:
169,88,217308,5,10,1:0:0:0:
117,268,217475,1,4,0:3:0:0:
74,131,217641,1,8,0:3:0:0:
237,42,217808,5,4,0:3:0:0:
237,42,217891,1,4,0:3:0:0:
237,42,217975,2,0,P|282:61|397:72,1,143.9999870224,6|0,1:0|1:0,0:0:0:0:
488,192,218475,1,8,0:3:0:0:
446,304,218641,2,0,P|433:270|416:237,1,71.9999935112002,10|0,1:0|0:0,0:0:0:0:
481,86,218975,1,8,0:3:0:0:
337,167,219141,6,0,P|366:162|410:154,1,71.9999935112002,2|0,1:0|1:0,0:0:0:0:
116,244,219475,2,0,P|188:266|249:296,1,143.9999870224,2|8,1:0|0:3,0:0:0:0:
256,306,219891,1,8,0:3:0:0:
261,314,219975,1,10,1:0:0:0:
148,340,220141,1,4,0:3:0:0:
19,225,220308,1,8,0:3:0:0:
171,159,220475,1,4,0:3:0:0:
65,12,220641,6,0,P|71:47|88:78,1,71.9999935112002,6|0,1:0|0:0,0:0:0:0:
285,210,220975,2,0,P|355:220|420:252,1,143.9999870224,4|8,1:2|1:0,0:0:0:0:
424,263,221641,6,2,P|379:194|394:113,1,167.999984859467,4|0,1:0|0:0,0:1:0:0:
465,0,222308,2,0,P|485:28|492:64,1,71.9999935112002,2|0,1:0|0:0,0:0:0:0:
470,197,222641,1,10,1:0:0:0:
346,232,222808,1,8,0:3:0:0:
287,133,222975,1,8,0:3:0:0:
395,115,223142,1,4,0:3:0:0:
225,231,223308,6,0,P|154:233|86:258,1,143.9999870224,4|0,1:0|1:0,0:0:0:0:
126,137,223808,1,8,0:3:0:0:
89,13,223975,2,0,P|77:47|73:83,1,71.9999935112002,10|0,1:0|0:0,0:0:0:0:
1,239,224308,2,0,P|6:275|18:309,1,71.9999935112002,0|8,1:0|0:3,0:0:0:0:
25,320,224558,1,8,0:3:0:0:
31,330,224641,2,0,P|68:335|104:346,1,71.9999935112002,2|0,1:0|0:0,0:0:0:0:
238,199,224975,2,0,P|227:164|223:128,1,71.9999935112002,2|0,1:0|0:0,0:0:0:0:
142,272,225308,2,0,P|209:291|245:369,1,143.9999870224,10|8,1:0|0:3,0:3:0:0:
325,209,225808,1,4,0:3:0:0:
448,246,225975,6,0,P|376:250|304:257,2,143.9999870224,2|0|10,1:0|1:0|1:0,0:0:0:0:
482,175,226808,1,4,0:3:0:0:
482,175,226975,1,8,0:3:0:0:
337,79,227141,1,4,0:3:0:0:
426,24,227308,2,0,P|415:95|393:163,1,143.9999870224,10|2,1:0|1:0,0:0:0:0:
334,214,227808,5,0,1:0:0:0:
209,231,227975,1,8,1:0:0:0:
98,122,228141,1,8,0:3:0:0:
259,104,228308,1,8,0:3:0:0:
64,263,228475,1,4,0:3:0:0:
129,193,228641,6,0,P|135:116|143:45,1,143.9999870224,6|8,1:0|1:0,0:0:0:0:
72,10,229141,1,0,1:0:0:0:
72,10,229225,1,0,1:0:0:0:
72,10,229308,1,8,1:0:0:0:
246,147,229475,5,8,0:3:0:0:
69,242,229641,1,8,0:3:0:0:
112,119,229808,1,4,0:3:0:0:
213,299,229975,1,4,0:3:0:0:
213,299,230308,2,2,P|156:318|102:345,1,119.999992847443,4|2,1:0|0:3,0:1:0:0:
467,21,242308,6,0,P|488:14|513:6,1,47.9999956741335,2|2,0:0|0:0,0:0:0:0:
422,113,242808,2,0,P|425:95|426:78,1,35.9999967556001,2|2,0:0|0:0,0:0:0:0:
