osu file format v14

[General]
AudioFilename: audio.mp3
AudioLeadIn: 0
PreviewTime: 211074
Countdown: 0
SampleSet: None
StackLeniency: 0.2
Mode: 0
LetterboxInBreaks: 0
EpilepsyWarning: 1
WidescreenStoryboard: 1

[Editor]
Bookmarks: 56798,178965
DistanceSpacing: 0.4
BeatDivisor: 4
GridSize: 4
TimelineZoom: 2

[Metadata]
Title:Orange
TitleUnicode:オレンジ
Artist:Hanatan
ArtistUnicode:花たん
Creator:Suzy-
Version:this song is about a tragic love
Source:
Tags:utaite yurica nicovideo hatsune miku vocaloid tohma flower 初音ミク トーマ がっちゃん がっちゃん アザレアの心臓 heart of azalea no shinzou
BeatmapID:1229016
BeatmapSetID:580493

[Difficulty]
HPDrainRate:5
CircleSize:4
OverallDifficulty:7
ApproachRate:9.3
SliderMultiplier:1.4
SliderTickRate:1

[Events]
//Background and Video events
0,0,"maxresdefault (4).jpg",0,0
//Break Periods
2,100498,110031
2,209774,210474
//Storyboard Layer 0 (Background)
//Storyboard Layer 1 (Fail)
//Storyboard Layer 2 (Pass)
//Storyboard Layer 3 (Foreground)
//Storyboard Sound Samples

[TimingPoints]
1965,666.666666666667,4,2,0,65,1,0
17965,-100,4,2,0,100,0,1
25965,-100,4,2,0,100,0,0
28631,-100,4,2,0,100,0,1
36631,-100,4,2,0,100,0,0
80631,-400,4,2,0,100,0,1
81631,-200,4,2,0,100,0,1
91631,-200,4,2,0,100,0,0
93298,-200,4,2,0,100,0,1
97965,-200,4,2,0,100,0,0
110631,-100,4,2,0,100,0,0
152631,-400,4,2,0,100,0,0
153631,-200,4,2,0,100,0,1
153631,-200,4,2,0,100,0,1
153631,-200,4,2,0,100,0,1
153631,-200,4,2,0,100,0,1
163631,-200,4,2,0,100,0,0
164631,-200,4,2,0,100,0,1
172631,-25,4,2,0,100,0,1
172631,-25,4,2,0,100,0,1
190631,-400,4,2,0,100,0,0
191298,-400,4,2,0,100,0,1
196965,333.333333333333,4,2,0,100,1,0
196965,-25,4,2,0,100,0,1
199298,666.666666666667,4,2,0,100,1,0
199631,-25,4,2,0,100,0,1
199631,-25,4,2,0,100,0,1
200298,333.333333333333,4,2,0,100,1,1
200298,-25,4,2,0,100,0,1
200964,222.222222222222,4,2,0,100,1,1
200964,-25,4,2,0,100,0,1
201408,666.666666666667,4,2,0,100,1,1
201908,-25,4,2,0,100,0,1
207241,-25,4,2,0,100,0,0
211074,-400,4,2,0,100,0,0
212241,-200,4,2,0,100,0,0
214741,-200,4,2,0,100,0,1
226574,-3200,4,2,0,100,0,1
226574,-3200,4,2,0,100,0,0
230908,-3200,4,2,0,100,0,0
231741,-100,4,2,0,100,0,0

[Colours]
Combo1 : 0,191,191
Combo2 : 255,116,0
Combo3 : 255,255,0
Combo4 : 133,10,201

[HitObjects]
300,240,1631,5,0,2:0:0:0:
368,252,1798,1,0,2:0:0:0:
276,172,1965,1,0,2:0:0:0:
324,312,2131,1,0,2:0:0:0:
344,184,2298,1,0,2:0:0:0:
412,196,2465,1,0,2:0:0:0:
317,120,2631,6,0,P|266:106|227:124,1,70,0|0,2:0|2:0,2:0:0:0:
276,172,3131,1,0,2:0:0:0:
295,58,3298,1,0,2:0:0:0:
276,172,3631,5,0,2:0:0:0:
264,240,3798,1,0,2:0:0:0:
208,196,3965,1,0,2:0:0:0:
169,140,4298,5,0,2:0:0:0:
248,256,4465,1,0,2:0:0:0:
140,204,4631,1,0,2:0:0:0:
276,192,4798,1,0,2:0:0:0:
180,260,4965,1,0,2:0:0:0:
240,136,5131,1,0,2:0:0:0:
208,200,5298,6,0,L|208:272,1,70,0|0,2:0|2:0,2:0:0:0:
208,200,5965,1,0,2:0:0:0:
204,264,6298,5,0,2:0:0:0:
139,287,6465,1,0,2:0:0:0:
149,217,6632,1,0,2:0:0:0:
244,136,6965,5,0,2:0:0:0:
312,136,7131,1,0,2:0:0:0:
312,208,7298,1,0,2:0:0:0:
244,208,7465,1,0,2:0:0:0:
244,136,7631,1,0,2:0:0:0:
312,136,7798,1,0,2:0:0:0:
312,208,7965,6,0,P|292:212|240:208,1,70,0|0,2:0|2:0,2:0:0:0:
276,144,8465,1,0,2:0:0:0:
276,280,8631,2,0,L|139:280,1,105,0|0,2:0|2:0,2:0:0:0:
276,280,9298,5,0,2:0:0:0:
164,280,9631,1,0,2:0:0:0:
332,280,9965,1,0,2:0:0:0:
220,280,10298,1,0,2:0:0:0:
388,280,10631,1,0,2:0:0:0:
276,280,10964,1,0,2:0:0:0:
256,192,11131,12,0,11965,2:0:0:0:
64,124,12631,6,0,L|64:220,1,70,0|0,2:0|2:0,2:0:0:0:
64,52,13298,1,0,2:0:0:0:
64,192,13631,1,0,2:0:0:0:
144,260,13965,6,0,L|144:164,1,70,0|0,2:0|2:0,2:0:0:0:
144,332,14632,1,0,2:0:0:0:
144,192,14965,1,0,2:0:0:0:
214,192,15298,6,0,L|117:192,1,70,0|0,2:0|2:0,2:0:0:0:
286,192,15965,1,0,2:0:0:0:
312,192,16131,1,0,2:0:0:0:
340,192,16298,1,0,2:0:0:0:
144,192,16631,5,0,2:0:0:0:
340,192,16965,2,0,L|416:192,1,70,0|0,2:0|2:0,2:0:0:0:
200,192,17631,5,0,2:0:0:0:
172,192,17798,1,0,2:0:0:0:
144,192,17965,2,0,L|144:84,1,105,0|0,2:0|2:0,2:0:0:0:
144,76,18631,6,0,L|144:192,1,105,0|0,2:0|2:0,2:0:0:0:
144,196,19298,5,0,2:0:0:0:
172,196,19465,1,0,2:0:0:0:
200,196,19631,1,0,2:0:0:0:
172,196,19798,1,0,2:0:0:0:
328,192,19965,5,0,2:0:0:0:
212,196,20298,5,0,2:0:0:0:
184,196,20465,1,0,2:0:0:0:
212,196,20631,2,0,L|320:196,1,105,0|0,2:0|2:0,2:0:0:0:
212,196,21298,6,0,L|96:196,1,105,0|0,2:0|2:0,2:0:0:0:
212,196,21965,5,0,2:0:0:0:
212,168,22131,1,0,2:0:0:0:
212,140,22298,1,0,2:0:0:0:
212,168,22465,1,0,2:0:0:0:
212,32,22631,5,0,2:0:0:0:
212,168,22965,5,0,2:0:0:0:
212,196,23131,1,0,2:0:0:0:
212,224,23298,2,0,L|212:340,1,105,0|0,2:0|2:0,2:0:0:0:
212,316,23965,6,0,L|212:200,1,105,0|0,2:0|2:0,2:0:0:0:
212,196,24631,5,0,2:0:0:0:
184,196,24798,1,0,2:0:0:0:
156,196,24965,1,0,2:0:0:0:
184,196,25131,1,0,2:0:0:0:
56,196,25298,5,0,2:0:0:0:
184,196,25631,5,0,2:0:0:0:
212,196,25798,1,0,2:0:0:0:
240,196,25965,2,0,L|164:196,1,70,0|0,2:0|2:0,2:0:0:0:
408,196,26631,5,0,2:0:0:0:
170,56,26965,2,0,L|170:200,1,140,0|0,2:0|2:0,2:0:0:0:
340,196,27965,5,0,2:0:0:0:
340,168,28131,1,0,2:0:0:0:
340,140,28298,1,0,2:0:0:0:
144,192,28631,2,0,P|128:136|144:84,1,105,0|0,2:0|2:0,2:0:0:0:
144,76,29297,6,0,P|156:140|144:192,1,105,0|0,2:0|2:0,2:0:0:0:
140,196,29964,5,0,2:0:0:0:
132,168,30131,1,0,2:0:0:0:
128,140,30297,1,0,2:0:0:0:
132,168,30464,1,0,2:0:0:0:
84,52,30631,5,0,2:0:0:0:
307,201,30964,5,0,2:0:0:0:
184,196,31131,1,0,2:0:0:0:
212,196,31297,2,0,B|264:220|264:220|320:196,1,105,0|0,2:0|2:0,2:0:0:0:
212,196,31965,6,0,B|160:172|160:172|104:196,1,105,0|0,2:0|2:0,2:0:0:0:
212,196,32631,5,0,2:0:0:0:
240,208,32797,1,0,2:0:0:0:
264,216,32964,1,0,2:0:0:0:
240,208,33131,1,0,2:0:0:0:
360,248,33297,5,0,2:0:0:0:
212,168,33631,5,0,2:0:0:0:
212,92,33797,1,0,2:0:0:0:
212,224,33964,2,0,P|200:272|212:340,1,105,0|0,2:0|2:0,2:0:0:0:
212,316,34631,6,0,P|224:264|212:200,1,105,0|0,2:0|2:0,2:0:0:0:
217,213,35298,6,0,B|172:156|172:156|172:116,1,105,0|0,2:0|2:0,2:0:0:0:
172,123,35965,6,0,L|244:122,1,70,0|0,2:0|2:0,2:0:0:0:
266,32,36631,6,0,B|311:89|311:89|311:129,1,105,0|0,2:0|2:0,2:0:0:0:
311,121,37298,6,0,B|238:121|238:121|206:96,1,105,0|0,2:0|2:0,2:0:0:0:
311,121,37965,5,0,2:0:0:0:
172,124,38298,1,0,2:0:0:0:
311,121,38631,6,0,L|361:121,1,35,0|0,2:0|2:0,2:0:0:0:
201,121,38965,2,0,L|151:121,1,35,0|0,2:0|2:0,2:0:0:0:
348,120,39298,5,0,2:0:0:0:
281,249,39465,1,0,2:0:0:0:
278,123,39631,1,0,2:0:0:0:
351,246,39798,1,0,2:0:0:0:
246,187,39965,1,0,2:0:0:0:
386,184,40131,1,0,2:0:0:0:
323,309,40298,1,0,2:0:0:0:
208,128,40465,1,0,2:0:0:0:
316,183,40631,1,0,2:0:0:0:
416,120,40798,1,0,2:0:0:0:
316,183,40965,6,0,L|316:232,1,35,0|0,2:0|2:0,2:0:0:0:
316,183,41298,1,0,2:0:0:0:
351,246,41465,5,0,2:0:0:0:
306,298,41632,1,0,2:0:0:0:
280,232,41799,1,0,2:0:0:0:
216,112,41965,5,0,2:0:0:0:
148,112,42131,1,0,2:0:0:0:
184,172,42298,1,0,2:0:0:0:
252,172,42465,1,0,2:0:0:0:
116,172,42631,1,0,2:0:0:0:
316,183,42965,5,0,2:0:0:0:
456,179,43131,1,0,2:0:0:0:
352,243,43298,1,0,2:0:0:0:
424,119,43465,1,0,2:0:0:0:
424,243,43631,1,0,2:0:0:0:
352,123,43798,1,0,2:0:0:0:
388,183,43965,1,0,2:0:0:0:
352,123,44131,5,0,2:0:0:0:
253,230,44298,1,0,2:0:0:0:
283,107,44464,1,0,2:0:0:0:
322,245,44631,1,0,2:0:0:0:
236,161,44798,1,0,2:0:0:0:
372,194,44964,1,0,2:0:0:0:
214,94,45131,1,0,2:0:0:0:
278,299,45298,1,0,2:0:0:0:
168,147,45464,1,0,2:0:0:0:
417,140,45631,1,0,2:0:0:0:
216,279,45798,1,0,2:0:0:0:
260,43,45965,1,0,2:0:0:0:
304,175,46131,1,0,2:0:0:0:
328,59,46298,1,0,2:0:0:0:
188,215,46465,1,0,2:0:0:0:
396,75,46631,1,0,2:0:0:0:
382,146,46798,5,0,2:0:0:0:
330,101,46965,1,0,2:0:0:0:
396,75,47132,1,0,2:0:0:0:
382,146,47298,5,0,2:0:0:0:
203,324,47631,1,0,2:0:0:0:
203,145,47965,1,0,2:0:0:0:
382,324,48298,1,0,2:0:0:0:
203,145,48631,5,0,2:0:0:0:
308,326,48965,1,0,2:0:0:0:
407,145,49298,2,0,L|408:67,1,70,0|0,2:0|2:0,2:0:0:0:
188,215,49965,5,0,2:0:0:0:
317,148,50132,1,0,2:0:0:0:
191,145,50298,1,0,2:0:0:0:
314,218,50465,1,0,2:0:0:0:
255,113,50632,1,0,2:0:0:0:
251,253,50798,1,0,2:0:0:0:
377,190,50965,1,0,2:0:0:0:
196,75,51132,1,0,2:0:0:0:
251,183,51298,1,0,2:0:0:0:
188,283,51465,1,0,2:0:0:0:
251,183,51632,6,0,L|299:183,1,35,0|0,2:0|2:0,2:0:0:0:
251,183,51965,1,0,2:0:0:0:
255,113,52131,5,0,2:0:0:0:
203,158,52298,1,0,2:0:0:0:
269,184,52465,1,0,2:0:0:0:
389,248,52631,5,0,2:0:0:0:
389,316,52797,1,0,2:0:0:0:
329,280,52964,1,0,2:0:0:0:
329,212,53131,1,0,2:0:0:0:
329,348,53297,1,0,2:0:0:0:
328,144,53465,1,0,2:0:0:0:
452,284,53631,1,0,2:0:0:0:
268,244,53798,1,0,2:0:0:0:
388,180,53965,1,0,2:0:0:0:
268,312,54131,1,0,2:0:0:0:
452,216,54298,1,0,2:0:0:0:
264,172,54465,1,0,2:0:0:0:
264,172,54798,5,0,2:0:0:0:
268,103,54965,1,0,2:0:0:0:
203,131,55132,1,0,2:0:0:0:
76,196,55298,6,0,L|136:196,1,35,0|0,2:0|2:0,2:0:0:0:
76,196,55631,5,0,2:0:0:0:
133,158,55798,1,0,2:0:0:0:
142,228,55965,1,0,2:0:0:0:
329,280,56298,5,0,2:0:0:0:
309,158,56465,1,0,2:0:0:0:
256,294,56632,1,0,2:0:0:0:
381,144,56798,1,0,2:0:0:0:
283,228,56965,1,0,2:0:0:0:
355,209,57132,1,0,2:0:0:0:
283,228,57298,5,0,2:0:0:0:
256,294,57465,5,0,2:0:0:0:
200,340,57632,1,0,2:0:0:0:
156,288,57799,1,0,2:0:0:0:
208,244,57965,1,0,2:0:0:0:
200,340,58298,6,0,L|200:292,1,35,0|0,2:0|2:0,2:0:0:0:
236,164,58798,5,0,2:0:0:0:
304,163,58965,1,0,2:0:0:0:
272,224,59131,2,0,L|272:120,1,105,0|0,2:0|2:0,2:0:0:0:
310,287,59965,5,0,2:0:0:0:
241,287,60132,1,0,2:0:0:0:
272,224,60299,1,0,2:0:0:0:
64,120,60631,5,0,3:0:0:0:
448,120,60965,1,0,3:0:0:0:
64,192,61965,5,0,3:0:0:0:
448,192,62299,1,0,3:0:0:0:
64,264,63298,5,0,3:0:0:0:
448,264,63632,1,0,3:0:0:0:
256,64,64631,5,0,3:0:0:0:
256,288,64965,1,0,3:0:0:0:
256,120,65298,5,0,2:0:0:0:
256,92,65465,1,0,2:0:0:0:
256,64,65631,1,0,2:0:0:0:
256,288,65965,5,0,3:0:0:0:
256,64,66299,1,0,3:0:0:0:
256,64,67298,5,0,3:0:0:0:
256,288,67631,1,0,3:0:0:0:
221,288,67797,1,0,0:0:0:0:
186,288,67964,1,0,0:0:0:0:
152,287,68131,1,0,0:0:0:0:
186,288,68297,1,0,0:0:0:0:
221,288,68464,1,0,0:0:0:0:
256,288,68631,5,0,2:0:0:0:
152,287,68965,1,0,2:0:0:0:
328,288,69298,1,0,2:0:0:0:
80,288,69631,1,0,2:0:0:0:
330,288,69965,2,0,L|400:288,1,70,0|0,2:0|2:0,2:0:0:0:
256,288,70631,5,0,2:0:0:0:
221,288,70797,1,0,2:0:0:0:
186,288,70964,1,0,2:0:0:0:
448,120,71298,5,0,3:0:0:0:
64,120,71632,1,0,3:0:0:0:
448,192,72632,5,0,3:0:0:0:
64,192,72966,1,0,3:0:0:0:
448,264,73965,5,0,3:0:0:0:
64,264,74299,1,0,3:0:0:0:
256,288,75298,5,0,3:0:0:0:
256,64,75632,1,0,3:0:0:0:
256,224,75965,5,0,3:0:0:0:
256,252,76132,1,0,2:0:0:0:
256,280,76298,1,0,2:0:0:0:
256,252,76465,1,0,2:0:0:0:
256,64,76632,5,0,2:0:0:0:
256,288,76966,1,0,2:0:0:0:
256,136,77298,1,0,2:0:0:0:
256,192,77798,5,0,2:0:0:0:
256,192,77965,2,0,L|148:192,1,105,0|0,2:0|2:0,2:0:0:0:
151,192,78631,1,0,2:0:0:0:
256,192,79131,5,0,2:0:0:0:
256,192,79298,1,0,2:0:0:0:
80,192,79631,1,0,2:0:0:0:
432,192,79965,1,0,2:0:0:0:
80,192,80298,1,0,2:0:0:0:
108,192,80465,5,0,2:0:0:0:
108,192,80631,2,0,L|84:192,2,17.5,0|0|0,2:0|2:0|2:0,2:0:0:0:
256,320,81631,6,0,L|188:320,1,52.5,0|0,2:0|2:0,2:0:0:0:
328,320,82298,1,0,2:0:0:0:
132,124,82465,6,0,L|64:124,1,52.5,0|0,2:0|2:0,2:0:0:0:
380,124,83131,2,0,L|424:124,1,35,0|0,2:0|2:0,2:0:0:0:
308,124,83631,1,0,2:0:0:0:
184,320,83798,2,0,L|160:320,1,17.5,0|0,2:0|2:0,2:0:0:0:
256,320,84131,1,0,2:0:0:0:
80,124,84298,1,0,2:0:0:0:
416,128,84465,1,0,2:0:0:0:
80,124,84631,1,0,2:0:0:0:
328,320,84965,2,0,L|363:320,1,35,0|0,2:0|2:0,2:0:0:0:
80,320,85631,2,0,L|45:320,1,35,0|0,2:0|2:0,2:0:0:0:
448,120,86131,5,0,2:0:0:0:
64,264,86297,1,0,2:0:0:0:
448,192,86464,1,0,2:0:0:0:
64,120,86631,1,0,2:0:0:0:
448,264,86797,1,0,2:0:0:0:
64,192,86964,1,0,2:0:0:0:
448,192,87131,1,0,2:0:0:0:
64,120,87298,6,0,L|64:76,1,35,0|0,2:0|2:0,2:0:0:0:
448,264,87965,2,0,L|448:220,1,35,0|0,2:0|2:0,2:0:0:0:
448,336,88465,2,0,L|448:292,1,35,0|0,2:0|2:0,2:0:0:0:
448,157,89131,2,0,L|448:197,1,35,0|0,2:0|2:0,2:0:0:0:
448,84,89631,1,0,2:0:0:0:
448,336,89798,1,0,2:0:0:0:
99,192,89965,2,0,L|51:192,1,35,0|0,2:0|2:0,2:0:0:0:
448,192,90631,1,0,2:0:0:0:
99,192,90965,2,0,L|51:192,1,35,0|0,2:0|2:0,2:0:0:0:
448,192,91631,5,0,2:0:0:0:
64,192,91965,1,0,2:0:0:0:
448,192,92298,1,0,2:0:0:0:
61,187,92631,5,0,2:0:0:0:
96,248,92965,1,0,2:0:0:0:
132,188,93298,2,0,L|132:112,1,70,0|0,2:0|2:0,2:0:0:0:
60,188,94298,1,0,2:0:0:0:
448,192,94631,1,0,2:0:0:0:
60,153,94965,2,0,L|60:201,1,35,0|0,2:0|2:0,2:0:0:0:
448,192,95631,5,0,2:0:0:0:
64,192,95798,1,0,2:0:0:0:
448,264,95965,1,0,2:0:0:0:
64,120,96131,1,0,2:0:0:0:
448,192,96298,1,0,2:0:0:0:
64,264,96465,1,0,2:0:0:0:
448,120,96631,1,0,2:0:0:0:
432,120,96798,1,0,2:0:0:0:
420,120,96965,1,0,2:0:0:0:
448,120,97131,1,0,2:0:0:0:
256,288,97465,5,0,2:0:0:0:
256,64,97631,1,0,2:0:0:0:
256,216,97798,1,0,2:0:0:0:
256,192,97965,12,0,100298,2:0:0:0:
201,121,110631,6,0,L|151:121,1,35,0|0,2:0|2:0,2:0:0:0:
311,121,110965,2,0,L|361:121,1,35,0|0,2:0|2:0,2:0:0:0:
164,120,111298,5,0,2:0:0:0:
231,249,111465,1,0,2:0:0:0:
234,123,111631,1,0,2:0:0:0:
161,246,111798,1,0,2:0:0:0:
266,187,111965,1,0,2:0:0:0:
126,184,112131,1,0,2:0:0:0:
189,309,112298,1,0,2:0:0:0:
304,128,112465,1,0,2:0:0:0:
196,183,112631,1,0,2:0:0:0:
96,120,112798,1,0,2:0:0:0:
196,183,112965,6,0,L|196:232,1,35,0|0,2:0|2:0,2:0:0:0:
196,183,113298,1,0,2:0:0:0:
161,246,113465,5,0,2:0:0:0:
206,298,113632,1,0,2:0:0:0:
232,232,113799,1,0,2:0:0:0:
296,112,113965,5,0,2:0:0:0:
364,112,114131,1,0,2:0:0:0:
328,172,114298,1,0,2:0:0:0:
260,172,114465,1,0,2:0:0:0:
396,172,114631,1,0,2:0:0:0:
296,236,114798,1,0,2:0:0:0:
196,183,114965,5,0,2:0:0:0:
56,179,115131,1,0,2:0:0:0:
160,243,115298,1,0,2:0:0:0:
88,119,115465,1,0,2:0:0:0:
88,243,115631,1,0,2:0:0:0:
160,123,115798,1,0,2:0:0:0:
124,183,115965,1,0,2:0:0:0:
160,123,116131,5,0,2:0:0:0:
259,230,116298,1,0,2:0:0:0:
229,107,116464,1,0,2:0:0:0:
190,245,116631,1,0,2:0:0:0:
276,161,116798,1,0,2:0:0:0:
140,194,116964,1,0,2:0:0:0:
298,94,117131,1,0,2:0:0:0:
234,299,117298,1,0,2:0:0:0:
344,147,117464,1,0,2:0:0:0:
95,140,117631,1,0,2:0:0:0:
296,279,117798,1,0,2:0:0:0:
252,43,117965,1,0,2:0:0:0:
208,175,118131,1,0,2:0:0:0:
184,59,118298,1,0,2:0:0:0:
324,215,118465,1,0,2:0:0:0:
116,75,118631,1,0,2:0:0:0:
130,146,118798,5,0,2:0:0:0:
182,101,118965,1,0,2:0:0:0:
116,75,119132,1,0,2:0:0:0:
130,146,119298,5,0,2:0:0:0:
309,324,119631,1,0,2:0:0:0:
309,145,119965,1,0,2:0:0:0:
130,324,120298,1,0,2:0:0:0:
309,145,120631,5,0,2:0:0:0:
204,326,120965,1,0,2:0:0:0:
105,145,121298,2,0,L|104:75,1,70,0|0,2:0|2:0,2:0:0:0:
324,215,121965,5,0,2:0:0:0:
195,148,122132,1,0,2:0:0:0:
321,145,122298,1,0,2:0:0:0:
198,218,122465,1,0,2:0:0:0:
257,113,122632,1,0,2:0:0:0:
261,253,122798,1,0,2:0:0:0:
135,190,122965,1,0,2:0:0:0:
316,75,123132,1,0,2:0:0:0:
261,183,123298,1,0,2:0:0:0:
324,283,123465,1,0,2:0:0:0:
261,183,123632,6,0,L|226:183,1,35,0|0,2:0|2:0,2:0:0:0:
261,183,123965,1,0,2:0:0:0:
257,113,124131,5,0,2:0:0:0:
309,158,124298,1,0,2:0:0:0:
243,184,124465,1,0,2:0:0:0:
123,248,124631,5,0,2:0:0:0:
123,316,124797,1,0,2:0:0:0:
183,280,124964,1,0,2:0:0:0:
183,212,125131,1,0,2:0:0:0:
183,348,125297,1,0,2:0:0:0:
184,144,125465,1,0,2:0:0:0:
60,284,125631,1,0,2:0:0:0:
244,244,125798,1,0,2:0:0:0:
124,180,125965,1,0,2:0:0:0:
244,312,126131,1,0,2:0:0:0:
60,216,126298,1,0,2:0:0:0:
248,172,126465,1,0,2:0:0:0:
248,172,126798,5,0,2:0:0:0:
244,103,126965,1,0,2:0:0:0:
309,131,127132,1,0,2:0:0:0:
436,196,127298,6,0,L|401:196,1,35,0|0,2:0|2:0,2:0:0:0:
436,196,127631,5,0,2:0:0:0:
379,158,127798,1,0,2:0:0:0:
370,228,127965,1,0,2:0:0:0:
444,128,128131,1,0,2:0:0:0:
183,280,128298,5,0,2:0:0:0:
203,158,128465,1,0,2:0:0:0:
256,294,128632,1,0,2:0:0:0:
131,144,128798,1,0,2:0:0:0:
229,228,128965,1,0,2:0:0:0:
157,209,129132,1,0,2:0:0:0:
229,228,129298,5,0,2:0:0:0:
312,244,129631,1,0,2:0:0:0:
312,244,129965,1,0,2:0:0:0:
312,340,130298,6,0,L|312:305,1,35,0|0,2:0|2:0,2:0:0:0:
276,164,130798,5,0,2:0:0:0:
208,163,130965,1,0,2:0:0:0:
240,224,131131,2,0,L|240:119,1,105,0|0,2:0|2:0,2:0:0:0:
202,287,131965,5,0,2:0:0:0:
271,287,132132,1,0,2:0:0:0:
240,224,132299,1,0,2:0:0:0:
448,120,132631,5,0,2:0:0:0:
64,120,132965,1,0,2:0:0:0:
256,52,133298,6,0,L|256:132,1,70,0|0,2:0|2:0,2:0:0:0:
448,192,133965,5,0,2:0:0:0:
64,192,134299,1,0,2:0:0:0:
256,124,134631,6,0,L|256:204,1,70,0|0,2:0|2:0,2:0:0:0:
448,264,135298,5,0,2:0:0:0:
64,264,135632,1,0,2:0:0:0:
256,192,135965,6,0,L|256:272,1,70,0|0,2:0|2:0,2:0:0:0:
256,64,136631,5,0,2:0:0:0:
256,288,136965,1,0,2:0:0:0:
256,120,137298,5,0,2:0:0:0:
256,92,137465,1,0,2:0:0:0:
256,64,137631,1,0,2:0:0:0:
256,288,137965,5,0,2:0:0:0:
256,64,138299,1,0,2:0:0:0:
256,288,138631,6,0,L|256:368,1,70,0|0,2:0|2:0,2:0:0:0:
256,64,139298,5,0,2:0:0:0:
256,288,139631,1,0,2:0:0:0:
256,134,139965,6,0,L|256:54,1,70,0|0,2:0|2:0,2:0:0:0:
256,288,140631,5,0,2:0:0:0:
360,287,140965,1,0,2:0:0:0:
272,288,141131,1,0,2:0:0:0:
184,288,141298,1,0,2:0:0:0:
432,288,141631,1,0,2:0:0:0:
182,288,141965,2,0,L|112:288,1,70,0|0,2:0|2:0,2:0:0:0:
256,288,142631,5,0,2:0:0:0:
291,288,142797,1,0,2:0:0:0:
326,288,142964,1,0,2:0:0:0:
64,120,143298,5,0,2:0:0:0:
448,120,143632,1,0,2:0:0:0:
256,122,143965,6,0,L|256:52,1,70,0|0,2:0|2:0,2:0:0:0:
64,192,144632,5,0,2:0:0:0:
448,192,144966,1,0,2:0:0:0:
256,194,145298,6,0,L|256:124,1,70,0|0,2:0|2:0,2:0:0:0:
64,264,145965,5,0,2:0:0:0:
448,264,146299,1,0,2:0:0:0:
256,262,146632,6,0,L|256:192,1,70,0|0,2:0|2:0,2:0:0:0:
256,288,147298,5,0,2:0:0:0:
256,64,147632,1,0,2:0:0:0:
256,224,147965,5,0,2:0:0:0:
256,252,148132,1,0,2:0:0:0:
256,280,148298,1,0,2:0:0:0:
256,252,148465,1,0,2:0:0:0:
256,64,148632,5,0,2:0:0:0:
256,288,148966,1,0,2:0:0:0:
256,136,149298,1,0,2:0:0:0:
256,192,149798,5,0,2:0:0:0:
256,192,149965,2,0,L|361:192,1,105,0|0,2:0|2:0,2:0:0:0:
361,192,150631,1,0,2:0:0:0:
256,192,151131,5,0,2:0:0:0:
256,192,151298,1,0,2:0:0:0:
432,192,151631,1,0,2:0:0:0:
80,192,151965,1,0,2:0:0:0:
432,192,152298,1,0,2:0:0:0:
404,192,152465,5,0,2:0:0:0:
404,192,152631,2,0,L|421:192,2,17.5,0|0|0,2:0|2:0|2:0,2:0:0:0:
256,320,153631,6,0,L|308:320,1,52.5,0|0,2:0|2:0,2:0:0:0:
184,320,154298,1,0,2:0:0:0:
380,124,154465,6,0,L|432:124,1,52.5,0|0,2:0|2:0,2:0:0:0:
132,124,155131,2,0,L|97:124,1,35,0|0,2:0|2:0,2:0:0:0:
204,124,155631,1,0,2:0:0:0:
328,320,155798,2,0,L|345:320,1,17.5,0|0,2:0|2:0,2:0:0:0:
256,320,156131,1,0,2:0:0:0:
432,124,156298,1,0,2:0:0:0:
96,128,156465,1,0,2:0:0:0:
432,124,156631,1,0,2:0:0:0:
184,320,156965,2,0,L|149:320,1,35,0|0,2:0|2:0,2:0:0:0:
432,320,157631,2,0,L|467:320,1,35,0|0,2:0|2:0,2:0:0:0:
64,120,158131,5,0,2:0:0:0:
448,264,158297,1,0,2:0:0:0:
64,192,158464,1,0,2:0:0:0:
448,120,158631,1,0,2:0:0:0:
64,264,158797,1,0,2:0:0:0:
448,192,158964,1,0,2:0:0:0:
64,192,159131,1,0,2:0:0:0:
448,120,159298,6,0,L|448:85,1,35,0|0,2:0|2:0,2:0:0:0:
64,264,159965,2,0,L|64:229,1,35,0|0,2:0|2:0,2:0:0:0:
64,336,160465,2,0,L|64:301,1,35,0|0,2:0|2:0,2:0:0:0:
64,157,161131,2,0,L|64:192,1,35,0|0,2:0|2:0,2:0:0:0:
64,84,161631,1,0,2:0:0:0:
64,336,161798,1,0,2:0:0:0:
413,192,161965,2,0,L|448:192,1,35,0|0,2:0|2:0,2:0:0:0:
64,192,162631,1,0,2:0:0:0:
413,192,162965,2,0,L|448:192,1,35,0|0,2:0|2:0,2:0:0:0:
64,192,163631,5,0,2:0:0:0:
448,192,163965,1,0,2:0:0:0:
64,192,164298,1,0,2:0:0:0:
451,187,164631,5,0,2:0:0:0:
416,248,164965,1,0,2:0:0:0:
380,188,165298,1,0,2:0:0:0:
64,192,165631,1,0,2:0:0:0:
380,120,165965,1,0,2:0:0:0:
64,120,166298,1,0,2:0:0:0:
380,192,166631,1,0,2:0:0:0:
64,192,166965,2,0,L|64:157,1,35,0|0,2:0|2:0,2:0:0:0:
448,192,167631,5,0,2:0:0:0:
64,192,167798,1,0,2:0:0:0:
448,264,167965,1,0,2:0:0:0:
64,120,168131,1,0,2:0:0:0:
448,192,168298,1,0,2:0:0:0:
64,264,168465,1,0,2:0:0:0:
448,120,168631,1,0,2:0:0:0:
64,120,168965,1,0,2:0:0:0:
448,120,169131,1,0,2:0:0:0:
256,288,169465,5,0,2:0:0:0:
256,64,169631,1,0,2:0:0:0:
256,216,169798,1,0,2:0:0:0:
256,192,169965,12,0,171965,2:0:0:0:
64,48,172631,6,0,L|368:48,1,280,0|0,3:0|3:0,3:0:0:0:
64,328,173298,2,0,L|64:44,1,280,0|0,3:0|3:0,3:0:0:0:
416,328,173798,5,0,2:0:0:0:
344,328,173965,2,0,L|56:328,1,280,0|0,3:0|3:0,3:0:0:0:
64,192,174465,1,0,2:0:0:0:
136,192,174632,2,0,L|424:192,1,280,0|0,3:0|3:0,3:0:0:0:
136,20,175131,5,0,2:0:0:0:
136,92,175298,2,0,L|136:380,1,280,0|0,3:0|3:0,3:0:0:0:
488,92,175798,1,0,2:0:0:0:
416,92,175965,2,0,L|128:92,1,280,0|0,3:0|3:0,3:0:0:0:
64,320,176465,5,0,2:0:0:0:
136,320,176632,2,0,L|424:320,1,280,0|0,3:0|3:0,3:0:0:0:
64,320,177131,1,0,2:0:0:0:
416,320,177465,5,0,1:0:0:0:
64,320,177631,1,0,1:0:0:0:
416,92,177798,1,0,1:0:0:0:
36,36,177965,5,0,3:0:0:0:
472,360,178298,1,0,2:0:0:0:
36,348,178631,1,0,3:0:0:0:
472,24,178965,1,0,2:0:0:0:
420,72,179131,1,0,3:0:0:0:
92,72,179465,5,0,2:0:0:0:
92,312,179631,1,0,2:0:0:0:
92,72,179798,1,0,3:0:0:0:
92,312,180131,5,0,2:0:0:0:
420,312,180297,1,0,2:0:0:0:
92,312,180465,1,0,2:0:0:0:
420,312,180631,1,0,3:0:0:0:
420,72,181131,5,0,2:0:0:0:
420,312,181297,1,0,3:0:0:0:
92,72,181798,5,0,2:0:0:0:
420,312,181965,1,0,3:0:0:0:
104,84,182131,5,0,2:0:0:0:
364,268,182298,1,0,2:0:0:0:
148,116,182465,1,0,2:0:0:0:
320,236,182631,1,0,3:0:0:0:
188,140,182798,1,0,2:0:0:0:
276,204,182965,1,0,2:0:0:0:
232,172,183131,1,0,2:0:0:0:
420,312,183298,5,0,3:0:0:0:
344,72,183631,5,0,0:0:0:0:
420,312,183798,1,0,0:0:0:0:
344,72,183965,1,0,3:0:0:0:
268,312,184298,5,0,0:0:0:0:
344,72,184465,1,0,0:0:0:0:
268,312,184631,5,0,3:0:0:0:
420,312,184798,1,0,0:0:0:0:
192,312,184965,1,0,0:0:0:0:
420,312,185131,1,0,0:0:0:0:
192,312,185298,1,0,3:0:0:0:
144,152,185465,1,0,0:0:0:0:
168,232,185631,1,0,0:0:0:0:
192,312,185798,1,0,0:0:0:0:
120,72,185965,5,0,3:0:0:0:
336,284,186298,1,0,0:0:0:0:
44,312,186632,1,0,3:0:0:0:
468,240,186965,5,0,0:0:0:0:
44,312,187131,1,0,0:0:0:0:
468,240,187298,5,0,3:0:0:0:
468,80,187465,1,0,0:0:0:0:
468,240,187631,1,0,0:0:0:0:
468,80,187798,1,0,0:0:0:0:
392,240,187965,5,0,3:0:0:0:
392,84,188131,1,0,0:0:0:0:
392,160,188298,1,0,0:0:0:0:
392,240,188465,1,0,0:0:0:0:
320,240,188632,5,0,3:0:0:0:
280,240,188965,1,0,2:0:0:0:
244,240,189299,1,0,2:0:0:0:
204,240,189631,1,0,2:0:0:0:
168,240,189965,5,0,2:0:0:0:
144,240,190131,1,0,2:0:0:0:
128,240,190298,1,0,2:0:0:0:
108,240,190465,1,0,2:0:0:0:
92,240,190631,6,0,L|72:240,1,17.5,0|0,2:0|2:0,2:0:0:0:
56,220,191298,5,0,2:0:0:0:
56,148,191465,1,0,2:0:0:0:
56,76,191631,1,0,2:0:0:0:
56,292,191798,1,0,2:0:0:0:
128,220,191965,5,0,2:0:0:0:
128,148,192132,1,0,2:0:0:0:
128,76,192298,1,0,2:0:0:0:
128,292,192465,1,0,2:0:0:0:
272,220,192631,5,0,2:0:0:0:
200,148,192798,1,0,2:0:0:0:
272,76,192964,1,0,2:0:0:0:
200,292,193131,1,0,2:0:0:0:
344,292,193298,5,0,2:0:0:0:
200,220,193465,1,0,2:0:0:0:
272,148,193631,1,0,2:0:0:0:
416,292,193798,1,0,2:0:0:0:
344,220,193965,5,0,2:0:0:0:
344,76,194132,1,0,2:0:0:0:
344,148,194298,1,0,2:0:0:0:
272,292,194465,1,0,2:0:0:0:
416,148,194631,5,0,2:0:0:0:
416,76,194798,1,0,2:0:0:0:
200,76,194964,1,0,2:0:0:0:
416,224,195131,1,0,2:0:0:0:
200,148,195298,5,0,2:0:0:0:
344,220,195465,1,0,2:0:0:0:
128,148,195631,1,0,2:0:0:0:
272,220,195797,1,0,2:0:0:0:
128,292,195964,5,0,2:0:0:0:
272,148,196131,1,0,2:0:0:0:
128,220,196297,1,0,2:0:0:0:
344,148,196464,1,0,2:0:0:0:
200,220,196631,5,0,2:0:0:0:
200,220,196965,6,0,P|204:148|292:236,1,280,0|0,2:0|2:0,2:0:0:0:
352,200,197298,6,0,P|313:93|253:189,1,280,0|0,2:0|2:0,2:0:0:0:
155,178,197631,6,0,P|159:106|247:194,1,280,0|0,2:0|2:0,2:0:0:0:
307,158,197964,6,0,P|268:51|208:147,1,280,0|0,2:0|2:0,2:0:0:0:
262,116,198298,6,0,P|258:188|170:100,1,280,0|0,2:0|2:0,2:0:0:0:
110,136,198631,6,0,P|148:242|208:146,1,280,0|0,2:0|2:0,2:0:0:0:
307,158,198964,6,0,P|303:230|215:142,1,280,0|0,2:0|2:0,2:0:0:0:
156,179,199298,5,0,2:0:0:0:
258,299,199631,2,0,L|411:299,2,140,0|0|0,2:0|2:0|2:0,2:0:0:0:
81,305,200298,6,0,L|81:16,2,280,0|0|0,2:0|2:0|2:0,2:0:0:0:
398,299,200964,6,0,L|77:19,2,420,0|0|0,2:0|2:0|2:0,2:0:0:0:
398,299,201491,5,0,2:0:0:0:
398,299,201574,1,0,2:0:0:0:
398,299,201657,1,0,2:0:0:0:
399,230,201824,1,0,2:0:0:0:
399,230,201908,6,0,L|116:230,1,280,0|0,2:0|2:0,2:0:0:0:
218,55,202408,6,0,L|218:335,1,280,0|0,2:0|2:0,2:0:0:0:
119,157,202908,6,0,L|402:157,1,280,0|0,2:0|2:0,2:0:0:0:
398,299,203408,6,0,L|115:299,1,280,0|0,2:0|2:0,2:0:0:0:
397,300,203908,5,0,2:0:0:0:
118,299,204074,1,0,2:0:0:0:
397,300,204241,1,0,2:0:0:0:
118,299,204408,1,0,2:0:0:0:
42,301,204574,6,0,B|42:138|42:138|313:138,1,420,0|0,2:0|2:0,2:0:0:0:
301,224,205241,2,0,B|301:63|301:63|26:63,1,420,0|0,2:0|2:0,2:0:0:0:
129,226,205908,2,0,B|387:226|387:226|387:65,1,420,0|0,2:0|2:0,2:0:0:0:
298,67,206574,2,0,P|298:355|298:355,1,280,0|0,2:0|2:0,2:0:0:0:
42,301,207241,5,0,2:0:0:0:
470,301,207574,1,0,2:0:0:0:
257,66,207908,1,0,2:0:0:0:
257,318,208241,1,0,2:0:0:0:
42,83,208574,1,0,2:0:0:0:
470,83,208907,1,0,2:0:0:0:
257,318,209241,1,0,2:0:0:0:
257,66,209574,1,0,2:0:0:0:
404,192,211074,5,0,2:0:0:0:
404,192,211240,2,0,L|428:192,2,17.5,0|0|0,2:0|2:0|2:0,2:0:0:0:
256,64,212240,6,0,L|296:64,1,35,0|0,2:0|2:0,2:0:0:0:
380,260,213074,6,0,L|448:260,1,52.5,0|0,2:0|2:0,2:0:0:0:
132,260,213740,2,0,L|88:260,1,35,0|0,2:0|2:0,2:0:0:0:
204,260,214240,1,0,2:0:0:0:
328,64,214407,2,0,L|352:64,1,17.5,0|0,2:0|2:0,2:0:0:0:
256,64,214740,1,0,2:0:0:0:
432,260,214907,1,0,2:0:0:0:
96,256,215074,1,0,2:0:0:0:
432,260,215240,1,0,2:0:0:0:
184,64,215574,2,0,L|149:64,1,35,0|0,2:0|2:0,2:0:0:0:
432,64,216240,2,0,L|467:64,1,35,0|0,2:0|2:0,2:0:0:0:
64,264,216740,5,0,2:0:0:0:
448,120,216906,1,0,2:0:0:0:
64,192,217073,1,0,2:0:0:0:
448,264,217240,1,0,2:0:0:0:
64,120,217406,1,0,2:0:0:0:
448,192,217573,1,0,2:0:0:0:
64,192,217740,1,0,2:0:0:0:
448,264,217907,6,0,L|448:308,1,35,0|0,2:0|2:0,2:0:0:0:
64,120,218574,2,0,L|64:164,1,35,0|0,2:0|2:0,2:0:0:0:
64,48,219074,2,0,L|64:92,1,35,0|0,2:0|2:0,2:0:0:0:
64,227,219740,2,0,L|64:187,1,35,0|0,2:0|2:0,2:0:0:0:
64,300,220240,1,0,2:0:0:0:
64,48,220407,1,0,2:0:0:0:
413,192,220574,2,0,L|461:192,1,35,0|0,2:0|2:0,2:0:0:0:
64,192,221240,1,0,2:0:0:0:
413,192,221574,2,0,L|461:192,1,35,0|0,2:0|2:0,2:0:0:0:
64,192,222240,5,0,2:0:0:0:
448,192,222574,1,0,2:0:0:0:
64,192,222907,1,0,2:0:0:0:
451,197,223240,5,0,2:0:0:0:
416,136,223574,1,0,2:0:0:0:
380,196,223907,2,0,L|380:242,2,35,0|0|0,2:0|2:0|2:0,2:0:0:0:
452,196,224907,1,0,2:0:0:0:
64,192,225240,1,0,2:0:0:0:
452,231,225574,2,0,L|452:183,1,35,0|0,2:0|2:0,2:0:0:0:
37,38,226574,6,0,L|29:38,1,7,0|0,2:0|2:0,2:0:0:0:
477,357,227074,1,0,2:0:0:0:
40,38,227241,1,0,2:0:0:0:
477,357,227574,1,0,2:0:0:0:
40,38,227741,1,0,2:0:0:0:
256,192,228074,5,0,2:0:0:0:
256,192,228574,12,0,230241,2:0:0:0:
212,240,230908,5,0,2:0:0:0:
144,252,231075,1,0,2:0:0:0:
236,172,231242,1,0,2:0:0:0:
188,312,231408,1,0,2:0:0:0:
168,184,231575,1,0,2:0:0:0:
100,196,231742,1,0,2:0:0:0:
195,120,231908,6,0,P|246:106|285:124,1,70,0|0,2:0|2:0,2:0:0:0:
236,172,232408,1,0,2:0:0:0:
217,58,232575,1,0,2:0:0:0:
236,172,232908,5,0,2:0:0:0:
248,240,233075,1,0,2:0:0:0:
304,196,233242,1,0,2:0:0:0:
343,140,233575,5,0,2:0:0:0:
264,256,233742,1,0,2:0:0:0:
372,204,233908,1,0,2:0:0:0:
236,192,234075,1,0,2:0:0:0:
332,260,234242,1,0,2:0:0:0:
272,136,234408,1,0,2:0:0:0:
304,200,234575,6,0,L|304:272,1,70,0|0,2:0|2:0,2:0:0:0:
304,200,235242,1,0,2:0:0:0:
308,264,235575,5,0,2:0:0:0:
373,287,235742,1,0,2:0:0:0:
363,217,235909,1,0,2:0:0:0:
268,136,236242,5,0,2:0:0:0:
200,136,236408,1,0,2:0:0:0:
200,208,236575,1,0,2:0:0:0:
268,208,236742,1,0,2:0:0:0:
268,136,236908,1,0,2:0:0:0:
200,136,237075,1,0,2:0:0:0:
200,208,237241,6,0,P|220:212|272:208,1,70,0|0,2:0|2:0,2:0:0:0:
236,144,237741,1,0,2:0:0:0:
236,280,237907,2,0,L|373:280,1,105,0|0,2:0|2:0,2:0:0:0:
236,280,238574,5,0,2:0:0:0:
348,280,238907,1,0,2:0:0:0:
180,280,239241,1,0,2:0:0:0:
292,280,239574,1,0,2:0:0:0:
124,280,239907,1,0,2:0:0:0:
236,280,240240,1,0,2:0:0:0:
256,192,240407,12,0,241408,2:0:0:0:
256,192,242241,5,0,2:0:0:0:
256,192,242574,6,0,L|256:144,2,35,0|0|0,2:0|2:0|2:0,2:0:0:0:
