osu file format v14

[General]
AudioFilename: audio.mp3
AudioLeadIn: 0
PreviewTime: 111131
Countdown: 0
SampleSet: Soft
StackLeniency: 0.7
Mode: 0
LetterboxInBreaks: 0
WidescreenStoryboard: 1

[Editor]
Bookmarks: 153965
DistanceSpacing: 0.6
BeatDivisor: 4
GridSize: 4
TimelineZoom: 1.9

[Metadata]
Title:Orange
TitleUnicode:オレンジ
Artist:Hanatan
ArtistUnicode:花たん
Creator:Hishiro Chizuru
Version:Hard
Source:
Tags:amb1d3x AIR sasasasasasami Syameimaru-Aya Syameimaru Aya Japanese Pop YURiCa tohma トーマ hatsune miku 初音ミク Flower ユリカ/花たん
BeatmapID:2182190
BeatmapSetID:989467

[Difficulty]
HPDrainRate:5
CircleSize:4
OverallDifficulty:7
ApproachRate:7.5
SliderMultiplier:1.4
SliderTickRate:1

[Events]
//Background and Video events
0,0,"sbeve.png",0,0
//Break Periods
2,100507,107816
//Storyboard Layer 0 (Background)
//Storyboard Layer 1 (Fail)
//Storyboard Layer 2 (Pass)
//Storyboard Layer 3 (Foreground)
//Storyboard Layer 4 (Overlay)
//Storyboard Sound Samples

[TimingPoints]
1975,666.666666666667,4,2,1,20,1,0
1975,-133.333333333333,4,2,1,20,0,0
4641,-117.647058823529,4,2,1,30,0,0
5308,-117.647058823529,4,2,1,40,0,0
9975,-100,4,2,1,50,0,0
11975,-100,4,2,1,40,0,0
12641,-100,4,2,1,50,0,0
16141,-100,4,2,1,30,0,0
16641,-100,4,2,1,40,0,0
17975,-90.9090909090909,4,2,1,65,0,0
28141,-90.9090909090909,4,2,1,45,0,0
28308,-90.9090909090909,4,2,1,60,0,0
36641,-90.9090909090909,4,2,1,45,0,0
39308,-100,4,2,1,60,0,0
67808,-100,4,2,1,45,0,0
68141,-100,4,2,1,40,0,0
68641,-100,4,2,1,60,0,0
70975,-100,4,2,1,45,0,0
71308,-100,4,2,1,60,0,0
75225,-100,4,2,1,15,0,0
75308,-100,4,2,1,40,0,0
76641,-100,4,2,1,60,0,0
79308,-100,4,2,1,55,0,0
79641,-100,4,2,1,60,0,0
79975,-100,4,2,1,65,0,0
80308,-133.333333333333,4,2,1,70,0,0
80641,-200,4,2,1,40,0,0
81641,-200,4,2,1,40,0,0
81975,-80,4,2,1,70,0,0
90975,-125,4,2,1,70,0,0
91975,-80,4,2,1,70,0,0
92141,-80,4,2,1,55,0,0
92308,-80,4,2,1,70,0,0
99308,-80,4,2,1,60,0,0
99641,-200,4,2,1,60,0,0
100641,-200,4,2,1,55,0,0
108641,-100,4,2,1,45,0,0
109308,-100,4,2,1,50,0,0
110308,-100,4,2,1,40,0,0
110641,-100,4,2,1,45,0,0
110975,-100,4,2,1,30,0,0
113308,-100,4,2,1,35,0,0
113975,-100,4,2,1,65,0,0
131808,-100,4,2,1,50,0,0
132641,-100,4,2,1,65,0,0
142475,-100,4,2,1,40,0,0
143308,-100,4,2,1,65,0,0
151975,-142.857142857143,4,2,1,65,0,0
152641,-133.333333333333,4,2,1,45,0,0
153641,-200,4,2,1,65,0,0
153975,-80,4,2,1,70,0,0
164141,-80,4,2,1,50,0,0
164641,-80,4,2,1,70,0,0
172141,-80,4,2,1,60,0,0
172641,-80,4,2,1,75,0,0
172975,-80,4,2,1,70,0,0
177975,-80,4,2,1,75,0,0
178308,-80,4,2,1,70,0,0
183308,-80,4,2,1,60,0,0
183641,-80,4,2,1,70,0,0
188641,-80,4,2,1,60,0,0
188808,-80,4,2,1,70,0,0
190641,-80,4,2,1,40,0,0
190975,-80,4,2,1,5,0,0
191308,-80,4,2,1,60,0,0
206808,-80,4,2,1,45,0,0
206975,-80,4,2,1,55,0,0
207308,-133.333333333333,4,2,1,60,0,0
209975,-133.333333333333,4,2,1,5,0,0
211141,-133.333333333333,4,2,1,60,0,0
212641,-133.333333333333,4,2,1,40,0,0
213308,-133.333333333333,4,2,1,30,0,0
214641,-133.333333333333,4,2,1,60,0,0
215308,-80,4,2,1,70,0,1
222308,-80,4,2,1,45,0,0
222641,-80,4,2,1,70,0,0
222808,-80,4,2,1,45,0,0
223308,-80,4,2,1,70,0,0
228641,-100,4,2,1,70,0,0
229475,-100,4,2,1,50,0,0
230308,-100,4,2,1,70,0,0
230975,-100,4,2,1,20,0,0
231308,-133.333333333333,4,2,1,25,0,0
240308,-133.333333333333,4,2,1,10,0,0
242641,-133.333333333333,4,2,1,10,0,0

[Colours]
Combo1 : 128,255,255
Combo2 : 255,128,192
Combo3 : 128,0,128
Combo4 : 242,24,57

[HitObjects]
34,72,1641,5,0,0:0:0:0:
68,98,1808,1,0,0:0:0:0:
125,41,1975,2,0,P|157:33|196:38,1,52.5000020027161,2|0,0:0|0:0,0:0:0:0:
200,60,2474,1,0,0:0:0:0:
256,120,2641,2,0,P|290:122|324:111,1,52.5000020027161,2|2,0:0|0:0,0:0:0:0:
339,88,3141,1,0,0:0:0:0:
409,23,3308,2,0,L|414:82,1,52.5000020027161,2|0,0:0|0:0,0:0:0:0:
441,153,3808,1,0,0:0:0:0:
415,159,3975,1,2,0:0:0:0:
356,309,4308,5,0,0:0:0:0:
389,291,4475,1,0,0:0:0:0:
340,230,4641,2,0,L|289:225,1,29.7500005674362,2|0,0:0|0:0,0:0:0:0:
249,276,4975,2,0,L|201:282,1,29.7500005674362,2|0,0:0|0:0,0:0:0:0:
141,244,5308,2,0,P|156:212|153:177,1,59.5000011348725,2|2,0:0|0:0,0:0:0:0:
262,111,5975,2,0,P|227:115|198:134,1,59.5000011348725,2|0,0:0|0:0,0:0:0:0:
119,114,6475,1,0,0:0:0:0:
131,79,6641,1,2,0:0:0:0:
159,361,6975,5,0,0:0:0:0:
169,339,7141,1,0,0:0:0:0:
150,263,7308,2,0,L|179:265,3,29.7500005674362,2|0|2|2,0:0|0:0|0:0|0:0,0:0:0:0:
250,314,7975,2,0,P|283:325|318:325,1,59.5000011348725,2|2,0:0|0:0,0:0:0:0:
337,306,8475,1,0,0:0:0:0:
379,235,8641,2,0,P|412:223|447:223,1,59.5000011348725,2|0,0:0|0:0,0:0:0:0:
512,291,9141,1,0,0:0:0:0:
494,317,9308,2,0,L|415:324,1,59.5000011348725,2|2,0:0|0:0,0:0:0:0:
284,140,9975,6,0,L|204:147,2,70,2|2|2,0:0|0:0|0:0,0:0:0:0:
348,192,10975,1,2,0:0:0:0:
406,95,11641,1,2,0:0:0:0:
401,295,11975,5,8,3:2:0:0:
296,310,12141,1,8,3:2:0:0:
234,237,12308,1,2,0:3:0:0:
223,220,12641,6,0,P|217:250|180:286,1,70,14|8,0:1|0:1,0:0:0:0:
59,328,13308,2,0,P|87:317|137:331,1,70,10|2,0:0|0:0,0:0:0:0:
204,384,13808,1,8,0:1:0:0:
200,356,13975,1,8,0:1:0:0:
176,178,14308,1,12,0:1:0:0:
176,178,14641,2,0,L|246:171,1,70,8|2,0:0|0:0,0:0:0:0:
417,60,15308,6,0,L|338:53,1,70,10|12,0:1|0:1,0:0:0:0:
303,158,15975,1,8,0:0:0:0:
299,140,16141,1,8,3:0:0:0:
216,162,16308,1,8,3:0:0:0:
220,138,16474,1,4,3:0:0:0:
134,147,16641,5,8,0:0:0:0:
33,37,16975,2,0,L|137:28,1,105,6|0,0:0|0:0,0:0:0:0:
221,78,17641,1,10,0:0:0:0:
180,149,17808,1,8,0:0:0:0:
239,247,17975,6,0,P|243:286|231:322,1,77.0000023498536,12|8,0:1|0:1,0:0:0:0:
200,349,18475,1,2,0:0:0:0:
106,316,18641,2,0,P|102:277|113:241,1,77.0000023498536,8|2,0:0|0:3,0:0:0:0:
219,228,19141,1,2,0:0:0:0:
239,247,19308,2,0,L|290:242,1,38.5000011749268,8|2,0:1|0:0,0:0:0:0:
332,298,19641,2,0,L|383:302,1,38.5000011749268,8|2,0:1|0:0,0:0:0:0:
429,234,19975,1,10,0:0:0:0:
485,106,20308,1,2,0:0:0:0:
475,134,20475,1,2,0:0:0:0:
416,59,20641,6,0,P|377:59|325:68,1,77.0000023498536,8|0,0:1|0:0,0:0:0:0:
321,95,21141,1,2,0:0:0:0:
254,44,21308,2,0,P|212:52|174:50,1,77.0000023498536,8|0,0:0|0:0,0:0:0:0:
108,91,21808,1,2,0:0:0:0:
96,107,21975,2,0,L|92:145,1,38.5000011749268,8|2,0:1|0:0,0:0:0:0:
122,212,22308,2,0,L|125:250,1,38.5000011749268,8|2,0:1|0:0,0:0:0:0:
76,319,22641,1,10,0:0:0:0:
203,323,22975,1,2,0:0:0:0:
188,346,23141,1,2,0:0:0:0:
298,352,23308,6,0,P|300:306|285:274,1,77.0000023498536,8|0,0:1|0:0,0:0:0:0:
264,255,23808,1,2,0:0:0:0:
352,227,23975,2,0,P|344:189|356:153,1,77.0000023498536,8|2,0:0|0:3,0:0:0:0:
299,91,24475,1,2,0:0:0:0:
276,73,24641,2,0,L|237:76,1,38.5000011749268,8|0,0:1|0:0,0:0:0:0:
180,132,24975,2,0,L|141:128,1,38.5000011749268,8|0,0:1|0:0,0:0:0:0:
75,70,25308,1,10,0:0:0:0:
30,272,25641,1,2,0:0:0:0:
39,238,25808,1,2,0:0:0:0:
104,321,25975,6,0,P|142:328|180:332,2,77.0000023498536,12|8|8,0:1|0:1|0:0,0:0:0:0:
387,285,26975,6,0,P|409:247|381:134,1,154.000004699707,12|2,0:1|1:3,0:0:0:0:
483,70,27975,2,0,P|464:66|444:68,2,38.5000011749268,8|0|2,0:0|3:0|3:0,0:0:0:0:
229,0,28641,6,0,L|221:87,1,77.0000023498536,12|0,0:1|0:0,0:0:0:0:
241,109,29141,1,2,0:0:0:0:
162,155,29308,2,0,L|169:238,1,77.0000023498536,8|2,0:0|0:3,0:0:0:0:
235,292,29808,1,2,0:0:0:0:
211,322,29975,2,0,P|192:328|173:328,1,38.5000011749268,8|0,0:1|0:0,0:0:0:0:
107,284,30308,2,0,P|88:277|69:277,1,38.5000011749268,8|0,0:1|0:0,0:0:0:0:
1,345,30641,1,10,0:0:0:0:
26,166,30975,1,2,0:0:0:0:
32,201,31141,1,2,0:0:0:0:
81,102,31308,6,0,P|119:95|156:105,1,77.0000023498536,8|0,0:1|0:0,0:0:0:0:
176,138,31808,1,2,0:0:0:0:
239,86,31975,2,0,P|276:95|313:87,1,77.0000023498536,8|2,0:0|0:3,0:0:0:0:
385,30,32475,1,2,0:0:0:0:
406,52,32641,2,0,L|410:99,1,38.5000011749268,8|0,0:1|0:0,0:0:0:0:
465,150,32975,2,0,L|469:197,1,38.5000011749268,8|0,0:1|0:0,0:0:0:0:
417,266,33308,1,10,0:0:0:0:
256,226,33641,1,2,0:0:0:0:
292,233,33808,1,2,0:0:0:0:
183,274,33975,6,0,L|175:194,1,77.0000023498536,8|0,0:1|0:0,0:0:0:0:
148,172,34475,1,2,0:0:0:0:
245,150,34641,2,0,L|253:70,1,77.0000023498536,10|2,0:0|0:3,0:0:0:0:
184,17,35141,1,2,0:0:0:0:
155,5,35308,2,0,P|117:15|89:41,1,77.0000023498536,8|8,0:1|0:1,0:0:0:0:
90,77,35808,1,2,0:0:0:0:
26,132,35975,2,0,L|32:211,1,77.0000023498536,10|2,0:0|0:0,0:0:0:0:
247,360,36641,6,0,L|253:283,1,77.0000023498536,12|0,0:1|0:0,0:0:0:0:
231,254,37141,1,2,0:0:0:0:
297,201,37308,1,8,0:1:0:0:
294,57,37641,1,2,0:3:0:0:
324,73,37808,1,0,0:0:0:0:
223,92,37975,2,0,L|218:176,1,77.0000023498536,12|2,0:1|0:0,0:0:0:0:
356,319,38641,1,8,3:2:0:0:
362,247,38808,1,8,3:0:0:0:
368,175,38975,1,4,3:0:0:0:
125,12,39308,6,0,L|132:81,2,70,12|0|8,0:1|0:0|0:0,0:0:0:0:
183,153,40475,1,8,0:1:0:0:
183,153,40641,2,0,L|177:222,1,70,8|2,0:1|0:3,0:0:0:0:
115,341,41308,2,0,L|109:271,1,70,8|0,0:0|0:0,0:0:0:0:
379,153,41975,6,0,L|371:240,1,70,8|8,0:1|0:1,0:0:0:0:
390,76,42641,1,8,0:0:0:0:
436,278,43141,1,8,0:1:0:0:
436,278,43308,2,0,P|408:299|374:306,2,70,8|2|8,0:1|0:3|0:0,0:0:0:0:
368,50,44641,6,0,L|281:43,2,70,8|0|8,0:1|0:0|0:0,0:0:0:0:
231,100,45808,1,8,0:1:0:0:
231,100,45975,2,0,L|144:107,1,70,8|2,0:1|0:3,0:0:0:0:
103,47,46641,2,0,L|16:40,1,70,8|0,0:0|0:0,0:0:0:0:
10,202,47308,6,0,L|19:297,1,70,8|0,0:1|0:0,0:0:0:0:
76,329,47975,1,8,0:0:0:0:
288,361,48475,1,8,0:1:0:0:
288,361,48641,2,0,L|292:291,1,70,8|2,0:1|0:3,0:0:0:0:
235,213,49308,2,0,L|270:216,2,35,8|0|4,3:2|3:0|0:3,0:0:0:0:
512,384,49975,6,0,P|480:370|442:369,2,70,12|0|8,0:1|0:0|0:0,0:0:0:0:
408,294,51141,1,8,0:1:0:0:
408,294,51308,2,0,B|377:310|328:306,1,70,8|2,0:1|0:3,0:0:0:0:
284,363,51975,2,0,P|250:354|215:355,1,70,8|2,0:0|0:0,0:0:0:0:
48,221,52641,6,0,L|127:212,2,70,8|0|8,0:1|0:0|0:0,0:0:0:0:
200,238,53808,1,8,0:1:0:0:
200,238,53975,2,0,P|200:197|180:153,1,70,8|2,0:1|0:3,0:0:0:0:
243,107,54641,2,0,P|246:78|270:33,1,70,8|0,0:0|0:0,0:0:0:0:
78,5,55308,6,0,L|66:90,1,70,8|8,0:1|0:1,0:0:0:0:
104,145,55975,1,8,0:0:0:0:
41,299,56475,1,8,0:1:0:0:
41,299,56641,2,0,P|103:292|131:269,1,70,8|2,0:1|0:3,0:0:0:0:
159,216,57308,1,8,0:0:0:0:
412,361,57975,6,0,L|424:274,2,70,8|8|8,0:1|0:1|0:0,0:0:0:0:
472,235,59141,1,0,0:0:0:0:
472,235,59308,1,8,0:1:0:0:
498,313,59641,1,2,0:3:0:0:
275,314,59975,1,8,0:0:0:0:
276,231,60141,1,8,3:0:0:0:
199,193,60308,1,4,3:0:0:0:
332,94,60641,5,8,0:1:0:0:
354,277,60975,1,8,0:1:0:0:
193,37,61975,5,8,0:1:0:0:
171,220,62309,1,8,0:1:0:0:
279,191,63308,5,8,0:1:0:0:
295,331,63642,1,8,0:1:0:0:
12,10,64641,6,0,P|50:3|101:21,1,70,12|8,0:0|0:0,0:0:0:0:
67,155,65308,2,0,L|74:108,1,35,8|8,3:2|3:0,0:0:0:0:
49,79,65641,1,4,3:0:0:0:
183,70,65975,5,8,0:1:0:0:
215,204,66308,1,8,0:1:0:0:
347,239,67308,5,8,0:1:0:0:
314,382,67641,2,0,L|288:385,2,23.3333333333333,8|8|8,0:0|0:0|0:0,0:0:0:0:
347,359,67975,2,0,L|383:364,1,35,4|0,1:3|3:0,0:0:0:0:
423,344,68308,2,0,L|459:339,1,35,0|8,3:0|3:2,0:0:0:0:
459,198,68641,6,0,P|434:238|337:257,1,140,12|8,0:1|0:1,0:0:0:0:
257,158,69641,1,0,0:0:0:0:
209,310,69975,2,0,P|243:302|286:310,1,70,8|4,0:1|0:0,0:0:0:0:
413,181,70641,1,8,3:2:0:0:
355,241,70807,1,8,0:0:0:0:
274,228,70974,1,8,3:0:0:0:
19,266,71308,5,8,0:1:0:0:
174,223,71641,1,8,0:1:0:0:
357,105,72641,5,8,0:1:0:0:
512,148,72974,1,8,0:1:0:0:
294,370,73975,5,8,0:1:0:0:
251,215,74308,1,8,0:1:0:0:
443,100,75308,6,0,L|384:109,1,35,12|0,0:0|0:0,0:0:0:0:
332,74,75641,1,8,0:0:0:0:
332,74,75975,5,8,1:3:0:0:
293,142,76142,1,8,3:0:0:0:
243,141,76308,1,4,3:0:0:0:
215,120,76475,1,4,3:0:0:0:
133,111,76641,6,0,P|140:156|163:194,2,70,12|0|8,0:0|0:0|0:0,0:0:0:0:
17,260,77808,1,8,0:1:0:0:
17,260,77975,2,0,P|61:246|114:257,1,70,8|4,0:1|0:0,0:0:0:0:
65,327,78641,1,8,0:0:0:0:
378,303,79141,5,8,0:1:0:0:
378,303,79308,2,0,L|352:333,1,35,10|0,0:1|0:0,0:0:0:0:
344,231,79641,2,0,L|306:244,1,35,8|0,1:3|0:0,0:0:0:0:
348,129,79975,2,0,L|311:111,1,35,4|0,1:3|0:0,0:0:0:0:
477,79,80308,6,0,L|471:24,1,52.5000020027161,4|2,0:0|0:0,0:0:0:0:
503,195,81641,5,0,3:0:0:0:
503,195,81725,1,0,3:0:0:0:
503,195,81808,1,0,3:0:0:0:
503,195,81891,1,0,3:0:0:0:
503,195,81975,6,0,P|461:182|417:186,1,87.5,14|10,0:1|0:1,0:0:0:0:
401,214,82475,1,0,0:0:0:0:
370,303,82641,2,0,P|331:314|285:301,2,87.5,10|0|10,0:0|0:0|0:0,0:0:0:0:
243,226,83475,1,8,0:1:0:0:
221,237,83641,2,0,P|196:266|188:288,1,43.75,8|0,0:1|0:0,0:0:0:0:
218,364,83975,2,0,P|173:376|151:324,1,87.5,10|10,0:0|0:1,0:0:0:0:
52,91,84641,6,0,P|92:74|138:74,1,87.5,10|10,0:1|0:1,0:0:0:0:
245,197,85308,2,0,P|210:170|187:131,1,87.5,8|2,0:0|0:0,0:0:0:0:
240,51,85808,1,8,0:1:0:0:
247,77,85975,1,8,0:1:0:0:
325,127,86141,1,2,0:0:0:0:
401,84,86308,2,0,P|422:83|444:86,1,43.75,10|2,0:1|0:1,0:0:0:0:
492,186,86641,1,10,0:0:0:0:
431,246,86808,1,2,0:1:0:0:
365,206,86975,1,10,0:1:0:0:
231,369,87308,6,0,L|222:277,1,87.5,14|10,0:1|0:1,0:0:0:0:
92,160,87975,2,0,L|84:247,1,87.5,10|0,0:0|0:0,0:0:0:0:
100,280,88475,1,10,0:1:0:0:
217,200,88641,2,0,L|209:112,1,87.5,10|10,0:1|0:1,0:0:0:0:
31,76,89308,2,0,P|73:61|116:65,1,87.5,10|2,0:0|0:0,0:0:0:0:
138,89,89808,1,10,0:1:0:0:
248,47,89975,6,0,L|340:55,2,87.5,14|8|12,0:1|0:1|0:0,0:0:0:0:
223,313,90975,2,0,L|334:322,1,112,6|10,0:0|0:1,0:0:0:0:
138,297,91975,2,0,P|144:276|162:255,2,43.75,0|8|4,3:2|3:0|3:0,0:0:0:0:
45,29,92641,6,0,P|92:15|151:45,1,87.5,12|8,0:1|0:1,0:0:0:0:
158,196,93308,2,0,P|219:174|179:101,1,131.25,10|8,0:1|0:1,0:0:0:0:
183,93,93975,2,0,P|234:70|281:81,1,87.5,10|8,0:1|0:1,0:0:0:0:
438,44,94641,2,0,P|400:22|357:18,1,87.5,10|10,0:0|0:1,0:0:0:0:
508,149,95308,6,0,P|518:191|512:234,1,87.5,12|10,0:1|0:1,0:0:0:0:
490,260,95808,1,10,0:1:0:0:
418,191,95975,2,0,L|366:195,3,43.75,10|10|10|0,0:0|0:1|0:1|0:0,0:0:0:0:
335,260,96641,1,10,0:1:0:0:
251,206,96808,1,8,0:0:0:0:
230,226,96975,2,0,L|224:326,1,87.5,10|8,0:0|0:0,0:0:0:0:
154,363,97475,2,0,L|150:319,1,43.75,10|2,0:1|0:0,0:0:0:0:
12,154,97975,6,0,P|55:141|109:143,1,87.5,12|8,0:1|0:1,0:0:0:0:
154,204,98641,1,8,0:0:0:0:
260,124,98975,1,8,3:2:0:0:
232,122,99141,1,4,3:0:0:0:
184,118,99308,1,8,3:2:0:0:
198,11,99641,6,0,L|246:17,2,35,14|0|2,0:0|0:0|0:0,0:0:0:0:
12,376,108641,6,0,L|74:366,1,35,8|0,0:0|0:0,0:0:0:0:
89,308,108975,1,8,3:0:0:0:
89,308,109058,1,8,3:0:0:0:
89,308,109141,1,8,3:0:0:0:
157,369,109308,1,8,0:0:0:0:
212,296,109475,1,8,0:0:0:0:
420,365,109808,5,0,3:0:0:0:
359,290,109975,1,8,0:0:0:0:
434,157,110308,1,8,3:0:0:0:
274,204,110641,1,8,0:0:0:0:
270,173,110807,1,8,0:0:0:0:
267,146,110974,1,8,3:0:0:0:
475,115,111308,6,0,P|408:102|344:128,1,140,4|2,0:0|0:0,0:0:0:0:
262,264,112475,2,0,L|258:220,1,35,0|2,0:0|0:0,0:0:0:0:
178,150,113308,1,8,3:0:0:0:
175,176,113475,1,8,3:0:0:0:
135,109,113641,1,4,3:0:0:0:
192,48,113808,1,8,3:2:0:0:
275,55,113975,6,0,P|285:88|281:122,1,70,4|2,0:0|0:3,0:0:0:0:
410,128,114641,2,0,P|378:142|355:168,1,70,8|0,0:0|0:0,0:0:0:0:
393,305,115308,1,8,0:1:0:0:
436,238,115641,1,2,0:3:0:0:
317,336,115975,2,0,L|239:325,1,70,8|0,0:0|0:0,0:0:0:0:
1,276,116641,6,0,P|33:266|54:238,1,70,8|8,0:1|0:1,0:0:0:0:
20,85,117308,2,0,P|27:118|50:144,1,70,8|8,0:0|0:1,0:0:0:0:
158,69,117975,1,8,0:1:0:0:
213,132,118308,1,2,0:3:0:0:
315,57,118641,1,8,0:0:0:0:
402,208,119141,5,0,0:0:0:0:
402,208,119308,2,0,L|408:136,1,70,8|8,0:1|0:1,0:0:0:0:
471,265,119975,1,8,0:0:0:0:
316,330,120475,1,8,0:1:0:0:
316,330,120642,2,0,L|309:260,1,70,8|2,0:1|0:3,0:0:0:0:
417,373,121308,2,0,L|424:289,1,70,8|8,0:0|0:1,0:0:0:0:
190,374,121975,6,0,P|155:376|123:360,1,70,4|8,0:1|0:1,0:0:0:0:
145,226,122641,2,0,P|164:254|166:290,1,70,8|8,0:0|0:1,0:0:0:0:
17,300,123308,1,8,0:1:0:0:
50,224,123641,1,2,0:3:0:0:
167,289,123975,2,0,P|201:292|234:281,1,70,8|8,0:0|0:1,0:0:0:0:
283,35,124641,6,0,P|315:24|360:30,1,70,8|8,0:1|0:1,0:0:0:0:
404,100,125308,1,8,0:0:0:0:
276,172,125808,1,0,0:0:0:0:
276,172,125975,2,0,L|269:251,1,70,8|2,0:1|0:3,0:0:0:0:
367,320,126641,2,0,L|360:250,1,70,8|8,0:0|0:1,0:0:0:0:
223,91,127308,6,0,P|189:81|154:84,1,70,8|8,0:1|0:1,0:0:0:0:
114,170,127975,1,8,0:0:0:0:
205,276,128475,1,8,0:1:0:0:
205,276,128642,2,0,L|211:355,1,70,8|2,0:1|0:3,0:0:0:0:
133,378,129308,1,8,0:1:0:0:
19,225,129808,1,8,0:1:0:0:
19,225,129975,6,0,P|18:190|25:156,1,70,8|8,0:1|0:1,0:0:0:0:
99,30,130641,2,0,P|99:64|92:98,1,70,8|8,0:0|0:1,0:0:0:0:
179,161,131308,2,0,P|216:172|249:156,1,70,4|8,0:0|3:2,0:0:0:0:
260,145,131808,1,4,3:0:0:0:
286,124,131975,1,8,3:0:0:0:
334,124,132141,1,8,3:0:0:0:
372,172,132308,1,4,3:0:0:0:
496,8,132641,6,0,P|469:30|460:64,2,70,12|0|8,0:1|0:0|0:0,0:0:0:0:
420,136,133641,2,0,L|423:179,1,35,8|8,0:1|0:0,0:0:0:0:
479,235,133975,2,0,P|450:255|415:255,2,70,8|8|8,0:1|0:1|0:0,0:0:0:0:
364,310,134975,5,8,0:1:0:0:
288,380,135308,2,0,L|292:345,1,35,8|0,0:1|0:0,0:0:0:0:
248,275,135641,2,0,L|244:240,1,35,8|0,0:1|0:0,0:0:0:0:
293,176,135975,1,8,0:0:0:0:
118,151,136308,2,0,L|115:116,1,35,0|8,0:0|0:0,0:0:0:0:
140,69,136641,2,0,P|178:57|220:70,2,70,8|2|8,0:1|0:3|0:0,0:0:0:0:
61,227,137641,2,0,L|65:263,1,35,8|0,0:1|0:0,0:0:0:0:
98,295,137975,2,0,P|131:306|165:298,1,70,8|8,0:1|0:1,0:0:0:0:
249,113,138641,6,0,L|292:117,1,35,8|8,0:0|0:1,0:0:0:0:
344,171,138975,2,0,L|387:167,1,35,0|8,0:0|0:0,0:0:0:0:
443,107,139308,1,8,0:1:0:0:
443,107,139641,2,0,P|455:139|462:173,1,70,2|8,0:3|0:0,0:0:0:0:
413,256,140308,1,8,0:1:0:0:
413,256,140641,5,12,0:1:0:0:
321,187,140975,2,0,L|317:221,1,35,0|8,0:0|0:1,0:0:0:0:
292,258,141308,2,0,P|261:274|227:266,1,70,8|0,0:0|0:0,0:0:0:0:
71,373,141975,2,0,L|63:304,1,70,4|8,0:0|0:0,0:0:0:0:
69,279,142475,1,8,3:0:0:0:
127,205,142641,1,8,3:0:0:0:
134,237,142808,1,8,3:0:0:0:
142,272,142975,1,4,3:0:0:0:
26,18,143308,6,0,P|53:38|87:39,2,70,12|0|8,0:1|0:0|0:0,0:0:0:0:
136,102,144308,2,0,L|187:97,1,35,8|8,0:1|0:0,0:0:0:0:
269,77,144641,2,0,P|256:119|266:174,2,70,0|2|8,0:0|0:3|0:0,0:0:0:0:
205,209,145641,5,8,0:1:0:0:
290,260,145975,2,0,L|285:225,1,35,8|0,0:1|0:0,0:0:0:0:
263,147,146308,2,0,L|267:112,1,35,8|0,0:1|0:0,0:0:0:0:
317,48,146641,1,8,0:0:0:0:
151,33,146975,2,0,L|154:67,1,35,0|8,0:0|0:0,0:0:0:0:
146,114,147308,2,0,P|112:126|77:118,2,70,8|2|8,0:1|0:3|0:0,0:0:0:0:
37,190,148308,1,8,0:1:0:0:
204,253,148641,6,0,P|272:247|320:198,1,140,12|8,0:1|0:0,0:0:0:0:
329,86,149641,2,0,L|372:89,1,35,8|8,0:1|0:1,0:0:0:0:
438,69,149975,2,0,P|410:89|398:121,1,70,8|2,0:1|0:3,0:0:0:0:
420,155,150475,1,8,0:1:0:0:
480,264,150641,2,0,P|433:250|407:258,1,70,8|2,0:0|0:0,0:0:0:0:
386,287,151141,1,8,0:1:0:0:
257,375,151308,2,0,L|246:332,1,35,12|0,0:0|0:0,0:0:0:0:
152,328,151641,2,0,L|174:289,1,35,8|0,1:3|0:0,0:0:0:0:
78,219,151975,6,0,L|125:206,1,48.9999985046387,4|8,1:3|0:1,0:0:0:0:
162,189,152475,1,8,0:1:0:0:
248,132,152641,2,0,L|204:128,1,26.2500010013581,8|8,0:0|0:0,0:0:0:0:
188,56,152975,2,0,L|231:52,1,26.2500010013581,8|8,3:0|3:0,0:0:0:0:
299,43,153308,1,4,3:0:0:0:
353,98,153475,1,0,3:0:0:0:
368,112,153641,1,8,0:0:0:0:
376,116,153808,1,0,0:0:0:0:
425,62,153975,6,0,P|399:96|393:139,1,87.5,14|0,0:1|0:0,0:0:0:0:
406,171,154475,1,10,0:1:0:0:
474,235,154641,2,0,P|479:283|471:323,1,87.5,10|0,0:0|0:0,0:0:0:0:
305,369,155141,1,10,0:1:0:0:
298,342,155308,2,0,P|326:306|393:319,1,87.5,10|8,0:1|0:1,0:0:0:0:
389,327,155808,1,10,0:1:0:0:
283,240,155975,2,0,B|269:233|269:233|181:255,1,87.5,8|10,0:0|0:1,0:0:0:0:
185,281,156475,1,10,0:1:0:0:
70,352,156641,6,0,P|91:297|91:237,2,87.5,14|10|8,0:1|0:1|0:0,0:0:0:0:
30,192,157641,2,0,P|21:145|31:107,1,87.5,10|0,0:1|0:0,0:0:0:0:
55,82,158141,1,0,3:0:0:0:
142,126,158308,1,8,3:0:0:0:
139,144,158475,1,0,3:0:0:0:
186,43,158641,2,0,P|210:37|236:39,1,43.75,8|8,0:0|3:0,0:0:0:0:
298,89,158975,2,0,P|322:94|348:93,1,43.75,0|0,3:0|0:0,0:0:0:0:
509,9,159308,6,0,P|472:52|473:112,1,87.5,14|8,0:1|0:1,0:0:0:0:
503,210,159975,2,0,P|515:252|509:295,1,87.5,10|2,0:0|0:0,0:0:0:0:
492,325,160475,1,10,0:1:0:0:
409,367,160641,2,0,P|385:334|410:286,1,87.5,8|8,0:1|0:1,0:0:0:0:
395,164,161308,2,0,P|374:165|353:171,1,43.75,8|0,0:0|3:0,0:0:0:0:
317,237,161641,1,0,3:0:0:0:
325,269,161808,1,0,3:0:0:0:
226,198,161975,6,0,P|184:185|142:195,1,87.5,14|8,0:1|0:1,0:0:0:0:
108,306,162641,1,8,0:0:0:0:
0,202,162975,2,0,P|6:148|125:119,1,175,14|10,0:1|0:1,0:0:0:0:
202,41,163975,1,8,0:0:0:0:
267,11,164141,1,8,0:3:0:0:
338,60,164308,1,4,0:3:0:0:
512,35,164641,6,0,P|457:19|471:-19,1,87.5,14|8,0:1|0:1,0:0:0:0:
365,183,165308,2,0,L|424:177,1,43.75,10|0,0:0|0:0,0:0:0:0:
500,120,165641,2,0,L|440:114,1,43.75,10|0,0:1|0:0,0:0:0:0:
270,101,165975,2,0,P|260:153|280:207,1,87.5,10|10,0:1|0:1,0:0:0:0:
331,315,166641,1,10,0:0:0:0:
258,308,166808,1,0,0:0:0:0:
185,300,166975,1,10,0:1:0:0:
22,206,167308,5,10,0:1:0:0:
62,94,167641,2,0,L|105:97,1,43.75,8|0,3:0|3:0,0:0:0:0:
215,144,167975,1,10,0:0:0:0:
180,148,168141,1,0,3:0:0:0:
174,56,168308,2,0,L|217:51,1,43.75,8|0,3:0|3:0,0:0:0:0:
295,112,168641,2,0,P|322:79|314:38,1,87.5,10|0,0:1|0:0,0:0:0:0:
441,0,169308,1,8,0:0:0:0:
489,60,169475,1,10,0:1:0:0:
444,136,169641,1,10,0:1:0:0:
444,136,169975,6,0,P|400:155|393:192,1,87.5,12|2,0:1|3:0,0:0:0:0:
456,335,170641,2,0,P|437:288|384:272,1,87.5,8|10,0:0|0:1,0:0:0:0:
379,281,171141,1,10,0:1:0:0:
327,358,171308,1,10,0:0:0:0:
257,374,171475,1,0,3:0:0:0:
190,354,171641,2,0,P|163:335|143:274,1,87.5,8|8,0:3|0:1,0:0:0:0:
222,206,172141,1,0,0:0:0:0:
232,119,172308,1,8,0:1:0:0:
170,76,172475,1,8,0:1:0:0:
130,70,172641,6,0,P|164:43|225:46,1,87.5,12|8,0:0|0:1,0:0:0:0:
256,96,173141,1,0,0:0:0:0:
384,68,173308,2,0,P|349:41|288:44,1,87.5,12|8,0:0|0:0,0:0:0:0:
163,182,173975,6,0,P|177:159|149:181,1,87.5,8|8,0:1|0:1,0:0:0:0:
252,208,174475,1,0,0:0:0:0:
343,182,174641,2,0,P|329:159|357:181,1,87.5,12|0,0:0|0:0,0:0:0:0:
173,282,175308,6,0,B|153:261|153:261|95:270,1,87.5,12|8,0:0|0:1,0:0:0:0:
256,324,175808,1,0,0:0:0:0:
339,282,175975,2,0,B|359:261|359:261|423:272,1,87.5,12|0,0:0|0:0,0:0:0:0:
178,116,176641,6,0,P|168:70|187:23,1,87.5,8|8,0:0|0:1,0:0:0:0:
256,192,177141,1,0,0:0:0:0:
334,268,177308,2,0,P|344:314|325:361,1,87.5,12|0,0:0|0:0,0:0:0:0:
339,91,177975,6,0,B|360:77|360:77|435:88,1,87.5,12|8,0:0|0:1,0:0:0:0:
256,144,178475,1,0,0:0:0:0:
173,91,178641,2,0,B|152:77|152:77|77:88,1,87.5,12|0,0:0|0:0,0:0:0:0:
355,248,179308,6,0,P|370:197|404:174,1,87.5,8|8,0:0|0:1,0:0:0:0:
256,296,179808,1,0,0:0:0:0:
157,248,179975,2,0,P|142:197|108:174,1,87.5,12|0,0:0|0:0,0:0:0:0:
417,358,180641,6,0,P|417:306|386:267,1,87.5,12|0,0:0|0:0,0:0:0:0:
368,261,181141,1,8,0:1:0:0:
432,181,181308,2,0,P|386:155|337:162,1,87.5,12|0,0:0|0:0,0:0:0:0:
328,182,181808,1,8,0:1:0:0:
308,63,181975,2,0,P|288:72|275:89,1,43.75,8|0,0:0|0:0,0:0:0:0:
192,107,182308,2,0,P|182:87|184:65,1,43.75,8|0,0:1|0:0,0:0:0:0:
325,217,182641,5,8,0:0:0:0:
243,259,182808,1,8,0:0:0:0:
247,167,182975,1,8,3:0:0:0:
364,359,183308,6,0,P|411:338|440:279,1,87.5,12|0,0:0|0:0,0:0:0:0:
256,312,183808,1,8,0:1:0:0:
148,359,183975,2,0,P|101:338|72:279,1,87.5,8|8,0:0|0:1,0:0:0:0:
352,213,184641,6,0,P|422:216|433:230,1,87.5,12|0,0:0|0:0,0:0:0:0:
256,284,185141,1,8,0:1:0:0:
160,213,185308,2,0,P|90:216|79:230,1,87.5,8|0,0:0|0:0,0:0:0:0:
375,116,185975,6,0,B|388:90|388:90|359:25,1,87.5,12|8,0:0|0:1,0:0:0:0:
256,8,186475,1,0,0:0:0:0:
137,116,186641,2,0,B|124:90|124:90|153:25,1,87.5,8|8,0:0|0:1,0:0:0:0:
358,253,187308,6,0,P|365:310|357:344,1,87.5,12|8,0:0|0:1,0:0:0:0:
256,196,187808,1,8,0:1:0:0:
154,131,187975,2,0,P|147:74|155:40,1,87.5,12|0,0:0|0:0,0:0:0:0:
128,276,188641,5,12,0:0:0:0:
51,209,188975,1,8,0:1:0:0:
392,104,189308,5,8,0:0:0:0:
469,171,189642,1,8,0:1:0:0:
184,48,189975,5,8,0:0:0:0:
328,48,190141,1,8,0:0:0:0:
256,22,190308,1,8,0:0:0:0:
256,192,190641,5,8,3:0:0:0:
48,364,191308,6,0,P|88:344|148:348,1,87.5,14|0,0:1|0:0,0:0:0:0:
151,357,191808,1,2,0:0:0:0:
237,250,191975,2,0,B|213:238|213:238|137:250,1,87.5,10|0,0:0|0:0,0:0:0:0:
131,267,192475,1,10,0:1:0:0:
65,222,192641,1,10,0:1:0:0:
93,147,192808,1,8,0:0:0:0:
119,157,192975,1,10,0:1:0:0:
203,39,193308,2,0,L|194:138,1,87.5,10|2,0:0|0:0,0:0:0:0:
284,322,193975,6,0,P|327:337|376:301,1,87.5,10|10,0:1|0:1,0:0:0:0:
387,294,194475,1,2,0:0:0:0:
456,357,194641,1,10,0:0:0:0:
512,201,194975,1,10,0:0:0:0:
451,141,195142,1,2,0:0:0:0:
385,181,195308,2,0,P|345:198|280:197,1,87.5,10|10,0:1|0:1,0:0:0:0:
149,148,195975,2,0,P|189:131|254:132,1,87.5,10|10,0:0|0:1,0:0:0:0:
21,383,196641,6,0,P|11:340|11:296,1,87.5,14|2,0:1|0:0,0:0:0:0:
25,262,197141,1,10,0:1:0:0:
76,183,197308,2,0,P|78:160|74:136,3,43.75,10|2|10|2,0:0|0:0|0:1|0:0,0:0:0:0:
34,57,197975,1,10,0:1:0:0:
102,16,198141,1,10,0:0:0:0:
181,45,198308,1,10,0:1:0:0:
119,177,198641,2,0,L|113:126,1,43.75,10|0,0:0|0:0,0:0:0:0:
201,157,198975,2,0,L|206:200,1,43.75,10|0,0:1|0:0,0:0:0:0:
418,126,199308,6,0,P|365:113|317:137,1,87.5,14|0,0:1|0:0,0:0:0:0:
319,147,199808,1,10,0:1:0:0:
268,243,199975,2,0,P|239:212|239:169,1,87.5,10|8,0:0|0:1,0:0:0:0:
260,143,200475,1,10,0:1:0:0:
192,62,200641,1,10,0:1:0:0:
133,136,200808,1,8,0:0:0:0:
133,136,200975,2,0,L|69:133,1,43.75,10|0,0:1|0:0,0:0:0:0:
23,81,201308,1,14,0:1:0:0:
7,187,201475,1,8,0:0:0:0:
7,187,201558,1,8,0:0:0:0:
7,187,201641,2,0,P|1:215|1:259,1,43.75,10|10,0:0|0:0,0:0:0:0:
46,334,201975,6,0,P|92:335|141:323,1,87.5,14|8,0:1|0:1,0:0:0:0:
236,293,202475,2,0,P|213:332|199:380,1,87.5,2|8,0:0|0:1,0:0:0:0:
365,348,202975,2,0,P|343:307|308:271,1,87.5,2|8,0:0|0:1,0:0:0:0:
399,236,203475,2,0,P|445:237|494:225,1,87.5,10|0,0:0|0:0,0:0:0:0:
340,158,203975,2,0,P|324:177|315:197,1,43.75,10|0,0:0|0:0,0:0:0:0:
271,303,204308,2,0,P|275:279|283:260,1,43.75,10|0,0:1|0:0,0:0:0:0:
203,368,204641,6,0,P|162:384|119:383,1,87.5,10|0,0:1|0:0,0:0:0:0:
88,365,205141,1,10,0:1:0:0:
8,274,205308,2,0,B|43:252|43:252|113:253,1,87.5,10|0,0:0|0:0,0:0:0:0:
115,278,205808,1,10,0:1:0:0:
205,228,205975,1,10,0:1:0:0:
172,133,206141,1,10,0:0:0:0:
172,133,206308,2,0,P|173:109|181:81,1,43.75,10|0,0:3|0:0,0:0:0:0:
96,162,206641,2,0,P|75:172|46:180,1,43.75,10|10,0:0|3:0,0:0:0:0:
19,158,206975,1,4,0:3:0:0:
264,27,207308,5,14,0:1:0:0:
220,111,207641,2,0,P|215:95|177:61,1,52.5000020027161,8|8,0:1|0:1,0:0:0:0:
313,199,208641,6,0,P|322:174|341:156,2,52.5000020027161,10|8|8,0:0|0:1|0:1,0:0:0:0:
372,338,209641,1,14,0:0:0:0:
468,229,211141,5,2,0:0:0:0:
468,229,211225,1,2,0:0:0:0:
468,229,211308,1,2,0:0:0:0:
400,38,212641,6,0,P|429:11|466:-1,1,78.7500030040742,2|0,0:0|0:0,0:0:0:0:
392,131,213308,2,0,P|354:120|325:93,1,78.7500030040742,2|0,0:0|0:0,0:0:0:0:
477,93,213975,2,0,P|486:130|477:169,1,78.7500030040742,2|0,0:0|0:0,0:0:0:0:
413,261,214641,5,8,0:1:0:0:
390,243,214808,2,0,L|350:246,2,26.2500010013581,8|0|8,0:0|0:0|0:1,0:0:0:0:
337,143,215308,6,0,P|294:150|259:176,1,87.5,14|0,0:0|0:0,0:0:0:0:
254,211,215808,1,8,0:1:0:0:
189,331,215975,2,0,P|190:287|173:247,1,87.5,8|10,0:0|0:1,0:0:0:0:
143,232,216475,1,0,0:0:0:0:
55,264,216641,1,8,0:1:0:0:
28,244,216808,2,0,P|35:223|49:207,2,43.75,10|10|10,0:0|0:1|0:1,0:0:0:0:
108,155,217308,2,0,P|97:135|84:118,1,43.75,10|0,0:0|0:0,0:0:0:0:
19,39,217641,2,0,P|40:39|62:36,1,43.75,10|0,0:1|0:0,0:0:0:0:
241,81,217975,6,0,B|259:95|259:95|329:83,1,87.5,14|8,0:0|0:1,0:0:0:0:
510,12,218641,2,0,P|471:31|457:71,1,87.5,10|8,0:0|0:1,0:0:0:0:
492,190,219141,1,10,0:1:0:0:
492,190,219308,2,0,P|462:185|432:184,1,43.75,8|10,0:0|0:1,0:0:0:0:
345,245,219641,2,0,P|375:240|405:239,1,43.75,8|10,0:1|0:1,0:0:0:0:
485,382,219975,2,0,P|492:339|484:296,1,87.5,8|2,0:0|0:0,0:0:0:0:
470,271,220475,1,10,0:1:0:0:
346,342,220641,6,0,B|316:353|316:353|257:346,2,87.5,14|8|8,0:0|0:1|3:0,0:0:0:0:
234,254,221641,2,0,P|189:266|246:267,1,175,14|6,0:0|0:0,0:0:0:0:
50,367,222641,5,10,0:0:0:0:
102,311,222808,1,8,3:0:0:0:
47,235,222975,2,0,P|44:213|47:191,1,43.75,8|0,3:0|3:0,0:0:0:0:
181,228,223308,6,0,P|158:265|120:286,1,87.5,12|8,0:0|0:1,0:0:0:0:
31,103,223975,2,0,P|74:103|110:126,1,87.5,10|10,0:0|0:1,0:0:0:0:
180,293,224641,2,0,P|183:265|190:248,1,43.75,10|0,0:1|0:0,0:0:0:0:
260,222,224975,2,0,P|263:200|256:168,1,43.75,10|0,0:1|0:0,0:0:0:0:
332,276,225308,2,0,P|328:298|328:319,1,43.75,10|0,0:0|0:0,0:0:0:0:
406,202,225641,2,0,P|407:223|402:245,1,43.75,10|0,0:1|0:0,0:0:0:0:
512,113,225975,6,0,P|481:82|439:70,1,87.5,14|0,0:0|0:0,0:0:0:0:
412,85,226475,1,8,0:1:0:0:
317,203,226641,2,0,P|283:177|290:136,1,87.5,14|0,0:0|0:0,0:0:0:0:
315,117,227141,1,8,0:1:0:0:
372,269,227308,2,0,B|353:285|353:285|271:299,1,87.5,14|0,0:0|0:0,0:0:0:0:
258,299,227808,1,10,0:1:0:0:
140,246,227975,2,0,L|198:239,1,43.75,8|0,0:0|3:0,0:0:0:0:
231,164,228308,1,8,3:0:0:0:
231,164,228475,1,4,3:0:0:0:
160,35,228641,6,0,P|150:73|164:115,1,70,14|8,0:1|0:0,0:0:0:0:
76,214,229308,2,0,P|87:200|91:184,1,35,8|8,0:0|3:0,0:0:0:0:
58,115,229641,1,8,3:0:0:0:
58,115,229808,1,8,3:0:0:0:
173,83,229975,1,12,3:0:0:0:
123,312,230308,5,12,0:1:0:0:
280,209,230975,5,0,0:0:0:0:
311,195,231141,1,0,0:0:0:0:
388,231,231308,2,0,P|417:233|448:222,1,52.5000020027161,2|0,0:0|0:0,0:0:0:0:
458,199,231808,1,0,0:0:0:0:
494,117,231975,2,0,P|468:111|442:113,1,52.5000020027161,2|0,0:0|0:0,0:0:0:0:
366,146,232475,1,0,0:0:0:0:
366,146,232641,1,2,0:0:0:0:
283,64,232975,1,0,0:0:0:0:
214,116,233308,1,2,0:0:0:0:
141,47,233641,1,0,0:0:0:0:
112,36,233808,1,0,0:0:0:0:
43,80,233975,6,0,P|44:93|44:106,3,26.2500010013581,2|0|0|0,0:0|0:0|0:0|0:0,0:0:0:0:
20,181,234641,2,0,P|14:206|20:232,1,52.5000020027161,2|0,0:0|0:0,0:0:0:0:
46,316,235308,1,2,0:0:0:0:
116,262,235642,1,0,0:0:0:0:
184,316,235975,1,2,0:0:0:0:
291,363,236308,1,0,0:0:0:0:
311,337,236475,1,0,0:0:0:0:
383,367,236641,6,0,P|386:352|385:331,3,26.2500010013581,2|0|0|0,0:0|0:0|0:0|0:0,0:0:0:0:
420,270,237308,2,0,P|416:237|428:202,1,52.5000020027161,2|0,0:0|0:0,0:0:0:0:
435,188,237808,1,0,0:0:0:0:
343,148,237975,2,0,P|350:186|336:222,1,78.7500030040742,2|0,0:0|0:0,0:0:0:0:
294,243,238641,2,0,L|259:240,1,26.2500010013581,2|0,0:0|0:0,0:0:0:0:
206,197,238975,2,0,L|171:200,1,26.2500010013581,0|0,0:0|0:0,0:0:0:0:
123,124,239308,6,0,L|196:119,3,52.5000020027161,2|2|2|2,0:0|0:0|0:0|0:0,0:0:0:0:
12,368,242308,5,2,0:0:0:0:
66,304,242641,2,0,L|101:307,2,26.2500010013581,2|0|2,0:0|0:0|0:0,0:0:0:0:
