osu file format v14

[General]
AudioFilename: audio.mp3
AudioLeadIn: 0
PreviewTime: 196978
Countdown: 0
SampleSet: Soft
StackLeniency: 0.7
Mode: 0
LetterboxInBreaks: 0
WidescreenStoryboard: 1

[Editor]
Bookmarks: 47120
DistanceSpacing: 1.7
BeatDivisor: 4
GridSize: 4
TimelineZoom: 1.5

[Metadata]
Title:Kokoronashi
TitleUnicode:心做し
Artist:Hanatan
ArtistUnicode:花たん
Creator:pishifat
Version:Insane
Source:
Tags:蝶々P papiyon vocaloid megpoid gumi yurica somehow
BeatmapID:1195081
BeatmapSetID:565432

[Difficulty]
HPDrainRate:6
CircleSize:4
OverallDifficulty:8
ApproachRate:9
SliderMultiplier:0.999999999999999
SliderTickRate:1

[Events]
//Background and Video events
0,0,"png.png",0,0
//Break Periods
2,104404,114130
2,175765,196374
//Storyboard Layer 0 (Background)
//Storyboard Layer 1 (Fail)
//Storyboard Layer 2 (Pass)
//Storyboard Layer 3 (Foreground)
//Storyboard Sound Samples

[TimingPoints]
1446,356.803044719315,4,2,1,30,1,0
1446,-133.333333333333,4,2,1,30,0,0
5906,-100,4,2,1,10,0,0
6084,-133.333333333333,4,2,1,30,0,0
11614,-100,4,2,1,10,0,0
11793,-133.333333333333,4,2,1,30,0,0
23567,-57.1428571428571,4,2,1,50,0,0
23924,-100,4,2,1,10,0,0
24102,-100,4,2,1,5,0,0
24281,-100,4,2,1,50,0,0
46403,-80,4,2,1,50,0,0
46759,-100,4,2,1,50,0,0
47473,-133.333333333333,4,2,1,50,0,0
47830,-100,4,2,1,50,0,0
80477,-133.333333333333,4,2,1,50,0,0
81369,-66.6666666666667,4,2,1,80,0,1
81726,-80,4,2,1,80,0,1
83153,-66.6666666666667,4,2,1,80,0,1
83510,-80,4,2,1,80,0,1
83867,-100,4,2,1,80,0,1
84224,-80,4,2,1,80,0,1
89576,-66.6666666666667,4,2,1,80,0,1
89933,-80,4,2,1,80,0,1
92787,-66.6666666666667,4,2,1,80,0,1
93144,-80,4,2,1,80,0,1
94571,-66.6666666666667,4,2,1,80,0,1
94928,-80,4,2,1,80,0,1
95285,-100,4,2,1,80,0,1
95642,-80,4,2,1,80,0,1
100994,-66.6666666666667,4,2,1,80,0,1
101350,-80,4,2,1,80,0,1
103491,-133.333333333333,4,2,1,80,0,1
103848,-100,4,2,1,20,0,1
104205,-100,4,2,1,50,0,0
115622,-80,4,2,1,50,0,0
126327,-74.0740740740741,4,2,1,50,0,0
126773,-80,4,2,1,50,0,0
137744,-111.111111111111,4,2,1,50,0,0
137767,-100,4,2,2,5,0,0
138279,-100,4,2,1,50,0,0
138369,-100,4,2,1,40,0,0
138458,-133.333333333333,4,2,1,30,0,0
140599,-133.333333333333,4,2,1,70,0,0
140955,-100,4,2,1,10,0,0
141134,-100,4,2,1,5,0,0
141312,-80,4,2,1,70,0,0
163256,-100,4,2,1,60,0,0
164148,-100,4,2,1,50,0,0
172354,-400,4,2,1,50,0,0
196884,-111.111111111111,4,2,1,50,0,0
197687,-133.333333333333,4,2,1,50,0,0
198044,-100,4,2,1,10,0,0
198222,-100,4,2,1,50,0,0
198401,-60.6060606060606,4,2,1,80,0,1
198758,-71.4285714285714,4,2,1,80,0,1
200185,-60.6060606060606,4,2,1,80,0,1
200542,-71.4285714285714,4,2,1,80,0,1
200898,-87.719298245614,4,2,1,80,0,1
201255,-71.4285714285714,4,2,1,80,0,1
206607,-60.6060606060606,4,2,1,80,0,1
206964,-71.4285714285714,4,2,1,80,0,1
209818,-60.6060606060606,4,2,1,80,0,1
210175,-71.4285714285714,4,2,1,80,0,1
211602,-60.6060606060606,4,2,1,80,0,1
211959,-71.4285714285714,4,2,1,80,0,1
212316,-86.9565217391304,4,2,1,80,0,1
212673,-71.4285714285714,4,2,1,80,0,1
218025,-60.6060606060606,4,2,1,80,0,1
218382,-71.4285714285714,4,2,1,80,0,1
220523,-133.333333333333,4,2,1,80,0,1
220879,-100,4,2,1,10,0,1
221058,-100,4,2,1,5,0,1
221236,-100,4,2,1,50,0,0
244072,-100,4,2,1,30,0,0
248532,-100,4,2,1,10,0,0
248710,-100,4,2,1,30,0,0
254240,-100,4,2,1,10,0,0
254419,-100,4,2,1,30,0,0

[Colours]
Combo1 : 243,126,130
Combo2 : 196,231,184
Combo3 : 251,172,253
Combo4 : 176,151,198
Combo5 : 234,232,159
Combo6 : 152,166,231

[HitObjects]
347,35,1446,6,0,L|420:48,2,75.000002861023,2|0|0,0:0|0:0|0:0,0:0:0:0:
494,60,2873,2,0,L|420:48,2,75.000002861023,2|0|0,0:0|0:0|0:0,0:0:0:0:
347,35,4300,6,0,L|420:48,1,75.000002861023,2|0,0:0|0:0,0:0:0:0:
494,60,5014,2,0,L|420:48,1,75.000002861023
347,35,5727,2,0,L|421:47,1,75.000002861023,2|0,0:0|0:0,0:0:0:0:
494,60,6441,2,0,L|421:47,1,75.000002861023
166,35,7154,6,0,L|92:48,2,75.000002861023,2|0|0,0:0|0:0|0:0,0:0:0:0:
18,60,8582,2,0,L|92:48,2,75.000002861023,2|0|0,0:0|0:0|0:0,0:0:0:0:
166,35,10009,6,0,L|92:48,1,75.000002861023,2|0,0:0|0:0,0:0:0:0:
18,60,10723,2,0,L|92:48,1,75.000002861023
165,35,11436,2,0,L|92:47,1,75.000002861023,2|0,0:0|0:0,0:0:0:0:
18,60,12150,2,0,L|92:47,1,75.000002861023
390,213,12863,6,0,P|407:246|405:293,1,75.000002861023,2|0,0:0|0:0,0:0:0:0:
375,129,13577,2,0,P|413:130|452:156,1,75.000002861023,2|0,0:0|0:0,0:0:0:0:
408,283,14290,2,0,P|408:245|391:212,1,75.000002861023,2|0,0:0|0:0,0:0:0:0:
445,148,15004,2,0,P|413:130|376:128,1,75.000002861023,2|0,0:0|0:0,0:0:0:0:
408,283,15718,6,0,P|442:265|465:227,1,75.000002861023,2|0,0:0|0:0,0:0:0:0:
376,128,16432,2,0,P|414:129|446:147,1,75.000002861023,2|0,0:0|0:0,0:0:0:0:
328,257,17145,2,0,P|312:224|312:187,2,75.000002861023,2|0|2,0:0|0:0|0:0,0:0:0:0:
187,256,18572,6,0,P|203:223|200:186,2,75.000002861023,2|0|0,0:0|0:0|0:0,0:0:0:0:
137,127,19999,2,0,P|100:128|68:146,2,75.000002861023,2|0|0,0:0|0:0|0:0,0:0:0:0:
52,234,21426,2,0,P|74:265|107:282,2,75.000002861023,2|0|0,0:0|0:0|0:0,0:0:0:0:
127,203,22497,1,2,0:0:0:0:
127,203,23567,6,0,B|212:171|274:237|252:247|317:320|421:276,1,306.250002920627,2|0,0:3|0:0,0:0:0:0:
404,282,24281,6,0,P|443:270|505:264,1,99.9999999999999,4|0,0:0|0:0,0:0:0:0:
48,119,24995,2,0,P|97:123|145:137,1,99.9999999999999,0|0,1:0|0:0,0:0:0:0:
93,213,25530,1,4,0:3:0:0:
93,213,25619,1,0,1:0:0:0:
93,213,25708,5,4,0:3:0:0:
129,287,25887,1,0,1:0:0:0:
84,356,26065,1,4,0:3:0:0:
290,33,26422,2,0,P|240:37|192:51,1,99.9999999999999,0|0,1:0|0:0,0:0:0:0:
447,341,27135,6,0,P|461:293|465:243,1,99.9999999999999,4|0,0:3|0:0,0:0:0:0:
290,33,27849,2,0,P|304:80|308:130,1,99.9999999999999,0|0,1:0|0:0,0:0:0:0:
265,205,28384,1,4,0:3:0:0:
265,205,28473,1,0,1:0:0:0:
265,205,28563,5,4,0:3:0:0:
194,151,28741,1,0,1:0:0:0:
108,169,28919,2,0,P|29:157|13:151,1,74.9999999999999,2|0,0:3|0:0,0:0:0:0:
34,158,29276,1,0,1:0:0:0:
344,111,29633,1,4,0:3:0:0:
265,205,29811,1,0,1:0:0:0:
312,320,29990,6,0,P|361:315|409:301,1,99.9999999999999,2|0,0:3|0:0,0:0:0:0:
42,233,30703,2,0,P|89:246|139:251,1,99.9999999999999,0|0,1:0|0:0,0:0:0:0:
108,161,31239,1,4,0:3:0:0:
108,161,31328,1,0,1:0:0:0:
108,161,31417,5,4,0:3:0:0:
186,135,31595,1,0,1:0:0:0:
234,68,31774,1,4,0:3:0:0:
495,286,32131,2,0,P|447:299|397:304,1,99.9999999999999,0|0,1:0|0:0,0:0:0:0:
47,105,32844,6,0,P|33:57|28:7,1,99.9999999999999,4|4,0:3|0:3,0:0:0:0:
115,39,33379,1,4,0:3:0:0:
158,144,33558,5,0,1:0:0:0:
229,83,33736,1,2,0:0:0:0:
323,62,33915,1,2,0:0:0:0:
423,77,34093,1,4,0:3:0:0:
423,77,34182,1,0,1:0:0:0:
423,77,34271,5,4,0:3:0:0:
370,140,34450,1,0,1:0:0:0:
400,220,34628,2,0,P|462:215|491:204,1,74.9999999999999,2|0,0:3|0:0,0:0:0:0:
473,211,34985,1,0,1:0:0:0:
195,131,35342,1,0,1:0:0:0:
275,230,35520,1,0,1:0:0:0:
214,338,35699,6,0,P|162:323|94:320,1,99.9999999999999,4|0,0:0|0:0,0:0:0:0:
497,201,36412,2,0,P|447:205|399:219,1,99.9999999999999,0|0,1:0|0:0,0:0:0:0:
334,272,36947,1,4,0:3:0:0:
334,272,37037,1,0,1:0:0:0:
334,272,37126,5,4,0:3:0:0:
411,299,37304,1,0,1:0:0:0:
452,370,37483,1,4,0:3:0:0:
348,49,37839,2,0,P|397:53|445:67,1,99.9999999999999,0|0,1:0|0:0,0:0:0:0:
196,319,38553,6,0,P|181:271|177:221,1,99.9999999999999,4|0,0:3|0:0,0:0:0:0:
36,4,39267,2,0,P|21:51|17:101,1,99.9999999999999,0|0,1:0|0:0,0:0:0:0:
67,184,39802,1,4,0:3:0:0:
67,184,39891,1,0,1:0:0:0:
67,184,39980,5,4,0:3:0:0:
134,135,40159,1,0,1:0:0:0:
214,151,40337,2,0,P|272:140|303:127,1,74.9999999999999,2|0,0:3|0:0,0:0:0:0:
286,134,40694,1,0,1:0:0:0:
83,336,41051,1,4,0:3:0:0:
160,235,41229,1,0,1:0:0:0:
285,290,41407,6,0,P|351:302|394:303,1,99.9999999999999,2|0,0:3|0:0,0:0:0:0:
40,145,42121,2,0,P|89:141|138:131,1,99.9999999999999,0|0,1:0|0:0,0:0:0:0:
189,67,42656,1,4,0:3:0:0:
189,67,42745,1,0,1:0:0:0:
189,67,42835,5,4,0:3:0:0:
270,80,43013,1,0,1:0:0:0:
336,31,43191,1,4,0:3:0:0:
180,240,43548,2,0,P|130:238|82:227,1,99.9999999999999,0|0,1:0|0:0,0:0:0:0:
453,43,44262,6,0,P|463:92|466:142,1,99.9999999999999,4|4,0:3|0:3,0:0:0:0:
380,98,44797,1,4,0:3:0:0:
275,167,44975,5,0,1:0:0:0:
362,186,45154,1,2,0:0:0:0:
433,243,45332,1,2,0:0:0:0:
465,336,45511,1,4,0:3:0:0:
465,336,45600,1,0,1:0:0:0:
465,336,45689,5,4,0:3:0:0:
389,369,45867,1,0,1:0:0:0:
318,337,46046,2,0,P|285:345|244:360,1,74.9999999999999,2|0,0:3|0:0,0:0:0:0:
246,358,46403,6,0,B|205:330|205:330|140:336,1,93.7499999999999,2|0,1:3|0:0,0:0:0:0:
161,335,46759,1,0,1:0:0:0:
83,363,46938,1,0,1:0:0:0:
0,384,47116,5,4,0:0:0:0:
94,61,47473,1,2,0:0:0:0:
94,61,47830,1,0,1:0:0:0:
94,61,48187,1,2,0:0:0:0:
19,144,48365,1,4,0:3:0:0:
19,144,48454,1,0,1:0:0:0:
19,144,48544,5,4,0:3:0:0:
38,223,48722,1,0,1:0:0:0:
59,302,48900,1,4,0:3:0:0:
203,92,49257,1,0,1:0:0:0:
203,92,49614,2,0,L|183:161,1,50,4|0,0:3|0:0,0:0:0:0:
263,253,49971,5,2,0:0:0:0:
263,253,50328,2,0,L|249:204,1,50,4|0,0:3|0:0,0:0:0:0:
342,127,50684,2,0,L|328:175,1,50,0|0,1:0|0:0,0:0:0:0:
427,225,51041,2,0,L|413:176,1,50,2|4,0:0|0:3,0:0:0:0:
413,176,51309,1,0,1:0:0:0:
413,176,51398,5,4,0:3:0:0:
462,110,51576,1,0,1:0:0:0:
417,44,51755,2,0,L|344:23,1,74.9999999999999,2|0,0:3|0:0,0:0:0:0:
344,23,52112,2,0,L|295:36,1,50,0|0,1:0|0:0,0:0:0:0:
217,10,52468,1,4,0:3:0:0:
146,54,52647,1,0,1:0:0:0:
65,34,52825,5,2,0:3:0:0:
236,329,53182,2,0,L|249:280,1,50,2|0,0:0|0:0,0:0:0:0:
279,188,53539,1,0,1:0:0:0:
279,188,53896,1,2,0:0:0:0:
382,159,54074,1,4,0:3:0:0:
382,159,54163,1,0,1:0:0:0:
382,159,54252,5,4,0:3:0:0:
401,239,54431,1,0,1:0:0:0:
419,319,54609,1,4,0:3:0:0:
315,38,54966,1,0,1:0:0:0:
315,38,55323,2,0,L|302:87,1,50,4|0,0:3|0:0,0:0:0:0:
279,188,55680,5,2,0:0:0:0:
279,188,56036,1,4,0:3:0:0:
178,160,56215,1,4,0:3:0:0:
100,229,56393,2,0,L|113:278,1,50,0|0,1:0|0:0,0:0:0:0:
0,207,56750,2,0,L|13:158,1,50,2|4,0:0|0:3,0:0:0:0:
12,158,57018,1,0,1:0:0:0:
12,158,57107,5,4,0:3:0:0:
98,131,57285,1,0,1:0:0:0:
182,164,57464,2,0,L|270:187,1,74.9999999999999,2|0,0:3|0:0,0:0:0:0:
254,183,57820,2,0,L|302:170,1,50,0|0,1:0|0:0,0:0:0:0:
381,193,58177,1,0,1:0:0:0:
438,133,58356,1,0,1:0:0:0:
403,275,58534,5,4,0:0:0:0:
340,22,58891,1,2,0:0:0:0:
340,22,59248,1,0,1:0:0:0:
340,22,59604,1,2,0:0:0:0:
260,87,59783,1,4,0:3:0:0:
260,87,59872,1,0,1:0:0:0:
260,87,59961,5,4,0:3:0:0:
175,63,60140,1,0,1:0:0:0:
111,113,60318,1,4,0:3:0:0:
426,190,60675,1,0,1:0:0:0:
426,190,61032,1,4,0:3:0:0:
26,284,61388,5,2,0:0:0:0:
26,284,61745,2,0,L|38:235,1,50,4|0,0:3|0:0,0:0:0:0:
106,151,62102,2,0,L|118:199,1,50,0|0,1:0|0:0,0:0:0:0:
196,251,62459,2,0,L|208:202,1,50,2|4,0:0|0:3,0:0:0:0:
208,202,62726,1,0,1:0:0:0:
208,202,62816,5,4,0:3:0:0:
286,251,62994,1,0,1:0:0:0:
359,209,63172,2,0,L|431:189,1,74.9999999999999,2|0,0:3|0:0,0:0:0:0:
431,189,63529,2,0,L|491:205,1,50,0|0,1:0|1:0,0:0:0:0:
474,112,63886,1,4,0:3:0:0:
395,87,64064,1,0,1:0:0:0:
356,13,64243,5,2,0:3:0:0:
160,99,64600,1,2,0:0:0:0:
160,99,64956,1,0,1:0:0:0:
160,99,65313,1,2,0:0:0:0:
257,136,65492,1,4,0:3:0:0:
257,136,65581,1,0,1:0:0:0:
257,136,65670,5,4,0:3:0:0:
275,216,65848,1,0,1:0:0:0:
296,295,66027,1,4,0:3:0:0:
65,70,66384,2,0,L|87:183,1,99.9999999999999,0|4,1:0|0:3,0:0:0:0:
125,359,67097,5,2,0:0:0:0:
125,359,67454,1,4,0:3:0:0:
102,260,67632,1,4,0:3:0:0:
175,197,67811,1,0,1:0:0:0:
175,197,68168,1,2,0:0:0:0:
155,102,68346,1,4,0:3:0:0:
155,102,68435,1,0,1:0:0:0:
155,102,68524,5,4,0:3:0:0:
223,55,68703,1,0,1:0:0:0:
298,87,68881,2,0,L|370:106,1,74.9999999999999,2|0,0:3|0:0,0:0:0:0:
370,106,69238,1,0,1:0:0:0:
87,206,69595,1,0,1:0:0:0:
168,197,69773,1,0,1:0:0:0:
256,301,69952,5,4,0:0:0:0:
462,49,70308,1,2,0:0:0:0:
462,49,70665,1,0,1:0:0:0:
462,49,71022,1,2,0:0:0:0:
507,322,71379,5,2,0:0:0:0:
456,256,71557,1,0,1:0:0:0:
373,265,71736,1,0,1:0:0:0:
185,63,72093,1,0,1:0:0:0:
185,63,72449,1,4,0:3:0:0:
86,315,72806,5,0,0:3:0:0:
86,315,73163,1,4,0:3:0:0:
86,315,73520,1,0,1:0:0:0:
86,315,73877,1,2,0:0:0:0:
187,276,74055,1,4,0:3:0:0:
187,276,74144,1,0,1:0:0:0:
187,276,74233,5,4,0:3:0:0:
253,325,74412,1,0,1:0:0:0:
329,286,74590,2,0,L|401:267,1,74.9999999999999,2|0,0:3|0:0,0:0:0:0:
401,266,74947,1,0,1:0:0:0:
218,26,75304,1,4,0:3:0:0:
297,47,75482,1,0,1:0:0:0:
376,68,75661,5,2,0:3:0:0:
97,114,76017,1,2,0:0:0:0:
97,114,76374,1,0,1:0:0:0:
97,114,76731,1,2,0:0:0:0:
369,186,77088,5,2,0:0:0:0:
288,202,77266,1,0,1:0:0:0:
207,221,77445,1,4,0:3:0:0:
512,275,77801,1,0,1:0:0:0:
108,354,78158,5,4,0:0:0:0:
327,357,80477,1,4,0:3:0:0:
327,357,80567,1,4,0:3:0:0:
327,357,80656,6,0,P|244:329|249:292,1,131.25000500679,4|0,1:2|0:0,0:0:0:0:
244,303,81369,6,0,P|206:291|160:289,1,75.000002861023,4|0,0:1|0:0,0:0:0:0:
1,280,81726,2,0,P|39:261|89:251,1,93.7499999999999,2|0,0:0|0:0,0:0:0:0:
88,251,82083,1,0,1:0:0:0:
3,184,82261,1,0,0:0:0:0:
144,171,82440,2,0,P|114:162|83:158,1,62.4999999999999,2|4,0:0|0:3,0:0:0:0:
84,158,82707,1,0,1:0:0:0:
84,158,82797,5,4,0:3:0:0:
157,87,82975,1,0,1:0:0:0:
12,52,83153,2,0,P|47:42|85:38,1,75.000002861023,4|0,0:3|0:0,0:0:0:0:
217,104,83510,2,0,P|187:93|157:87,1,62.4999999999999,0|0,1:0|0:0,0:0:0:0:
44,165,83867,2,0,P|72:155|91:151,1,50,4|0,0:3|0:0,0:0:0:0:
306,259,84224,6,0,P|339:311|352:372,1,125,2|4,0:0|0:3,0:0:0:0:
391,227,84759,1,4,0:3:0:0:
464,302,84937,2,0,P|466:269|473:239,1,62.4999999999999,0|0,1:0|0:0,0:0:0:0:
478,107,85294,2,0,P|455:129|437:154,1,62.4999999999999,2|4,0:0|0:3,0:0:0:0:
437,154,85562,1,0,1:0:0:0:
437,154,85651,5,4,0:3:0:0:
456,26,85829,1,0,1:0:0:0:
357,140,86008,2,0,P|361:93|371:47,1,93.7499999999999,4|0,0:3|0:0,0:0:0:0:
371,47,86365,5,0,1:0:0:0:
276,102,86543,1,4,0:3:0:0:
150,32,86721,1,0,1:0:0:0:
8,104,86900,1,0,1:0:0:0:
8,104,86989,1,0,1:0:0:0:
8,104,87078,6,0,P|59:160|88:226,1,125,4|2,0:0|0:0,0:0:0:0:
135,120,87613,1,0,0:0:0:0:
149,259,87792,2,0,P|160:229|167:199,1,62.4999999999999,0|0,1:0|0:0,0:0:0:0:
209,71,88149,2,0,P|220:101|227:131,1,62.4999999999999,2|4,0:0|0:3,0:0:0:0:
226,130,88416,1,0,1:0:0:0:
226,130,88505,5,4,0:3:0:0:
275,18,88684,1,0,1:0:0:0:
307,189,88862,2,0,P|315:102|311:76,1,93.7499999999999,4|0,0:3|0:0,0:0:0:0:
314,95,89219,1,0,1:0:0:0:
455,166,89397,1,0,0:0:0:0:
370,32,89576,2,0,P|390:58|404:103,1,75.000002861023,2|0,0:0|0:0,0:0:0:0:
371,330,89933,6,0,P|268:310|226:287,2,125,2|4|0,0:0|0:3|1:0,0:0:0:0:
327,239,90825,1,0,0:0:0:0:
459,177,91003,2,0,P|413:197|383:200,1,62.4999999999999,2|4,0:0|0:3,0:0:0:0:
401,198,91271,1,0,1:0:0:0:
401,198,91360,5,4,0:3:0:0:
512,245,91538,1,0,1:0:0:0:
399,116,91717,1,0,1:0:0:0:
272,175,91895,1,0,1:0:0:0:
272,175,91984,1,0,1:0:0:0:
272,175,92073,5,8,0:3:0:0:
143,144,92252,1,8,0:3:0:0:
43,184,92430,1,4,0:3:0:0:
11,273,92609,1,4,0:3:0:0:
22,354,92787,6,0,P|63:360|108:376,1,75.000002861023,4|0,0:1|0:0,0:0:0:0:
266,322,93144,2,0,P|197:334|147:351,1,93.7499999999999,2|0,0:0|0:0,0:0:0:0:
174,340,93501,1,0,1:0:0:0:
246,235,93679,1,0,0:0:0:0:
95,248,93857,2,0,P|137:250|168:262,1,62.4999999999999,2|4,0:0|0:3,0:0:0:0:
156,256,94125,1,0,1:0:0:0:
156,256,94214,5,4,0:3:0:0:
47,179,94393,1,0,1:0:0:0:
257,149,94571,2,0,P|220:154|186:169,1,75.000002861023,4|0,0:3|0:0,0:0:0:0:
59,94,94928,2,0,P|88:104|119:129,1,62.4999999999999,0|0,1:0|0:0,0:0:0:0:
230,49,95285,2,0,P|207:58|186:73,1,50,4|0,0:3|0:0,0:0:0:0:
224,324,95642,6,0,P|280:351|340:366,1,125,2|4,0:0|0:3,0:0:0:0:
284,257,96177,1,4,0:3:0:0:
417,267,96355,2,0,P|376:283|341:287,1,62.4999999999999,0|0,1:0|0:0,0:0:0:0:
272,159,96712,2,0,P|313:175|348:179,1,62.4999999999999,2|4,0:0|0:3,0:0:0:0:
331,178,96980,1,0,1:0:0:0:
331,178,97069,5,4,0:3:0:0:
244,76,97247,1,0,1:0:0:0:
385,69,97426,2,0,P|345:88|311:95,1,62.4999999999999,4|0,0:3|0:0,0:0:0:0:
163,55,97782,5,0,1:0:0:0:
194,155,97961,1,4,0:3:0:0:
140,270,98139,1,0,1:0:0:0:
232,371,98318,1,0,1:0:0:0:
232,371,98407,1,0,1:0:0:0:
232,371,98496,6,0,P|279:366|367:392,1,125,4|2,0:0|0:0,0:0:0:0:
269,280,99031,1,0,0:0:0:0:
417,283,99210,2,0,P|385:283|343:298,1,62.4999999999999,0|0,1:0|0:0,0:0:0:0:
253,193,99566,2,0,P|284:195|313:205,1,62.4999999999999,2|4,0:0|0:3,0:0:0:0:
312,205,99834,1,0,1:0:0:0:
312,205,99923,5,4,0:3:0:0:
259,107,100102,1,0,1:0:0:0:
432,97,100280,2,0,P|385:103|343:123,1,93.7499999999999,4|0,0:3|0:0,0:0:0:0:
343,122,100637,1,0,1:0:0:0:
486,163,100815,1,0,0:0:0:0:
240,24,100994,2,0,P|294:31|322:44,1,75.000002861023,2|0,0:0|0:0,0:0:0:0:
247,298,101350,6,0,P|218:228|210:158,2,125,2|4|0,0:0|0:3|1:0,0:0:0:0:
258,107,102242,1,0,0:0:0:0:
308,222,102421,2,0,P|319:177|337:135,1,62.4999999999999,2|4,0:0|0:3,0:0:0:0:
324,161,102688,1,0,1:0:0:0:
324,161,102778,5,4,0:3:0:0:
221,242,102956,1,0,1:0:0:0:
266,114,103134,2,0,P|288:95|341:76,1,62.4999999999999,2|0,0:0|1:0,0:0:0:0:
318,80,103401,1,0,1:0:0:0:
318,80,103491,6,0,P|374:78|368:-6,1,150.000005722046,4|2,0:0|0:0,0:0:0:0:
195,143,114730,5,4,0:3:0:0:
195,143,114820,1,4,0:3:0:0:
195,143,114909,1,0,1:0:0:0:
275,82,115087,1,8,0:3:0:0:
378,100,115266,1,4,0:3:0:0:
378,100,115622,6,0,L|355:193,1,93.7499999999999,4|0,0:0|0:0,0:0:0:0:
355,191,115979,1,4,0:3:0:0:
312,353,116158,1,0,1:0:0:0:
335,273,116336,5,2,0:0:0:0:
407,315,116514,1,4,0:3:0:0:
479,358,116693,1,4,0:3:0:0:
228,80,117050,5,2,0:0:0:0:
156,123,117228,1,4,0:3:0:0:
82,166,117407,1,6,0:3:0:0:
2,138,117585,1,2,0:0:0:0:
80,278,117763,6,0,L|140:263,1,62.4999999999999,0|0,1:0|0:0,0:0:0:0:
220,289,118120,1,4,0:3:0:0:
297,256,118298,1,0,1:0:0:0:
386,332,118477,6,0,L|480:355,1,93.7499999999999,4|0,0:3|0:0,0:0:0:0:
476,354,118834,1,4,0:3:0:0:
388,251,119012,2,0,L|448:235,1,62.4999999999999,0|0,1:0|0:0,0:0:0:0:
355,174,119369,2,0,L|399:130,1,62.4999999999999,4|0,0:3|0:0,0:0:0:0:
315,96,119726,1,4,0:3:0:0:
315,96,119815,1,0,1:0:0:0:
315,96,119904,5,4,0:3:0:0:
234,122,120083,1,0,1:0:0:0:
166,81,120261,2,0,L|75:58,1,93.7499999999999,6|0,0:3|0:0,0:0:0:0:
75,58,120618,2,0,L|9:72,1,62.4999999999999,0|0,1:0|0:0,0:0:0:0:
79,144,120975,1,4,0:3:0:0:
27,210,121153,1,0,1:0:0:0:
77,280,121331,6,0,L|167:257,1,93.7499999999999,6|0,0:3|0:0,0:0:0:0:
168,257,121688,1,4,0:3:0:0:
318,221,121867,1,0,1:0:0:0:
264,311,122045,5,2,0:0:0:0:
345,330,122223,1,4,0:3:0:0:
408,274,122402,1,4,0:3:0:0:
135,21,122759,5,2,0:0:0:0:
213,52,122937,1,4,0:3:0:0:
291,81,123115,1,6,0:3:0:0:
365,41,123294,1,2,0:0:0:0:
476,122,123472,6,0,L|488:183,1,62.4999999999999,0|0,1:0|0:0,0:0:0:0:
460,262,123829,1,4,0:3:0:0:
382,175,124007,1,0,1:0:0:0:
277,237,124186,6,0,L|182:256,1,93.7499999999999,6|0,0:3|0:0,0:0:0:0:
185,256,124543,1,4,0:3:0:0:
66,183,124721,2,0,L|137:198,1,62.4999999999999,0|0,1:0|0:0,0:0:0:0:
183,95,125078,2,0,L|111:110,1,62.4999999999999,4|0,0:3|0:0,0:0:0:0:
129,18,125435,1,4,0:3:0:0:
129,18,125524,1,0,1:0:0:0:
129,18,125613,5,4,0:3:0:0:
211,0,125791,1,0,1:0:0:0:
280,48,125970,1,0,1:0:0:0:
367,33,126148,1,4,0:3:0:0:
367,33,126237,1,4,0:3:0:0:
367,33,126327,6,0,B|374:94|374:94|434:117,1,101.250000386238,8|8,1:3|1:3,0:0:0:0:
398,265,126862,1,8,1:3:0:0:
398,265,126951,1,4,1:3:0:0:
398,265,127040,6,0,L|306:287,1,93.7499999999999,4|0,1:2|0:0,0:0:0:0:
306,287,127397,2,0,L|244:274,1,62.4999999999999,0|0,1:0|0:0,0:0:0:0:
162,253,127754,1,4,0:3:0:0:
90,297,127932,1,4,0:3:0:0:
65,216,128111,1,2,0:0:0:0:
40,135,128289,1,0,1:0:0:0:
131,56,128467,5,2,0:0:0:0:
208,89,128646,1,4,0:3:0:0:
285,122,128824,2,0,L|346:109,2,62.4999999999999,0|0|0,1:0|0:0|0:0,0:0:0:0:
293,0,129359,1,4,0:3:0:0:
293,0,129449,1,4,0:3:0:0:
293,0,129538,1,0,1:0:0:0:
350,235,129895,6,0,L|441:257,1,93.7499999999999,6|0,0:3|0:0,0:0:0:0:
441,257,130251,2,0,L|460:336,1,62.4999999999999,0|0,1:0|0:0,0:0:0:0:
388,369,130608,1,4,0:3:0:0:
316,319,130787,2,0,L|300:379,1,62.4999999999999,4|0,0:3|0:0,0:0:0:0:
229,324,131143,1,0,1:0:0:0:
144,334,131322,6,0,L|85:311,1,62.4999999999999,2|0,0:0|0:0,0:0:0:0:
6,281,131679,1,0,1:0:0:0:
183,27,132035,1,4,0:3:0:0:
115,78,132214,1,4,0:3:0:0:
115,78,132303,1,4,0:3:0:0:
115,78,132392,1,0,1:0:0:0:
47,131,132571,1,0,1:0:0:0:
47,131,132660,1,0,1:0:0:0:
47,131,132749,6,0,L|69:222,1,93.7499999999999,4|0,0:0|0:0,0:0:0:0:
69,222,133106,1,4,0:3:0:0:
195,140,133284,1,0,1:0:0:0:
157,217,133463,5,2,0:0:0:0:
208,283,133641,1,4,0:3:0:0:
260,349,133819,1,4,0:3:0:0:
429,81,134176,5,2,0:0:0:0:
378,147,134354,1,4,0:3:0:0:
326,213,134532,1,6,0:3:0:0:
242,201,134711,1,2,0:0:0:0:
201,39,134890,6,0,L|139:51,1,62.4999999999999,0|0,1:0|0:0,0:0:0:0:
79,111,135247,1,4,0:3:0:0:
139,169,135425,1,0,1:0:0:0:
89,237,135603,6,0,L|67:328,1,93.7499999999999,6|0,0:3|0:0,0:0:0:0:
66,328,135960,1,4,0:3:0:0:
199,283,136139,2,0,L|260:270,1,62.4999999999999,0|0,1:0|0:0,0:0:0:0:
326,328,136496,2,0,L|387:340,1,62.4999999999999,4|0,0:3|0:0,0:0:0:0:
481,369,136852,1,4,0:3:0:0:
481,369,136941,1,0,1:0:0:0:
481,369,137031,5,4,0:3:0:0:
452,283,137209,1,0,1:0:0:0:
429,202,137387,2,0,L|451:111,1,93.7499999999999,6|0,0:3|0:0,0:0:0:0:
451,110,137744,6,0,P|441:67|357:89,1,134.999995880127,2|4,3:3|0:3,0:0:0:0:
372,79,138369,1,4,0:3:0:0:
372,79,138458,6,0,P|310:101|295:99,1,75.000002861023,4|0,0:0|0:0,0:0:0:0:
243,163,139171,2,0,P|275:181|312:184,1,75.000002861023,2|0,0:0|0:0,0:0:0:0:
370,248,139885,2,0,P|308:270|293:268,1,75.000002861023,2|0,0:0|0:0,0:0:0:0:
147,370,140420,1,4,0:3:0:0:
147,370,140509,1,4,0:3:0:0:
147,370,140599,6,0,P|207:382|239:329,1,131.25000500679,4|0,0:0|0:0,0:0:0:0:
239,329,141312,6,0,P|222:295|217:248,1,62.4999999999999,4|0,0:1|0:0,0:0:0:0:
276,137,141669,2,0,P|247:163|227:205,1,62.4999999999999,2|0,0:0|0:0,0:0:0:0:
307,274,142026,2,0,P|309:235|328:192,1,62.4999999999999,0|0,1:0|0:0,0:0:0:0:
397,175,142383,1,2,0:0:0:0:
400,267,142561,1,4,0:3:0:0:
400,267,142650,1,0,1:0:0:0:
400,267,142740,5,4,0:3:0:0:
471,218,142918,1,0,1:0:0:0:
457,339,143096,2,0,P|429:353|399:360,1,62.4999999999999,4|0,0:3|0:0,0:0:0:0:
249,252,143453,2,0,P|276:266|306:273,1,62.4999999999999,0|0,1:0|0:0,0:0:0:0:
442,133,143810,2,0,P|422:156|396:174,1,62.4999999999999,4|0,0:3|0:0,0:0:0:0:
151,133,144167,6,0,P|112:67|99:-6,1,125,2|4,0:0|0:3,0:0:0:0:
211,69,144702,1,4,0:3:0:0:
211,69,144880,2,0,P|206:38|209:6,1,62.4999999999999,0|0,1:0|0:0,0:0:0:0:
314,119,145237,2,0,P|324:148|341:174,1,62.4999999999999,2|4,0:0|0:3,0:0:0:0:
341,174,145505,1,0,1:0:0:0:
341,174,145594,5,4,0:3:0:0:
397,109,145772,1,0,1:0:0:0:
432,191,145951,2,0,P|475:213|502:220,1,62.4999999999999,2|0,0:0|0:0,0:0:0:0:
356,266,146308,2,0,P|324:263|295:254,1,62.4999999999999,0|0,1:0|0:0,0:0:0:0:
405,357,146664,1,0,1:0:0:0:
305,352,146843,1,0,1:0:0:0:
305,352,146932,1,0,1:0:0:0:
305,352,147021,6,0,P|237:321|193:274,1,125,4|2,0:0|0:0,0:0:0:0:
175,209,147556,1,2,0:0:0:0:
77,309,147735,1,0,1:0:0:0:
95,229,147913,1,2,0:0:0:0:
40,172,148092,1,2,0:0:0:0:
139,70,148270,5,4,0:3:0:0:
139,70,148359,1,0,1:0:0:0:
139,70,148448,1,4,0:3:0:0:
119,149,148627,1,0,1:0:0:0:
218,57,148805,5,2,0:3:0:0:
253,150,148984,1,2,0:0:0:0:
292,22,149162,5,0,1:0:0:0:
383,87,149340,1,2,0:0:0:0:
476,154,149519,1,4,0:3:0:0:
218,57,149697,5,2,0:0:0:0:
322,335,149876,5,4,0:0:0:0:
253,150,150054,5,2,0:0:0:0:
287,241,150232,1,2,0:0:0:0:
322,335,150411,1,2,0:0:0:0:
118,146,150589,5,0,1:0:0:0:
99,228,150768,1,2,0:0:0:0:
80,309,150946,1,2,0:0:0:0:
254,151,151124,5,4,0:3:0:0:
254,151,151214,1,0,1:0:0:0:
254,151,151303,1,4,0:3:0:0:
287,241,151481,1,0,1:0:0:0:
322,335,151660,1,4,0:3:0:0:
380,85,151838,5,0,1:0:0:0:
380,85,151927,1,0,1:0:0:0:
380,85,152016,1,8,0:3:0:0:
446,138,152195,1,8,0:3:0:0:
511,190,152373,1,4,0:3:0:0:
204,19,152730,5,4,0:0:0:0:
204,19,153087,2,0,P|215:47|221:78,1,62.4999999999999,2|0,0:0|0:0,0:0:0:0:
160,207,153444,2,0,P|170:152|167:117,1,62.4999999999999,0|0,1:0|0:0,0:0:0:0:
50,102,153800,2,0,P|79:149|90:182,1,62.4999999999999,2|4,0:0|0:3,0:0:0:0:
82,155,154068,1,0,1:0:0:0:
82,155,154157,5,4,0:3:0:0:
132,68,154336,1,0,1:0:0:0:
160,207,154514,2,0,P|147:235|129:261,1,62.4999999999999,4|0,0:3|0:0,0:0:0:0:
118,370,154871,2,0,P|146:356|171:338,1,62.4999999999999,0|0,1:0|0:0,0:0:0:0:
245,164,155228,2,0,P|247:195|245:226,1,62.4999999999999,4|0,0:3|0:0,0:0:0:0:
32,375,155584,6,0,P|7:372|-28:357,1,62.4999999999999,2|0,0:0|0:0,0:0:0:0:
69,279,155941,2,0,P|99:274|128:261,1,62.4999999999999,4|0,0:3|0:0,0:0:0:0:
42,144,156298,2,0,P|17:124|0:98,1,62.4999999999999,0|0,1:0|0:0,0:0:0:0:
160,93,156655,2,0,P|184:73|202:48,1,62.4999999999999,2|4,0:0|0:3,0:0:0:0:
202,48,156922,1,0,1:0:0:0:
202,48,157012,5,4,0:3:0:0:
118,17,157190,1,0,1:0:0:0:
247,158,157368,2,0,P|302:142|323:128,1,62.4999999999999,4|0,0:3|0:0,0:0:0:0:
145,204,157725,1,0,1:0:0:0:
239,261,157904,1,4,0:3:0:0:
178,328,158082,1,0,1:0:0:0:
260,377,158260,1,0,1:0:0:0:
260,377,158350,1,0,1:0:0:0:
260,377,158439,5,4,0:0:0:0:
59,129,158796,2,0,P|30:116|0:111,1,62.4999999999999,2|0,0:0|0:0,0:0:0:0:
107,252,159152,1,0,1:0:0:0:
158,159,159331,1,0,0:0:0:0:
233,210,159509,1,2,0:0:0:0:
302,156,159688,1,4,0:3:0:0:
302,156,159777,1,0,1:0:0:0:
302,156,159866,5,4,0:3:0:0:
383,190,160044,1,0,1:0:0:0:
467,164,160223,2,0,P|478:130|479:87,1,62.4999999999999,2|0,0:0|0:0,0:0:0:0:
383,190,160580,2,0,P|364:215|341:235,1,62.4999999999999,0|0,1:0|0:0,0:0:0:0:
406,63,160936,2,0,P|401:35|388:2,1,62.4999999999999,2|0,0:0|0:0,0:0:0:0:
302,156,161293,5,4,0:3:0:0:
221,120,161472,1,0,0:0:0:0:
170,191,161650,2,0,L|174:222,3,20.8333333333333,2|0|0|0,0:0|0:0|0:0|0:0,0:0:0:0:
143,76,162007,5,0,1:0:0:0:
96,146,162185,1,2,0:0:0:0:
23,101,162364,1,2,0:0:0:0:
49,221,162542,1,4,0:3:0:0:
49,221,162631,1,0,1:0:0:0:
49,221,162720,5,4,0:3:0:0:
96,146,162899,1,0,1:0:0:0:
170,191,163077,2,0,P|223:186|257:170,1,62.4999999999999,2|0,0:3|1:3,0:0:0:0:
231,183,163345,1,0,1:0:0:0:
231,183,163434,5,0,1:0:0:0:
311,157,163612,1,0,1:0:0:0:
373,215,163791,1,0,1:0:0:0:
451,183,163969,1,0,1:0:0:0:
490,322,164148,5,4,0:0:0:0:
460,52,164504,1,2,0:0:0:0:
460,52,164861,1,0,1:0:0:0:
460,52,165218,1,2,0:0:0:0:
142,98,165575,5,4,0:3:0:0:
223,85,165753,1,0,1:0:0:0:
305,72,165932,1,4,0:3:0:0:
0,126,166289,1,0,1:0:0:0:
0,126,166645,1,4,0:3:0:0:
403,140,167002,5,2,0:0:0:0:
403,140,167359,1,4,0:3:0:0:
403,140,167716,1,0,1:0:0:0:
403,140,168073,1,2,0:0:0:0:
334,217,168251,1,4,0:3:0:0:
334,217,168340,1,0,1:0:0:0:
334,217,168429,5,4,0:3:0:0:
252,229,168608,1,0,1:0:0:0:
171,243,168786,2,0,L|98:222,1,74.9999999999999,2|0,0:3|0:0,0:0:0:0:
98,222,169143,1,0,1:0:0:0:
308,54,169500,1,4,0:3:0:0:
322,135,169678,1,0,1:0:0:0:
334,217,169857,5,2,0:3:0:0:
97,342,170213,1,2,0:0:0:0:
97,342,170570,1,0,1:0:0:0:
97,342,170927,1,2,0:0:0:0:
359,358,171284,5,4,0:3:0:0:
278,372,171463,1,0,1:0:0:0:
196,384,171641,1,4,0:3:0:0:
430,278,171997,1,0,1:0:0:0:
214,35,172354,5,4,0:0:0:0:
449,132,174673,1,4,0:3:0:0:
449,132,174763,1,8,0:3:0:0:
449,132,174852,5,8,1:3:0:0:
310,166,175030,1,8,0:3:0:0:
224,246,175209,1,4,0:3:0:0:
125,271,175387,1,4,0:3:0:0:
66,332,175565,5,4,0:0:0:0:
44,184,196974,6,0,P|55:236|135:218,1,134.999995880127,2|4,0:0|0:3,0:0:0:0:
133,241,197598,1,4,0:3:0:0:
133,241,197687,6,0,P|172:264|216:204,1,131.25000500679,4|0,0:0|0:0,0:0:0:0:
217,207,198401,6,0,P|202:149|206:116,1,82.5000007867812,4|0,0:1|0:0,0:0:0:0:
313,26,198758,2,0,P|289:97|288:138,1,104.999996795654,2|0,0:0|0:0,0:0:0:0:
287,126,199114,1,0,1:0:0:0:
376,94,199293,1,0,0:0:0:0:
471,207,199471,2,0,P|445:152|442:126,1,69.9999978637695,2|4,0:0|0:3,0:0:0:0:
444,144,199739,1,0,1:0:0:0:
444,144,199828,5,4,0:3:0:0:
379,221,200006,1,0,1:0:0:0:
287,126,200185,2,0,P|300:58|309:39,1,82.5000007867812,4|0,0:3|0:0,0:0:0:0:
229,208,200542,2,0,P|237:244|253:278,1,69.9999978637695,0|0,1:0|0:0,0:0:0:0:
133,158,200898,2,0,P|135:126|142:96,1,56.9999993041992,4|0,0:3|0:0,0:0:0:0:
206,347,201255,6,0,P|144:368|51:372,1,139.999995727539,2|4,0:0|0:3,0:0:0:0:
128,286,201790,1,4,0:3:0:0:
3,206,201969,2,0,P|68:219|92:217,1,69.9999978637695,0|0,1:0|0:0,0:0:0:0:
201,145,202326,2,0,P|136:158|112:156,1,69.9999978637695,2|4,0:0|0:3,0:0:0:0:
132,157,202593,1,0,1:0:0:0:
132,157,202682,5,4,0:3:0:0:
204,63,202861,1,0,1:0:0:0:
87,89,203039,2,0,P|48:72|-2:28,1,104.999996795654,4|0,0:3|0:0,0:0:0:0:
0,31,203396,5,0,1:0:0:0:
52,169,203574,1,4,0:3:0:0:
204,63,203753,1,0,1:0:0:0:
258,247,203931,1,0,1:0:0:0:
258,247,204020,1,0,1:0:0:0:
258,247,204110,6,0,P|297:220|393:186,1,139.999995727539,4|2,0:0|0:0,0:0:0:0:
278,124,204645,1,0,0:0:0:0:
443,117,204823,2,0,P|415:106|352:101,1,69.9999978637695,0|0,1:0|0:0,0:0:0:0:
229,54,205180,2,0,P|261:41|295:35,1,69.9999978637695,2|4,0:0|0:3,0:0:0:0:
295,35,205448,1,0,1:0:0:0:
295,35,205537,5,4,0:3:0:0:
157,97,205715,1,0,1:0:0:0:
302,205,205894,2,0,P|268:182|182:162,1,104.999996795654,4|0,0:3|0:0,0:0:0:0:
207,163,206250,1,0,1:0:0:0:
332,121,206429,1,0,0:0:0:0:
88,286,206607,2,0,P|123:258|186:236,1,82.5000007867812,2|0,0:0|0:0,0:0:0:0:
467,245,206964,6,0,P|488:332|494:397,2,139.999995727539,2|4|0,0:0|0:3|1:0,0:0:0:0:
398,322,207856,1,0,0:0:0:0:
339,173,208034,2,0,P|389:252|390:258,1,69.9999978637695,2|4,0:0|0:3,0:0:0:0:
381,227,208302,1,0,1:0:0:0:
381,227,208391,5,0,1:0:0:0:
248,184,208570,1,0,1:0:0:0:
270,340,208748,1,0,1:0:0:0:
304,262,208926,1,0,1:0:0:0:
304,262,209016,1,0,1:0:0:0:
304,262,209105,5,8,1:3:0:0:
169,325,209283,1,8,0:3:0:0:
56,272,209462,1,4,0:3:0:0:
20,180,209640,1,4,0:3:0:0:
33,93,209818,6,0,P|78:85|114:73,1,82.5000007867812,4|0,0:1|0:0,0:0:0:0:
292,144,210175,2,0,P|225:131|166:111,1,104.999996795654,2|0,0:0|0:0,0:0:0:0:
189,120,210532,1,0,1:0:0:0:
346,79,210710,1,0,0:0:0:0:
202,20,210889,2,0,P|231:39|264:50,1,69.9999978637695,2|4,0:0|0:3,0:0:0:0:
264,50,211156,1,0,1:0:0:0:
264,50,211246,5,4,0:3:0:0:
193,124,211424,1,0,1:0:0:0:
378,158,211602,2,0,P|413:133|445:93,1,82.5000007867812,4|0,0:3|0:0,0:0:0:0:
299,232,211959,2,0,P|256:228|208:210,1,69.9999978637695,0|0,1:0|0:0,0:0:0:0:
395,281,212316,2,0,P|430:272|468:250,1,57.5000010967254,4|0,0:3|0:0,0:0:0:0:
193,124,212673,6,0,P|147:182|123:262,1,139.999995727539,2|4,0:0|0:3,0:0:0:0:
80,131,213208,1,4,0:3:0:0:
57,301,213387,2,0,P|41:249|43:209,1,69.9999978637695,0|0,1:0|0:0,0:0:0:0:
52,43,213743,2,0,P|18:69|-10:120,1,69.9999978637695,2|4,0:0|0:3,0:0:0:0:
2,90,214011,1,0,1:0:0:0:
2,90,214100,5,4,0:3:0:0:
134,60,214279,1,0,1:0:0:0:
125,243,214457,2,0,P|136:202|157:165,1,69.9999978637695,4|0,0:3|0:0,0:0:0:0:
305,43,214814,5,0,1:0:0:0:
254,126,214992,1,4,0:3:0:0:
343,234,215171,1,0,1:0:0:0:
301,375,215349,1,0,1:0:0:0:
301,375,215438,1,0,1:0:0:0:
301,375,215527,6,0,P|237:350|139:344,1,139.999995727539,4|2,0:0|0:0,0:0:0:0:
256,270,216063,1,0,0:0:0:0:
105,278,216241,2,0,P|166:257|198:258,1,69.9999978637695,0|0,1:0|0:0,0:0:0:0:
318,206,216598,2,0,P|257:185|225:186,1,69.9999978637695,2|4,0:0|0:3,0:0:0:0:
252,184,216865,1,0,1:0:0:0:
252,184,216955,5,4,0:3:0:0:
356,124,217133,1,0,1:0:0:0:
174,132,217311,2,0,P|217:106|284:95,1,104.999996795654,4|0,0:3|0:0,0:0:0:0:
270,94,217668,1,0,1:0:0:0:
141,51,217847,1,0,0:0:0:0:
419,65,218025,2,0,P|383:48|335:41,1,82.5000007867812,2|0,0:0|0:0,0:0:0:0:
35,162,218382,6,0,P|12:225|8:314,2,139.999995727539,2|4|0,0:0|0:3|1:0,0:0:0:0:
97,261,219274,1,0,0:0:0:0:
107,112,219452,2,0,P|120:167|112:210,1,69.9999978637695,2|4,0:0|0:3,0:0:0:0:
119,179,219720,1,0,1:0:0:0:
119,179,219809,5,4,0:3:0:0:
194,89,219987,1,0,1:0:0:0:
205,245,220166,2,0,P|218:190|210:147,1,69.9999978637695,4|0,0:3|1:0,0:0:0:0:
217,177,220433,1,0,1:0:0:0:
217,177,220523,6,0,P|256:233|310:207,1,131.25000500679,4|0,0:0|0:0,0:0:0:0:
305,214,221236,5,4,0:0:0:0:
