osu file format v14

[General]
AudioFilename: audio.mp3
AudioLeadIn: 0
PreviewTime: 196978
Countdown: 0
SampleSet: Soft
StackLeniency: 0.7
Mode: 0
LetterboxInBreaks: 0
WidescreenStoryboard: 1

[Editor]
Bookmarks: 47120
DistanceSpacing: 0.2
BeatDivisor: 4
GridSize: 4
TimelineZoom: 1.5

[Metadata]
Title:Kokoronashi
TitleUnicode:心做し
Artist:Hanatan
ArtistUnicode:花たん
Creator:pishifat
Version:Hard
Source:
Tags:蝶々P papiyon vocaloid megpoid gumi yurica somehow
BeatmapID:1263932
BeatmapSetID:565432

[Difficulty]
HPDrainRate:5
CircleSize:3.5
OverallDifficulty:6.5
ApproachRate:7.5
SliderMultiplier:0.999999999999999
SliderTickRate:1

[Events]
//Background and Video events
0,0,"png.png",0,0
//Break Periods
2,104404,113905
2,175765,196149
//Storyboard Layer 0 (Background)
//Storyboard Layer 1 (Fail)
//Storyboard Layer 2 (Pass)
//Storyboard Layer 3 (Foreground)
//Storyboard Sound Samples

[TimingPoints]
1446,356.803044719315,4,2,1,30,1,0
1446,-133.333333333333,4,2,1,30,0,0
23567,-100,4,2,1,50,0,0
23924,-100,4,2,1,10,0,0
24102,-100,4,2,1,5,0,0
24281,-100,4,2,1,50,0,0
46403,-100,4,2,1,50,0,0
46759,-100,4,2,1,50,0,0
47473,-100,4,2,1,50,0,0
47830,-100,4,2,1,50,0,0
68881,-86.9565217391304,4,2,1,50,0,0
69952,-100,4,2,1,50,0,0
74590,-86.9565217391304,4,2,1,50,0,0
75661,-100,4,2,1,50,0,0
78158,-133.333333333333,4,2,1,50,0,0
80477,-100,4,2,1,50,0,0
81369,-80,4,2,1,80,0,1
81726,-80,4,2,1,80,0,1
83153,-80,4,2,1,80,0,1
83510,-80,4,2,1,80,0,1
83867,-80,4,2,1,80,0,1
84224,-80,4,2,1,80,0,1
89576,-80,4,2,1,80,0,1
89933,-80,4,2,1,80,0,1
92787,-80,4,2,1,80,0,1
93144,-80,4,2,1,80,0,1
94571,-80,4,2,1,80,0,1
94928,-80,4,2,1,80,0,1
95285,-80,4,2,1,80,0,1
95642,-80,4,2,1,80,0,1
100994,-80,4,2,1,80,0,1
101350,-80,4,2,1,80,0,1
103491,-100,4,2,1,80,0,1
103848,-80,4,2,1,70,0,1
104205,-100,4,2,1,50,0,0
115622,-100,4,2,1,50,0,0
137744,-133.333333333333,4,2,1,50,0,0
137767,-100,4,2,2,5,0,0
138279,-100,4,2,1,50,0,0
138369,-100,4,2,1,40,0,0
138458,-100,4,2,1,30,0,0
140599,-155.27950310559,4,2,1,70,0,0
140955,-100,4,2,1,10,0,0
141134,-100,4,2,1,5,0,0
141312,-90.9090909090909,4,2,1,70,0,0
163256,-100,4,2,1,60,0,0
164148,-100,4,2,1,50,0,0
172354,-133.333333333333,4,2,1,50,0,0
174852,-100,4,2,1,50,0,0
196884,-133.333333333333,4,2,1,50,0,0
197687,-100,4,2,1,50,0,0
198044,-100,4,2,1,10,0,0
198222,-100,4,2,1,50,0,0
198401,-80,4,2,1,80,0,1
198758,-80,4,2,1,80,0,1
200185,-80,4,2,1,80,0,1
200542,-80,4,2,1,80,0,1
200898,-80,4,2,1,80,0,1
201255,-80,4,2,1,80,0,1
206607,-80,4,2,1,80,0,1
206964,-80,4,2,1,80,0,1
209818,-80,4,2,1,80,0,1
210175,-80,4,2,1,80,0,1
211602,-80,4,2,1,80,0,1
211959,-80,4,2,1,80,0,1
212316,-80,4,2,1,80,0,1
212673,-80,4,2,1,80,0,1
218025,-80,4,2,1,80,0,1
218382,-80,4,2,1,80,0,1
220523,-100,4,2,1,80,0,1
221058,-80,4,2,1,5,0,1
221236,-100,4,2,1,50,0,0
244072,-100,4,2,1,30,0,0
248532,-100,4,2,1,10,0,0
248710,-100,4,2,1,30,0,0
254240,-100,4,2,1,10,0,0
254419,-100,4,2,1,30,0,0

[Colours]
Combo1 : 243,126,130
Combo2 : 196,231,184
Combo3 : 251,172,253
Combo4 : 176,151,198
Combo5 : 234,232,159
Combo6 : 152,166,231

[HitObjects]
150,350,1446,6,0,L|160:268,2,75.000002861023,2|0|0,0:0|0:0|0:0,0:0:0:0:
362,350,2873,2,0,L|352:268,2,75.000002861023,2|0|0,0:0|0:0|0:0,0:0:0:0:
362,34,4300,6,0,L|352:116,2,75.000002861023,2|0|0,0:0|0:0|0:0,0:0:0:0:
256,73,5370,1,0,0:0:0:0:
150,34,5727,2,0,L|160:116,2,75.000002861023,2|0|0,0:0|0:0|0:0,0:0:0:0:
256,73,6798,1,0,0:0:0:0:
352,108,7154,6,0,L|435:101,2,75.000002861023,2|0|0,0:0|0:0|0:0,0:0:0:0:
159,108,8582,2,0,L|77:101,2,75.000002861023,2|0|0,0:0|0:0|0:0,0:0:0:0:
352,275,10009,6,0,L|435:283,2,75.000002861023,2|0|0,0:0|0:0|0:0,0:0:0:0:
256,222,11079,1,0,0:0:0:0:
159,275,11437,2,0,L|77:283,2,75.000002861023,2|0|0,0:0|0:0|0:0,0:0:0:0:
256,222,12506,1,0,0:0:0:0:
345,168,12863,6,0,P|339:126|313:93,1,75.000002861023,2|0,0:0|0:0,0:0:0:0:
166,167,13577,2,0,P|171:131|191:99,1,75.000002861023,2|0,0:0|0:0,0:0:0:0:
312,12,14290,6,0,P|349:16|381:36,1,75.000002861023,2|0,0:0|0:0,0:0:0:0:
199,12,15004,2,0,P|162:16|131:37,1,75.000002861023,2|0,0:0|0:0,0:0:0:0:
320,99,15718,6,0,P|340:131|345:167,1,75.000002861023,2|0,0:0|0:0,0:0:0:0:
191,99,16432,2,0,P|171:131|166:167,1,75.000002861023,2|0,0:0|0:0,0:0:0:0:
256,312,17145,2,0,L|256:224,2,75.000002861023,2|0|2,0:0|0:0|0:0,0:0:0:0:
362,350,18572,6,0,L|352:268,2,75.000002861023,2|0|0,0:0|0:0|0:0,0:0:0:0:
150,350,19999,2,0,L|160:268,2,75.000002861023,2|0|0,0:0|0:0|0:0,0:0:0:0:
345,167,21426,6,0,P|340:131|320:99,1,75.000002861023,2|0,0:0|0:0,0:0:0:0:
166,167,22140,2,0,P|171:131|191:99,1,75.000002861023,0|2,0:0|0:0,0:0:0:0:
463,87,23567,6,0,P|385:98|362:189,1,175,2|0,0:3|0:0,0:0:0:0:
359,181,24281,6,0,P|315:157|254:146,1,99.9999999999999,4|0,0:0|0:0,0:0:0:0:
93,64,24995,2,0,P|141:53|185:29,1,99.9999999999999,0|0,1:0|0:0,0:0:0:0:
278,62,25530,1,4,0:3:0:0:
278,62,25619,1,0,1:0:0:0:
278,62,25708,2,0,L|336:67,2,50,4|0|4,0:3|1:0|0:3,0:0:0:0:
99,154,26422,2,0,P|75:198|64:259,1,99.9999999999999,0|0,1:0|0:0,0:0:0:0:
186,384,27135,6,0,P|236:382|294:361,1,99.9999999999999,4|0,0:3|0:0,0:0:0:0:
214,249,27849,1,0,1:0:0:0:
308,150,28206,1,0,0:0:0:0:
396,192,28384,1,4,0:3:0:0:
396,192,28473,1,0,1:0:0:0:
396,192,28563,2,0,L|403:254,1,50,4|0,0:3|1:0,0:0:0:0:
482,207,28919,1,2,0:3:0:0:
431,50,29276,2,0,P|380:51|322:72,1,99.9999999999999,0|4,1:0|0:3,0:0:0:0:
308,150,29811,1,0,1:0:0:0:
231,195,29990,6,0,P|180:193|122:172,1,99.9999999999999,2|0,0:3|0:0,0:0:0:0:
7,31,30703,2,0,P|43:64|69:107,1,99.9999999999999,0|0,1:0|0:0,0:0:0:0:
49,205,31239,1,4,0:3:0:0:
49,205,31328,1,0,1:0:0:0:
49,205,31417,2,0,L|-19:213,2,50,4|0|4,0:3|1:0|0:3,0:0:0:0:
162,88,32131,2,0,P|212:89|270:110,1,99.9999999999999,0|0,1:0|0:0,0:0:0:0:
331,280,32844,6,0,P|304:322|257:362,1,99.9999999999999,4|4,0:3|0:3,0:0:0:0:
181,338,33379,1,4,0:3:0:0:
95,316,33558,2,0,L|28:323,2,50,0|2|2,1:0|0:0|0:0,0:0:0:0:
164,257,34093,1,4,0:3:0:0:
164,257,34182,1,0,1:0:0:0:
164,257,34271,2,0,L|224:249,1,50,4|0,0:3|1:0,0:0:0:0:
305,241,34628,1,2,0:3:0:0:
188,103,34985,1,0,1:0:0:0:
366,70,35342,1,0,1:0:0:0:
286,139,35520,1,0,1:0:0:0:
305,241,35699,6,0,P|349:265|410:276,1,99.9999999999999,4|0,0:0|0:0,0:0:0:0:
259,345,36413,2,0,P|210:355|166:379,1,99.9999999999999,0|0,1:0|0:0,0:0:0:0:
84,354,36948,1,4,0:3:0:0:
84,354,37037,1,0,1:0:0:0:
84,354,37126,2,0,L|26:349,2,50,4|0|4,0:3|1:0|0:3,0:0:0:0:
305,241,37840,2,0,P|329:197|340:136,1,99.9999999999999,0|0,1:0|0:0,0:0:0:0:
219,3,38553,6,0,P|168:4|110:25,1,99.9999999999999,4|0,0:3|0:0,0:0:0:0:
140,177,39267,1,0,1:0:0:0:
21,271,39624,1,0,0:0:0:0:
105,318,39802,1,4,0:3:0:0:
105,318,39891,1,0,1:0:0:0:
105,318,39981,2,0,L|161:312,1,50,4|0,0:3|1:0,0:0:0:0:
241,304,40337,1,2,0:3:0:0:
403,384,40694,2,0,P|353:382|305:367,1,99.9999999999999,0|4,1:0|0:3,0:0:0:0:
241,304,41229,1,0,1:0:0:0:
191,227,41408,6,0,P|192:176|213:118,1,99.9999999999999,2|0,0:3|0:0,0:0:0:0:
364,279,42121,2,0,P|327:245|301:202,1,99.9999999999999,0|0,1:0|0:0,0:0:0:0:
400,193,42657,1,4,0:3:0:0:
400,193,42746,1,0,1:0:0:0:
400,193,42835,2,0,L|468:185,2,50,4|0|4,0:3|1:0|0:3,0:0:0:0:
210,43,43549,2,0,P|159:44|101:65,1,99.9999999999999,0|0,1:0|0:0,0:0:0:0:
238,279,44262,6,0,P|274:245|300:202,1,99.9999999999999,4|4,0:3|0:3,0:0:0:0:
263,122,44797,1,4,0:3:0:0:
204,186,44976,2,0,L|137:179,1,50,0|2,1:0|0:0,0:0:0:0:
65,170,45332,1,2,0:0:0:0:
100,262,45511,1,4,0:3:0:0:
100,262,45600,1,0,1:0:0:0:
100,262,45689,2,0,L|40:270,1,50,4|0,0:3|1:0,0:0:0:0:
0,343,46046,1,2,0:3:0:0:
65,170,46403,6,0,B|100:138|100:138|152:148,1,99.9999999999999,2|0,1:3|1:0,0:0:0:0:
222,201,46938,1,0,1:0:0:0:
287,257,47116,5,4,0:0:0:0:
296,72,47473,2,0,L|308:190,2,99.9999999999999,2|0|2,0:0|1:0|0:0,0:0:0:0:
397,119,48365,1,4,0:3:0:0:
397,119,48454,1,0,1:0:0:0:
397,119,48544,2,0,P|420:132|461:131,2,50,4|0|4,0:3|1:0|0:3,0:0:0:0:
512,0,49257,1,0,1:0:0:0:
501,206,49614,2,0,P|477:219|441:223,1,50,4|0,0:3|0:0,0:0:0:0:
366,207,49971,6,0,L|266:215,1,99.9999999999999,2|4,0:0|0:3,0:0:0:0:
88,148,50684,2,0,L|188:156,1,99.9999999999999,0|2,1:0|0:0,0:0:0:0:
130,247,51220,1,4,0:3:0:0:
130,247,51309,1,0,1:0:0:0:
130,247,51398,2,0,P|115:282|117:310,1,50,4|0,0:3|1:0,0:0:0:0:
201,293,51755,1,2,0:3:0:0:
15,253,52112,1,0,1:0:0:0:
194,379,52468,2,0,P|223:378|258:363,1,50,4|0,0:3|1:0,0:0:0:0:
201,293,52825,5,2,0:3:0:0:
325,117,53182,2,0,L|334:216,2,99.9999999999999,2|0|2,0:0|1:0|0:0,0:0:0:0:
243,177,54074,1,4,0:3:0:0:
243,177,54163,1,0,1:0:0:0:
243,177,54252,2,0,P|192:193|175:190,2,50,4|0|4,0:3|1:0|0:3,0:0:0:0:
103,39,54966,1,0,1:0:0:0:
58,224,55323,2,0,P|96:248|118:250,1,50,4|0,0:3|0:0,0:0:0:0:
185,282,55680,6,0,L|298:269,1,99.9999999999999,2|4,0:0|0:3,0:0:0:0:
360,316,56215,1,4,0:3:0:0:
404,243,56393,2,0,L|415:143,1,99.9999999999999,0|2,1:0|0:0,0:0:0:0:
422,53,56928,1,4,0:3:0:0:
422,53,57018,1,0,1:0:0:0:
422,53,57107,2,0,P|373:63|356:74,1,50,4|0,0:3|1:0,0:0:0:0:
324,141,57464,1,2,0:3:0:0:
115,55,57820,2,0,P|137:53|171:69,1,50,0|0,1:0|0:0,0:0:0:0:
225,141,58177,1,0,1:0:0:0:
181,229,58356,1,0,1:0:0:0:
136,319,58534,5,4,0:0:0:0:
22,155,58891,2,0,L|127:141,2,99.9999999999999,2|0|2,0:0|1:0|0:0,0:0:0:0:
0,244,59783,1,4,0:3:0:0:
0,244,59872,1,0,1:0:0:0:
0,244,59961,2,0,P|36:254|60:270,2,50,4|0|4,0:3|1:0|0:3,0:0:0:0:
128,375,60675,1,0,1:0:0:0:
22,155,61032,1,4,0:3:0:0:
204,217,61388,6,0,L|312:208,1,99.9999999999999,2|4,0:0|0:3,0:0:0:0:
486,41,62102,2,0,L|378:32,1,99.9999999999999,0|2,1:0|0:0,0:0:0:0:
328,104,62637,1,4,0:3:0:0:
328,104,62726,1,0,1:0:0:0:
328,104,62816,2,0,P|375:121|397:119,1,50,4|0,0:3|1:0,0:0:0:0:
466,127,63172,1,2,0:3:0:0:
235,153,63529,1,0,1:0:0:0:
473,215,63886,2,0,L|479:269,1,50,4|0,0:3|1:0,0:0:0:0:
490,353,64243,5,2,0:3:0:0:
265,370,64600,2,0,L|249:249,2,99.9999999999999,2|0|2,0:0|1:0|0:0,0:0:0:0:
350,315,65492,1,4,0:3:0:0:
350,315,65581,1,0,1:0:0:0:
350,315,65670,2,0,P|402:300|416:302,2,50,4|0|4,0:3|1:0|0:3,0:0:0:0:
512,384,66384,1,0,1:0:0:0:
442,223,66740,2,0,P|417:212|392:210,1,50,4|0,0:3|0:0,0:0:0:0:
306,241,67097,6,0,L|183:250,1,99.9999999999999,2|4,0:0|0:3,0:0:0:0:
132,297,67632,1,4,0:3:0:0:
77,227,67811,2,0,L|68:104,1,99.9999999999999,0|2,1:0|0:0,0:0:0:0:
110,51,68346,1,4,0:3:0:0:
110,51,68435,1,0,1:0:0:0:
110,51,68524,2,0,P|157:64|168:71,1,50,4|0,0:3|1:0,0:0:0:0:
237,116,68881,6,0,L|251:45,1,57.5000010967254,2|0,0:3|0:0,0:0:0:0:
281,200,69238,2,0,L|328:145,1,57.5000010967254,0|0,1:0|0:0,0:0:0:0:
283,292,69595,2,0,L|351:268,1,57.5000010967254,0|0,1:0|1:0,0:0:0:0:
422,244,69952,5,4,0:0:0:0:
198,320,70308,2,0,L|77:311,2,99.9999999999999,2|0|2,0:0|1:0|0:0,0:0:0:0:
423,337,71379,2,0,L|488:339,2,50,2|0|0,0:0|1:0|1:0,0:0:0:0:
221,228,72093,1,0,1:0:0:0:
345,381,72449,1,4,0:3:0:0:
427,209,72806,6,0,L|436:103,1,99.9999999999999,0|4,0:3|0:3,0:0:0:0:
205,45,73520,2,0,L|213:144,1,99.9999999999999,0|2,1:0|0:0,0:0:0:0:
229,235,74055,1,4,0:3:0:0:
229,235,74144,1,0,1:0:0:0:
229,235,74233,2,0,P|264:225|286:210,1,50,4|0,0:3|1:0,0:0:0:0:
300,132,74590,6,0,L|372:125,1,57.5000010967254,2|0,0:3|0:0,0:0:0:0:
370,219,74947,2,0,L|435:249,1,57.5000010967254,0|0,1:0|0:0,0:0:0:0:
375,321,75304,2,0,L|416:380,1,57.5000010967254,4|0,0:3|1:0,0:0:0:0:
289,384,75661,5,2,0:3:0:0:
182,238,76017,2,0,L|293:224,2,99.9999999999999,2|0|2,0:0|1:0|0:0,0:0:0:0:
58,100,77088,2,0,L|119:95,2,50,2|0|4,0:0|1:0|0:3,0:0:0:0:
4,265,77801,1,0,1:0:0:0:
189,149,78158,6,0,B|276:108|366:178|330:207|433:285|537:233,1,375.000014305115,4|0,0:0|0:0,0:0:0:0:
509,114,80299,2,0,L|504:157,1,37.5000014305115,0|4,0:0|0:3,0:0:0:0:
505,152,80567,1,4,0:3:0:0:
505,152,80656,6,0,P|450:153|418:120,1,99.9999999999999,4|0,1:2|0:0,0:0:0:0:
420,124,81369,6,0,P|355:123|294:156,1,125,4|2,0:1|0:0,0:0:0:0:
204,291,82083,2,0,P|216:244|210:222,1,62.4999999999999,0|0,1:0|0:0,0:0:0:0:
160,163,82440,1,2,0:0:0:0:
85,202,82618,1,4,0:3:0:0:
85,202,82707,1,0,1:0:0:0:
85,202,82797,2,0,P|73:155|79:133,1,62.4999999999999,4|0,0:3|1:0,0:0:0:0:
138,79,83153,1,4,0:3:0:0:
294,256,83510,1,0,1:0:0:0:
62,302,83867,1,4,0:3:0:0:
296,169,84224,6,0,P|328:173|366:202,2,62.4999999999999,2|0|4,0:0|0:0|0:3,0:0:0:0:
216,211,84759,1,4,0:3:0:0:
294,256,84937,2,0,P|317:280|330:320,1,62.4999999999999,0|0,1:0|0:0,0:0:0:0:
409,380,85294,2,0,L|420:249,1,125,2|4,0:0|0:3,0:0:0:0:
475,189,85829,1,0,1:0:0:0:
447,108,86008,1,4,0:3:0:0:
271,39,86365,5,0,1:0:0:0:
339,123,86543,1,4,0:3:0:0:
233,141,86721,1,0,1:0:0:0:
306,230,86900,1,0,1:0:0:0:
306,230,86989,1,0,1:0:0:0:
306,230,87078,5,4,0:0:0:0:
117,126,87435,2,0,P|100:79|104:54,1,62.4999999999999,2|0,0:0|0:0,0:0:0:0:
35,167,87792,2,0,P|2:205|-20:214,1,62.4999999999999,0|0,1:0|0:0,0:0:0:0:
118,222,88149,2,0,P|167:230|186:246,1,62.4999999999999,2|4,0:0|0:3,0:0:0:0:
176,237,88416,1,0,1:0:0:0:
176,237,88505,6,0,L|185:311,1,62.4999999999999,4|0,0:3|1:0,0:0:0:0:
191,384,88862,1,4,0:3:0:0:
281,167,89219,1,0,1:0:0:0:
265,251,89397,1,0,0:0:0:0:
347,224,89576,2,0,P|363:196|366:149,1,62.4999999999999,2|0,0:0|0:0,0:0:0:0:
322,91,89933,5,2,0:0:0:0:
330,309,90289,1,4,0:3:0:0:
512,200,90646,1,0,1:0:0:0:
445,143,90825,1,0,0:0:0:0:
431,228,91003,2,0,L|452:357,1,125,2|4,0:0|0:3,0:0:0:0:
373,384,91538,1,0,1:0:0:0:
330,309,91717,1,0,1:0:0:0:
246,339,91895,1,0,1:0:0:0:
246,339,91984,1,0,1:0:0:0:
246,339,92073,6,0,P|187:333|167:319,1,62.4999999999999,8|8,0:3|0:3,0:0:0:0:
215,212,92430,2,0,P|182:223|156:246,1,62.4999999999999,4|4,0:3|0:3,0:0:0:0:
78,313,92787,6,0,P|53:304|-15:231,1,125,4|2,0:1|0:0,0:0:0:0:
173,139,93501,2,0,P|126:155|95:151,1,62.4999999999999,0|0,1:0|0:0,0:0:0:0:
39,108,93857,1,2,0:0:0:0:
120,68,94036,1,4,0:3:0:0:
120,68,94125,1,0,1:0:0:0:
120,68,94214,2,0,L|125:-1,1,62.4999999999999,4|0,0:3|1:0,0:0:0:0:
209,40,94571,5,4,0:3:0:0:
37,194,94928,1,0,1:0:0:0:
257,266,95285,1,4,0:3:0:0:
429,112,95642,5,2,0:0:0:0:
143,132,95998,2,0,P|125:181|129:210,1,62.4999999999999,4|4,0:3|0:3,0:0:0:0:
227,101,96355,2,0,P|193:60|166:49,1,62.4999999999999,0|0,1:0|0:0,0:0:0:0:
216,188,96712,2,0,P|269:179|313:118,1,125,2|4,0:0|0:3,0:0:0:0:
292,40,97247,1,0,1:0:0:0:
375,62,97426,6,0,L|442:54,1,62.4999999999999,4|0,0:3|0:0,0:0:0:0:
501,155,97782,2,0,L|434:147,1,62.4999999999999,0|4,1:0|0:3,0:0:0:0:
356,219,98139,1,0,1:0:0:0:
462,258,98318,1,0,1:0:0:0:
462,258,98407,1,0,1:0:0:0:
462,258,98496,5,4,0:0:0:0:
213,238,98853,2,0,P|178:201|172:176,1,62.4999999999999,2|0,0:0|0:0,0:0:0:0:
153,306,99210,2,0,P|137:353|120:370,1,62.4999999999999,0|0,1:0|0:0,0:0:0:0:
250,331,99567,2,0,P|277:316|308:315,1,62.4999999999999,2|4,0:0|0:3,0:0:0:0:
309,316,99834,1,0,1:0:0:0:
309,316,99923,6,0,L|380:328,1,62.4999999999999,4|0,0:3|1:0,0:0:0:0:
457,341,100280,1,4,0:3:0:0:
332,144,100637,1,0,1:0:0:0:
335,230,100815,1,0,0:0:0:0:
408,186,100994,2,0,P|419:137|411:110,1,62.4999999999999,2|0,0:0|0:0,0:0:0:0:
359,63,101350,5,2,0:0:0:0:
221,197,101707,1,4,0:3:0:0:
166,19,102064,1,0,1:0:0:0:
231,76,102242,1,0,0:0:0:0:
150,105,102421,2,0,L|133:243,1,125,2|4,0:0|0:3,0:0:0:0:
121,317,102956,1,0,1:0:0:0:
210,299,103134,2,0,P|248:306|276:329,1,62.4999999999999,2|0,0:0|1:0,0:0:0:0:
267,319,103402,1,0,1:0:0:0:
267,319,103491,6,0,P|330:320|366:298,2,99.9999999999999,4|0|2,0:0|0:0|0:0,0:0:0:0:
58,51,114730,5,4,0:3:0:0:
58,51,114820,1,4,0:3:0:0:
58,51,114909,2,0,L|64:107,2,50,0|8|4,1:0|0:3|0:3,0:0:0:0:
146,260,115622,6,0,P|208:261|243:242,1,99.9999999999999,4|4,0:0|0:3,0:0:0:0:
297,174,116158,1,0,1:0:0:0:
328,257,116336,2,0,P|349:273|390:282,1,50,2|4,0:0|0:3,0:0:0:0:
453,251,116693,1,4,0:3:0:0:
476,91,117050,6,0,L|469:162,2,50,2|4|6,0:0|0:3|0:3,0:0:0:0:
432,13,117585,1,2,0:0:0:0:
364,67,117763,2,0,P|319:57|300:47,1,50,0|0,1:0|0:0,0:0:0:0:
242,6,118120,1,4,0:3:0:0:
190,78,118298,1,0,1:0:0:0:
260,131,118477,6,0,P|240:222|221:237,1,99.9999999999999,4|4,0:3|0:3,0:0:0:0:
149,243,119012,2,0,L|92:237,1,50,0|0,1:0|0:0,0:0:0:0:
213,309,119369,2,0,L|262:314,1,50,4|0,0:3|0:0,0:0:0:0:
359,315,119726,1,4,0:3:0:0:
359,315,119815,1,0,1:0:0:0:
359,315,119904,6,0,L|408:305,1,50,4|0,0:3|1:0,0:0:0:0:
493,291,120261,1,6,0:3:0:0:
363,82,120618,1,0,1:0:0:0:
323,156,120796,1,0,0:0:0:0:
397,196,120975,1,4,0:3:0:0:
437,122,121153,1,0,1:0:0:0:
363,82,121331,6,0,P|286:80|254:105,1,99.9999999999999,6|4,0:3|0:3,0:0:0:0:
238,173,121867,1,0,1:0:0:0:
181,108,122045,2,0,L|173:57,2,50,2|4|4,0:0|0:3|0:3,0:0:0:0:
71,252,122759,6,0,L|79:201,2,50,2|4|6,0:0|0:3|0:3,0:0:0:0:
59,339,123294,1,2,0:0:0:0:
140,310,123472,2,0,P|183:325|198:338,1,50,0|0,1:0|0:0,0:0:0:0:
253,384,123829,1,4,0:3:0:0:
317,325,124007,1,0,1:0:0:0:
395,363,124186,6,0,P|453:357|498:319,1,99.9999999999999,6|4,0:3|0:3,0:0:0:0:
417,277,124721,2,0,L|411:215,1,50,0|0,1:0|0:0,0:0:0:0:
485,178,125078,2,0,L|491:116,1,50,4|0,0:3|0:0,0:0:0:0:
432,62,125435,1,4,0:3:0:0:
432,62,125524,1,0,1:0:0:0:
432,62,125613,6,0,P|386:75|370:86,1,50,4|0,0:3|1:0,0:0:0:0:
312,125,125970,2,0,P|266:112|250:101,1,50,0|4,1:0|0:3,0:0:0:0:
165,91,126327,2,0,B|181:124|181:124|176:163,2,74.9999999999999,8|8|8,1:3|1:3|1:3,0:0:0:0:
90,142,127040,6,0,L|-11:151,1,99.9999999999999,4|0,1:2|1:0,0:0:0:0:
126,336,127754,1,4,0:3:0:0:
148,252,127932,1,4,0:3:0:0:
212,313,128111,2,0,P|261:325|276:324,1,50,2|0,0:0|1:0,0:0:0:0:
327,264,128467,6,0,P|376:252|391:253,1,50,2|4,0:0|0:3,0:0:0:0:
463,282,128824,2,0,L|469:338,2,50,0|0|0,1:0|0:0|0:0,0:0:0:0:
449,196,129359,1,4,0:3:0:0:
449,196,129449,1,4,0:3:0:0:
449,196,129538,1,0,1:0:0:0:
330,49,129895,6,0,P|260:49|229:78,1,99.9999999999999,6|0,0:3|1:0,0:0:0:0:
201,142,130430,1,0,0:0:0:0:
262,204,130608,2,0,L|318:198,1,50,4|4,0:3|0:3,0:0:0:0:
267,290,130965,2,0,L|211:284,1,50,0|0,0:0|1:0,0:0:0:0:
130,291,131322,6,0,P|138:324|155:345,2,50,2|0|0,0:0|0:0|1:0,0:0:0:0:
109,43,132035,1,4,0:3:0:0:
71,126,132214,2,0,L|33:132,2,25,4|4|0,0:3|0:3|1:0,0:0:0:0:
166,126,132571,1,0,1:0:0:0:
166,126,132660,1,0,1:0:0:0:
166,126,132749,6,0,P|229:149|259:143,1,99.9999999999999,4|4,0:0|0:3,0:0:0:0:
332,94,133284,1,0,1:0:0:0:
390,160,133463,2,0,L|447:166,2,50,2|4|4,0:0|0:3|0:3,0:0:0:0:
298,314,134176,6,0,L|347:308,2,50,2|4|6,0:0|0:3|0:3,0:0:0:0:
226,362,134711,1,2,0:0:0:0:
147,329,134890,2,0,P|132:301|131:269,1,50,0|0,1:0|0:0,0:0:0:0:
191,220,135247,2,0,P|206:192|207:160,1,50,4|0,0:3|1:0,0:0:0:0:
183,88,135603,6,0,P|117:88|79:122,1,99.9999999999999,6|4,0:3|0:3,0:0:0:0:
37,177,136139,2,0,L|-25:171,1,50,0|0,1:0|0:0,0:0:0:0:
66,271,136495,2,0,L|4:265,1,50,4|0,0:3|0:0,0:0:0:0:
149,328,136852,1,4,0:3:0:0:
149,328,136941,1,0,1:0:0:0:
149,328,137031,6,0,L|207:324,1,50,4|0,0:3|1:0,0:0:0:0:
273,270,137387,2,0,L|322:273,1,50,6|0,0:3|0:0,0:0:0:0:
411,340,137744,6,0,P|413:282|429:219,1,112.500004291534,2|4,3:3|0:3,0:0:0:0:
425,229,138369,1,4,0:3:0:0:
425,229,138458,1,4,0:0:0:0:
425,229,140420,5,4,0:3:0:0:
425,229,140509,1,4,0:3:0:0:
425,229,140599,2,0,P|413:283|411:340,1,112.500004291534,4|0,0:0|0:0,0:0:0:0:
411,339,141312,6,0,P|361:340|294:297,1,110.000003356934,4|2,0:1|0:0,0:0:0:0:
130,286,142026,2,0,P|180:286|247:243,1,110.000003356934,0|2,1:0|0:0,0:0:0:0:
277,178,142561,1,4,0:3:0:0:
277,178,142650,1,0,1:0:0:0:
277,178,142740,2,0,L|286:109,1,55.0000016784668,4|0,0:3|1:0,0:0:0:0:
299,35,143096,1,4,0:3:0:0:
160,197,143453,1,0,1:0:0:0:
85,0,143810,1,4,0:3:0:0:
284,123,144167,6,0,L|408:111,1,110.000003356934,2|4,0:0|0:3,0:0:0:0:
477,144,144702,1,4,0:3:0:0:
407,198,144880,1,0,1:0:0:0:
216,67,145237,1,2,0:0:0:0:
144,112,145416,1,4,0:3:0:0:
144,112,145505,1,0,1:0:0:0:
144,112,145594,6,0,P|130:175|133:186,1,55.0000016784668,4|0,0:3|1:0,0:0:0:0:
185,231,145951,1,2,0:0:0:0:
53,343,146308,1,0,1:0:0:0:
24,169,146664,1,0,1:0:0:0:
88,254,146843,1,0,1:0:0:0:
88,254,146932,1,0,1:0:0:0:
88,254,147021,5,4,0:0:0:0:
328,155,147378,1,2,0:0:0:0:
257,107,147556,1,2,0:0:0:0:
336,67,147735,2,0,L|400:61,2,55.0000016784668,0|2|2,1:0|0:0|0:0,0:0:0:0:
263,21,148270,1,4,0:3:0:0:
263,21,148359,1,0,1:0:0:0:
263,21,148448,6,0,P|223:7|191:11,1,55.0000016784668,4|0,0:3|1:0,0:0:0:0:
213,97,148805,2,0,P|180:124|168:154,1,55.0000016784668,2|2,0:3|0:0,0:0:0:0:
261,174,149162,2,0,P|268:215|288:241,2,55.0000016784668,0|2|4,1:0|0:0|0:3,0:0:0:0:
348,175,149697,1,2,0:0:0:0:
424,222,149876,6,0,P|465:214|491:194,1,55.0000016784668,4|2,0:0|0:0,0:0:0:0:
427,133,150232,2,0,P|440:92|436:60,1,55.0000016784668,2|2,0:0|0:0,0:0:0:0:
352,85,150589,2,0,P|324:52|294:40,2,55.0000016784668,0|2|2,1:0|0:0|0:0,0:0:0:0:
350,175,151124,1,4,0:3:0:0:
350,175,151214,1,0,1:0:0:0:
350,175,151303,6,0,L|291:179,1,55.0000016784668,4|0,0:3|1:0,0:0:0:0:
220,144,151660,2,0,L|165:140,1,55.0000016784668,4|0,0:3|1:0,0:0:0:0:
165,140,151927,1,0,1:0:0:0:
165,140,152016,2,0,P|132:149|102:147,2,55.0000016784668,8|8|4,0:3|0:3|0:3,0:0:0:0:
0,0,152730,1,4,0:0:0:0:
60,216,153087,5,2,0:0:0:0:
218,57,153444,1,0,1:0:0:0:
275,272,153800,1,2,0:0:0:0:
216,342,153979,1,4,0:3:0:0:
216,342,154068,1,0,1:0:0:0:
216,342,154157,6,0,P|188:341|158:330,1,55.0000016784668,4|0,0:3|1:0,0:0:0:0:
101,266,154514,1,4,0:3:0:0:
292,195,154871,1,0,1:0:0:0:
136,65,155228,1,4,0:3:0:0:
213,287,155584,5,2,0:0:0:0:
248,86,155941,1,4,0:3:0:0:
57,156,156298,1,0,1:0:0:0:
213,287,156655,1,2,0:0:0:0:
305,271,156833,1,4,0:3:0:0:
305,271,156922,1,0,1:0:0:0:
305,271,157012,6,0,P|356:283|372:293,1,55.0000016784668,4|0,0:3|1:0,0:0:0:0:
425,348,157368,1,4,0:3:0:0:
485,178,157725,1,0,1:0:0:0:
408,142,157904,1,4,0:3:0:0:
387,56,158082,1,0,1:0:0:0:
310,18,158260,1,0,1:0:0:0:
310,18,158350,1,0,1:0:0:0:
310,18,158439,5,4,0:0:0:0:
226,182,158796,1,2,0:0:0:0:
83,65,159152,2,0,L|74:2,2,55.0000016784668,0|0|2,1:0|0:0|0:0,0:0:0:0:
54,149,159688,1,4,0:3:0:0:
54,149,159777,1,0,1:0:0:0:
54,149,159866,6,0,L|45:228,1,55.0000016784668,4|0,0:3|1:0,0:0:0:0:
38,291,160223,1,2,0:0:0:0:
223,198,160580,1,0,1:0:0:0:
374,332,160936,1,2,0:0:0:0:
455,163,161293,6,0,L|448:100,1,55.0000016784668,4|0,0:3|0:0,0:0:0:0:
389,44,161650,1,2,0:0:0:0:
362,127,161828,1,0,0:0:0:0:
303,62,162007,2,0,P|261:55|234:60,2,55.0000016784668,0|2|2,1:0|0:0|0:0,0:0:0:0:
280,148,162542,1,4,0:3:0:0:
280,148,162631,1,0,1:0:0:0:
280,148,162720,5,4,0:3:0:0:
362,127,162899,1,0,1:0:0:0:
389,44,163077,1,2,0:3:0:0:
198,19,163434,5,0,1:0:0:0:
204,104,163612,1,0,1:0:0:0:
280,148,163791,1,0,1:0:0:0:
362,127,163969,1,0,1:0:0:0:
389,44,164147,1,4,0:0:0:0:
268,239,164504,6,0,L|158:250,2,99.9999999999999,2|0|2,0:0|1:0|0:0,0:0:0:0:
457,218,165575,2,0,L|511:212,2,50,4|0|4,0:3|1:0|0:3,0:0:0:0:
303,321,166289,1,0,1:0:0:0:
398,152,166645,1,4,0:3:0:0:
223,264,167002,6,0,L|210:387,1,99.9999999999999,2|4,0:0|0:3,0:0:0:0:
313,209,167716,2,0,L|302:109,1,99.9999999999999,0|2,1:0|0:0,0:0:0:0:
245,38,168251,1,4,0:3:0:0:
245,38,168340,1,0,1:0:0:0:
245,38,168429,2,0,P|192:46|179:52,1,50,4|0,0:3|1:0,0:0:0:0:
122,95,168786,1,2,0:3:0:0:
313,209,169143,1,0,1:0:0:0:
111,320,169500,1,4,0:3:0:0:
198,346,169678,1,0,1:0:0:0:
284,374,169857,5,2,0:3:0:0:
141,227,170213,2,0,L|30:239,2,99.9999999999999,2|0|2,0:0|1:0|0:0,0:0:0:0:
329,69,171284,2,0,L|265:62,1,50,4|0,0:3|1:0,0:0:0:0:
191,55,171641,1,4,0:3:0:0:
280,265,171997,1,0,1:0:0:0:
411,94,172354,6,0,B|324:53|221:131|270:152|167:230|63:178,1,375.000014305115,4|0,0:0|0:0,0:0:0:0:
42,331,174495,2,0,L|88:325,1,37.5000014305115,0|4,0:0|0:3,0:0:0:0:
79,326,174763,1,8,0:3:0:0:
79,326,174852,6,0,P|109:340|137:340,1,50,8|8,1:3|0:3,0:0:0:0:
188,280,175209,2,0,P|217:266|245:266,1,50,4|4,0:3|0:3,0:0:0:0:
312,301,175565,5,4,0:0:0:0:
11,89,196974,5,2,0:0:0:0:
0,265,197330,2,0,L|6:211,1,37.5000014305115,0|4,0:0|0:3,0:0:0:0:
4,227,197598,1,4,0:3:0:0:
4,227,197687,6,0,P|59:226|91:259,1,99.9999999999999,4|0,0:0|0:0,0:0:0:0:
89,255,198401,6,0,P|154:256|215:223,1,125,4|2,0:1|0:0,0:0:0:0:
308,93,199114,2,0,P|296:140|302:162,1,62.4999999999999,0|0,1:0|0:0,0:0:0:0:
352,221,199471,1,2,0:0:0:0:
427,182,199649,1,4,0:3:0:0:
427,182,199738,1,0,1:0:0:0:
427,182,199828,2,0,P|439:229|433:251,1,62.4999999999999,4|0,0:3|1:0,0:0:0:0:
374,305,200184,1,4,0:3:0:0:
218,128,200541,1,0,1:0:0:0:
450,82,200898,1,4,0:3:0:0:
216,215,201255,6,0,P|184:211|146:182,2,62.4999999999999,2|0|4,0:0|0:0|0:3,0:0:0:0:
296,173,201790,1,4,0:3:0:0:
218,128,201968,2,0,P|195:104|182:64,1,62.4999999999999,0|0,1:0|0:0,0:0:0:0:
103,4,202325,2,0,L|92:135,1,125,2|4,0:0|0:3,0:0:0:0:
37,195,202860,1,0,1:0:0:0:
65,276,203039,1,4,0:3:0:0:
241,345,203396,5,0,1:0:0:0:
173,261,203574,1,4,0:3:0:0:
279,243,203752,1,0,1:0:0:0:
212,172,203931,1,0,1:0:0:0:
212,172,204020,1,0,1:0:0:0:
212,172,204109,5,4,0:0:0:0:
395,269,204466,2,0,P|412:316|408:341,1,62.4999999999999,2|0,0:0|0:0,0:0:0:0:
477,228,204823,2,0,P|510:190|532:181,1,62.4999999999999,0|0,1:0|0:0,0:0:0:0:
398,181,205180,2,0,P|349:173|330:157,1,62.4999999999999,2|4,0:0|0:3,0:0:0:0:
335,161,205447,1,0,1:0:0:0:
332,155,205536,6,0,L|323:81,1,62.4999999999999,4|0,0:3|1:0,0:0:0:0:
313,4,205893,1,4,0:3:0:0:
231,217,206250,1,0,1:0:0:0:
247,133,206428,1,0,0:0:0:0:
165,160,206607,2,0,P|149:188|146:235,1,62.4999999999999,2|0,0:0|0:0,0:0:0:0:
190,293,206964,5,2,0:0:0:0:
182,75,207320,1,4,0:3:0:0:
0,184,207677,1,0,1:0:0:0:
67,241,207856,1,0,0:0:0:0:
81,156,208034,2,0,L|60:27,1,125,2|0,0:0|1:0,0:0:0:0:
139,0,208569,1,0,1:0:0:0:
177,76,208748,1,0,1:0:0:0:
266,54,208926,1,0,1:0:0:0:
266,54,209015,1,0,1:0:0:0:
266,54,209104,6,0,P|325:60|345:74,1,62.4999999999999,8|8,1:3|0:3,0:0:0:0:
297,181,209461,2,0,P|330:170|356:147,1,62.4999999999999,4|4,0:3|0:3,0:0:0:0:
434,80,209818,6,0,P|459:89|527:162,1,125,4|2,0:1|0:0,0:0:0:0:
333,243,210532,2,0,P|380:227|411:231,1,62.4999999999999,0|0,1:0|0:0,0:0:0:0:
466,280,210888,1,2,0:0:0:0:
392,325,211067,1,4,0:3:0:0:
392,325,211156,1,0,1:0:0:0:
392,325,211245,2,0,L|387:394,1,62.4999999999999,4|0,0:3|1:0,0:0:0:0:
303,353,211602,5,4,0:3:0:0:
475,199,211959,1,0,1:0:0:0:
255,127,212316,1,4,0:3:0:0:
83,281,212673,5,2,0:0:0:0:
369,261,213029,2,0,P|387:212|383:183,1,62.4999999999999,4|4,0:3|0:3,0:0:0:0:
285,292,213386,2,0,P|319:333|346:344,1,62.4999999999999,0|0,1:0|0:0,0:0:0:0:
296,205,213743,2,0,P|243:214|199:275,1,125,2|4,0:0|0:3,0:0:0:0:
220,353,214278,1,0,1:0:0:0:
137,331,214457,6,0,L|70:339,1,62.4999999999999,4|0,0:3|0:0,0:0:0:0:
11,238,214813,2,0,L|78:246,1,62.4999999999999,0|4,1:0|0:3,0:0:0:0:
156,174,215170,1,0,1:0:0:0:
59,145,215349,1,0,1:0:0:0:
59,145,215438,1,0,1:0:0:0:
59,145,215527,5,4,0:0:0:0:
299,155,215884,2,0,P|334:192|340:217,1,62.4999999999999,2|0,0:0|0:0,0:0:0:0:
359,87,216241,2,0,P|375:40|392:23,1,62.4999999999999,0|0,1:0|0:0,0:0:0:0:
279,80,216598,2,0,P|252:95|221:96,1,62.4999999999999,2|4,0:0|0:3,0:0:0:0:
220,95,216865,1,0,1:0:0:0:
220,95,216954,6,0,L|149:83,1,62.4999999999999,4|0,0:3|1:0,0:0:0:0:
72,73,217311,1,4,0:3:0:0:
178,259,217668,1,0,1:0:0:0:
175,173,217846,1,0,0:0:0:0:
102,217,218025,2,0,P|91:266|99:293,1,62.4999999999999,2|0,0:0|0:0,0:0:0:0:
151,340,218381,5,2,0:0:0:0:
289,206,218738,1,4,0:3:0:0:
344,384,219095,1,0,1:0:0:0:
279,327,219273,1,0,0:0:0:0:
360,298,219452,2,0,L|377:160,1,125,2|4,0:0|0:3,0:0:0:0:
389,86,219987,1,0,1:0:0:0:
300,120,220165,2,0,P|262:113|234:90,1,62.4999999999999,4|0,0:3|1:0,0:0:0:0:
238,94,220433,1,0,1:0:0:0:
233,89,220523,6,0,P|170:88|134:110,1,99.9999999999999,4|0,0:0|0:0,0:0:0:0:
256,351,221236,1,4,0:0:0:0:
