osu file format v14

[General]
AudioFilename: audio.mp3
AudioLeadIn: 0
PreviewTime: 174317
Countdown: 0
SampleSet: Soft
StackLeniency: 0.7
Mode: 0
LetterboxInBreaks: 0
WidescreenStoryboard: 0

[Editor]
DistanceSpacing: 1.9
BeatDivisor: 4
GridSize: 4
TimelineZoom: 1.2

[Metadata]
Title:Kokoronashi
TitleUnicode:心做し
Artist:Hanatan
ArtistUnicode:花たん
Creator:nanoya
Version:Sorrow
Source:
Tags:chouchou-p cover yurica ユリカ somehow japanese rock jrock j-rock pop jpop j-pop poprock pop-rock ハンゾー hanzou 蝶々p papiyon vocaloid satonodiamond
BeatmapID:4120721
BeatmapSetID:1984028

[Difficulty]
HPDrainRate:4
CircleSize:4
OverallDifficulty:8
ApproachRate:9
SliderMultiplier:1.8
SliderTickRate:1

[Events]
//Background and Video events
0,0,"cfdfa8d4bff1cf29c353deaf289588a5b107ca7a_s2_n1.jpg",0,0
//Break Periods
2,175765,195414
//Storyboard Layer 0 (Background)
//Storyboard Layer 1 (Fail)
//Storyboard Layer 2 (Pass)
//Storyboard Layer 3 (Foreground)
//Storyboard Layer 4 (Overlay)
//Storyboard Sound Samples

[TimingPoints]
1446,356.803044719315,4,2,1,70,1,0
23567,-250,4,2,1,50,0,0
24192,-250,4,2,1,5,0,0
24281,-111.111111111111,4,2,1,60,0,0
26689,-111.111111111111,4,2,1,5,0,0
26779,-111.111111111111,4,2,1,60,0,0
29544,-111.111111111111,4,2,1,5,0,0
29633,-111.111111111111,4,2,1,60,0,0
32755,-111.111111111111,4,2,1,5,0,0
32844,-111.111111111111,4,2,1,60,0,0
38821,-111.111111111111,4,2,1,5,0,0
38910,-111.111111111111,4,2,1,60,0,0
40694,-142.857142857143,4,2,1,60,0,0
40961,-111.111111111111,4,2,1,5,0,0
41051,-111.111111111111,4,2,1,60,0,0
42389,-111.111111111111,4,2,1,5,0,0
42478,-111.111111111111,4,2,1,60,0,0
46313,-111.111111111111,4,2,1,5,0,0
46403,-111.111111111111,4,2,1,60,0,0
47116,-125,4,2,1,55,0,0
53093,-125,4,2,1,5,0,0
53182,-125,4,2,1,55,0,0
58088,-125,4,2,1,5,0,0
58177,-125,4,2,1,55,0,0
60586,-125,4,2,1,5,0,0
60675,-125,4,2,1,55,0,0
63440,-125,4,2,1,5,0,0
63529,-125,4,2,1,55,0,0
69506,-125,4,2,1,5,0,0
69595,-125,4,2,1,55,0,0
69952,-125,4,2,1,60,0,0
71290,-125,4,2,1,5,0,0
71379,-125,4,2,1,60,0,0
73787,-125,4,2,1,5,0,0
73877,-125,4,2,1,60,0,0
77712,-125,4,2,1,5,0,0
77801,-125,4,2,1,60,0,0
78872,-125,4,2,1,55,0,0
79585,-125,4,2,1,50,0,0
80299,-125,4,2,1,55,0,0
80656,-333.333333333333,4,2,1,60,0,0
81369,-100,4,2,1,70,0,0
83421,-100,4,2,1,5,0,0
83510,-100,4,2,1,70,0,0
89130,-100,4,2,1,5,0,0
89219,-100,4,2,1,70,0,0
89843,-100,4,2,1,5,0,0
89933,-100,4,2,1,70,0,0
100548,-100,4,2,1,5,0,0
100637,-100,4,2,1,70,0,0
101261,-100,4,2,1,5,0,0
101350,-100,4,2,1,70,0,0
103491,-166.666666666667,4,2,1,70,0,0
104205,-166.666666666667,4,2,1,55,0,0
114730,-166.666666666667,4,2,1,60,0,0
115622,-111.111111111111,4,2,1,60,0,0
118031,-111.111111111111,4,2,1,5,0,0
118120,-111.111111111111,4,2,1,60,0,0
118745,-111.111111111111,4,2,1,5,0,0
118834,-111.111111111111,4,2,1,60,0,0
120529,-111.111111111111,4,2,1,5,0,0
120618,-111.111111111111,4,2,1,60,0,0
124453,-111.111111111111,4,2,1,5,0,0
124543,-111.111111111111,4,2,1,60,0,0
127308,-111.111111111111,4,2,1,5,0,0
127397,-111.111111111111,4,2,1,65,0,0
131589,-111.111111111111,4,2,1,5,0,0
131679,-111.111111111111,4,2,1,65,0,0
132749,-111.111111111111,4,2,1,60,0,0
137744,-166.666666666667,4,2,1,60,0,0
138279,-166.666666666666,4,2,1,55,0,0
140420,-166.666666666666,4,2,1,60,0,0
141312,-99.9999999999998,4,2,1,70,0,0
143721,-99.9999999999998,4,2,1,5,0,0
143810,-99.9999999999998,4,2,1,70,0,0
146218,-99.9999999999998,4,2,1,5,0,0
146308,-99.9999999999998,4,2,1,70,0,0
152998,-99.9999999999998,4,2,1,5,0,0
153087,-99.9999999999998,4,2,1,70,0,0
154782,-99.9999999999998,4,2,1,5,0,0
154871,-99.9999999999998,4,2,1,70,0,0
158706,-99.9999999999998,4,2,1,5,0,0
158796,-99.9999999999998,4,2,1,70,0,0
164148,-125,4,2,1,55,0,0
165129,-125,4,2,1,5,0,0
165218,-125,4,2,1,55,0,0
172354,-250,4,2,1,55,0,0
174495,-142.857142857143,4,2,1,55,0,0
175565,-142.857142857143,4,2,1,55,0,1
195546,-142.857142857143,4,2,1,55,0,0
196974,-200,4,2,1,50,0,0
197687,-250.000000000001,4,2,1,55,0,0
198401,-100,4,2,1,75,0,0
206161,-100,4,2,1,5,0,0
206250,-100,4,2,1,75,0,0
206875,-100,4,2,1,5,0,0
206964,-100,4,2,1,75,0,0
208926,-76.9230769230769,4,2,1,75,0,0
209105,-76.9230769230769,4,2,1,65,0,0
209462,-76.9230769230769,4,2,1,55,0,0
209818,-100,4,2,1,75,0,1
209997,-100,4,2,1,75,0,0
217579,-100,4,2,1,5,0,0
217668,-100,4,2,1,75,0,0
218293,-100,4,2,1,5,0,0
218382,-100,4,2,1,75,0,0
220523,-200,4,2,1,65,0,0
221236,-111.111111111111,4,2,1,60,0,0
224358,-111.111111111111,4,2,1,5,0,0
224447,-111.111111111111,4,2,1,60,0,0
226142,-111.111111111111,4,2,1,5,0,0
226231,-111.111111111111,4,2,1,60,0,0
228997,-111.111111111111,4,2,1,5,0,0
229086,-111.111111111111,4,2,1,60,0,0
230067,-111.111111111111,4,2,1,5,0,0
230156,-111.111111111111,4,2,1,60,0,0
234705,-111.111111111111,4,2,1,5,0,0
234795,-111.111111111111,4,2,1,60,0,0
244072,-142.857142857143,4,2,1,30,0,0

[Colours]
Combo1 : 152,147,204
Combo2 : 170,213,244
Combo3 : 100,147,234
Combo4 : 153,206,210

[HitObjects]
44,106,23567,6,2,L|172:122,1,126,2|0,0:1|0:0,0:1:0:0:
281,203,24281,6,0,P|204:206|141:278,1,161.999995056153,6|2,1:0|0:0,0:0:0:0:
383,372,24995,2,0,P|342:365|299:347,1,80.9999975280763,10|0,0:0|0:0,0:0:0:0:
237,287,25351,1,2,1:2:0:0:
375,173,25530,1,0,1:0:0:0:
375,173,25619,1,8,0:0:0:0:
375,173,25708,1,0,1:0:0:0:
256,185,25887,1,8,0:0:0:0:
207,91,26065,2,0,P|218:46|224:1,1,80.9999975280763,2|0,1:2|0:0,0:0:0:0:
34,109,26422,2,0,P|22:160|66:222,1,121.499996292114,10|0,0:0|0:0,0:0:0:0:
56,216,26779,2,0,P|99:221|153:241,1,80.9999975280763,2|0,1:2|0:0,0:0:0:0:
374,354,27135,6,0,P|329:352|247:365,1,121.499996292114,6|0,1:2|0:0,0:0:0:0:
253,363,27492,2,0,P|246:309|251:270,1,80.9999975280763,0|0,1:0|0:0,0:0:0:0:
146,152,27849,2,0,P|141:199|133:236,1,80.9999975280763,10|0,0:0|0:0,0:0:0:0:
281,90,28206,1,2,1:2:0:0:
362,184,28384,1,0,1:0:0:0:
362,184,28473,1,8,0:0:0:0:
362,184,28563,1,2,1:2:0:0:
237,182,28741,1,8,0:0:0:0:
386,92,28919,2,8,P|424:103|465:108,1,80.9999975280763,2|0,1:2|0:0,0:0:0:0:
302,384,29276,6,0,P|311:332|303:254,1,121.499996292114,10|0,0:0|0:0,0:0:0:0:
281,242,29633,1,2,1:2:0:0:
142,330,29811,1,8,0:0:0:0:
80,60,29990,6,0,P|40:88|24:211,1,161.999995056153,6|2,1:2|0:0,0:0:0:0:
114,236,30703,2,0,P|161:224|207:219,1,80.9999975280763,10|0,0:0|0:0,0:0:0:0:
320,332,31060,1,2,1:2:0:0:
477,257,31239,1,2,1:2:0:0:
477,257,31328,1,8,0:0:0:0:
477,257,31417,2,0,P|430:269|384:274,2,80.9999975280763,2|8|2,1:2|0:0|1:2,0:0:0:0:
311,200,31952,1,2,0:3:0:0:
416,64,32131,2,0,P|430:104|433:146,1,80.9999975280763,10|0,0:0|0:0,0:0:0:0:
218,275,32487,2,0,P|195:219|200:139,1,121.499996292114,0|0,1:0|0:0,0:0:0:0:
194,158,32844,6,0,B|112:175|126:130|29:155,1,161.999995056153,6|0,1:2|1:0,0:0:0:0:
16,230,33379,1,0,1:0:0:0:
164,305,33558,1,10,0:0:0:0:
0,333,33736,1,2,0:0:0:0:
120,213,33915,1,2,0:3:0:0:
100,384,34093,1,0,1:0:0:0:
100,384,34182,1,8,0:0:0:0:
100,384,34271,1,2,1:2:0:0:
251,289,34450,1,8,0:0:0:0:
405,365,34628,6,0,P|457:352|506:351,1,80.9999975280763,2|0,1:2|0:0,0:0:0:0:
309,198,34985,2,0,P|299:163|295:104,1,80.9999975280763,10|0,0:0|0:0,0:0:0:0:
393,272,35342,1,10,0:0:0:0:
454,124,35520,1,8,0:0:0:0:
145,223,35699,2,0,B|178:137|133:152|164:55,1,161.999995056153,4|2,1:0|0:0,0:0:0:0:
268,240,36412,6,0,P|291:287|294:323,1,80.9999975280763,10|0,0:0|0:0,0:0:0:0:
445,162,36769,2,0,P|443:210|434:253,1,80.9999975280763,2|0,0:3|1:0,0:0:0:0:
436,242,37037,1,8,0:0:0:0:
436,242,37126,2,0,P|380:226|342:218,1,80.9999975280763,2|8,1:2|0:0,0:0:0:0:
203,52,37483,1,2,1:2:0:0:
203,52,37839,2,0,P|210:100|226:136,1,80.9999975280763,10|0,0:0|0:0,0:0:0:0:
193,384,38196,2,0,P|207:346|212:306,1,80.9999975280763,2|0,1:2|0:0,0:0:0:0:
501,181,38553,6,0,P|458:219|374:218,1,121.499996292114,6|0,1:2|0:0,0:0:0:0:
396,225,38910,2,0,P|407:260|418:316,1,80.9999975280763,2|0,1:2|0:0,0:0:0:0:
281,234,39267,2,0,P|235:219|181:209,1,80.9999975280763,10|0,0:0|0:0,0:0:0:0:
335,134,39623,2,0,P|350:87|357:55,1,80.9999975280763,2|0,0:0|1:0,0:0:0:0:
356,56,39891,1,8,0:0:0:0:
356,56,39980,1,2,1:2:0:0:
440,127,40159,1,8,0:0:0:0:
241,79,40337,2,0,P|195:94|141:104,1,80.9999975280763,2|0,1:2|0:0,0:0:0:0:
30,214,40694,2,0,P|51:263|53:315,1,94.499997116089,10|0,0:0|0:0,0:0:0:0:
55,304,41051,2,0,L|145:279,1,80.9999975280763,2|8,1:2|0:0,0:0:0:0:
330,209,41407,6,0,B|411:205|388:248|494:255,1,161.999995056153,4|2,1:2|0:0,0:0:0:0:
232,373,42121,2,0,L|239:222,1,121.499996292114,10|0,0:0|0:0,0:0:0:0:
231,230,42478,1,2,0:0:0:0:
153,45,42656,1,0,1:0:0:0:
153,45,42745,1,8,0:0:0:0:
152,45,42835,2,0,P|105:54|58:60,1,80.9999975280763,2|8,1:2|0:0,0:0:0:0:
7,148,43191,2,0,P|19:202|23:235,1,80.9999975280763,2|0,1:2|0:0,0:0:0:0:
88,364,43548,2,0,P|123:327|231:328,1,161.999995056153,10|2,0:0|1:2,0:0:0:0:
368,373,44083,1,2,0:3:0:0:
186,178,44262,6,0,P|263:170|355:136,1,161.999995056153,6|2,1:2|1:2,0:0:0:0:
467,184,44797,1,0,1:0:0:0:
324,64,44975,1,10,0:0:0:0:
478,18,45154,1,2,0:0:0:0:
413,87,45332,1,2,0:3:0:0:
211,6,45511,1,0,1:0:0:0:
211,6,45600,1,8,0:0:0:0:
211,6,45689,2,0,P|221:43|228:92,1,80.9999975280763,0|8,1:0|0:0,0:0:0:0:
209,383,46046,2,0,P|193:324|181:246,1,121.499996292114,2|0,1:2|0:0,0:0:0:0:
183,264,46403,6,0,P|223:255|261:243,1,80.9999975280763,10|0,0:0|0:0,0:0:0:0:
163,159,46759,1,10,0:0:0:0:
315,63,46938,1,8,0:0:0:0:
507,171,47116,6,0,B|429:145|442:190|357:178,1,144,6|2,1:0|0:0,0:0:0:0:
146,74,47830,2,0,P|158:121|165:164,1,72,10|0,0:0|0:0,0:0:0:0:
162,144,48187,2,0,P|199:132|231:128,1,72,2|0,0:0|1:0,0:0:0:0:
231,127,48454,1,8,0:0:0:0:
231,127,48544,1,0,1:0:0:0:
315,63,48722,1,8,0:0:0:0:
428,121,48900,2,0,P|436:173|441:217,1,72,0|0,1:0|0:0,0:0:0:0:
336,357,49257,2,0,P|328:305|323:261,1,72,8|0,0:0|0:0,0:0:0:0:
325,182,49614,6,0,P|288:190|245:193,1,72,2|2,1:2|0:0,0:0:0:0:
11,226,49971,2,0,P|6:295|52:370,1,144,2|2,1:2|1:2,0:0:0:0:
180,318,50506,2,0,P|184:248|145:189,1,144,2|2,0:0|0:0,0:0:0:0:
144,188,51041,1,2,0:3:0:0:
129,34,51220,5,2,1:2:0:0:
129,34,51309,1,8,0:0:0:0:
129,34,51398,2,0,P|168:38|207:49,1,72,0|8,1:0|0:0,0:0:0:0:
89,124,51755,2,0,P|52:129|8:143,1,72,2|0,1:2|0:0,0:0:0:0:
268,101,52112,2,0,P|273:138|287:182,1,72,10|2,0:0|0:0,0:0:0:0:
358,368,52468,1,2,1:2:0:0:
473,211,52647,1,8,0:0:0:0:
248,268,52825,6,0,P|308:263|364:310,1,108,4|0,1:2|0:0,0:0:0:0:
347,286,53182,2,0,P|355:241|374:194,1,72,2|2,0:0|0:0,0:0:0:0:
498,349,53539,2,0,B|418:329|433:374|353:368,1,144,10|2,0:0|0:3,0:0:0:0:
142,286,54074,1,0,1:0:0:0:
142,286,54163,1,8,0:0:0:0:
142,286,54252,2,0,P|152:328|155:371,1,72,0|8,1:0|0:0,0:0:0:0:
0,218,54609,2,0,P|38:209|81:194,1,72,0|0,1:0|0:0,0:0:0:0:
156,36,54966,2,0,P|227:29|287:72,1,144,8|2,0:0|1:2,0:0:0:0:
348,155,55501,1,2,0:0:0:0:
226,244,55680,6,0,P|194:179|209:106,1,144,2|2,1:2|1:2,0:0:0:0:
326,250,56215,1,2,1:2:0:0:
445,148,56393,1,8,0:0:0:0:
339,83,56572,2,0,P|346:131|348:174,1,72,2|2,0:0|0:3,0:0:0:0:
436,307,56928,1,2,1:2:0:0:
436,307,57018,1,8,0:0:0:0:
436,307,57107,2,0,P|439:272|447:237,1,72,0|10,1:0|0:0,0:0:0:0:
355,356,57464,2,0,P|314:343|272:334,1,72,2|0,1:2|0:0,0:0:0:0:
164,207,57820,6,0,P|123:220|37:237,1,108,10|0,0:0|0:0,0:0:0:0:
47,249,58177,1,8,0:0:0:0:
122,117,58356,1,8,0:0:0:0:
261,235,58534,6,0,B|288:157|245:168|278:67,1,144,4|2,1:0|0:0,0:0:0:0:
436,306,59248,2,0,P|486:321|525:327,1,72,10|0,0:0|0:0,0:0:0:0:
365,178,59604,2,0,P|415:163|454:157,1,72,2|0,0:3|1:0,0:0:0:0:
434,159,59872,1,8,0:0:0:0:
434,159,59961,2,0,P|424:113|421:71,1,72,2|8,1:2|0:0,0:0:0:0:
350,264,60318,2,0,L|325:383,1,108,2|0,1:2|0:0,0:0:0:0:
327,369,60675,2,0,P|287:355|236:346,1,72,10|0,0:0|0:0,0:0:0:0:
19,336,61032,2,0,P|59:350|110:359,1,72,2|0,1:2|0:0,0:0:0:0:
87,356,61299,5,0,3:0:0:0:
87,356,61388,2,0,P|120:280|95:212,1,144,2|2,1:2|1:2,0:0:0:0:
16,177,61924,1,0,0:0:0:0:
236,242,62102,2,0,P|241:195|249:165,1,72,8|2,0:0|0:0,0:0:0:0:
138,47,62459,2,0,P|96:61|59:67,1,72,2|0,0:3|1:0,0:0:0:0:
68,65,62726,1,8,0:0:0:0:
68,65,62816,2,0,P|81:102|89:137,1,72,0|8,1:0|0:0,0:0:0:0:
262,69,63172,2,0,P|252:110|256:198,1,108,2|0,1:2|0:0,0:0:0:0:
251,175,63529,2,0,L|330:161,1,72,10|2,0:0|0:0,0:0:0:0:
391,256,63886,1,2,1:2:0:0:
445,130,64064,1,8,0:0:0:0:
481,300,64243,6,0,P|407:296|348:351,1,144,4|2,1:2|0:0,0:0:0:0:
169,262,64956,2,0,P|223:272|253:274,1,72,10|0,0:0|0:0,0:0:0:0:
239,273,65313,2,0,P|230:308|225:343,1,72,2|0,0:3|1:0,0:0:0:0:
225,343,65581,1,8,0:0:0:0:
225,343,65670,1,2,1:2:0:0:
49,298,65848,1,8,0:0:0:0:
174,167,66027,2,0,P|120:177|90:179,1,72,2|0,1:2|0:0,0:0:0:0:
1,73,66384,2,0,P|33:26|121:19,1,144,10|0,0:0|1:0,0:0:0:0:
207,85,66919,1,0,3:0:0:0:
272,254,67097,6,0,B|191:230|202:274|116:247,1,144,4|0,1:2|1:0,0:0:0:0:
234,370,67632,1,0,1:0:0:0:
234,370,67811,2,0,P|276:359|316:357,1,72,8|0,0:0|0:0,0:0:0:0:
267,155,68168,2,0,P|309:166|349:168,1,72,2|0,0:3|1:0,0:0:0:0:
337,168,68435,1,8,0:0:0:0:
337,168,68524,1,0,1:0:0:0:
497,124,68703,1,8,0:0:0:0:
380,10,68881,6,0,P|375:52|380:85,1,72,2|0,1:2|0:0,0:0:0:0:
474,301,69238,2,0,P|479:259|460:191,1,108,10|0,0:0|0:0,0:0:0:0:
462,196,69595,1,10,0:0:0:0:
345,174,69773,1,8,0:0:0:0:
200,88,69952,6,0,B|207:169|243:137|244:242,1,144,4|2,1:0|0:3,0:0:0:0:
106,365,70665,2,0,P|93:329|96:287,1,72,10|0,0:0|0:0,0:0:0:0:
0,144,71022,2,0,P|46:188|119:191,1,108,2|0,0:0|0:0,0:0:0:0:
101,185,71379,1,0,1:0:0:0:
169,104,71557,1,8,1:2:0:0:
203,213,71736,1,2,1:2:0:0:
91,16,71914,1,2,0:3:0:0:
91,16,72003,1,0,3:0:0:0:
91,16,72093,2,0,P|82:57|82:94,1,72,10|0,0:0|0:0,0:0:0:0:
289,194,72449,2,0,P|280:153|280:116,1,72,2|0,1:2|0:0,0:0:0:0:
289,52,72806,6,0,P|280:93|280:130,1,72,2|0,1:2|0:0,0:0:0:0:
236,284,73163,2,0,P|191:274|157:260,1,72,2|0,1:2|0:0,0:0:0:0:
387,181,73520,2,0,P|432:191|492:222,1,108,10|0,0:0|0:0,0:0:0:0:
487,218,73877,2,0,P|469:265|463:309,1,72,2|0,0:3|1:0,0:0:0:0:
464,286,74144,1,8,0:0:0:0:
464,286,74233,1,0,1:0:0:0:
474,112,74412,1,8,0:0:0:0:
387,181,74590,1,2,1:2:0:0:
387,181,74947,6,0,P|343:169|303:151,1,72,10|0,0:0|0:0,0:0:0:0:
197,120,75304,1,2,1:2:0:0:
268,244,75482,1,8,0:0:0:0:
275,72,75661,2,0,P|223:37|126:54,1,144,4|2,1:2|0:0,0:0:0:0:
8,330,76374,2,0,P|60:365|157:348,1,144,10|2,0:0|0:0,0:0:0:0:
138,359,77088,6,0,P|132:316|131:281,1,72,6|8,1:2|0:0,0:0:0:0:
50,84,77445,2,0,P|41:147|39:199,1,108,2|0,1:2|0:0,0:0:0:0:
39,191,77801,2,0,P|78:197|121:206,1,72,8|0,0:0|0:0,0:0:0:0:
372,243,78158,1,6,1:2:0:0:
372,243,78872,1,2,0:0:0:0:
282,263,79229,1,2,0:0:0:0:
207,207,79585,1,2,0:0:0:0:
215,213,80299,6,0,P|227:261|231:304,1,72,2|8,0:0|0:0,0:0:0:0:
229,283,80567,1,8,0:0:0:0:
229,283,80656,2,2,P|179:293|145:308,1,80.9999975280763,12|0,0:0|0:0,0:1:0:0:
241,107,81369,6,0,B|140:115|179:67|67:82,1,180,4|2,1:0|0:0,0:0:0:0:
162,5,81905,1,2,0:3:0:0:
37,270,82083,2,0,P|22:227|17:183,1,90,10|2,0:0|0:0,0:0:0:0:
252,213,82440,2,0,P|245:264|230:304,1,90,2|0,0:3|1:0,0:0:0:0:
231,300,82707,1,8,0:0:0:0:
231,300,82797,1,0,1:0:0:0:
129,335,82975,1,8,0:0:0:0:
344,261,83153,6,0,P|394:281|484:292,1,135,2|0,1:2|0:0,0:0:0:0:
474,292,83510,2,0,P|466:253|461:192,1,90,10|0,0:0|0:0,0:0:0:0:
334,3,83867,2,0,P|325:42|320:103,1,90,2|0,1:2|0:0,0:0:0:0:
109,159,84224,6,0,P|164:167|232:184,1,120,4|2,1:2|0:0,0:0:0:0:
251,164,84581,1,2,1:2:0:0:
165,266,84759,1,2,1:2:0:0:
143,18,84937,2,0,P|99:38|50:49,1,90,10|2,0:0|0:0,0:0:0:0:
0,139,85294,1,2,0:3:0:0:
94,333,85473,5,0,1:0:0:0:
94,333,85562,1,8,0:0:0:0:
94,333,85651,1,0,1:0:0:0:
237,247,85829,1,8,0:0:0:0:
139,246,86008,2,0,P|95:226|46:215,1,90,2|0,1:2|0:0,0:0:0:0:
247,56,86365,2,0,P|231:110|227:147,1,90,10|2,0:0|0:0,0:0:0:0:
341,311,86721,2,0,P|385:291|434:280,1,90,10|8,0:0|0:0,0:0:0:0:
497,185,86989,5,8,0:0:0:0:
497,185,87078,2,0,P|429:177|359:91,1,180,6|2,1:0|0:0,0:0:0:0:
174,274,87613,1,0,3:0:0:0:
280,220,87792,1,10,0:0:0:0:
256,347,87970,1,2,0:0:0:0:
180,165,88149,2,0,P|193:119|193:53,1,90,2|0,0:3|1:0,0:0:0:0:
195,77,88416,1,8,0:0:0:0:
195,77,88505,2,0,P|133:68|94:57,1,90,4|8,1:2|0:0,0:0:0:0:
49,312,88862,6,0,P|112:301|190:274,1,135,2|0,1:2|0:0,0:0:0:0:
179,278,89219,2,0,P|166:335|162:378,1,90,10|2,0:0|0:0,0:0:0:0:
378,284,89576,2,0,P|393:225|373:145,1,135,2|0,1:2|0:0,0:0:0:0:
434,220,89933,6,0,P|486:232|530:237,1,90,6|0,1:0|0:0,0:0:0:0:
297,111,90289,2,0,P|240:96|182:89,1,90,2|0,1:2|1:0,0:0:0:0:
395,47,90646,1,10,0:0:0:0:
395,47,90825,1,2,0:0:0:0:
286,216,91003,2,0,B|206:205|224:242|134:232,1,135
63,276,91360,6,0,P|48:241|56:187,1,90,6|8,1:2|0:0,0:0:0:0:
297,111,91717,1,2,1:2:0:0:
225,25,91895,1,8,0:0:0:0:
225,25,91984,1,8,0:0:0:0:
225,25,92073,1,8,0:3:0:0:
183,125,92252,1,8,0:3:0:0:
114,51,92430,1,4,0:3:0:0:
114,51,92787,6,0,P|146:113|133:236,1,180,6|2,1:0|0:0,0:0:0:0:
335,130,93322,1,2,0:3:0:0:
335,130,93501,2,0,P|320:167|323:241,1,90,10|0,0:0|0:0,0:0:0:0:
492,358,93857,1,2,0:0:0:0:
397,323,94036,1,0,1:0:0:0:
397,323,94125,1,8,0:0:0:0:
397,323,94214,2,0,P|412:285|408:212,1,90,0|8,1:0|0:0,0:0:0:0:
200,55,94571,6,0,P|206:106|225:153,1,90,2|0,1:2|0:0,0:0:0:0:
3,89,94928,2,0,P|17:131|22:176,1,90,10|0,0:0|0:0,0:0:0:0:
213,246,95285,2,0,P|160:239|110:225,1,90,2|0,1:2|0:0,0:0:0:0:
156,343,95642,6,0,B|248:310|240:366|338:351,1,180,6|2,1:2|1:2,0:0:0:0:
213,246,96177,1,2,1:2:0:0:
368,126,96355,1,10,0:0:0:0:
313,267,96534,1,2,0:3:0:0:
137,78,96712,2,0,P|81:62|27:59,1,90,2|0,0:3|1:0,0:0:0:0:
43,186,96980,5,8,0:0:0:0:
36,205,97069,2,0,P|83:187|132:181,1,90,4|8,1:2|0:0,0:0:0:0:
296,130,97426,1,2,1:2:0:0:
218,17,97604,1,2,0:0:0:0:
331,248,97782,2,0,P|275:231|218:221,1,90,10|2,0:0|0:0,0:0:0:0:
17,304,98139,1,10,0:0:0:0:
108,382,98318,5,8,0:0:0:0:
108,382,98407,1,8,0:0:0:0:
108,382,98496,2,0,P|128:335|99:202,1,180,6|2,1:0|0:0,0:0:0:0:
0,148,99031,1,2,0:3:0:0:
141,55,99210,1,10,0:0:0:0:
28,6,99388,1,2,0:0:0:0:
303,175,99566,2,0,P|257:158|208:151,1,90,2|0,0:0|1:0,0:0:0:0:
216,151,99834,1,8,0:0:0:0:
216,151,99923,2,0,P|233:104|238:61,1,90,0|8,1:0|0:0,0:0:0:0:
441,267,100280,6,0,P|394:253|312:308,1,135,2|0,1:2|0:0,0:0:0:0:
322,291,100637,1,12,0:0:0:0:
200,238,100815,1,2,0:0:0:0:
354,107,100994,2,0,P|404:102|490:79,1,135,0|0,1:0|0:0,0:0:0:0:
486,66,101350,6,0,P|474:128|472:161,1,90,6|0,1:0|0:0,0:0:0:0:
256,15,101707,2,0,P|262:69|272:110,1,90,2|0,1:2|1:0,0:0:0:0:
284,192,102064,2,0,P|278:138|268:97,1,90,10|0,0:0|0:0,0:0:0:0:
93,272,102421,2,0,P|115:219|123:184,1,90,2|0,0:3|1:0,0:0:0:0:
122,187,102688,1,8,0:0:0:0:
122,187,102778,1,0,1:0:0:0:
231,298,102956,1,8,0:0:0:0:
374,223,103134,2,0,P|428:213|468:204,1,90,2|8,1:2|0:0,0:0:0:0:
462,205,103402,1,8,0:0:0:0:
462,205,103491,2,0,P|442:258|436:323,1,107.999996704102,6|2,1:0|0:0,0:0:0:0:
497,383,104205,5,2,0:3:0:0:
481,358,105632,5,2,0:3:0:0:
459,341,107059,5,2,0:3:0:0:
423,326,108486,6,0,P|380:339|308:344,1,107.999996704102,2|2,0:3|0:3,0:0:0:0:
211,268,109200,1,2,0:3:0:0:
235,175,109378,1,2,0:0:0:0:
330,207,109557,1,0,3:0:0:0:
379,15,109914,5,2,0:3:0:0:
399,34,111341,5,2,0:3:0:0:
423,48,112768,5,2,0:3:0:0:
448,59,114195,6,0,P|404:63|323:89,1,107.999996704102,2|2,0:3|0:3,0:0:0:0:
179,177,114730,1,0,1:0:0:0:
179,177,114820,1,0,1:0:0:0:
179,177,114909,1,8,0:0:0:0:
96,27,115087,1,8,0:3:0:0:
224,66,115266,1,4,0:3:0:0:
58,202,115622,6,0,P|103:273|105:362,1,161.999995056153,6|2,1:0|1:2,0:0:0:0:
195,170,116158,1,8,0:0:0:0:
296,238,116336,2,0,P|282:281|281:329,1,80.9999975280763,2|0,0:3|1:0,0:0:0:0:
449,168,116693,1,2,1:2:0:0:
449,168,117050,6,0,P|393:160|352:142,1,80.9999975280763,2|0,0:3|1:0,0:0:0:0:
222,26,117406,1,0,1:0:0:0:
250,137,117585,1,2,0:3:0:0:
168,228,117763,2,0,B|110:212|101:257|39:246,1,121.499996292114,8|0,0:0|0:0,0:0:0:0:
50,247,118120,2,0,P|61:204|63:150,1,80.9999975280763,2|8,1:2|0:0,0:0:0:0:
24,30,118477,6,0,P|62:71|138:78,1,121.499996292114,2|0,1:2|0:0,0:0:0:0:
124,81,118834,1,2,1:2:0:0:
325,4,119012,2,0,P|315:53|310:105,1,80.9999975280763,10|0,0:0|0:0,0:0:0:0:
236,260,119369,2,0,P|226:211|221:159,1,80.9999975280763,2|0,1:2|0:0,0:0:0:0:
360,212,119726,5,2,1:2:0:0:
360,212,119815,1,8,0:0:0:0:
360,212,119904,1,0,1:0:0:0:
452,144,120083,1,8,0:0:0:0:
512,236,120261,2,0,P|489:321|471:357,1,121.499996292114,2|0,1:2|0:0,0:0:0:0:
474,350,120618,2,0,P|440:332|399:318,1,80.9999975280763,10|2,0:0|0:3,0:0:0:0:
264,329,120975,1,2,1:2:0:0:
264,329,121153,1,8,0:0:0:0:
309,125,121331,6,0,P|268:151|144:169,1,161.999995056153,2|2,1:0|1:2,0:0:0:0:
3,106,121867,2,0,P|24:156|30:199,1,80.9999975280763,8|0,0:0|0:0,0:0:0:0:
151,331,122223,1,0,1:0:0:0:
151,331,122402,2,0,P|105:314|53:307,1,80.9999975280763,2|0,1:2|0:0,0:0:0:0:
256,167,122759,2,0,P|243:220|241:260,1,80.9999975280763,2|0,0:3|1:0,0:0:0:0:
333,228,123115,1,0,1:0:0:0:
333,228,123294,1,2,0:3:0:0:
203,76,123472,1,8,0:0:0:0:
203,76,123829,6,0,P|256:86|306:89,1,80.9999975280763,2|10,1:2|0:0,0:0:0:0:
409,311,124186,2,0,P|436:273|432:187,1,121.499996292114,2|0,1:0|0:0,0:0:0:0:
437,200,124543,1,2,1:2:0:0:
313,316,124721,2,0,P|271:326|231:342,1,80.9999975280763,10|0,0:0|0:0,0:0:0:0:
70,177,125078,2,0,P|112:187|152:203,1,80.9999975280763,2|0,1:2|0:0,0:0:0:0:
297,95,125435,5,2,1:2:0:0:
297,95,125524,1,8,0:0:0:0:
297,95,125613,1,0,1:0:0:0:
202,0,125791,1,8,0:0:0:0:
87,57,125970,1,0,1:0:0:0:
237,175,126148,5,0,1:0:0:0:
234,185,126237,1,0,1:0:0:0:
231,197,126327,1,8,0:0:0:0:
285,277,126594,5,8,0:0:0:0:
285,277,126683,1,0,1:0:0:0:
235,378,126862,5,8,0:0:0:0:
231,368,126951,1,8,0:0:0:0:
227,360,127040,2,0,P|172:349|96:322,1,121.499996292114,6|0,1:0|0:0,0:0:0:0:
110,328,127397,2,0,P|126:284|136:241,1,80.9999975280763,10|0,0:0|0:0,0:0:0:0:
123,25,127754,1,2,1:2:0:0:
57,91,127932,1,0,1:0:0:0:
121,142,128111,2,0,P|177:142|208:137,1,80.9999975280763,0|8,3:0|0:0,0:0:0:0:
283,59,128467,6,0,P|298:103|308:146,1,80.9999975280763,2|0,0:1|1:0,0:0:0:0:
443,294,128824,2,0,P|398:278|355:268,1,80.9999975280763,10|0,0:0|0:0,0:0:0:0:
197,233,129181,1,2,0:3:0:0:
246,384,129359,1,0,1:0:0:0:
246,384,129449,1,0,1:0:0:0:
246,384,129538,2,0,P|262:339|267:292,1,80.9999975280763,10|0,0:0|0:0,0:0:0:0:
423,109,129895,6,0,P|376:160|260:170,1,161.999995056153,2|10,1:0|0:0,0:0:0:0:
76,85,130430,2,0,P|126:97|175:97,1,80.9999975280763,2|0,0:3|1:0,0:0:0:0:
137,258,130787,1,2,1:2:0:0:
201,182,130965,1,2,0:0:0:0:
201,182,131143,1,8,0:0:0:0:
297,384,131322,6,0,P|303:318|319:260,1,121.499996292114,2|0,1:0|0:0,0:0:0:0:
317,264,131679,2,0,P|365:277|404:282,1,80.9999975280763,10|0,0:0|0:0,0:0:0:0:
482,182,132035,1,2,1:2:0:0:
294,12,132214,2,0,L|304:63,2,40.4999987640381,2|0|2,1:2|1:0|1:2,1:0:0:0:
435,106,132571,5,8,0:0:0:0:
435,106,132660,1,8,0:0:0:0:
435,106,132749,2,0,B|349:96|365:147|267:133,1,161.999995056153,6|2,1:0|1:2,0:0:0:0:
84,191,133284,2,0,P|75:234|76:288,1,80.9999975280763,8|2,0:0|0:0,0:0:0:0:
192,139,133641,1,0,1:2:0:0:
7,63,133819,2,0,P|63:79|92:81,1,80.9999975280763,2|0,1:2|0:0,0:0:0:0:
273,37,134176,6,0,P|317:19|368:10,1,80.9999975280763,2|0,0:3|1:0,0:0:0:0:
178,219,134533,2,0,P|189:176|192:130,1,80.9999975280763,2|0,1:2|0:0,0:0:0:0:
440,192,134890,2,0,P|359:187|292:239,1,161.999995056153,10|0,0:0|1:0,0:0:0:0:
173,365,135425,5,8,0:0:0:0:
173,365,135603,2,0,P|206:298|174:215,1,161.999995056153,0|0,1:0|1:0,0:0:0:0:
63,153,136139,1,8,0:0:0:0:
110,78,136317,1,2,0:3:0:0:
187,112,136495,2,0,P|233:124|271:127,1,80.9999975280763,0|0,1:0|1:0,0:0:0:0:
475,241,136852,5,0,1:0:0:0:
475,241,136941,1,8,0:0:0:0:
475,241,137031,1,0,1:0:0:0:
306,294,137209,1,8,0:0:0:0:
361,200,137387,2,0,P|374:157|380:116,1,80.9999975280763,0|0,1:0|0:0,0:0:0:0:
158,355,137744,6,2,B|155:262|106:300|108:197,1,161.999995056153,8|0,0:0|1:0,0:1:0:0:
108,206,138369,1,0,1:0:0:0:
108,206,138458,1,4,1:2:0:0:
379,121,138815,1,2,0:1:0:0:
196,95,139171,5,0,0:0:0:0:
313,227,139528,1,2,0:1:0:0:
245,168,139885,5,0,0:0:0:0:
266,158,140242,1,2,0:1:0:0:
400,321,140420,5,0,1:0:0:0:
400,321,140509,1,0,1:0:0:0:
400,321,140599,2,0,B|402:226|446:277|452:172,1,161.999995056153,12|0,0:0|0:0,0:1:0:0:
142,23,141312,6,0,P|157:68|163:112,1,90,6|0,1:0|0:0,0:0:0:0:
0,212,141669,2,0,P|49:223|96:226,1,90,2|0,0:3|0:0,0:0:0:0:
298,337,142026,2,0,P|249:348|202:351,1,90,10|0,0:0|0:0,0:0:0:0:
88,225,142383,1,2,0:3:0:0:
251,259,142561,1,2,1:2:0:0:
251,259,142650,1,8,0:0:0:0:
251,259,142740,1,2,1:2:0:0:
162,110,142918,1,8,0:0:0:0:
317,137,143096,2,0,P|366:150|416:157,1,90,2|0,1:2|0:0,0:0:0:0:
499,324,143453,6,0,P|433:330|356:358,1,135,10|0,0:0|0:0,0:0:0:0:
368,351,143810,2,0,P|382:305|389:259,1,90,0|0,1:0|0:0,0:0:0:0:
248,69,144167,2,0,B|152:44|173:104|76:96,1,180,2|0,1:0|1:0,0:0:0:0:
101,12,144702,1,0,1:0:0:0:
203,157,144880,2,0,P|188:208|185:249,1,90,10|0,0:0|0:0,0:0:0:0:
68,362,145237,2,0,P|117:343|167:338,1,90,2|0,0:3|1:0,0:0:0:0:
153,338,145505,1,8,0:0:0:0:
153,338,145594,1,2,1:2:0:0:
94,209,145772,1,10,0:0:0:0:
235,136,145951,2,0,P|283:143|388:148,1,135,2|0,1:2|0:0,0:0:0:0:
369,148,146308,6,0,P|352:195|341:248,1,90,14|0,0:0|0:0,0:0:0:0:
456,366,146664,1,10,0:0:0:0:
265,303,146843,1,8,0:0:0:0:
265,303,146932,1,8,0:0:0:0:
265,303,147021,2,0,P|229:239|237:129,1,180,6|2,1:0|0:3,0:0:0:0:
140,253,147556,1,2,0:0:0:0:
297,56,147735,5,10,0:0:0:0:
105,21,147913,1,2,0:0:0:0:
200,149,148092,1,2,0:3:0:0:
27,131,148270,1,2,1:2:0:0:
27,131,148359,1,8,0:0:0:0:
27,131,148448,1,2,1:0:0:0:
139,240,148627,1,2,3:2:0:0:
296,219,148805,1,2,1:2:0:0:
300,204,148894,1,2,0:3:0:0:
306,188,148984,1,2,3:2:0:0:
485,357,149162,5,10,0:0:0:0:
323,298,149340,1,2,0:3:0:0:
196,382,149519,2,0,P|214:328|215:287,1,90,2|2,1:2|0:0,0:0:0:0:
310,18,149876,5,6,1:0:0:0:
222,166,150054,1,2,0:0:0:0:
323,298,150232,1,2,1:2:0:0:
105,207,150411,5,2,1:2:0:0:
105,207,150500,1,0,1:0:0:0:
105,207,150589,1,10,0:0:0:0:
178,38,150768,1,2,0:3:0:0:
33,95,150946,1,2,0:0:0:0:
213,262,151124,6,0,L|267:248,2,45,0|8|2,1:0|0:0|1:0,0:0:0:0:
67,324,151481,1,10,0:0:0:0:
0,203,151660,1,2,1:2:0:0:
325,350,151838,5,10,0:0:0:0:
325,350,151927,1,8,0:0:0:0:
325,350,152016,1,8,0:3:0:0:
371,280,152195,1,8,0:3:0:0:
437,339,152373,1,4,0:3:0:0:
437,339,152730,6,0,P|435:292|457:202,1,135,6|0,1:0|0:0,0:0:0:0:
454,206,153087,2,0,P|396:193|355:171,1,90,2|0,0:3|0:0,0:0:0:0:
323,24,153444,2,0,P|264:37|223:59,1,90,10|0,0:0|0:0,0:0:0:0:
115,225,153800,2,0,P|104:169|88:121,1,90,2|0,0:3|1:0,0:0:0:0:
94,137,154068,5,8,0:0:0:0:
94,137,154157,1,2,1:0:0:0:
19,272,154336,1,8,0:0:0:0:
143,365,154514,2,0,P|201:338|278:332,1,135,2|0,1:2|0:0,0:0:0:0:
271,331,154871,2,0,P|256:272|253:239,1,90,10|0,0:0|0:0,0:0:0:0:
445,25,155228,2,0,P|429:84|426:117,1,90,2|0,1:2|0:0,0:0:0:0:
512,275,155584,6,0,P|469:229|348:209,1,180,2|2,1:0|1:2,0:0:0:0:
156,109,156120,1,0,1:0:0:0:
330,17,156298,2,0,P|286:12|235:-2,1,90,10|0,0:0|0:0,0:0:0:0:
34,181,156655,2,0,P|78:186|129:200,1,90,2|0,0:3|1:0,0:0:0:0:
122,197,156922,1,8,0:0:0:0:
122,197,157012,1,2,1:2:0:0:
246,294,157190,1,8,0:0:0:0:
383,219,157368,2,0,P|394:173|408:132,1,90,2|0,0:3|0:0,0:0:0:0:
505,302,157725,6,0,P|454:308|406:323,1,90,10|2,0:0|0:0,0:0:0:0:
273,195,158082,1,10,0:0:0:0:
124,333,158260,1,8,0:0:0:0:
124,333,158350,1,8,0:0:0:0:
124,333,158439,2,0,P|188:340|284:380,1,135,6|0,1:0|0:0,0:0:0:0:
254,363,158796,2,0,P|261:318|274:271,1,90,2|0,0:0|0:0,0:0:0:0:
230,43,159152,5,10,0:0:0:0:
147,66,159331,1,2,0:3:0:0:
183,137,159509,1,2,3:2:0:0:
111,235,159688,1,0,1:0:0:0:
111,235,159777,1,8,0:0:0:0:
111,235,159866,2,0,P|160:223|207:217,1,90,2|8,1:0|0:0,0:0:0:0:
382,291,160223,2,0,P|412:240|397:122,1,180,2|10,1:2|0:0,0:0:0:0:
482,12,160758,1,0,1:0:0:0:
482,12,160847,1,0,1:0:0:0:
482,12,160936,2,0,P|426:28|391:33,1,90,2|0,0:3|0:0,0:0:0:0:
161,92,161293,5,2,1:0:0:0:
245,193,161472,1,2,0:0:0:0:
168,305,161650,1,2,1:2:0:0:
145,297,161739,1,2,0:3:0:0:
122,301,161828,1,2,1:2:0:0:
22,211,162007,5,10,0:0:0:0:
145,180,162185,1,2,0:0:0:0:
264,100,162364,5,2,0:0:0:0:
405,151,162542,1,0,1:0:0:0:
405,151,162631,1,8,0:0:0:0:
405,151,162720,2,0,P|391:205|384:260,1,90,2|8,1:0|0:0,0:0:0:0:
72,131,163077,2,0,P|86:77|93:22,1,90,2|2,1:2|0:3,0:0:0:0:
91,43,163345,5,8,0:0:0:0:
91,43,163434,1,10,0:0:0:0:
212,176,163612,1,8,0:0:0:0:
193,307,163791,5,8,0:0:0:0:
351,166,163969,1,10,0:0:0:0:
256,88,164148,6,0,P|250:45|248:11,1,72,4|0,1:0|0:0,0:0:0:0:
55,124,164504,2,0,P|101:143|138:148,1,72,2|0,0:0|0:0,0:0:0:0:
223,235,164861,2,0,P|235:280|208:365,1,108,10|0,0:0|0:0,0:0:0:0:
223,339,165218,2,0,P|177:320|140:315,1,72,2|0,0:0|0:0,0:0:0:0:
51,229,165575,5,0,1:0:0:0:
4,293,165753,1,8,0:0:0:0:
76,338,165932,1,2,1:2:0:0:
76,338,166289,6,0,B|153:318|143:359|228:351,1,144,10|2,0:0|1:2,0:0:0:0:
431,212,167002,2,0,B|354:232|364:191|279:199,2,144,2|2|10,1:2|1:2|0:0,0:0:0:0:
165,88,168073,6,0,P|176:132|181:166,1,72,2|0,0:3|1:0,0:0:0:0:
180,158,168340,1,8,0:0:0:0:
180,158,168429,1,0,1:0:0:0:
101,206,168608,1,8,0:0:0:0:
65,129,168786,1,2,0:3:0:0:
358,44,169143,5,10,0:0:0:0:
358,44,169500,5,2,1:2:0:0:
282,152,169678,1,8,0:0:0:0:
386,261,169857,2,0,P|317:269|231:310,1,144,0|2,1:0|0:3,0:0:0:0:
15,171,170570,2,0,P|84:163|170:122,1,144,10|2,0:0|0:0,0:0:0:0:
152,133,171284,2,0,P|138:178|135:207,1,72,0|8,1:0|0:0,0:0:0:0:
145,362,171641,1,2,1:2:0:0:
145,362,171997,6,0,P|102:345|49:332,1,72,10|0,0:0|0:0,0:0:0:0:
291,261,172354,2,2,P|309:227|309:121,1,144,6|2,1:2|0:0,0:1:0:0:
371,215,173425,1,2,0:0:0:0:
477,224,173781,1,2,0:0:0:0:
477,224,174495,6,0,P|461:251|456:296,1,62.9999980773926,2|0,0:0|1:0,0:0:0:0:
455,281,174763,1,0,1:0:0:0:
455,281,174852,1,10,0:0:0:0:
336,356,175030,1,8,0:3:0:0:
265,314,175209,5,4,0:3:0:0:
174,283,175387,1,8,0:3:0:0:
155,291,175565,1,4,1:0:0:0:
198,26,196974,6,0,P|215:74|217:131,1,90,2|2,0:1|0:0,0:0:0:0:
262,240,197509,5,0,1:0:0:0:
262,240,197598,1,0,1:0:0:0:
262,240,197687,2,2,P|213:215|161:217,1,108,10|0,0:1|0:0,0:1:0:0:
374,374,198401,6,0,P|381:288|425:194,1,180,6|2,1:0|0:0,0:0:0:0:
418,203,198936,1,2,0:3:0:0:
339,39,199114,2,0,P|385:29|427:10,1,90,10|0,0:0|0:0,0:0:0:0:
203,176,199471,2,0,P|249:186|291:205,1,90,2|0,0:3|1:0,0:0:0:0:
288,203,199739,1,8,0:0:0:0:
288,203,199828,1,2,1:0:0:0:
256,91,200006,1,8,0:0:0:0:
107,282,200185,6,0,P|161:292|201:305,1,90,2|0,1:2|0:0,0:0:0:0:
426,79,200542,2,0,P|414:134|411:182,1,90,10|0,0:0|0:0,0:0:0:0:
396,256,200898,2,0,P|408:201|411:153,1,90,2|0,1:2|0:0,0:0:0:0:
236,32,201255,6,0,P|190:43|106:51,1,120,6|2,1:0|0:0,0:0:0:0:
94,32,201612,1,2,1:2:0:0:
178,150,201790,1,2,1:2:0:0:
47,278,201969,2,0,P|24:218|18:180,1,90,10|2,0:0|0:0,0:0:0:0:
221,279,202326,2,0,P|270:288|321:308,1,90,2|0,0:3|1:0,0:0:0:0:
307,301,202593,5,8,0:0:0:0:
307,301,202682,1,0,1:0:0:0:
427,192,202861,1,8,0:0:0:0:
343,55,203039,1,2,1:2:0:0:
202,194,203218,5,0,1:0:0:0:
202,194,203307,1,0,1:0:0:0:
202,194,203396,1,10,0:0:0:0:
321,159,203574,1,2,1:2:0:0:
230,81,203753,1,10,0:0:0:0:
299,274,203931,5,8,0:0:0:0:
299,274,204020,1,8,0:0:0:0:
299,274,204110,2,0,B|202:254|231:302|124:296,1,180,6|2,1:0|0:3,0:0:0:0:
25,177,204645,1,2,0:0:0:0:
143,29,204823,2,0,P|100:24|37:3,1,90,10|2,0:0|0:0,0:0:0:0:
224,188,205180,2,0,P|236:136|250:98,1,90,2|0,0:3|1:0,0:0:0:0:
248,101,205448,1,8,0:0:0:0:
248,101,205537,1,2,1:0:0:0:
434,211,205715,1,8,0:0:0:0:
508,30,205894,6,0,P|470:73|386:81,1,135,2|0,3:2|0:0,0:0:0:0:
377,73,206250,1,10,0:0:0:0:
434,211,206429,1,2,0:3:0:0:
229,308,206607,2,0,P|292:316|392:348,1,135,2|0,1:2|0:0,0:0:0:0:
352,243,206964,6,0,P|336:200|330:146,1,90,2|0,1:0|0:0,0:0:0:0:
190,28,207321,2,0,P|174:71|168:125,1,90,2|0,1:2|1:0,0:0:0:0:
9,225,207678,2,0,P|54:227|112:247,1,90,10|2,0:0|0:0,0:0:0:0:
207,370,208034,2,0,P|256:327|329:324,1,135,2|8,0:3|0:0,0:0:0:0:
446,365,208391,6,0,P|414:321|405:262,1,90,2|8,1:0|0:0,0:0:0:0:
317,168,208748,1,2,1:2:0:0:
424,61,208926,2,0,P|388:57|349:42,1,58.4999973220826,8|8,0:0|0:0,0:0:0:0:
199,116,209105,5,8,0:3:0:0:
211,135,209224,5,8,0:3:0:0:
206,162,209343,5,8,0:3:0:0:
224,184,209462,5,4,0:3:0:0:
215,208,209581,5,4,0:3:0:0:
236,234,209700,5,4,0:3:0:0:
219,277,209818,6,0,B|138:248|144:300|33:291,1,180,6|2,1:0|0:0,0:0:0:0:
113,183,210354,1,2,0:3:0:0:
18,109,210532,2,0,P|75:98|120:84,1,90,2|2,1:2|0:0,0:0:0:0:
297,1,210889,2,0,P|278:55|276:104,1,90,2|0,0:3|1:0,0:0:0:0:
275,87,211156,5,8,0:0:0:0:
275,87,211246,1,2,1:0:0:0:
362,212,211424,1,8,0:0:0:0:
285,325,211602,2,0,P|236:309|192:306,1,90,2|0,1:2|0:0,0:0:0:0:
18,109,211959,2,0,P|35:158|39:200,1,90,10|0,0:0|0:0,0:0:0:0:
206,0,212316,2,0,P|189:49|185:91,1,90,2|0,1:2|0:0,0:0:0:0:
259,198,212673,6,0,B|347:169|333:223|440:203,1,180,6|2,1:0|1:2,0:0:0:0:
324,322,213208,1,2,1:2:0:0:
324,322,213297,1,0,1:0:0:0:
324,322,213387,1,10,0:0:0:0:
146,312,213565,1,2,0:3:0:0:
116,145,213743,1,2,0:0:0:0:
216,171,213922,5,0,1:0:0:0:
216,171,214011,1,8,0:0:0:0:
216,171,214100,2,0,P|227:213|233:270,1,90,2|8,1:0|0:0,0:0:0:0:
35,383,214457,2,0,P|46:341|52:284,1,90,2|2,1:2|0:0,0:0:0:0:
120,101,214814,2,0,P|69:92|26:74,1,90,10|2,0:0|1:2,0:0:0:0:
130,231,215171,1,10,0:0:0:0:
323,62,215349,5,8,0:0:0:0:
323,62,215438,1,8,0:0:0:0:
323,62,215527,2,0,P|302:112|336:236,1,180,6|2,1:0|0:0,0:0:0:0:
473,273,216063,1,2,0:3:0:0:
318,373,216241,2,0,P|275:359|229:348,1,90,10|2,0:0|0:0,0:0:0:0:
47,167,216598,2,0,P|64:222|70:266,1,90,2|0,0:3|1:0,0:0:0:0:
27,326,216865,1,8,0:0:0:0:
20,345,216955,2,0,P|60:333|118:325,1,90,2|8,1:0|0:0,0:0:0:0:
247,117,217311,6,0,P|297:154|379:151,1,135,2|0,1:2|0:0,0:0:0:0:
379,134,217668,1,10,0:0:0:0:
420,39,217847,1,2,0:3:0:0:
236,219,218025,2,0,P|218:282|208:364,1,135,2|0,1:2|0:0,0:0:0:0:
208,350,218382,6,0,P|261:339|306:338,1,90,2|0,1:0|0:0,0:0:0:0:
512,225,218739,2,0,P|459:213|414:212,1,90,2|0,1:2|1:0,0:0:0:0:
202,8,219095,2,0,P|215:57|220:104,1,90,10|2,0:0|0:0,0:0:0:0:
319,257,219452,2,0,P|332:208|337:161,1,90,2|0,0:3|1:0,0:0:0:0:
240,182,219720,1,8,0:0:0:0:
231,199,219809,2,0,P|183:207|142:222,1,90,2|8,1:0|0:0,0:0:0:0:
8,126,220166,1,2,1:2:0:0:
0,297,220343,5,8,0:0:0:0:
0,297,220433,1,8,0:0:0:0:
0,297,220523,2,2,P|68:301|125:349,1,135,14|0,0:0|0:0,0:1:0:0:
483,248,221236,6,0,B|401:220|413:265|315:256,1,161.999995056153,6|2,1:0|0:0,0:0:0:0:
77,71,221950,2,0,B|159:43|147:88|245:79,1,161.999995056153,10|2,0:0|0:3,0:0:0:0:
361,153,222485,1,0,1:0:0:0:
361,153,222574,1,8,0:0:0:0:
361,153,222663,2,0,P|374:108|376:64,1,80.9999975280763,2|8,1:2|0:0,0:0:0:0:
216,219,223020,2,0,P|173:206|120:199,1,80.9999975280763,2|0,1:2|0:0,0:0:0:0:
298,349,223377,2,0,P|341:336|394:329,1,80.9999975280763,10|0,0:0|0:0,0:0:0:0:
270,135,223734,1,2,1:2:0:0:
270,135,224091,6,0,P|246:190|251:263,1,121.499996292114,2|0,1:0|0:0,0:0:0:0:
247,250,224447,2,0,P|297:240|343:236,1,80.9999975280763,2|0,1:2|0:0,0:0:0:0:
474,52,224804,2,0,P|424:62|378:66,1,80.9999975280763,10|0,0:0|0:0,0:0:0:0:
274,139,225161,2,0,P|232:123|192:114,1,80.9999975280763,2|0,0:3|1:0,0:0:0:0:
196,114,225429,1,8,0:0:0:0:
196,114,225518,2,0,P|218:64|230:20,1,80.9999975280763,2|8,1:2|0:0,0:0:0:0:
74,155,225875,2,0,P|106:212|102:301,1,121.499996292114,2|0,1:2|0:0,0:0:0:0:
110,267,226231,2,0,P|73:279|29:307,1,80.9999975280763,10|0,0:0|0:0,0:0:0:0:
177,370,226588,1,2,1:2:0:0:
216,247,226767,1,8,0:0:0:0:
301,362,226945,6,0,P|346:326|455:323,1,161.999995056153,2|2,1:0|0:0,0:0:0:0:
335,188,227659,2,0,P|286:181|241:166,1,80.9999975280763,10|0,0:0|0:0,0:0:0:0:
99,229,228015,1,2,0:3:0:0:
189,358,228194,1,0,1:0:0:0:
189,358,228283,1,8,0:0:0:0:
189,358,228372,2,0,P|203:312|207:262,1,80.9999975280763,2|8,1:2|0:0,0:0:0:0:
37,115,228729,2,0,P|91:147|170:136,1,121.499996292114,2|0,1:2|0:0,0:0:0:0:
148,145,229086,2,0,P|102:161|73:178,1,80.9999975280763,10|0,0:0|0:0,0:0:0:0:
266,38,229443,2,0,P|219:22|190:5,1,80.9999975280763,2|0,1:2|0:0,0:0:0:0:
361,153,229799,6,0,P|338:204|333:284,1,121.499996292114,2|0,1:0|0:0,0:0:0:0:
331,268,230156,1,2,1:2:0:0:
407,365,230335,1,0,1:0:0:0:
233,305,230513,2,0,P|189:318|156:339,1,80.9999975280763,10|2,0:0|0:0,0:0:0:0:
54,239,230870,1,2,0:3:0:0:
138,126,231048,1,0,1:0:0:0:
138,126,231137,1,8,0:0:0:0:
138,126,231227,2,0,P|172:146|211:157,1,80.9999975280763,2|8,1:0|0:0,0:0:0:0:
483,25,231583,6,0,P|437:30|402:44,1,80.9999975280763,2|0,1:2|0:0,0:0:0:0:
335,207,231940,2,0,P|331:155|316:103,1,80.9999975280763,10|0,0:0|0:0,0:0:0:0:
246,52,232297,1,10,0:0:0:0:
437,158,232475,1,8,0:0:0:0:
267,290,232654,6,0,B|179:258|194:310|95:298,1,161.999995056153,6|2,1:0|0:0,0:0:0:0:
16,101,233367,2,0,P|32:138|38:182,1,80.9999975280763,10|0,0:0|0:0,0:0:0:0:
204,0,233724,2,0,P|188:37|182:81,1,80.9999975280763,2|0,0:3|1:0,0:0:0:0:
182,77,233992,1,8,0:0:0:0:
182,77,234081,2,0,P|234:84|265:92,1,80.9999975280763,2|8,1:2|0:0,0:0:0:0:
467,254,234438,2,0,P|393:249|321:227,1,121.499996292114,2|0,1:2|0:0,0:0:0:0:
347,237,234795,6,0,P|363:189|368:152,1,80.9999975280763,10|0,0:0|0:0,0:0:0:0:
440,17,235151,2,0,P|455:65|460:102,1,80.9999975280763,2|0,1:2|0:0,0:0:0:0:
240,198,235508,2,0,P|178:161|84:171,1,161.999995056153,2|2,1:0|1:2,0:0:0:0:
2,339,236222,2,0,P|47:328|82:326,1,80.9999975280763,10|0,0:0|0:0,0:0:0:0:
186,276,236579,1,2,0:3:0:0:
274,368,236757,1,0,1:0:0:0:
274,368,236846,1,8,0:0:0:0:
274,368,236936,2,0,P|293:321|297:284,1,80.9999975280763,2|8,1:2|0:0,0:0:0:0:
473,202,237292,2,0,P|419:191|381:173,1,80.9999975280763,2|0,1:2|0:0,0:0:0:0:
224,16,237649,6,0,P|241:72|248:109,1,80.9999975280763,10|0,0:0|0:0,0:0:0:0:
351,109,238006,1,10,0:0:0:0:
423,27,238184,1,8,0:0:0:0:
279,185,238363,6,0,B|272:268|222:244|221:355,1,161.999995056153,6|2,1:0|0:0,0:0:0:0:
66,177,239076,2,0,P|47:130|45:91,1,80.9999975280763,10|0,0:0|0:0,0:0:0:0:
161,181,239433,1,2,0:3:0:0:
106,300,239612,1,0,1:0:0:0:
106,300,239701,1,8,0:0:0:0:
106,300,239790,2,0,P|68:290|14:288,1,80.9999975280763,2|8,1:2|0:0,0:0:0:0:
217,365,240147,2,0,P|255:355|309:353,1,80.9999975280763,2|0,1:2|0:0,0:0:0:0:
499,257,240504,2,0,P|440:209|346:214,1,161.999995056153,10|2,0:0|1:2,0:0:0:0:
257,34,241217,6,0,P|207:73|100:69,1,161.999995056153,2|2,1:0|1:2,0:0:0:0:
14,167,241752,1,0,1:0:0:0:
4,70,241931,1,10,0:0:0:0:
134,181,242109,1,2,0:0:0:0:
30,282,242288,1,2,0:3:0:0:
169,374,242466,1,0,1:0:0:0:
169,374,242555,1,8,0:0:0:0:
169,374,242644,2,0,P|217:353|249:350,1,80.9999975280763,2|8,1:2|0:0,0:0:0:0:
413,132,243001,6,0,P|404:178|383:222,1,80.9999975280763,2|0,0:3|1:0,0:0:0:0:
390,209,243269,1,0,1:0:0:0:
390,209,243358,1,8,0:0:0:0:
315,260,243536,1,8,0:3:0:0:
269,190,243715,1,4,0:3:0:0:
458,330,244072,5,6,0:0:0:0:
316,272,244428,1,0,0:0:0:0:
218,374,244785,1,0,0:0:0:0:
0,208,245499,5,2,0:0:0:0:
142,266,245855,1,0,0:0:0:0:
240,164,246212,1,0,0:0:0:0:
71,22,246926,5,2,0:0:0:0:
8,115,247283,1,2,0:0:0:0:
103,183,247640,1,2,0:0:0:0:
172,90,247996,1,2,0:0:0:0:
255,180,248353,6,0,P|232:252|241:314,1,125.999996154785,2|0,0:0|0:0,0:0:0:0:
361,364,249067,1,0,0:0:0:0:
472,278,249424,1,0,0:0:0:0:
128,345,249780,5,2,0:0:0:0:
48,296,250137,1,0,0:0:0:0:
102,212,250494,1,0,0:0:0:0:
348,43,251208,5,2,0:0:0:0:
428,92,251565,1,0,0:0:0:0:
374,176,251922,1,0,0:0:0:0:
268,344,252635,5,2,0:0:0:0:
369,267,252992,1,2,0:0:0:0:
500,310,253348,1,2,0:0:0:0:
393,381,253705,1,2,0:0:0:0:
225,234,254062,6,0,P|250:178|245:102,1,125.999996154785,2|0,0:0|0:0,0:0:0:0:
128,33,254776,1,0,0:0:0:0:
11,68,255132,1,0,0:0:0:0:
112,273,255489,5,2,0:0:0:0:
232,332,255846,1,2,0:0:0:0:
338,258,256203,1,2,0:0:0:0:
329,127,256560,1,2,0:0:0:0:
211,74,256916,1,2,0:0:0:0:
119,159,257273,1,2,0:0:0:0:
236,203,257630,1,2,0:0:0:0:
236,203,257987,1,2,0:0:0:0:
89,359,258344,6,0,P|60:299|56:232,1,125.999996154785,2|0,0:0|0:0,0:0:0:0:
226,16,259057,2,0,P|197:76|193:143,1,125.999996154785
341,227,259771,1,2,0:0:0:0:
236,217,260128,1,0,0:0:0:0:
183,301,260485,1,2,0:0:0:0:
470,364,261198,5,2,0:0:0:0:
403,303,261555,1,0,0:0:0:0:
318,331,261912,1,0,0:0:0:0:
39,199,262625,5,2,0:0:0:0:
106,138,262982,1,0,0:0:0:0:
191,166,263339,1,0,0:0:0:0:
295,41,264053,5,2,0:0:0:0:
271,141,264409,1,2,0:0:0:0:
245,238,264766,1,2,0:0:0:0:
220,331,265123,1,2,0:0:0:0:
