osu file format v14

[General]
AudioFilename: audio.mp3
AudioLeadIn: 0
PreviewTime: 174317
Countdown: 0
SampleSet: Soft
StackLeniency: 0.7
Mode: 0
LetterboxInBreaks: 0
WidescreenStoryboard: 1

[Editor]
DistanceSpacing: 1.9
BeatDivisor: 4
GridSize: 4
TimelineZoom: 1.2

[Metadata]
Title:Kokoronashi
TitleUnicode:心做し
Artist:Hanatan
ArtistUnicode:花たん
Creator:nanoya
Version:Hard
Source:
Tags:chouchou-p cover yurica ユリカ somehow japanese rock jrock j-rock pop jpop j-pop poprock pop-rock ハンゾー hanzou 蝶々p papiyon vocaloid satonodiamond
BeatmapID:4127025
BeatmapSetID:1984028

[Difficulty]
HPDrainRate:4
CircleSize:4
OverallDifficulty:6
ApproachRate:7
SliderMultiplier:1.4
SliderTickRate:1

[Events]
//Background and Video events
0,0,"cfdfa8d4bff1cf29c353deaf289588a5b107ca7a_s2_n1.jpg",0,0
//Break Periods
2,104205,113680
2,175765,195546
//Storyboard Layer 0 (Background)
//Storyboard Layer 1 (Fail)
//Storyboard Layer 2 (Pass)
//Storyboard Layer 3 (Foreground)
//Storyboard Layer 4 (Overlay)
//Storyboard Sound Samples

[TimingPoints]
1446,356.803044719315,4,2,1,70,1,0
24281,-111.111111111111,4,2,1,60,0,0
47116,-111.111111111111,4,2,1,55,0,0
69952,-111.111111111111,4,2,1,60,0,0
78872,-111.111111111111,4,2,1,55,0,0
79585,-111.111111111111,4,2,1,50,0,0
80477,-111.111111111111,4,2,1,55,0,0
80656,-125,4,2,1,60,0,0
81369,-99.9999999999999,4,2,1,70,0,0
114730,-99.9999999999999,4,2,1,60,0,0
115622,-111.111111111111,4,2,1,60,0,0
127397,-111.111111111111,4,2,1,65,0,0
132749,-111.111111111111,4,2,1,60,0,0
138279,-111.111111111111,4,2,1,55,0,0
140420,-111.111111111111,4,2,1,60,0,0
141312,-99.9999999999999,4,2,1,70,0,0
164148,-125,4,2,1,55,0,0
175565,-125,4,2,1,55,0,1
195546,-125,4,2,1,55,0,0
197509,-125,4,2,1,50,0,0
197687,-125,4,2,1,55,0,0
198401,-100,4,2,1,75,0,0
209105,-100,4,2,1,65,0,0
209462,-100,4,2,1,55,0,0
209818,-100,4,2,1,75,0,0
220523,-100,4,2,1,65,0,0
221236,-111.111111111111,4,2,1,60,0,0
244071,-111.111111111111,4,2,1,30,0,0

[Colours]
Combo1 : 152,147,204
Combo2 : 170,213,244
Combo3 : 100,147,234
Combo4 : 153,206,210

[HitObjects]
60,72,24281,6,0,P|107:88|189:85,1,125.999996154785,6|2,1:0|2:0,2:0:0:0:
314,208,24995,2,0,P|251:204|191:222,1,125.999996154785,10|2,2:0|1:2,2:0:0:0:
120,177,25530,1,0,1:0:0:0:
120,177,25619,1,8,2:0:0:0:
120,177,25708,2,0,P|77:191|41:195,1,62.9999980773926,0|8,1:0|2:0,2:0:0:0:
43,277,26065,2,0,P|76:307|98:336,1,62.9999980773926,2|0,1:2|2:0,2:0:0:0:
171,302,26422,2,0,P|180:257|194:224,1,62.9999980773926,10|0,2:0|2:0,2:0:0:0:
264,306,26779,2,0,P|273:350|287:383,1,62.9999980773926,2|0,1:2|2:0,2:0:0:0:
359,309,27135,6,0,P|384:255|372:176,1,125.999996154785,6|0,1:2|1:0,2:0:0:0:
278,28,27849,2,0,P|253:82|265:161,1,125.999996154785,10|2,2:0|1:2,2:0:0:0:
193,207,28384,1,0,1:0:0:0:
193,207,28473,1,8,2:0:0:0:
193,207,28563,2,0,P|152:200|121:199,1,62.9999980773926,2|8,1:2|2:0,2:0:0:0:
35,140,28919,2,0,P|74:132|110:117,1,62.9999980773926,2|0,1:2|2:0,2:0:0:0:
147,57,29276,1,10,2:0:0:0:
147,57,29633,5,2,1:2:0:0:
219,105,29811,1,8,2:0:0:0:
301,74,29990,2,0,P|339:94|450:100,1,125.999996154785,6|2,1:2|2:0,2:0:0:0:
306,210,30703,2,0,P|299:264|250:342,1,125.999996154785,10|2,2:0|1:2,2:0:0:0:
184,301,31239,1,2,1:2:0:0:
184,301,31328,1,8,2:0:0:0:
184,301,31417,2,0,P|150:305|113:315,1,62.9999980773926,2|8,1:2|2:0,2:0:0:0:
142,221,31774,2,0,P|183:214|218:204,1,62.9999980773926,2|2,1:2|2:3,2:0:0:0:
261,135,32131,2,0,P|277:83|255:10,1,125.999996154785,10|0,2:0|1:0,2:0:0:0:
452,156,32844,6,0,P|436:208|458:281,1,125.999996154785,6|0,1:2|1:0,2:0:0:0:
391,331,33379,1,0,1:0:0:0:
305,311,33558,2,0,P|315:266|319:238,1,62.9999980773926,10|2,2:0|2:0,2:0:0:0:
359,183,33915,1,2,2:3:0:0:
315,110,34093,1,0,1:0:0:0:
315,110,34182,1,8,2:0:0:0:
315,110,34271,2,0,P|265:122|240:125,1,62.9999980773926,2|8,1:2|2:0,2:0:0:0:
178,166,34628,6,0,P|137:155|97:148,1,62.9999980773926,2|0,1:2|2:0,2:0:0:0:
38,217,34985,2,0,P|80:228|113:241,1,62.9999980773926,10|0,2:0|2:0,2:0:0:0:
145,310,35342,1,10,2:0:0:0:
232,273,35520,1,8,2:0:0:0:
314,333,35699,6,0,B|322:270|349:291|356:211,1,125.999996154785,4|2,1:0|2:0,2:0:0:0:
187,139,36412,2,0,B|195:202|222:181|229:261,1,125.999996154785,10|2,2:0|2:3,2:0:0:0:
293,141,36947,1,0,1:0:0:0:
293,141,37037,1,8,2:0:0:0:
293,141,37126,2,0,P|337:130|357:120,1,62.9999980773926,2|8,1:2|2:0,2:0:0:0:
446,155,37483,2,0,P|433:196|428:231,1,62.9999980773926,2|0,1:2|2:0,2:0:0:0:
439,313,37839,2,0,P|402:300|367:293,1,62.9999980773926,10|0,2:0|2:0,2:0:0:0:
297,372,38196,2,0,P|292:332|284:303,1,62.9999980773926,2|0,1:2|2:0,2:0:0:0:
312,222,38553,6,0,P|262:219|190:269,1,125.999996154785,6|2,1:2|1:2,2:0:0:0:
11,172,39267,2,0,P|61:175|133:125,1,125.999996154785,10|2,2:0|2:0,2:0:0:0:
219,83,39802,1,0,1:0:0:0:
219,83,39891,1,8,2:0:0:0:
219,83,39980,2,0,P|209:129|206:163,1,62.9999980773926,2|8,1:2|2:0,2:0:0:0:
295,109,40337,2,0,P|332:97|365:94,1,62.9999980773926,2|0,1:2|2:0,2:0:0:0:
434,141,40694,1,10,2:0:0:0:
434,141,41051,5,2,1:2:0:0:
387,207,41229,1,8,2:0:0:0:
420,285,41407,2,0,P|365:293|299:323,1,125.999996154785,4|2,1:2|2:0,2:0:0:0:
103,269,42121,2,0,P|158:261|224:231,1,125.999996154785,10|2,2:0|2:0,2:0:0:0:
281,153,42656,1,0,1:0:0:0:
281,153,42745,1,8,2:0:0:0:
281,153,42835,2,0,P|286:113|294:86,1,62.9999980773926,2|8,1:2|2:0,2:0:0:0:
184,52,43191,2,0,P|195:99|197:125,1,62.9999980773926,2|0,1:2|2:0,2:0:0:0:
128,164,43548,2,0,P|76:165|13:113,1,125.999996154785,10|2,2:0|1:2,2:0:0:0:
114,361,44262,6,0,B|178:353|159:328|235:319,1,125.999996154785,6|2,1:2|1:2,2:0:0:0:
307,357,44797,1,0,1:0:0:0:
387,328,44975,2,0,P|393:289|402:263,1,62.9999980773926,10|2,2:0|2:0,2:0:0:0:
371,188,45332,1,2,2:3:0:0:
441,135,45511,1,0,1:0:0:0:
441,135,45600,1,8,2:0:0:0:
441,135,45689,2,0,P|435:94|433:59,1,62.9999980773926,0|8,1:0|2:0,2:0:0:0:
351,59,46046,6,0,P|316:77|269:88,1,62.9999980773926,2|0,1:2|2:0,2:0:0:0:
207,52,46403,1,10,2:0:0:0:
207,52,46759,5,10,2:0:0:0:
164,122,46938,1,8,2:0:0:0:
218,189,47116,2,0,P|230:242|213:321,1,125.999996154785,6|2,1:0|2:0,2:0:0:0:
66,384,47830,2,0,P|54:331|71:252,1,125.999996154785,10|2,2:0|2:0,2:0:0:0:
105,182,48365,1,0,1:0:0:0:
105,182,48454,1,8,2:0:0:0:
105,182,48544,2,0,P|61:175|35:167,1,62.9999980773926,0|8,1:0|2:0,2:0:0:0:
109,98,48900,1,0,1:0:0:0:
109,98,49257,2,0,P|160:113|232:113,1,125.999996154785,8|2,2:0|1:2,2:0:0:0:
302,65,49792,1,2,2:0:0:0:
382,92,49971,6,0,P|371:134|382:218,1,125.999996154785,2|2,1:2|1:2,2:0:0:0:
443,272,50506,1,2,2:0:0:0:
409,348,50684,2,0,B|344:340|361:318|281:305,1,125.999996154785,10|0,2:0|2:0,2:0:0:0:
208,259,51220,1,2,1:2:0:0:
208,259,51309,1,8,2:0:0:0:
208,259,51398,2,0,P|214:217|228:185,1,62.9999980773926,0|8,1:0|2:0,2:0:0:0:
251,99,51755,2,0,P|192:118|105:116,1,125.999996154785,2|10,1:2|2:0,2:0:0:0:
47,87,52290,1,2,2:0:0:0:
5,161,52468,2,0,P|16:196|22:228,1,62.9999980773926,2|8,1:2|2:0,2:0:0:0:
16,340,52825,6,0,P|55:317|134:308,1,125.999996154785,4|2,1:2|2:0,2:0:0:0:
205,364,53360,1,2,2:0:0:0:
292,321,53539,2,0,P|301:282|312:253,1,62.9999980773926,10|0,2:0|2:0,2:0:0:0:
272,182,53896,1,2,2:3:0:0:
315,107,54074,1,0,1:0:0:0:
315,107,54163,1,8,2:0:0:0:
315,107,54252,2,0,P|359:118|384:121,1,62.9999980773926,0|8,1:0|2:0,2:0:0:0:
451,185,54609,1,0,1:0:0:0:
451,185,54966,2,0,P|439:220|458:313,1,125.999996154785,8|2,2:0|1:2,2:0:0:0:
358,277,55501,1,2,2:0:0:0:
284,366,55680,6,0,B|283:301|250:314|248:241,1,125.999996154785,2|2,1:2|1:2,2:0:0:0:
277,162,56215,1,2,1:2:0:0:
205,112,56393,2,0,P|163:104|81:158,1,125.999996154785,8|2,2:0|2:3,2:0:0:0:
24,215,56928,1,2,1:2:0:0:
24,215,57018,1,8,2:0:0:0:
24,215,57107,2,0,P|64:220|92:229,1,62.9999980773926,0|10,1:0|2:0,2:0:0:0:
172,263,57464,2,0,P|213:255|252:238,1,62.9999980773926,2|0,1:2|2:0,2:0:0:0:
312,198,57820,1,10,2:0:0:0:
312,198,58177,5,8,2:0:0:0:
302,282,58356,1,8,2:0:0:0:
371,337,58534,2,0,P|418:316|492:317,1,125.999996154785,4|2,1:0|2:0,2:0:0:0:
512,155,59248,2,0,P|502:115|499:72,1,62.9999980773926,10|0,2:0|2:0,2:0:0:0:
428,45,59604,1,2,2:3:0:0:
354,85,59783,1,0,1:0:0:0:
354,85,59872,1,8,2:0:0:0:
354,85,59961,2,0,P|308:80|281:71,1,62.9999980773926,2|8,1:2|2:0,2:0:0:0:
267,155,60318,2,0,P|278:187|283:218,1,62.9999980773926,2|0,1:2|2:0,2:0:0:0:
184,173,60675,2,0,P|145:168|49:142,1,125.999996154785,10|2,2:0|1:2,2:0:0:0:
3,342,61388,6,0,P|45:308|126:305,1,125.999996154785,2|2,1:2|1:2,2:0:0:0:
192,351,61924,2,0,B|258:336|254:369|335:348,1,125.999996154785,2|2,2:3|2:0,2:0:0:0:
391,302,62459,1,2,2:3:0:0:
353,230,62637,1,0,1:0:0:0:
353,230,62726,1,8,2:0:0:0:
353,230,62816,2,0,P|367:185|373:147,1,62.9999980773926,0|8,1:0|2:0,2:0:0:0:
421,91,63172,2,0,P|371:80|338:65,1,62.9999980773926,2|0,1:2|2:0,2:0:0:0:
278,92,63529,1,10,2:0:0:0:
278,92,63886,5,2,1:2:0:0:
200,46,64064,1,8,2:0:0:0:
124,84,64243,2,0,P|111:120|119:210,1,125.999996154785,4|2,1:2|2:0,2:0:0:0:
266,332,64956,2,0,P|279:296|271:206,1,125.999996154785,10|2,2:0|2:3,2:0:0:0:
178,269,65492,1,0,1:0:0:0:
178,269,65581,1,8,2:0:0:0:
178,269,65670,2,0,P|142:278|96:285,1,62.9999980773926,2|8,1:2|2:0,2:0:0:0:
197,178,66027,2,0,P|213:137|218:105,1,62.9999980773926,2|0,1:2|2:0,2:0:0:0:
266,47,66384,2,0,P|305:65|387:74,1,125.999996154785,10|0,2:0|1:0,2:0:0:0:
509,239,67097,6,0,P|456:243|374:277,1,125.999996154785,4|0,1:2|1:0,2:0:0:0:
330,328,67632,1,0,1:0:0:0:
250,303,67811,2,0,P|263:262|268:227,1,62.9999980773926,8|0,2:0|2:0,2:0:0:0:
209,181,68168,1,2,2:3:0:0:
124,209,68346,1,0,1:0:0:0:
124,209,68435,1,8,2:0:0:0:
124,209,68524,2,0,P|84:201|51:199,1,62.9999980773926,0|8,1:0|2:0,2:0:0:0:
73,122,68881,6,0,P|85:87|90:57,1,62.9999980773926,2|0,1:2|2:0,2:0:0:0:
173,3,69238,2,0,P|185:38|190:68,1,62.9999980773926,10|0,2:0|2:0,2:0:0:0:
268,127,69595,1,10,2:0:0:0:
229,213,69773,1,8,2:0:0:0:
287,293,69952,6,0,P|337:270|431:267,1,125.999996154785,4|2,1:0|2:3,2:0:0:0:
268,127,70665,2,0,P|226:124|128:99,1,125.999996154785,10|2,2:0|2:0,2:0:0:0:
22,209,71379,2,0,P|35:248|40:282,1,62.9999980773926,0|8,1:0|1:2,2:0:0:0:
109,326,71736,1,2,1:2:0:0:
109,326,72093,6,0,B|179:312|173:343|259:327,1,125.999996154785,10|2,2:0|1:2,2:0:0:0:
401,287,72806,2,0,P|413:250|415:216,1,62.9999980773926,2|0,1:2|2:0,2:0:0:0:
483,125,73163,2,0,P|445:137|408:140,1,62.9999980773926,2|0,1:2|2:0,2:0:0:0:
315,116,73520,2,0,P|342:155|353:183,1,62.9999980773926,10|0,2:0|2:0,2:0:0:0:
286,243,73877,1,2,2:3:0:0:
208,198,74055,1,0,1:0:0:0:
208,198,74144,1,8,2:0:0:0:
208,198,74233,2,0,P|156:189|124:180,1,62.9999980773926,0|8,1:0|2:0,2:0:0:0:
184,110,74590,2,0,P|195:78|199:48,1,62.9999980773926,2|0,1:2|2:0,2:0:0:0:
113,9,74947,1,10,2:0:0:0:
113,9,75304,5,2,1:2:0:0:
45,62,75482,1,8,2:0:0:0:
73,143,75661,2,0,B|57:211|92:207|67:284,1,125.999996154785,4|2,1:2|2:0,2:0:0:0:
237,379,76374,2,0,B|253:311|218:315|243:238,1,125.999996154785,10|2,2:0|2:0,2:0:0:0:
338,97,77088,2,0,P|376:108|409:113,1,62.9999980773926,6|8,1:2|2:0,2:0:0:0:
447,208,77445,1,2,1:2:0:0:
259,163,77801,1,8,2:0:0:0:
145,312,78158,1,6,1:2:0:0:
145,312,78872,6,0,P|137:263|104:187,2,125.999996154785,2|2|2,2:0|2:0|2:0,2:0:0:0:
400,323,80477,5,8,2:0:0:0:
400,323,80567,1,8,2:0:0:0:
400,323,80656,2,2,P|337:330|284:359,1,112,12|0,2:0|2:0,2:1:0:0:
134,193,81369,6,0,P|152:144|146:49,1,140,6|2,1:0|2:0,2:0:0:0:
245,126,81905,1,2,2:3:0:0:
334,74,82083,2,0,P|370:65|401:52,1,70,10|2,2:0|2:0,2:0:0:0:
478,128,82440,1,2,2:3:0:0:
407,201,82618,1,0,1:0:0:0:
407,201,82707,1,8,2:0:0:0:
407,201,82797,2,0,P|422:250|425:281,1,70,0|8,1:0|2:0,2:0:0:0:
366,371,83153,6,0,P|317:358|272:353,1,70,2|0,1:2|2:0,2:0:0:0:
201,282,83510,2,0,P|188:321|170:359,1,70,10|0,2:0|2:0,2:0:0:0:
289,241,83867,2,0,P|274:189|270:155,1,70,2|0,1:2|2:0,2:0:0:0:
226,80,84224,2,0,B|146:92|159:58|77:74,1,140,4|0,1:2|2:0,2:0:0:0:
0,16,84759,1,2,1:2:0:0:
5,117,84937,2,0,P|21:154|25:191,1,70,10|2,2:0|2:0,2:0:0:0:
99,250,85294,1,2,2:3:0:0:
37,333,85473,5,0,1:0:0:0:
37,333,85562,1,8,2:0:0:0:
37,333,85651,2,0,P|82:341|115:354,1,70,0|8,1:0|2:0,2:0:0:0:
215,311,86008,2,0,P|201:268|194:229,1,70,2|0,1:2|2:0,2:0:0:0:
236,151,86365,2,0,P|286:164|317:167,1,70,10|2,2:0|2:0,2:0:0:0:
400,220,86721,1,10,2:0:0:0:
475,160,86900,5,8,2:0:0:0:
475,160,86989,1,8,2:0:0:0:
475,160,87078,2,0,P|491:116|479:20,1,140,6|2,1:0|2:0,2:0:0:0:
394,98,87613,1,0,3:0:0:0:
319,28,87792,2,0,P|278:21|246:12,1,70,10|2,2:0|2:0,2:0:0:0:
162,78,88149,1,2,2:3:0:0:
236,163,88327,1,0,1:0:0:0:
236,163,88416,1,8,2:0:0:0:
236,163,88505,2,0,P|222:209|220:243,1,70,4|8,1:2|2:0,2:0:0:0:
175,315,88862,6,0,P|131:297|34:289,1,140,2|10,1:2|2:0,2:0:0:0:
0,197,89397,1,2,2:0:0:0:
72,126,89576,1,4,1:2:0:0:
72,126,89933,6,0,P|29:121|-11:107,1,70,6|0,1:0|2:0,2:0:0:0:
160,83,90289,2,0,P|200:67|238:60,1,70,2|0,1:2|2:0,2:0:0:0:
314,119,90646,2,0,P|302:163|298:204,1,70,10|2,2:0|2:0,2:0:0:0:
369,264,91003,1,2,2:0:0:0:
319,347,91181,5,0,2:0:0:0:
319,347,91271,1,8,2:0:0:0:
319,347,91360,2,0,P|275:333|234:328,1,70,6|8,1:2|2:0,2:0:0:0:
173,278,91717,1,2,1:2:0:0:
78,318,91895,1,8,2:0:0:0:
78,318,91984,1,8,2:0:0:0:
78,318,92073,1,8,2:3:0:0:
1,253,92252,1,8,2:3:0:0:
94,215,92430,1,4,2:3:0:0:
94,215,92787,6,0,B|119:137|73:151|93:67,1,140,6|2,1:0|2:0,2:0:0:0:
188,36,93322,1,2,2:3:0:0:
268,102,93501,2,0,P|255:139|250:175,1,70,10|0,2:0|2:0,2:0:0:0:
198,253,93857,1,2,2:0:0:0:
280,316,94036,1,0,1:0:0:0:
280,316,94125,1,8,2:0:0:0:
280,316,94214,2,0,P|327:297|359:295,1,70,0|8,1:0|2:0,2:0:0:0:
423,214,94571,6,0,P|436:167|434:136,1,70,2|0,1:2|2:0,2:0:0:0:
409,52,94928,2,0,P|453:43|487:27,1,70,10|0,2:0|2:0,2:0:0:0:
331,118,95285,2,0,P|297:107|256:100,1,70,2|0,1:2|2:0,2:0:0:0:
203,174,95642,2,0,P|148:206|68:207,1,140,6|2,1:2|1:2,2:0:0:0:
7,117,96177,1,2,1:2:0:0:
117,127,96355,2,0,P|126:89|136:58,1,70,10|2,2:0|2:3,2:0:0:0:
222,16,96712,1,2,2:3:0:0:
296,90,96890,5,0,1:0:0:0:
296,90,96980,1,8,2:0:0:0:
296,90,97069,2,0,P|290:129|281:163,1,70,4|8,1:2|2:0,2:0:0:0:
195,225,97426,2,0,P|201:284|211:318,1,70,2|2,1:2|2:0,2:0:0:0:
288,356,97782,1,10,2:0:0:0:
367,300,97961,1,2,2:0:0:0:
465,343,98139,1,10,2:0:0:0:
443,247,98318,5,8,2:0:0:0:
443,247,98407,1,8,2:0:0:0:
443,247,98496,2,0,P|433:209|446:97,1,140,6|2,1:0|2:0,2:0:0:0:
486,23,99031,1,2,2:3:0:0:
379,50,99210,2,0,P|337:37|306:18,1,70,10|2,2:0|2:0,2:0:0:0:
225,79,99566,1,2,2:0:0:0:
276,167,99745,1,0,1:0:0:0:
276,167,99834,1,8,2:0:0:0:
276,167,99923,2,0,P|224:174|196:187,1,70,0|8,1:0|2:0,2:0:0:0:
99,161,100280,6,0,P|80:123|77:83,1,70,2|0,1:2|2:0,2:0:0:0:
142,22,100637,1,12,2:0:0:0:
225,79,100815,1,2,2:0:0:0:
315,29,100994,1,2,1:2:0:0:
315,29,101350,6,0,P|336:74|341:105,1,70,6|0,1:0|2:0,2:0:0:0:
416,174,101707,2,0,P|454:162|492:156,1,70,2|0,1:2|1:0,2:0:0:0:
382,250,102064,1,10,2:0:0:0:
288,222,102242,1,0,2:0:0:0:
321,314,102421,1,2,2:3:0:0:
231,291,102599,5,0,1:0:0:0:
231,291,102688,1,8,2:0:0:0:
231,291,102778,2,0,P|167:273|146:270,1,70,0|8,1:0|2:0,2:0:0:0:
76,236,103134,1,2,1:2:0:0:
17,311,103313,2,0,L|30:357,2,35,8|8|6,2:0|2:0|1:0,2:0:0:0:
40,110,114730,5,0,1:0:0:0:
40,110,114820,1,0,1:0:0:0:
40,110,114909,1,8,2:0:0:0:
136,139,115087,1,8,2:3:0:0:
56,202,115266,1,4,2:3:0:0:
56,202,115622,6,0,P|69:241|57:326,1,125.999996154785,6|2,1:0|1:2,2:0:0:0:
144,303,116158,1,8,2:0:0:0:
204,361,116336,2,0,P|249:367|276:373,1,62.9999980773926,2|0,2:3|1:0,2:0:0:0:
341,329,116693,1,2,1:2:0:0:
341,329,117050,5,2,2:3:0:0:
294,254,117228,1,0,1:0:0:0:
360,193,117406,2,0,P|373:153|373:114,1,62.9999980773926,0|2,1:0|2:3,2:0:0:0:
290,119,117763,2,0,P|250:146|170:160,1,125.999996154785,8|2,2:0|1:2,2:0:0:0:
105,100,118298,1,8,2:0:0:0:
30,149,118477,6,0,B|39:215|69:204|74:274,1,125.999996154785,2|2,1:2|1:2,2:0:0:0:
92,362,119012,2,0,P|60:351|10:344,1,62.9999980773926,10|0,2:0|2:0,2:0:0:0:
156,298,119369,2,0,P|196:285|223:269,1,62.9999980773926,2|0,1:2|2:0,2:0:0:0:
293,315,119726,6,0,L|305:354,2,31.4999990386963,2|8|0,1:2|2:0|1:0,2:0:0:0:
366,268,120083,1,8,2:0:0:0:
311,201,120261,2,0,P|324:160|328:118,1,62.9999980773926,2|0,1:2|2:0,2:0:0:0:
332,55,120618,2,0,P|376:69|413:71,1,62.9999980773926,10|2,2:0|2:3,2:0:0:0:
449,165,120975,1,2,1:2:0:0:
449,165,121331,6,0,P|386:147|321:140,1,125.999996154785,2|2,1:0|1:2,2:0:0:0:
258,192,121867,1,8,2:0:0:0:
165,180,122045,2,0,P|164:222|157:262,1,62.9999980773926,0|0,2:0|1:0,2:0:0:0:
63,171,122402,1,2,1:2:0:0:
63,171,122759,6,0,P|68:143|67:91,1,62.9999980773926,2|0,2:3|1:0,2:0:0:0:
129,42,123115,1,0,1:0:0:0:
211,68,123294,1,2,2:3:0:0:
310,41,123472,2,0,P|294:82|286:174,1,125.999996154785,8|2,2:0|1:2,2:0:0:0:
364,208,124007,1,10,2:0:0:0:
341,310,124186,6,0,B|275:303|294:276|211:271,1,125.999996154785,2|2,1:0|1:2,2:0:0:0:
152,231,124721,2,0,P|107:247|69:254,1,62.9999980773926,10|0,2:0|2:0,2:0:0:0:
5,240,125078,2,0,P|18:210|25:172,1,62.9999980773926,2|0,1:2|2:0,2:0:0:0:
105,123,125435,1,2,1:2:0:0:
105,123,125524,1,8,2:0:0:0:
105,123,125613,1,0,1:0:0:0:
57,41,125791,1,8,2:0:0:0:
144,51,125970,2,0,P|179:44|214:29,1,62.9999980773926,0|0,1:0|1:0,2:0:0:0:
287,73,126327,2,0,P|273:111|273:184,2,94.499997116089,8|8|8,2:0|2:0|2:0,2:0:0:0:
361,31,127040,6,0,P|404:47|439:52,1,62.9999980773926,6|0,1:0|2:0,2:0:0:0:
389,134,127397,2,0,P|403:174|406:207,1,62.9999980773926,10|0,2:0|2:0,2:0:0:0:
355,267,127754,1,2,1:2:0:0:
275,234,127932,1,0,1:0:0:0:
205,282,128111,2,0,P|167:293|130:298,1,62.9999980773926,0|8,3:0|2:0,2:0:0:0:
64,257,128467,2,0,P|74:223|80:185,1,62.9999980773926,2|0,2:1|1:0,2:0:0:0:
148,132,128824,2,0,P|163:174|168:214,1,62.9999980773926,10|0,2:0|2:0,2:0:0:0:
233,112,129181,1,2,2:3:0:0:
191,32,129359,1,0,1:0:0:0:
191,32,129449,1,0,1:0:0:0:
191,32,129538,2,0,P|146:43|110:48,1,62.9999980773926,10|0,2:0|2:0,2:0:0:0:
40,71,129895,6,0,P|60:115|67:203,1,125.999996154785,2|10,1:0|2:0,2:0:0:0:
10,277,130430,2,0,P|49:294|147:293,1,125.999996154785,2|2,2:3|1:2,2:0:0:0:
211,257,130965,1,2,2:0:0:0:
282,317,131143,1,8,2:0:0:0:
282,317,131233,1,2,2:3:0:0:
282,317,131322,2,0,P|314:325|346:328,1,62.9999980773926,2|0,1:0|2:0,2:0:0:0:
443,311,131679,2,0,P|431:263|426:222,1,62.9999980773926,10|0,2:0|2:0,2:0:0:0:
356,184,132035,1,2,1:2:0:0:
428,117,132214,2,0,L|473:125,2,31.4999990386963,2|0|2,1:2|1:0|1:2,2:0:0:0:
341,37,132571,5,8,2:0:0:0:
341,37,132660,1,8,2:0:0:0:
341,37,132749,2,0,B|266:43|289:68|219:73,1,125.999996154785,6|2,1:0|1:2,2:0:0:0:
140,93,133284,1,8,2:0:0:0:
140,93,133641,1,0,1:2:0:0:
54,68,133819,2,0,P|66:40|76:2,1,62.9999980773926,2|0,1:2|2:0,2:0:0:0:
44,151,134176,6,0,P|53:195|55:234,1,62.9999980773926,2|0,2:3|1:0,2:0:0:0:
119,276,134533,2,0,P|134:245|144:207,1,62.9999980773926,2|0,1:2|2:0,2:0:0:0:
219,175,134890,2,0,P|265:202|349:207,1,125.999996154785,10|0,2:0|1:0,2:0:0:0:
423,243,135425,1,8,2:0:0:0:
413,154,135603,2,0,B|431:92|394:97|418:18,1,125.999996154785,2|0,1:0|1:0,2:0:0:0:
338,89,136139,1,8,2:0:0:0:
280,29,136317,2,0,P|232:20|208:13,1,62.9999980773926,2|0,2:3|1:0,2:0:0:0:
144,60,136674,1,0,1:0:0:0:
205,133,136852,5,0,1:0:0:0:
205,133,136941,1,8,2:0:0:0:
205,133,137031,2,0,P|197:174|192:220,1,62.9999980773926,0|8,1:0|2:0,2:0:0:0:
131,270,137387,2,0,P|91:260|50:255,1,62.9999980773926,0|0,1:0|2:0,2:0:0:0:
13,328,137744,1,8,2:0:0:0:
13,328,138279,5,0,1:0:0:0:
13,328,138369,1,0,1:0:0:0:
13,328,138458,2,0,P|68:335|141:358,1,125.999996154785,6|0,1:0|2:0,2:0:0:0:
310,299,139171,2,0,P|335:249|340:157,1,125.999996154785,2|0,2:1|2:1,2:0:0:0:
167,84,139885,2,0,B|173:147|203:130|204:207,1,125.999996154785,2|0,2:1|2:0,2:0:0:0:
140,279,140420,1,0,1:0:0:0:
140,279,140509,1,0,1:0:0:0:
140,279,140599,1,12,2:0:0:0:
140,279,141312,6,0,P|184:284|218:301,1,70,6|0,1:0|2:0,2:0:0:0:
286,353,141669,2,0,P|326:346|359:332,1,70,2|0,2:3|2:0,2:0:0:0:
422,269,142026,2,0,P|410:231|405:184,1,70,10|0,2:0|2:0,2:0:0:0:
451,110,142383,1,2,2:3:0:0:
379,52,142561,1,2,1:2:0:0:
379,52,142650,1,8,2:0:0:0:
379,52,142740,2,0,P|335:62|299:68,1,70,2|8,1:2|2:0,2:0:0:0:
235,119,143096,2,0,P|250:164|253:202,1,70,2|0,1:2|2:0,2:0:0:0:
174,250,143453,2,0,P|121:228|28:230,1,140,10|0,2:0|1:0,2:0:0:0:
0,47,144167,6,0,P|38:29|83:19,1,70,2|0,1:0|2:0,2:0:0:0:
137,86,144524,1,0,1:0:0:0:
212,33,144702,1,0,1:0:0:0:
292,82,144880,2,0,B|358:93|347:64|433:81,1,140,10|2,2:0|2:3,2:0:0:0:
512,137,145416,5,0,1:0:0:0:
512,137,145505,1,8,2:0:0:0:
512,137,145594,2,0,P|502:183|501:225,1,70,2|10,1:2|2:0,2:0:0:0:
404,256,145951,2,0,P|382:210|377:178,1,70,2|0,1:2|2:0,2:0:0:0:
294,140,146308,2,0,P|252:155|213:158,1,70,14|0,2:0|2:0,2:0:0:0:
139,206,146664,1,10,2:0:0:0:
184,293,146843,5,8,2:0:0:0:
184,293,146932,1,8,2:0:0:0:
184,293,147021,2,0,P|226:297|261:307,1,70,6|0,1:0|2:0,2:0:0:0:
333,367,147378,2,0,P|343:320|356:286,1,70,2|2,2:3|2:0,2:0:0:0:
326,198,147735,2,0,P|367:214|400:222,1,70,10|2,2:0|2:0,2:0:0:0:
445,147,148092,1,2,2:3:0:0:
383,72,148270,5,2,1:2:0:0:
383,72,148359,1,8,2:0:0:0:
383,72,148448,2,0,P|338:62|299:46,1,70,2|2,1:0|3:2,2:0:0:0:
236,110,148805,2,0,L|245:149,2,35,2|2|2,1:2|2:3|3:2,2:0:0:0:
160,39,149162,2,0,P|116:46|89:56,1,70,10|2,2:0|2:3,2:0:0:0:
20,135,149519,2,0,P|54:148|102:154,1,70,2|2,1:2|2:0,2:0:0:0:
26,244,149876,6,0,P|15:293|10:332,1,70,6|2,1:0|2:0,2:0:0:0:
99,364,150232,1,2,1:2:0:0:
187,315,150411,1,2,1:2:0:0:
273,351,150589,1,10,2:0:0:0:
363,317,150768,2,0,P|407:327|448:334,1,70,2|2,2:3|2:0,2:0:0:0:
433,227,151124,5,0,1:0:0:0:
433,227,151214,1,8,2:0:0:0:
433,227,151303,2,0,P|419:182|416:146,1,70,2|10,1:0|2:0,2:0:0:0:
348,88,151660,1,2,1:2:0:0:
255,104,151838,1,10,2:0:0:0:
255,104,151927,1,8,2:0:0:0:
255,104,152016,1,8,2:3:0:0:
186,36,152195,1,8,2:3:0:0:
279,19,152373,1,4,2:3:0:0:
279,19,152730,6,0,B|260:93|299:79|273:158,1,140,6|2,1:0|2:3,2:0:0:0:
152,308,153444,2,0,P|103:296|31:234,1,140,10|2,2:0|2:3,2:0:0:0:
76,150,153979,1,0,1:0:0:0:
76,150,154068,1,8,2:0:0:0:
76,150,154157,2,0,P|120:142|155:128,1,70,2|8,1:0|2:0,2:0:0:0:
191,219,154514,2,0,P|231:231|264:246,1,70,2|0,1:2|2:0,2:0:0:0:
352,214,154871,2,0,P|366:177|369:137,1,70,10|0,2:0|2:0,2:0:0:0:
441,232,155228,2,0,P|451:278|470:314,1,70,2|0,1:2|2:0,2:0:0:0:
372,349,155584,6,0,B|297:360|309:325|229:339,1,140,2|2,1:0|1:2,2:0:0:0:
146,295,156120,1,0,1:0:0:0:
67,344,156298,2,0,P|34:348|-4:362,1,70,10|0,2:0|2:0,2:0:0:0:
54,264,156655,2,0,P|67:229|73:194,1,70,2|0,2:3|1:0,2:0:0:0:
29,92,157012,6,0,P|83:84|164:49,1,140,2|2,1:2|2:3,2:0:0:0:
218,233,157725,2,0,P|259:244|292:260,1,70,10|2,2:0|2:0,2:0:0:0:
368,283,158082,1,10,2:0:0:0:
453,241,158260,5,8,2:0:0:0:
453,241,158350,1,8,2:0:0:0:
453,241,158439,2,0,P|478:191|460:100,1,140,6|2,1:0|2:0,2:0:0:0:
284,29,159152,2,0,P|297:84|297:118,1,70,10|2,2:0|2:3,2:0:0:0:
360,166,159509,1,2,3:2:0:0:
281,214,159688,1,0,1:0:0:0:
281,214,159778,1,8,2:0:0:0:
281,214,159866,2,0,P|226:192|186:183,1,70,2|8,1:0|2:0,2:0:0:0:
113,194,160223,2,0,P|124:235|130:269,1,70,2|0,1:2|2:0,2:0:0:0:
115,364,160580,2,0,P|164:337|274:340,1,140,10|2,2:0|2:3,2:0:0:0:
434,290,161293,5,2,1:0:0:0:
361,224,161472,1,2,2:0:0:0:
409,142,161650,2,0,L|452:151,2,35,2|2|2,1:2|2:3|1:2,2:0:0:0:
337,73,162007,2,0,P|349:36|356:3,1,70,10|2,2:0|2:0,2:0:0:0:
255,34,162364,1,2,2:0:0:0:
267,127,162542,5,0,1:0:0:0:
267,127,162631,1,8,2:0:0:0:
267,127,162720,2,0,P|280:172|284:212,1,70,2|8,1:0|2:0,2:0:0:0:
231,273,163077,1,2,1:2:0:0:
144,234,163256,1,2,2:3:0:0:
144,234,163345,1,8,2:0:0:0:
144,234,163434,1,10,2:0:0:0:
177,147,163612,1,8,2:0:0:0:
106,83,163791,2,0,P|61:99|23:108,1,70,10|8,2:0|2:0,2:0:0:0:
173,22,164148,6,0,B|241:30|216:52|291:62,1,112,4|2,1:0|2:0,2:0:0:0:
434,188,164861,2,0,B|366:196|391:218|316:228,1,112,10|2,2:0|2:0,2:0:0:0:
148,137,165575,2,0,P|140:98|126:69,2,56,0|8|2,1:0|2:0|1:2,2:0:0:0:
110,305,166289,2,0,P|154:289|222:282,1,112,10|2,2:0|1:2,2:0:0:0:
249,153,167002,6,0,B|236:94|268:102|247:27,2,112,2|2|10,1:2|1:2|2:0,2:0:0:0:
352,319,168073,1,2,2:3:0:0:
384,243,168251,1,0,1:0:0:0:
384,243,168340,1,8,2:0:0:0:
384,243,168429,2,0,P|343:230|315:218,1,56,0|8,1:0|2:0,2:0:0:0:
396,166,168786,2,0,P|415:135|427:102,1,56,2|0,2:3|2:0,2:0:0:0:
374,52,169143,1,10,2:0:0:0:
374,52,169500,5,2,1:2:0:0:
298,81,169678,1,8,2:0:0:0:
228,34,169857,2,0,P|167:27|111:9,1,112,0|2,1:0|2:3,2:0:0:0:
11,186,170570,2,0,P|60:167|139:155,1,112,10|2,2:0|2:0,2:0:0:0:
295,234,171284,2,0,P|284:272|279:310,1,56,0|8,1:0|2:0,2:0:0:0:
202,235,171641,1,2,1:2:0:0:
202,235,171997,5,10,2:0:0:0:
351,118,172354,1,6,1:2:0:0:
351,118,173068,6,0,P|309:111|236:86,2,112,2|2|2,2:0|2:0|2:0,2:0:0:0:
416,182,174673,6,0,L|455:174,2,28,0|0|10,1:0|1:0|2:0,2:0:0:0:
351,233,175030,1,8,2:3:0:0:
277,199,175209,2,0,P|291:165|297:131,1,56,4|8,2:3|2:3,2:0:0:0:
240,86,175565,1,4,1:0:0:0:
86,76,197509,5,0,1:0:0:0:
86,76,197598,1,0,1:0:0:0:
86,76,197687,2,2,P|104:108|111:181,1,112,10|0,2:1|2:0,2:1:0:0:
253,329,198401,6,0,B|326:319|303:297|388:290,1,140,6|2,1:0|2:0,2:0:0:0:
452,219,198936,1,2,2:3:0:0:
386,144,199114,2,0,P|395:108|399:71,1,70,10|0,2:0|2:0,2:0:0:0:
306,102,199471,1,2,2:3:0:0:
238,37,199650,1,0,1:0:0:0:
238,37,199739,1,8,2:0:0:0:
238,37,199828,2,0,P|190:52|160:56,1,70,2|8,1:0|2:0,2:0:0:0:
82,111,200185,6,0,P|95:154|100:204,1,70,2|0,1:2|2:0,2:0:0:0:
182,242,200542,2,0,P|200:207|209:162,1,70,10|0,2:0|2:0,2:0:0:0:
296,227,200898,2,0,P|342:247|382:254,1,70,2|0,1:2|2:0,2:0:0:0:
456,295,201255,2,0,P|483:247|478:154,1,140,6|2,1:0|1:2,2:0:0:0:
406,97,201790,1,2,1:2:0:0:
317,135,201969,2,0,P|270:121|242:99,1,70,10|2,2:0|2:0,2:0:0:0:
199,32,202326,1,2,2:3:0:0:
115,73,202504,5,0,1:0:0:0:
115,73,202593,1,8,2:0:0:0:
115,73,202682,2,0,P|128:118|130:148,1,70,2|8,1:0|2:0,2:0:0:0:
173,232,203039,2,0,P|217:226|251:216,1,70,2|0,1:2|2:0,2:0:0:0:
151,323,203396,2,0,P|99:307|67:301,1,70,10|2,2:0|1:2,2:0:0:0:
5,352,203753,1,10,2:0:0:0:
18,247,203931,5,8,2:0:0:0:
18,247,204020,1,8,2:0:0:0:
18,247,204110,2,0,B|36:171|3:180|20:100,1,140,6|2,1:0|2:3,2:0:0:0:
85,42,204645,1,2,2:0:0:0:
159,99,204823,2,0,P|202:108|230:118,1,70,10|2,2:0|2:0,2:0:0:0:
302,76,205180,1,2,2:3:0:0:
358,150,205358,1,0,1:0:0:0:
358,150,205448,1,8,2:0:0:0:
358,150,205537,2,0,P|345:189|341:222,1,70,2|8,1:0|2:0,2:0:0:0:
336,315,205894,6,0,P|381:302|416:297,1,70,2|0,3:2|2:0,2:0:0:0:
271,261,206250,1,10,2:0:0:0:
182,298,206429,1,2,2:3:0:0:
116,230,206607,2,0,P|134:190|140:157,1,70,2|0,1:2|2:0,2:0:0:0:
101,60,206964,6,0,P|147:80|243:88,1,140,2|2,1:0|1:2,2:0:0:0:
310,145,207499,1,0,1:0:0:0:
382,87,207678,2,0,P|419:79|462:61,1,70,10|2,2:0|2:0,2:0:0:0:
423,170,208034,1,2,2:3:0:0:
381,267,208213,5,0,2:0:0:0:
381,267,208302,1,8,2:0:0:0:
381,267,208391,2,0,P|424:280|465:279,1,70,2|8,1:0|2:0,2:0:0:0:
339,348,208748,1,2,1:2:0:0:
260,288,208926,1,8,2:0:0:0:
260,288,209016,1,8,2:0:0:0:
260,288,209105,1,8,2:3:0:0:
155,303,209283,1,8,2:3:0:0:
238,376,209462,1,4,2:3:0:0:
238,376,209818,6,0,P|260:328|251:232,1,140,6|2,1:0|2:0,2:0:0:0:
185,169,210354,1,2,2:3:0:0:
234,88,210532,2,0,P|281:101|313:103,1,70,2|2,1:2|2:0,2:0:0:0:
396,64,210889,1,2,2:3:0:0:
465,141,211067,1,0,1:0:0:0:
465,141,211156,1,8,2:0:0:0:
465,141,211246,2,0,P|451:186|447:223,1,70,2|8,1:0|2:0,2:0:0:0:
398,285,211602,6,0,P|358:267|324:260,1,70,2|0,1:2|2:0,2:0:0:0:
248,315,211959,2,0,P|210:330|174:336,1,70,10|0,2:0|2:0,2:0:0:0:
78,353,212316,2,0,P|93:306|98:266,1,70,2|0,1:2|2:0,2:0:0:0:
36,194,212673,2,0,P|100:189|175:137,1,140,6|2,1:0|1:2,2:0:0:0:
83,85,213208,1,2,1:2:0:0:
142,13,213387,2,0,P|189:26|221:27,1,70,10|2,2:0|2:3,2:0:0:0:
270,99,213743,1,2,2:0:0:0:
366,68,213922,5,0,1:0:0:0:
366,68,214011,1,8,2:0:0:0:
366,68,214100,2,0,P|380:41|387:-1,1,70,2|8,1:0|2:0,2:0:0:0:
461,103,214457,2,0,P|466:142|481:179,1,70,2|2,1:2|2:0,2:0:0:0:
444,260,214814,1,10,2:0:0:0:
353,217,214992,1,2,1:2:0:0:
272,263,215171,1,10,2:0:0:0:
195,212,215349,5,8,2:0:0:0:
195,212,215438,1,8,2:0:0:0:
195,212,215527,2,0,P|211:164|200:56,1,140,6|2,1:0|2:0,2:0:0:0:
116,132,216063,1,2,2:3:0:0:
43,75,216241,2,0,P|61:39|67:9,1,70,10|2,2:0|2:0,2:0:0:0:
23,172,216598,2,0,P|38:211|40:264,1,70,2|0,2:3|0:0,2:0:0:0:
30,274,216865,5,8,0:0:0:0:
30,274,216955,2,0,B|100:259|95:292|174:276,1,140,2|2,1:0|1:2,2:0:0:0:
346,358,217668,2,0,P|378:371|417:373,1,70,10|2,2:0|2:3,2:0:0:0:
472,296,218025,2,0,P|458:260|455:222,1,70,2|0,1:2|2:0,2:0:0:0:
380,137,218382,6,0,P|364:174|357:219,1,70,2|0,1:0|2:0,2:0:0:0:
249,187,218739,2,0,P|210:171|169:162,1,70,2|0,1:2|1:0,2:0:0:0:
130,78,219095,1,10,2:0:0:0:
44,118,219274,1,2,2:0:0:0:
81,201,219452,2,0,P|77:231|59:277,1,70,0|0,1:0|1:0,0:0:0:0:
49,300,219720,5,8,2:0:0:0:
49,300,219809,2,0,P|95:306|132:324,1,70,2|8,1:0|2:0,2:0:0:0:
194,366,220166,1,2,1:2:0:0:
288,333,220344,1,8,2:0:0:0:
288,333,220433,1,8,2:0:0:0:
288,333,220523,1,14,2:0:0:0:
288,333,221236,6,0,P|309:292|309:197,1,125.999996154785,6|2,1:0|2:0,2:0:0:0:
191,67,221950,2,0,P|170:108|170:203,1,125.999996154785,10|2,2:0|2:3,2:0:0:0:
252,138,222485,1,0,1:0:0:0:
252,138,222574,1,8,2:0:0:0:
252,138,222663,2,0,P|291:134|325:121,1,62.9999980773926,2|8,1:2|2:0,2:0:0:0:
374,64,223020,2,0,P|408:79|447:87,1,62.9999980773926,2|0,1:2|2:0,2:0:0:0:
491,146,223377,2,0,P|467:184|458:270,1,125.999996154785,10|2,2:0|1:2,2:0:0:0:
301,356,224091,6,0,B|230:347|260:316|178:306,1,125.999996154785,2|2,1:2|1:2,2:0:0:0:
32,197,224804,2,0,P|70:152|162:139,1,125.999996154785,10|2,2:0|2:3,2:0:0:0:
189,199,225339,1,0,1:0:0:0:
189,199,225429,1,8,2:0:0:0:
189,199,225518,2,0,P|232:211|262:214,1,62.9999980773926,2|8,1:2|2:0,2:0:0:0:
316,153,225875,2,0,P|307:111|306:78,1,62.9999980773926,2|0,1:2|2:0,2:0:0:0:
254,18,226231,2,0,P|204:49|127:45,1,125.999996154785,10|2,2:0|1:2,2:0:0:0:
54,22,226767,1,8,2:0:0:0:
71,106,226945,6,0,B|80:170|113:159|110:234,1,125.999996154785,2|2,1:0|2:0,2:0:0:0:
231,363,227659,2,0,B|240:299|273:310|270:235,1,125.999996154785,10|2,2:0|2:3,2:0:0:0:
231,166,228194,1,0,1:0:0:0:
231,166,228283,1,8,2:0:0:0:
231,166,228372,2,0,P|194:179|153:184,1,62.9999980773926,2|8,1:2|2:0,2:0:0:0:
269,94,228729,2,0,P|304:105|332:117,1,62.9999980773926,2|0,1:2|2:0,2:0:0:0:
405,171,229086,2,0,P|424:130|428:89,1,62.9999980773926,10|0,2:0|2:0,2:0:0:0:
474,7,229443,1,2,1:2:0:0:
474,7,229799,6,0,P|423:26|333:40,1,125.999996154785,2|2,1:0|1:2,2:0:0:0:
273,8,230335,1,0,1:0:0:0:
198,49,230513,2,0,P|212:77|225:115,1,62.9999980773926,10|2,2:0|2:0,2:0:0:0:
165,167,230870,1,2,2:3:0:0:
219,242,231048,1,0,1:0:0:0:
219,242,231137,1,8,2:0:0:0:
219,242,231227,2,0,P|259:247|292:258,1,62.9999980773926,2|8,1:0|2:0,2:0:0:0:
358,217,231583,6,0,P|351:185|351:151,1,62.9999980773926,2|0,1:2|2:0,2:0:0:0:
423,284,231940,2,0,P|416:316|416:350,1,62.9999980773926,10|0,2:0|2:0,2:0:0:0:
487,230,232297,1,10,2:0:0:0:
443,161,232475,1,8,2:0:0:0:
487,85,232654,6,0,B|412:76|440:48|357:41,1,125.999996154785,6|2,1:0|2:0,2:0:0:0:
187,83,233367,2,0,P|170:139|192:224,1,125.999996154785,10|2,2:0|2:3,2:0:0:0:
232,284,233903,1,0,1:0:0:0:
232,284,233992,1,8,2:0:0:0:
232,284,234081,2,0,P|187:292|144:306,1,62.9999980773926,2|8,1:2|2:0,2:0:0:0:
70,336,234438,2,0,P|86:284|91:252,1,62.9999980773926,2|0,1:2|2:0,2:0:0:0:
13,203,234795,2,0,P|57:191|93:172,1,62.9999980773926,10|0,2:0|2:0,2:0:0:0:
101,102,235151,2,0,P|142:117|184:119,1,62.9999980773926,2|0,1:2|2:0,2:0:0:0:
238,167,235508,6,0,P|278:140|366:134,1,125.999996154785,2|2,1:0|1:2,2:0:0:0:
475,290,236222,2,0,B|402:280|414:309|343:300,1,125.999996154785,10|2,2:0|2:3,2:0:0:0:
268,292,236757,1,0,1:0:0:0:
268,292,236846,1,8,2:0:0:0:
268,292,236936,2,0,P|278:334|279:370,1,62.9999980773926,2|8,1:2|2:0,2:0:0:0:
194,330,237292,2,0,P|157:315|124:305,1,62.9999980773926,2|0,1:2|2:0,2:0:0:0:
47,248,237649,2,0,P|86:239|170:191,1,125.999996154785,10|10,2:0|2:0,2:0:0:0:
114,131,238184,1,8,2:0:0:0:
198,128,238363,6,0,P|226:146|323:167,1,125.999996154785,6|2,1:0|2:0,2:0:0:0:
478,264,239076,2,0,P|497:223|498:176,1,62.9999980773926,10|0,2:0|2:0,2:0:0:0:
443,144,239433,1,2,2:3:0:0:
387,216,239612,1,0,1:0:0:0:
387,216,239701,1,8,2:0:0:0:
387,216,239790,2,0,P|400:267|400:291,1,62.9999980773926,2|8,1:2|2:0,2:0:0:0:
341,341,240147,2,0,P|304:329|263:322,1,62.9999980773926,2|0,1:2|2:0,2:0:0:0:
210,277,240504,2,0,P|164:298|77:297,1,125.999996154785,10|2,2:0|1:2,2:0:0:0:
6,161,241217,6,0,B|82:151|57:130|127:120,1,125.999996154785,2|2,1:0|1:2,2:0:0:0:
208,144,241752,1,0,1:0:0:0:
266,75,241931,2,0,P|310:86|340:91,1,62.9999980773926,10|2,2:0|2:0,2:0:0:0:
406,52,242288,1,2,2:3:0:0:
405,138,242466,1,0,1:0:0:0:
405,138,242555,1,8,2:0:0:0:
405,138,242644,2,0,P|390:184|388:216,1,62.9999980773926,2|8,1:2|2:0,2:0:0:0:
322,251,243001,5,2,2:3:0:0:
391,315,243180,1,0,1:0:0:0:
391,315,243269,1,0,1:0:0:0:
391,315,243358,2,0,P|429:327|466:327,1,62.9999980773926,8|8,2:0|2:3,2:0:0:0:
298,335,243715,2,0,P|244:362|164:358,1,125.999996154785,4|2,2:3|2:0,2:0:0:0:
