osu file format v14

[General]
AudioFilename: somehow.mp3
AudioLeadIn: 2000
PreviewTime: 80203
Countdown: 0
SampleSet: Soft
StackLeniency: 0.7
Mode: 0
LetterboxInBreaks: 0
WidescreenStoryboard: 1

[Editor]
Bookmarks: 1532,24366,47200,81452,92869,104286,114633,141392,164226,172432,174573,175643,197050,198477,209181,209895,221312,265196
DistanceSpacing: 1
BeatDivisor: 8
GridSize: 4
TimelineZoom: 1.3

[Metadata]
Title:Kokoronashi
TitleUnicode:心做し
Artist:Hanatan
ArtistUnicode:花たん
Creator:kakifly
Version:Rebound
Source:
Tags:Chouchou-P yurica ユリカ somehow japanese undeadcapulet rock jrock j-rock pop jpop j-pop poprock pop-rock ハンゾー Hanzou 蝶々P papiyon vocaloid uc
BeatmapID:701618
BeatmapSetID:314460

[Difficulty]
HPDrainRate:7
CircleSize:4.2
OverallDifficulty:7.5
ApproachRate:9
SliderMultiplier:3.2
SliderTickRate:1

[Events]
//Background and Video events
0,0,"kokoronashi.png",0,0
//Break Periods
2,104400,114125
2,175757,196364
//Storyboard Layer 0 (Background)
//Storyboard Layer 1 (Fail)
//Storyboard Layer 2 (Pass)
//Storyboard Layer 3 (Foreground)
//Storyboard Layer 4 (Overlay)
//Storyboard Sound Samples

[TimingPoints]
1446,713.572142143571,4,2,5,30,1,0
1535,-100,4,2,5,20,0,0
23566,-133.333333333333,4,2,1,50,0,0
23655,-133.333333333333,4,2,1,50,0,0
24280,-111.111111111111,4,2,2,75,0,0
24993,-111.111111111111,4,2,1,75,0,0
29632,-111.111111111111,4,2,3,75,0,0
29988,-111.111111111111,4,2,2,75,0,0
30702,-111.111111111111,4,2,1,75,0,0
31416,-111.111111111111,4,2,3,75,0,0
32486,-111.111111111111,4,2,1,75,0,0
35340,-111.111111111111,4,2,3,75,0,0
35697,-111.111111111111,4,2,2,75,0,0
36411,-111.111111111111,4,2,1,75,0,0
41049,-111.111111111111,4,2,3,75,0,0
41406,-111.111111111111,4,2,2,75,0,0
42119,-111.111111111111,4,2,1,75,0,0
46757,-111.111111111111,4,2,3,75,0,0
47114,-111.111111111111,4,2,2,75,0,0
47203,-111.111111111111,4,2,1,70,0,0
47470,-111.111111111111,4,2,2,70,0,0
47828,-111.111111111111,4,2,1,70,0,0
51752,-111.111111111111,4,2,1,40,0,0
52109,-111.111111111111,4,2,1,60,0,0
52466,-111.111111111111,4,2,3,60,0,0
52823,-111.111111111111,4,2,2,60,0,0
53536,-111.111111111111,4,2,1,60,0,0
57461,-111.111111111111,4,2,1,40,0,0
57639,-111.111111111111,4,2,1,60,0,0
58174,-111.111111111111,4,2,3,60,0,0
58531,-111.111111111111,4,2,2,60,0,0
59245,-111.111111111111,4,2,1,60,0,0
63169,-111.111111111111,4,2,1,40,0,0
63526,-111.111111111111,4,2,1,60,0,0
63883,-111.111111111111,4,2,3,60,0,0
64240,-111.111111111111,4,2,2,60,0,0
64953,-111.111111111111,4,2,1,60,0,0
69592,-111.111111111111,4,2,3,60,0,0
69948,-111.111111111111,4,2,2,60,0,0
70305,-111.111111111111,4,2,1,60,0,0
75300,-111.111111111111,4,2,3,60,0,0
75657,-111.111111111111,4,2,1,60,0,0
78155,-111.111111111111,4,2,4,60,0,0
80652,-133.333333333333,4,2,4,60,0,0
81366,-100,4,2,2,80,0,1
81544,-100,4,2,1,80,0,0
81722,-100,4,2,2,80,0,0
82079,-100,4,2,1,80,0,0
82793,-100,4,2,3,80,0,0
83863,-100,4,2,1,80,0,0
87074,-100,4,2,4,80,0,1
87253,-100,4,2,1,80,0,0
92069,-100,4,2,2,80,0,0
92426,-100,4,2,1,80,0,0
92783,-100,4,2,2,80,0,1
92961,-100,4,2,1,80,0,0
93139,-100,4,2,2,80,0,0
93496,-100,4,2,1,80,0,0
98491,-100,4,2,2,80,0,1
98670,-100,4,2,1,80,0,0
98847,-100,4,2,2,80,0,0
99205,-100,4,2,1,80,0,0
103486,-133.333333333333,4,2,2,80,0,0
103576,-133.333333333333,4,2,1,40,0,0
104110,-133.333333333333,4,2,2,40,0,0
104200,-133.333333333333,4,2,5,40,0,0
114725,-111.111111111111,4,2,3,60,0,0
114814,-111.111111111111,4,2,1,60,0,0
115260,-111.111111111111,4,2,2,60,0,0
115617,-111.111111111111,4,2,4,60,0,0
115973,-111.111111111111,4,2,1,60,0,0
118115,-111.111111111111,4,2,3,60,0,0
118471,-111.111111111111,4,2,1,60,0,0
120969,-111.111111111111,4,2,3,60,0,0
121326,-111.111111111111,4,2,1,60,0,0
127034,-111.111111111111,4,2,2,60,0,0
127391,-111.111111111111,4,2,1,60,0,0
132743,-111.111111111111,4,2,4,60,0,0
133456,-111.111111111111,4,2,1,60,0,0
135240,-111.111111111111,4,2,3,60,0,0
135597,-111.111111111111,4,2,1,60,0,0
137738,-133.333333333333,4,2,4,60,0,0
138451,-133.333333333333,4,2,5,60,0,0
141306,-100,4,2,4,80,0,1
141484,-100,4,2,4,80,0,0
142554,-100,4,2,1,80,0,0
146657,-100,4,2,3,80,0,0
146925,-100,4,2,1,80,0,0
147014,-100,4,2,4,80,0,0
148441,-100,4,2,3,80,0,0
149869,-100,4,2,1,80,0,0
152366,-133.333333333333,4,2,1,80,0,0
152634,-133.333333333333,4,2,1,50,0,0
152723,-100,4,2,4,80,0,0
153971,-100,4,2,1,80,0,0
158431,-100,4,2,4,80,0,0
159859,-100,4,2,1,80,0,0
164140,-125,4,2,4,70,0,0
165567,-125,4,2,1,70,0,0
172703,-125,4,2,1,30,0,0
174308,-125,4,2,1,5,0,0
174665,-125,4,2,5,70,0,0
196964,-133.333333333333,4,2,1,70,0,0
197678,-200,4,2,1,70,0,0
198391,-100,4,2,4,90,0,1
199640,-100,4,2,1,90,0,1
204100,-100,4,2,4,90,0,1
205527,-100,4,2,1,90,0,1
209095,-100,4,2,1,80,0,0
209809,-100,4,2,4,90,0,1
211057,-100,4,2,1,90,0,1
215517,-100,4,2,4,90,0,1
216766,-100,4,2,1,90,0,1
220512,-200,4,2,2,90,0,1
221226,-100,4,2,2,80,0,0
221939,-100,4,2,1,80,0,0
226578,-100,4,2,3,80,0,0
226934,-100,4,2,1,80,0,0
230502,-100,4,2,3,80,0,0
231037,-100,4,2,1,80,0,0
232286,-100,4,2,3,80,0,0
232643,-100,4,2,4,80,0,0
233892,-100,4,2,1,80,0,0
237995,-100,4,2,3,80,0,0
238351,-100,4,2,1,80,0,0
241919,-100,4,2,3,80,0,0
242276,-100,4,2,1,80,0,0
243703,-133.333333333333,4,2,1,80,0,0
244060,-133.333333333333,4,2,5,30,0,0

[Colours]
Combo1 : 172,102,242
Combo2 : 255,100,100
Combo3 : 99,124,228
Combo4 : 175,150,126
Combo5 : 168,182,185

[HitObjects]
197,119,1446,5,2,2:2:0:0:
263,200,1802,1,0,2:2:0:0:
348,245,2159,1,2,3:3:0:0:
274,322,2873,5,0,2:2:0:0:
348,245,3229,1,0,2:2:0:0:
373,138,3586,1,2,3:3:0:0:
193,114,4300,5,0,2:2:0:0:
281,158,4657,1,0,2:2:0:0:
373,138,5013,1,2,3:3:0:0:
273,182,5370,1,0,2:2:0:0:
193,114,5727,5,0,2:2:0:0:
165,226,6084,1,0,2:2:0:0:
93,286,6441,1,2,3:3:0:0:
185,242,6797,1,0,2:2:0:0:
190,115,7154,5,2,2:2:0:0:
85,194,7511,1,0,2:2:0:0:
185,242,7868,1,2,3:3:0:0:
109,314,8581,5,0,2:2:0:0:
185,242,8938,1,0,2:2:0:0:
201,146,9295,1,2,3:3:0:0:
200,107,10008,5,0,2:2:0:0:
185,242,10365,1,0,2:2:0:0:
288,184,10722,1,2,3:3:0:0:
170,256,11079,1,0,2:2:0:0:
200,107,11436,5,0,2:2:0:0:
288,184,11792,1,0,2:2:0:0:
206,81,12149,1,2,3:3:0:0:
170,256,12506,1,0,2:2:0:0:
281,34,12863,5,2,2:2:0:0:
222,145,13219,1,0,2:2:0:0:
138,38,13576,1,2,3:3:0:0:
147,117,13933,1,0,2:2:0:0:
89,171,14290,5,0,2:2:0:0:
145,268,14647,1,0,2:2:0:0:
78,158,15003,5,2,3:3:0:0:
86,317,15360,1,0,2:2:0:0:
206,165,15717,5,0,2:2:0:0:
134,241,16074,1,0,2:2:0:0:
222,185,16431,1,2,3:3:0:0:
186,73,16787,1,0,2:2:0:0:
134,241,17144,5,0,2:2:0:0:
222,293,17501,1,0,2:2:0:0:
222,185,17858,1,2,3:3:0:0:
118,261,18571,5,2,2:2:0:0:
222,293,18928,1,0,2:2:0:0:
318,245,19285,1,2,3:3:0:0:
406,297,19998,5,0,2:2:0:0:
318,245,20355,1,0,2:2:0:0:
222,293,20712,1,2,3:3:0:0:
222,293,21426,5,0,2:2:0:0:
316,354,21782,1,0,2:2:0:0:
209,314,22139,1,0,3:3:0:0:
288,200,22496,1,2,2:2:0:0:
288,200,23566,6,4,B|324:208|352:196|352:196|376:204|376:204|400:192|400:192|424:196|444:212|444:212|406:234,1,210.000008010865,6|0,2:2|2:2,0:0:0:0:
340,274,24280,6,0,L|328:124,1,143.999995605469,4|0,2:2|2:2,0:0:0:0:
408,68,24815,1,0,2:2:0:0:
224,120,24993,2,0,P|232:80|244:40,1,71.9999978027345,8|0,2:2|2:2,0:0:0:0:
120,244,25350,2,0,P|108:200|100:160,1,71.9999978027345,0|4,2:2|2:3,0:0:0:0:
132,104,25618,1,4,2:3:0:0:
132,104,25707,6,0,P|88:100|40:100,1,71.9999978027345,4|8,2:3|2:2,0:0:0:0:
120,244,26064,2,0,B|144:244|168:232|168:232|192:244|192:244|224:228|280:248,1,143.999995605469,0|8,2:2|2:2,0:0:0:0:
232,320,26599,1,0,2:2:0:0:
128,356,26777,2,0,P|88:348|44:336,1,71.9999978027345,4|0,2:3|2:2,0:0:0:0:
232,320,27134,6,0,B|288:316|348:316|348:316|320:348,1,143.999995605469,4|0,2:3|2:2,0:0:0:0:
264,188,27848,2,0,P|224:184|184:176,1,71.9999978027345,8|0,2:2|2:2,0:0:0:0:
240,92,28204,1,0,2:2:0:0:
372,192,28383,1,4,2:3:0:0:
372,192,28472,1,4,2:3:0:0:
372,192,28561,1,4,2:3:0:0:
296,284,28740,5,8,2:2:0:0:
356,164,28918,2,0,P|400:156|436:152,1,71.9999978027345,0|0,2:2|2:2,0:0:0:0:
240,92,29275,2,0,P|232:52|224:0,1,71.9999978027345,8|0,2:2|2:2,0:0:0:0:
348,52,29632,1,12,2:2:0:0:
348,52,29810,1,8,2:2:0:0:
136,232,29988,6,0,P|136:164|140:64,1,143.999995605469,4|0,2:2|2:2,0:0:0:0:
240,180,30524,1,0,2:2:0:0:
44,288,30702,2,0,L|36:244|28:200,1,71.9999978027345,8|0,2:2|2:2,0:0:0:0:
56,120,31059,1,0,2:2:0:0:
136,232,31237,1,4,2:3:0:0:
8,204,31416,5,12,2:2:0:0:
80,108,31594,1,8,2:2:0:0:
136,232,31772,2,0,P|132:268|124:308,1,71.9999978027345,0|0,2:2|2:2,0:0:0:0:
248,272,32129,2,0,P|284:268|340:264,1,71.9999978027345,8|0,2:2|2:2,0:0:0:0:
284,128,32486,2,0,B|244:116|208:112|208:112|176:136,1,107.999996704102,4|0,2:3|2:2,0:0:0:0:
232,192,32843,6,0,P|228:136|220:40,1,143.999995605469,4|0,2:3|2:2,0:0:0:0:
136,16,33378,1,4,2:3:0:0:
104,176,33556,1,8,2:2:0:0:
184,116,33735,1,0,2:2:0:0:
20,60,33913,1,0,2:2:0:0:
76,208,34091,1,4,2:3:0:0:
76,208,34181,1,4,2:3:0:0:
76,208,34270,1,4,2:3:0:0:
96,92,34448,5,8,2:2:0:0:
36,212,34627,2,0,P|40:264|40:312,1,71.9999978027345,0|0,2:2|2:2,0:0:0:0:
171,342,34983,2,0,P|165:307|160:272,1,71.9999978027345,8|0,2:2|2:2,0:0:0:0:
240,196,35340,1,12,2:2:0:0:
240,196,35519,1,8,2:2:0:0:
248,364,35697,6,0,L|84:380,1,143.999995605469,4|0,2:2|2:2,0:0:0:0:
240,196,36411,2,0,P|284:204|320:212,1,71.9999978027345,8|0,2:2|2:2,0:0:0:0:
404,144,36767,2,0,P|412:184|416:224,1,71.9999978027345,0|4,2:2|2:3,0:0:0:0:
385,288,37035,1,0,0:0:0:0:
381,292,37124,5,4,2:3:0:0:
272,196,37303,1,8,2:2:0:0:
219,301,37481,2,0,P|163:293|131:289,1,71.9999978027345,0|0,2:2|2:2,0:0:0:0:
132,186,37838,2,0,B|184:180|240:180|240:180|272:196,1,143.999995605469,8|0,2:2|2:2,0:0:0:0:
148,292,38551,6,0,L|136:328|124:364,1,71.9999978027344,4|0,2:3|2:2,0:0:0:0:
40,252,38908,2,0,P|28:200|20:164,1,71.9999978027344,4|0,2:3|2:2,0:0:0:0:
132,186,39265,2,0,B|160:190|188:174|188:174|212:182|212:182|236:174|276:182,1,143.999995605469,8|0,2:2|2:2,0:0:0:0:
248,264,39800,1,4,2:3:0:0:
248,264,39889,1,4,2:3:0:0:
248,264,39978,1,4,2:3:0:0:
232,100,40157,5,8,2:2:0:0:
348,200,40335,1,4,2:3:0:0:
328,220,40692,2,0,P|332:164|336:128,1,71.9999978027344,8|0,2:2|2:2,0:0:0:0:
464,280,41049,1,12,2:2:0:0:
440,188,41227,1,8,2:2:0:0:
296,336,41406,6,0,L|284:168,1,143.999995605469,4|0,2:2|2:2,0:0:0:0:
380,256,41941,1,0,2:2:0:0:
184,256,42119,2,0,P|176:200|172:160,1,71.9999978027344,8|0,2:2|2:2,0:0:0:0:
92,336,42476,2,0,P|76:292|64:256,1,71.9999978027344,0|4,2:2|2:3,0:0:0:0:
84,196,42743,1,4,2:3:0:0:
84,196,42833,6,0,P|48:192|0:188,1,71.9999978027344,4|8,2:3|2:2,0:0:0:0:
184,256,43189,2,0,P|224:252|328:244,1,143.999995605469,0|8,2:2|2:2,0:0:0:0:
352,256,43903,1,4,2:3:0:0:
380,272,44260,6,0,P|368:220|360:176,1,71.9999978027344,4|0,2:3|2:2,0:0:0:0:
432,128,44617,1,4,2:3:0:0:
496,208,44795,1,0,2:2:0:0:
340,180,44973,1,8,2:2:0:0:
408,104,45152,1,0,2:2:0:0:
380,272,45330,1,0,2:2:0:0:
220,220,45509,5,4,2:3:0:0:
220,220,45598,1,4,2:3:0:0:
220,220,45687,1,4,2:3:0:0:
272,128,45865,1,8,2:2:0:0:
248,236,46044,2,0,P|256:284|260:328,1,71.9999978027344,0|0,2:2|2:2,0:0:0:0:
105,232,46401,2,0,P|115:197|128:164,1,71.9999978027344,8|0,2:2|2:2,0:0:0:0:
144,328,46757,1,12,2:2:0:0:
144,328,46936,1,8,2:2:0:0:
40,160,47114,6,0,P|112:148|200:136,1,143.999995605469,4|0,2:2|2:2,0:0:0:0:
318,249,47828,2,0,P|283:243|248:236,1,71.9999978027344,8|0,2:2|2:2,0:0:0:0:
304,136,48184,1,0,2:2:0:0:
432,212,48363,1,4,2:3:0:0:
432,212,48452,1,4,2:3:0:0:
432,212,48541,6,0,P|436:264|436:312,1,71.9999978027344,4|8,2:3|2:2,0:0:0:0:
308,321,48898,2,0,P|313:285|319:250,1,71.9999978027344,0|0,2:2|2:2,0:0:0:0:
384,356,49255,2,0,L|232:368,1,143.999995605469,8|4,2:2|2:3,0:0:0:0:
172,272,49790,1,0,2:2:0:0:
284,208,49968,6,0,L|300:244|316:280,1,71.9999978027344,4|0,2:3|2:2,0:0:0:0:
172,272,50325,2,0,P|124:264|84:256,1,71.9999978027344,0|0,2:2|2:2,0:0:0:0:
40,164,50682,2,0,B|88:148|144:144|144:144|184:160,1,143.999995605469,8|0,2:2|2:2,0:0:0:0:
172,272,51217,1,4,2:3:0:0:
172,272,51306,1,4,2:3:0:0:
172,272,51396,1,4,2:3:0:0:
140,148,51574,5,8,2:2:0:0:
260,212,51752,1,4,2:2:0:0:
280,236,52109,2,0,P|276:188|272:136,1,71.9999978027344,8|0,2:2|2:2,0:0:0:0:
389,299,52466,2,0,P|393:263|396:228,1,71.9999978027344,12|8,2:2|2:2,0:0:0:0:
256,344,52823,6,0,L|240:188,1,143.999995605469,4|0,2:2|2:2,0:0:0:0:
320,136,53358,1,0,2:2:0:0:
140,228,53536,2,0,P|144:180|152:136,1,71.9999978027344,8|0,2:2|2:2,0:0:0:0:
140,332,53893,1,0,2:2:0:0:
36,256,54071,1,4,2:3:0:0:
36,256,54161,1,4,2:3:0:0:
36,256,54250,6,0,P|28:208|24:164,1,71.9999978027344,4|8,2:3|2:2,0:0:0:0:
80,80,54607,2,0,B|112:88|136:76|136:76|160:84|160:84|188:72|232:88,1,143.999995605469,0|8,2:2|2:2,0:0:0:0:
192,168,55142,1,0,2:2:0:0:
80,176,55320,2,0,P|36:168|4:160,1,71.9999978027344,4|0,2:3|2:2,0:0:0:0:
192,168,55677,6,0,L|204:324,1,143.999995605469,4|4,2:3|2:3,0:0:0:0:
112,272,56212,1,0,2:2:0:0:
296,228,56391,2,0,P|292:260|288:308,1,71.9999978027344,8|0,2:2|2:2,0:0:0:0:
384,276,56747,1,0,2:2:0:0:
416,144,56926,1,4,2:3:0:0:
416,144,57015,1,4,2:3:0:0:
416,144,57104,1,4,2:3:0:0:
304,200,57283,5,8,2:2:0:0:
476,224,57461,1,4,2:2:0:0:
393,108,57639,1,0,2:2:0:0:
384,276,57818,2,0,P|388:320|392:352,1,71.9999978027344,8|0,2:2|2:2,0:0:0:0:
476,224,58174,1,12,2:2:0:0:
476,224,58353,1,8,2:2:0:0:
272,156,58531,6,0,P|268:256|268:320,1,143.999995605469,4|0,2:2|2:2,0:0:0:0:
476,224,59245,2,0,P|468:176|460:136,1,71.9999978027344,8|0,2:2|2:2,0:0:0:0:
356,56,59602,2,0,P|349:91|344:127,1,71.9999978027344,0|4,2:2|2:3,0:0:0:0:
272,156,59869,1,4,2:3:0:0:
272,156,59958,6,0,P|224:156|176:152,1,71.9999978027344,4|8,2:3|2:2,0:0:0:0:
84,72,60315,2,0,P|148:60|240:44,1,143.999995605469,4|8,2:3|2:2,0:0:0:0:
112,160,61029,2,0,P|120:204|124:252,1,71.9999978027344,4|0,2:3|2:2,0:0:0:0:
8,292,61386,6,0,L|11:148,1,143.999995605469,4|4,2:3|2:3,0:0:0:0:
84,72,61921,1,0,2:2:0:0:
112,160,62099,2,0,P|104:204|100:236,1,71.9999978027344,8|0,2:2|2:2,0:0:0:0:
204,204,62456,1,0,2:2:0:0:
276,104,62634,1,4,2:3:0:0:
276,104,62724,1,4,2:3:0:0:
276,104,62813,1,4,2:3:0:0:
180,48,62991,5,8,2:2:0:0:
232,188,63169,1,4,2:2:0:0:
204,204,63526,2,0,P|169:195|133:189,1,71.9999978027344,8|0,2:2|2:2,0:0:0:0:
144,288,63883,1,12,2:2:0:0:
144,288,64061,1,8,2:2:0:0:
276,104,64240,6,0,B|208:100|164:100|164:100|120:124,1,143.999995605469,4|0,2:2|2:2,0:0:0:0:
316,236,64953,2,0,P|360:228|392:220,1,71.9999978027344,8|0,2:2|2:2,0:0:0:0:
488,164,65310,2,0,P|480:216|476:256,1,71.9999978027344,0|4,2:2|2:3,0:0:0:0:
510,312,65578,1,4,2:3:0:0:
510,312,65667,6,0,P|470:316|430:324,1,71.9999978027344,4|0,2:3|2:2,0:0:0:0:
320,348,66024,2,0,B|280:352|260:344|260:344|232:352|232:352|200:344|148:352,1,143.999995605469,0|8,2:2|2:2,0:0:0:0:
156,360,66737,1,4,2:3:0:0:
216,192,67094,6,0,P|264:200|296:208,1,71.9999978027344,4|0,2:3|2:2,0:0:0:0:
364,272,67451,1,4,2:3:0:0:
348,144,67629,1,0,2:2:0:0:
293,304,67808,2,0,P|361:296|449:292,1,143.999995605469,8|0,2:2|2:2,0:0:0:0:
348,144,68343,1,4,2:3:0:0:
348,144,68432,1,4,2:3:0:0:
348,144,68521,5,4,2:3:0:0:
184,256,68700,1,0,2:2:0:0:
293,304,68878,2,0,P|289:264|284:216,1,71.9999978027344,0|0,2:2|2:2,0:0:0:0:
196,128,69235,2,0,P|207:89|220:56,1,71.9999978027344,8|0,2:2|2:2,0:0:0:0:
184,256,69592,1,12,2:2:0:0:
61,183,69770,1,8,2:2:0:0:
196,128,69948,6,0,P|248:120|336:112,1,107.999996704102,4|0,2:2|2:2,0:0:0:0:
380,128,70305,2,0,P|420:116|452:104,1,71.9999978027344,4|0,2:3|2:2,0:0:0:0:
368,28,70662,1,8,2:2:0:0:
368,28,70840,1,0,2:2:0:0:
428,240,71019,2,0,P|463:239|499:235,1,71.9999978027344,0|0,2:2|2:2,0:0:0:0:
380,128,71376,5,4,2:3:0:0:
336,20,71554,1,8,2:2:0:0:
252,152,71732,2,0,P|316:156|408:160,1,143.999995605469,4|8,2:3|2:2,0:0:0:0:
444,268,72268,1,0,2:2:0:0:
352,320,72446,2,0,P|304:328|260:336,1,71.9999978027344,4|0,2:3|2:2,0:0:0:0:
236,222,72803,6,0,L|244:174|252:152,1,71.9999978027344,4|0,2:3|2:2,0:0:0:0:
132,224,73160,2,0,P|144:276|148:308,1,71.9999978027344,4|0,2:3|2:2,0:0:0:0:
0,134,73516,2,0,P|64:126|152:118,1,143.999995605469,8|0,2:2|2:2,0:0:0:0:
236,222,74051,1,4,2:3:0:0:
236,222,74141,1,4,2:3:0:0:
236,222,74230,1,4,2:3:0:0:
228,60,74408,5,8,2:2:0:0:
332,116,74587,1,0,2:2:0:0:
228,208,74765,1,0,2:2:0:0:
356,88,74943,2,0,P|348:144|344:176,1,71.9999978027344,8|0,2:2|2:2,0:0:0:0:
448,136,75300,1,12,2:2:0:0:
448,136,75479,1,8,2:2:0:0:
260,140,75657,6,0,P|268:212|280:276,1,107.999996704102,4|0,2:3|2:2,0:0:0:0:
336,311,76014,2,0,P|380:307|412:303,1,71.9999978027344,0|0,2:2|2:2,0:0:0:0:
512,188,76371,2,0,P|476:176|428:164,1,71.9999978027344,8|0,2:2|2:2,0:0:0:0:
348,208,76727,1,0,2:2:0:0:
164,176,77084,5,4,2:3:0:0:
88,96,77263,1,8,2:2:0:0:
184,196,77441,2,0,P|128:200|84:204,1,71.9999978027344,4|0,2:3|2:2,0:0:0:0:
24,312,77798,2,0,P|78:315|132:320,1,107.999996704102,8|0,2:2|2:2,0:0:0:0:
196,288,78155,1,4,2:2:0:0:
196,288,80474,6,0,L|188:248,1,35.9999989013672,8|8,2:2|2:2,0:0:0:0:
216,180,80652,6,4,B|180:172|152:184|152:184|128:176|128:176|104:188|104:188|80:184|60:168|60:168|98:146,1,210.000008010865,12|0,2:2|2:2,0:0:0:0:
156,104,81366,6,0,P|148:172|136:284,1,160,4|0,2:2|2:2,0:0:0:0:
285,350,81901,1,0,2:2:0:0:
312,243,82079,2,0,P|300:199|288:159,1,80,8|0,2:2|2:2,0:0:0:0:
185,336,82436,1,0,2:2:0:0:
328,256,82614,1,4,2:3:0:0:
328,256,82704,1,4,2:3:0:0:
328,256,82793,5,12,2:2:0:0:
216,208,82971,1,8,2:2:0:0:
376,320,83150,2,0,P|420:316|464:316,1,80,0|0,2:2|2:2,0:0:0:0:
484,184,83506,2,0,P|428:176|352:168,1,120,8|0,2:2|2:2,0:0:0:0:
278,189,83863,2,0,P|274:145|270:97,1,80,4|0,2:3|2:2,0:0:0:0:
368,40,84220,5,4,2:3:0:0:
368,40,84398,1,0,2:2:0:0:
180,132,84577,2,0,P|184:84|188:40,1,80,4|4,2:3|2:3,0:0:0:0:
251,0,84844,1,4,2:3:0:0:
251,0,84933,1,8,2:2:0:0:
341,78,85112,1,0,2:2:0:0:
180,132,85290,2,0,P|136:136|72:144,1,80,0|4,2:2|2:3,0:0:0:0:
56,200,85558,1,4,2:3:0:0:
56,200,85647,5,4,2:3:0:0:
128,48,85825,1,8,2:2:0:0:
8,104,86004,2,0,P|16:156|32:252,1,120,4|0,2:3|2:2,0:0:0:0:
80,276,86361,2,0,P|136:264|176:256,1,80,8|0,2:2|2:2,0:0:0:0:
292,216,86717,1,8,2:2:0:0:
248,224,86807,1,8,2:2:0:0:
208,204,86896,1,8,2:2:0:0:
188,164,86985,1,8,2:2:0:0:
200,120,87074,6,0,P|204:184|212:300,1,160,4|4,2:2|2:3,0:0:0:0:
108,192,87609,1,0,2:2:0:0:
248,224,87788,1,8,2:2:0:0:
132,288,87966,1,0,2:2:0:0:
200,120,88145,1,0,2:2:0:0:
272,256,88323,1,4,2:3:0:0:
272,256,88412,1,4,2:3:0:0:
272,256,88501,1,4,2:3:0:0:
168,96,88680,5,8,2:2:0:0:
340,84,88858,2,0,P|336:144|332:224,1,120,0|0,2:2|2:2,0:0:0:0:
272,256,89215,1,8,2:2:0:0:
192,176,89393,1,0,2:2:0:0:
309,297,89572,2,0,P|253:305|185:317,1,120,4|0,2:3|2:2,0:0:0:0:
116,272,89928,6,0,P|116:220|112:168,1,80,4|0,2:3|2:2,0:0:0:0:
24,216,90285,1,4,2:3:0:0:
24,216,90374,1,4,2:3:0:0:
24,216,90464,1,4,2:3:0:0:
192,176,90642,1,8,2:2:0:0:
56,100,90820,1,0,2:2:0:0:
216,216,90999,2,0,P|208:156|200:104,1,80,0|4,2:2|2:3,0:0:0:0:
160,80,91266,1,4,2:3:0:0:
160,80,91356,5,4,2:3:0:0:
304,168,91534,1,8,2:2:0:0:
280,48,91712,1,0,2:2:0:0:
216,216,91891,1,8,2:3:0:0:
216,216,91980,1,8,2:3:0:0:
216,216,92069,5,4,2:3:0:0:
380,184,92248,1,4,2:3:0:0:
280,48,92426,2,0,P|250:37|231:35,1,40,8|8,2:2|2:2,0:0:0:0:
149,143,92604,2,0,P|178:131|202:114,1,40,4|4,2:3|2:3,0:0:0:0:
57,81,92783,6,0,P|60:164|67:250,1,160,4|0,2:2|2:2,0:0:0:0:
154,353,93318,1,0,2:2:0:0:
263,319,93496,2,0,P|310:301|353:268,1,80,8|0,2:2|2:2,0:0:0:0:
247,190,93853,1,0,2:2:0:0:
422,338,94031,1,4,2:3:0:0:
422,338,94121,1,4,2:3:0:0:
422,338,94210,5,4,2:3:0:0:
443,205,94388,1,8,2:2:0:0:
406,332,94567,2,0,P|345:332|277:324,1,120,4|0,2:3|2:2,0:0:0:0:
160,284,94923,2,0,P|187:264|237:244,1,80,8|0,2:2|2:2,0:0:0:0:
103,111,95280,2,0,P|155:103|195:99,1,80,0|0,2:2|2:2,0:0:0:0:
321,162,95637,6,0,P|361:174|441:130,1,120,4|0,2:3|2:2,0:0:0:0:
376,65,95994,1,4,2:3:0:0:
403,254,96172,1,0,2:2:0:0:
494,85,96351,1,8,2:2:0:0:
321,162,96529,1,0,2:2:0:0:
472,218,96707,1,0,2:2:0:0:
494,85,96886,1,4,2:3:0:0:
494,85,96975,1,4,2:3:0:0:
494,85,97064,5,4,2:3:0:0:
355,83,97243,1,8,2:2:0:0:
360,212,97421,2,0,P|364:260|364:300,1,80,4|0,2:3|2:2,0:0:0:0:
256,308,97778,2,0,L|248:244|240:180,1,120,8|0,2:2|2:2,0:0:0:0:
288,128,98135,1,8,2:2:0:0:
140,252,98313,1,8,2:2:0:0:
140,252,98402,1,8,2:2:0:0:
140,252,98491,6,0,B|152:84|152:84|152:84,1,160,4|0,2:2|2:2,0:0:0:0:
232,20,99026,1,0,2:2:0:0:
288,128,99205,2,0,P|284:156|276:188,2,40,8|4|4,2:2|2:3|2:3,0:0:0:0:
232,20,99562,1,0,2:2:0:0:
392,64,99740,1,4,2:3:0:0:
392,64,99829,1,4,2:3:0:0:
392,64,99918,6,0,L|400:124|404:168,1,80,4|8,2:3|2:2,0:0:0:0:
250,285,100275,2,0,P|216:237|228:180,1,120,4|0,2:3|2:2,0:0:0:0:
288,128,100632,1,8,2:2:0:0:
348,244,100810,1,0,2:2:0:0:
124,212,100989,2,0,P|168:204|212:200,1,80,4|0,2:3|2:2,0:0:0:0:
348,244,101346,6,0,L|344:292|340:340,1,80,4|0,2:3|2:2,0:0:0:0:
456,248,101702,1,4,2:3:0:0:
456,248,101792,1,4,2:3:0:0:
456,248,101881,1,4,2:3:0:0:
396,136,102059,1,8,2:2:0:0:
424,272,102238,1,0,2:2:0:0:
500,168,102416,1,0,2:2:0:0:
316,212,102594,1,4,2:3:0:0:
316,212,102684,1,4,2:3:0:0:
316,212,102773,5,4,2:3:0:0:
416,351,102951,2,0,P|420:311|424:272,1,80,8|0,2:2|2:2,0:0:0:0:
255,288,103308,2,0,P|259:301|271:330,1,40,4|4,2:3|2:3,0:0:0:0:
243,177,103486,6,0,P|219:217|315:209,1,210.000008010865,4|0,2:2|2:2,0:0:0:0:
308,136,104200,5,2,2:2:0:0:
308,136,114725,6,0,L|320:92,2,35.9999989013672,12|4|8,2:2|2:3|2:3,0:0:0:0:
224,208,115082,1,8,2:3:0:0:
352,268,115260,1,4,2:3:0:0:
328,288,115617,6,0,P|332:232|340:132,1,143.999995605469,4|4,2:2|2:3,0:0:0:0:
428,60,116152,2,0,P|432:108|436:152,1,71.9999978027344,8|0,2:2|2:2,0:0:0:0:
328,48,116509,1,4,2:3:0:0:
512,140,116687,2,0,P|504:204|500:244,1,71.9999978027344,4|0,2:3|2:2,0:0:0:0:
416,268,117044,5,4,2:3:0:0:
360,184,117223,1,4,2:3:0:0:
428,296,117401,1,4,2:3:0:0:
324,280,117579,1,4,2:3:0:0:
496,224,117758,2,0,P|504:268|512:320,1,71.9999978027344,8|0,2:2|2:2,0:0:0:0:
448,376,118115,1,12,2:2:0:0:
448,376,118293,1,8,2:2:0:0:
264,168,118471,6,0,P|324:160|436:152,1,143.999995605469,4|4,2:3|2:3,0:0:0:0:
324,280,119007,2,0,P|320:328|320:360,1,71.9999978027344,8|0,2:2|2:2,0:0:0:0:
180,276,119363,2,0,P|176:232|172:192,1,71.9999978027344,4|0,2:3|2:2,0:0:0:0:
92,112,119720,1,4,2:3:0:0:
92,112,119809,1,4,2:3:0:0:
92,112,119898,6,0,P|140:104|192:100,1,71.9999978027344,4|8,2:3|2:2,0:0:0:0:
264,168,120255,2,0,P|308:176|364:116,1,107.999996704102,4|0,2:3|2:2,0:0:0:0:
364,68,120612,1,8,2:2:0:0:
408,224,120790,1,0,2:2:0:0:
504,160,120969,1,12,2:2:0:0:
380,200,121147,1,8,2:2:0:0:
496,184,121326,6,0,P|488:108|480:28,1,143.999995605469,4|4,2:3|2:3,0:0:0:0:
364,68,121861,2,0,P|368:28|376:-20,1,71.9999978027344,8|0,2:2|2:2,0:0:0:0:
380,200,122218,1,4,2:3:0:0:
288,148,122396,1,4,2:3:0:0:
304,128,122753,5,4,2:3:0:0:
284,248,122931,1,4,2:3:0:0:
212,160,123110,1,4,2:3:0:0:
316,236,123288,1,4,2:3:0:0:
172,316,123466,2,0,P|176:268|184:232,1,71.9999978027344,8|0,2:2|2:2,0:0:0:0:
304,128,123823,1,0,2:2:0:0:
304,128,124002,1,0,2:2:0:0:
288,336,124180,6,0,L|128:344,1,143.999995605469,4|4,2:3|2:3,0:0:0:0:
60,264,124715,2,0,P|68:220|80:180,1,71.9999978027344,8|0,2:2|2:2,0:0:0:0:
184,208,125072,2,0,P|176:156|168:116,1,71.9999978027344,4|0,2:3|2:2,0:0:0:0:
280,244,125429,1,4,2:3:0:0:
280,244,125518,1,4,2:3:0:0:
280,244,125607,5,4,2:3:0:0:
328,136,125785,1,8,2:2:0:0:
184,208,125964,1,4,2:3:0:0:
360,164,126142,1,8,2:2:0:0:
360,164,126231,1,8,2:2:0:0:
360,164,126321,2,0,B|404:152|440:148|440:148|484:164,2,107.999996704102,8|8|8,2:2|2:2|2:2,0:0:0:0:
280,244,127034,6,0,P|236:240|192:232,1,71.9999978027344,4|0,2:2|2:2,0:0:0:0:
88,176,127391,2,0,P|100:260|108:312,1,107.999996704102,8|0,2:2|2:2,0:0:0:0:
56,340,127748,1,4,2:3:0:0:
180,280,127926,1,0,2:2:0:0:
248,360,128105,1,8,2:2:0:0:
160,252,128283,1,0,2:2:0:0:
248,160,128461,5,4,2:3:0:0:
340,232,128640,1,0,2:2:0:0:
180,280,128818,2,0,P|176:240|172:196,1,71.9999978027344,8|0,2:2|2:2,0:0:0:0:
248,160,129175,1,4,2:3:0:0:
68,284,129353,1,0,2:2:0:0:
68,284,129443,1,0,2:2:0:0:
68,284,129532,2,0,P|68:244|72:152,1,107.999996704102,8|0,2:2|2:2,0:0:0:0:
116,116,129888,6,0,B|48:124|4:136|4:136|40:96,1,143.999995605469,4|8,2:3|2:2,0:0:0:0:
80,24,130424,1,0,2:2:0:0:
212,72,130602,2,0,P|216:112|220:156,1,71.9999978027344,4|0,2:3|2:2,0:0:0:0:
88,208,130959,1,8,2:2:0:0:
116,116,131137,1,0,2:2:0:0:
224,228,131316,5,4,2:3:0:0:
144,136,131494,1,0,2:2:0:0:
260,52,131672,2,0,P|256:96|252:136,1,71.9999978027344,8|0,2:2|2:2,0:0:0:0:
144,136,132029,1,4,2:3:0:0:
360,92,132208,1,0,2:2:0:0:
360,92,132297,1,0,2:2:0:0:
360,92,132386,1,8,2:2:0:0:
270,195,132564,1,8,2:2:0:0:
270,195,132654,1,8,2:2:0:0:
270,195,132743,6,0,P|266:143|258:35,1,143.999995605469,12|8,2:2|2:2,0:0:0:0:
384,72,133278,2,0,P|380:120|376:164,1,71.9999978027344,8|4,2:2|2:3,0:0:0:0:
287,264,133635,1,0,2:2:0:0:
287,264,133813,2,0,P|277:230|270:195,1,71.9999978027344,8|0,2:2|2:2,0:0:0:0:
384,72,134170,5,4,2:3:0:0:
424,176,134348,1,4,2:3:0:0:
292,92,134527,1,8,2:2:0:0:
416,44,134705,1,4,2:3:0:0:
388,196,134883,2,0,P|384:160|380:112,1,71.9999978027344,8|0,2:2|2:2,0:0:0:0:
492,252,135240,1,12,2:2:0:0:
512,160,135419,1,8,2:2:0:0:
360,296,135597,6,0,L|348:140,1,143.999995605469,4|8,2:3|2:2,0:0:0:0:
216,76,136132,2,0,L|240:236,1,143.999995605469,8|0,2:2|2:2,0:0:0:0:
184,296,136667,1,4,2:3:0:0:
104,236,136846,1,4,2:3:0:0:
104,236,136935,1,4,2:3:0:0:
104,236,137024,6,0,P|110:192|119:149,1,71.9999978027344,4|0,2:3|2:2,0:0:0:0:
216,76,137381,2,0,P|212:40|208:0,1,71.9999978027344,4|0,2:3|2:2,0:0:0:0:
104,120,137738,6,0,P|160:116|300:108,1,180.000006866455,4|0,2:2|2:2,0:0:0:0:
348,148,138362,1,0,2:2:0:0:
348,148,138451,5,4,2:2:0:0:
447,112,138808,1,2,2:2:0:0:
356,180,139165,1,2,2:2:0:0:
436,84,139522,1,2,2:2:0:0:
364,208,139878,1,2,2:2:0:0:
424,56,140235,1,2,2:2:0:0:
226,154,140414,5,8,2:2:0:0:
226,154,140503,1,8,2:2:0:0:
226,154,140592,2,0,B|254:154|274:142|274:142|330:154|330:154|362:142|362:142|346:182|370:218,1,210.000008010865,14|0,2:2|2:2,0:0:0:0:
428,176,141306,6,0,P|368:168|324:164,1,80,4|0,2:2|2:2,0:0:0:0:
226,154,141662,2,0,P|220:116|212:48,1,80,0|0,2:2|2:2,0:0:0:0:
324,96,142019,2,0,P|320:152|312:252,1,120,8|0,2:2|2:2,0:0:0:0:
260,268,142376,1,0,2:2:0:0:
152,208,142554,1,4,2:3:0:0:
152,208,142644,1,4,2:3:0:0:
152,208,142733,5,4,2:3:0:0:
236,120,142911,1,0,2:2:0:0:
128,236,143090,2,0,P|84:232|28:228,1,80,0|0,2:2|2:2,0:0:0:0:
52,106,143446,2,0,L|152:100|212:96,1,160,8|0,2:2|2:2,0:0:0:0:
152,208,143982,1,0,2:2:0:0:
144,16,144160,6,0,P|208:20|324:28,1,160,4|0,2:3|2:2,0:0:0:0:
376,132,144695,1,0,2:2:0:0:
252,196,144874,2,0,P|256:152|264:112,1,80,8|0,2:2|2:2,0:0:0:0:
376,132,145230,1,0,2:2:0:0:
268,224,145409,1,4,2:3:0:0:
268,224,145498,1,4,2:3:0:0:
268,224,145587,5,4,2:3:0:0:
228,96,145765,1,0,2:2:0:0:
352,148,145944,1,0,2:2:0:0:
204,124,146122,1,0,2:2:0:0:
376,132,146301,2,0,P|384:176|392:224,1,80,8|0,2:2|2:2,0:0:0:0:
352,324,146657,1,12,2:2:0:0:
268,224,146836,1,8,2:2:0:0:
268,224,146925,1,4,2:3:0:0:
268,224,147014,6,0,L|448:216,1,160,4|0,2:2|2:2,0:0:0:0:
352,324,147549,1,0,2:2:0:0:
248,200,147728,1,8,2:2:0:0:
388,108,147906,1,0,2:2:0:0:
276,277,148085,1,0,2:2:0:0:
256,60,148263,1,8,2:2:0:0:
256,60,148352,1,8,2:2:0:0:
256,60,148441,5,12,2:2:0:0:
376,186,148620,1,0,2:2:0:0:
178,141,148798,1,0,2:2:0:0:
357,32,148977,1,0,2:2:0:0:
248,200,149155,1,8,2:2:0:0:
128,40,149333,1,0,2:2:0:0:
300,77,149512,1,0,2:2:0:0:
108,64,149690,1,0,2:2:0:0:
296,0,149869,5,4,2:3:0:0:
352,132,150047,1,0,2:2:0:0:
168,128,150225,2,0,L|172:84|176:40,1,80,0|0,2:2|2:2,0:0:0:0:
240,12,150493,1,0,2:2:0:0:
240,12,150582,1,8,2:2:0:0:
308,217,150760,1,0,2:2:0:0:
148,112,150939,1,0,2:2:0:0:
352,132,151117,1,4,2:3:0:0:
352,132,151206,1,4,2:3:0:0:
352,132,151296,5,4,2:3:0:0:
192,252,151474,1,0,2:2:0:0:
175,48,151652,1,0,2:2:0:0:
220,268,151831,1,8,2:3:0:0:
220,268,151920,1,8,2:3:0:0:
220,268,152009,5,8,2:3:0:0:
27,151,152188,1,8,2:2:0:0:
175,48,152366,2,0,L|171:104|167:160,1,60.0000022888184,10|0,2:3|2:2,0:0:0:0:
132,244,152723,6,0,P|200:240|324:232,1,160,4|0,2:2|2:2,0:0:0:0:
429,348,153436,2,0,P|421:304|413:256,1,80,8|0,2:2|2:2,0:0:0:0:
291,234,153793,2,0,P|295:194|303:146,1,80,0|4,2:2|2:3,0:0:0:0:
353,89,154061,1,4,2:3:0:0:
353,89,154150,5,4,2:3:0:0:
473,194,154328,1,0,2:2:0:0:
280,208,154507,2,0,P|232:200|176:192,1,80,0|0,2:2|2:2,0:0:0:0:
104,248,154864,2,0,P|112:292|124:336,1,80,8|0,2:2|2:2,0:0:0:0:
220,368,155220,1,0,2:2:0:0:
220,368,155399,1,0,2:2:0:0:
24,168,155577,6,0,P|16:248|8:344,1,160,4|0,2:3|2:2,0:0:0:0:
104,376,156112,1,0,2:2:0:0:
200,252,156291,2,0,P|192:204|184:160,1,80,8|0,2:2|2:2,0:0:0:0:
104,376,156647,1,0,2:2:0:0:
232,272,156826,1,4,2:3:0:0:
232,272,156915,1,4,2:3:0:0:
232,272,157004,5,4,2:3:0:0:
120,216,157183,1,0,2:2:0:0:
264,296,157361,2,0,P|328:292|400:288,1,120,0|0,2:2|2:2,0:0:0:0:
448,324,157718,1,8,2:2:0:0:
416,160,157896,1,0,2:2:0:0:
492,256,158075,1,8,2:2:0:0:
456,276,158164,1,8,2:2:0:0:
416,276,158253,1,8,2:2:0:0:
376,264,158342,1,8,2:2:0:0:
344,240,158431,6,0,P|416:236|520:232,1,160,12|0,2:2|2:2,0:0:0:0:
296,128,159145,2,0,P|244:136|188:148,1,80,8|0,2:2|2:2,0:0:0:0:
144,232,159502,1,0,2:2:0:0:
76,104,159680,1,0,2:2:0:0:
76,104,159769,1,0,2:2:0:0:
76,104,159859,5,4,2:3:0:0:
200,144,160037,1,0,2:2:0:0:
24,192,160215,2,0,P|28:144|40:88,1,80,0|0,2:2|2:2,0:0:0:0:
144,232,160572,2,0,P|152:288|156:340,1,80,8|0,2:2|2:2,0:0:0:0:
36,216,160929,1,0,2:2:0:0:
36,216,161107,1,0,2:2:0:0:
200,144,161286,5,4,2:3:0:0:
291,258,161464,1,0,2:2:0:0:
144,232,161642,1,0,2:2:0:0:
229,102,161821,1,0,2:2:0:0:
346,193,161999,1,8,2:2:0:0:
124,150,162178,1,0,2:2:0:0:
292,52,162356,1,0,2:2:0:0:
291,258,162534,1,4,2:3:0:0:
291,258,162624,1,4,2:3:0:0:
291,258,162713,5,4,2:3:0:0:
229,102,162891,1,0,2:2:0:0:
368,80,163070,1,0,2:2:0:0:
401,244,163248,1,8,2:3:0:0:
401,244,163337,1,8,2:3:0:0:
401,244,163426,1,8,2:3:0:0:
283,170,163605,5,8,2:2:0:0:
483,131,163783,1,8,2:3:0:0:
372,350,163962,1,8,2:2:0:0:
219,202,164140,6,0,P|279:198|363:194,1,128,12|0,2:2|2:2,0:0:0:0:
148,332,164854,2,0,P|132:288|120:248,1,64,8|0,2:2|2:2,0:0:0:0:
32,264,165210,2,0,P|40:212|52:144,1,96,0|0,2:2|2:2,0:0:0:0:
108,120,165567,5,4,2:3:0:0:
224,196,165745,1,0,2:2:0:0:
111,286,165924,2,0,P|79:283|48:280,1,64,0|0,2:2|2:2,0:0:0:0:
224,196,166281,2,0,P|264:188|308:180,1,64,8|0,2:2|2:2,0:0:0:0:
416,148,166637,2,0,P|412:196|412:224,1,64,0|0,2:2|2:2,0:0:0:0:
344,328,166994,6,0,P|280:320|204:312,2,128,4|0|8,2:3|2:2|2:2,0:0:0:0:
416,148,168065,1,0,2:2:0:0:
312,200,168243,1,4,2:3:0:0:
312,200,168332,1,4,2:3:0:0:
312,200,168421,5,4,2:3:0:0:
416,272,168600,1,0,2:2:0:0:
484,124,168778,2,0,P|444:120|396:116,1,64,0|0,2:2|2:2,0:0:0:0:
264,104,169135,2,0,P|260:60|260:24,1,64,8|0,2:2|2:2,0:0:0:0:
312,200,169492,1,0,2:2:0:0:
312,200,169670,1,0,2:2:0:0:
216,280,169849,6,0,P|168:276|132:272,1,64,4|0,2:3|2:2,0:0:0:0:
32,312,170205,2,0,P|36:248|44:188,1,96,0|0,2:2|2:2,0:0:0:0:
96,168,170562,2,0,P|92:124|88:92,1,64,8|0,2:2|2:2,0:0:0:0:
216,40,170919,6,0,P|212:92|208:164,1,96,0|0,2:2|2:2,0:0:0:0:
256,196,171276,1,4,2:3:0:0:
428,135,171454,1,0,2:2:0:0:
304,52,171632,2,0,L|264:48|224:44,1,64,0|0,2:2|2:2,0:0:0:0:
364,140,171989,2,0,P|412:136|452:132,1,64,8|0,2:2|2:2,0:0:0:0:
256,196,172346,5,2,2:3:0:0:
256,192,172435,12,0,174308,2:2:0:0:
218,262,174665,6,0,L|214:298,2,32,8|8|8,2:3|2:3|2:3,0:0:0:0:
314,142,175022,1,8,2:2:0:0:
151,154,175200,1,8,2:3:0:0:
334,174,175379,1,8,2:2:0:0:
192,36,175557,5,2,2:2:0:0:
220,288,196964,6,0,P|164:284|72:280,1,120.000004577637,2|0,2:3|2:2,0:0:0:0:
164,156,197499,1,4,2:3:0:0:
164,156,197589,1,4,2:3:0:0:
164,156,197678,6,0,P|204:140|276:200,1,140,2|0,2:3|2:2,0:0:0:0:
208,212,198391,6,0,P|212:148|216:48,1,160,4|0,2:2|2:2,0:0:0:0:
308,12,198927,1,0,2:2:0:0:
352,116,199105,2,0,P|344:164|336:208,1,80,8|0,2:2|2:2,0:0:0:0:
308,12,199462,1,0,2:2:0:0:
456,40,199640,1,4,2:3:0:0:
456,40,199729,1,4,2:3:0:0:
456,40,199819,6,0,L|464:84|472:128,1,80,4|0,2:3|2:2,0:0:0:0:
400,260,200175,2,0,B|352:252|300:248|300:248|308:272,1,120,0|0,2:2|2:2,0:0:0:0:
352,324,200532,2,0,P|348:272|344:232,1,80,8|0,2:2|2:2,0:0:0:0:
220,124,200889,2,0,P|215:164|212:204,1,80,0|0,2:2|2:2,0:0:0:0:
256,304,201246,5,4,2:3:0:0:
328,184,201424,1,0,2:2:0:0:
224,320,201602,2,0,P|176:324|136:328,1,80,0|4,2:2|2:3,0:0:0:0:
80,360,201870,1,4,2:3:0:0:
80,360,201959,1,8,2:2:0:0:
160,212,202138,1,0,2:2:0:0:
16,116,202316,2,0,P|24:200|32:272,1,120,0|0,2:2|2:2,0:0:0:0:
84,284,202673,5,4,2:3:0:0:
200,192,202851,1,0,2:2:0:0:
56,88,203030,2,0,P|48:136|40:192,1,80,0|0,2:2|2:2,0:0:0:0:
200,192,203386,2,0,L|196:148|192:104,1,80,8|0,2:2|2:2,0:0:0:0:
84,284,203743,1,8,2:2:0:0:
120,268,203832,1,8,2:2:0:0:
160,268,203922,1,8,2:2:0:0:
196,280,204011,1,8,2:2:0:0:
228,304,204100,6,0,P|144:300|48:296,1,160,4|0,2:2|2:2,0:0:0:0:
24,192,204635,1,0,2:2:0:0:
136,104,204814,2,0,P|132:152|128:196,1,80,8|0,2:2|2:2,0:0:0:0:
296,240,205170,2,0,P|288:192|280:148,1,80,0|0,2:2|2:2,0:0:0:0:
316,96,205438,1,0,2:2:0:0:
316,96,205527,5,4,2:3:0:0:
420,184,205706,1,0,2:2:0:0:
276,264,205884,2,0,B|172:256|172:256|180:288,1,120,0|0,2:2|2:2,0:0:0:0:
216,332,206241,2,0,P|212:276|208:224,1,80,8|0,2:2|2:2,0:0:0:0:
316,96,206597,2,0,P|312:160|312:196,1,80,0|0,2:2|2:2,0:0:0:0:
96,152,206954,6,0,B|148:144|220:124|220:124|192:172,1,160,4|0,2:3|2:2,0:0:0:0:
144,248,207489,1,0,2:2:0:0:
144,48,207668,1,8,2:2:0:0:
236,168,207846,1,0,2:2:0:0:
44,232,208025,1,0,2:2:0:0:
212,136,208203,1,0,2:2:0:0:
212,136,208292,1,0,2:2:0:0:
212,136,208381,5,4,2:3:0:0:
224,296,208560,1,0,2:2:0:0:
96,168,208738,2,0,P|104:124|116:72,1,80,0|8,2:2|2:3,0:0:0:0:
168,40,209006,1,8,2:3:0:0:
168,40,209095,1,8,2:3:0:0:
320,120,209273,1,4,2:3:0:0:
96,168,209452,1,8,2:3:0:0:
304,76,209630,1,4,2:3:0:0:
225,286,209809,6,0,L|213:118,1,160,4|0,2:2|2:2,0:0:0:0:
304,76,210344,1,0,2:2:0:0:
173,186,210522,2,0,P|125:174|84:165,1,80,8|0,2:2|2:2,0:0:0:0:
202,40,210879,1,0,2:2:0:0:
75,164,211057,1,4,2:3:0:0:
75,164,211147,1,4,2:3:0:0:
75,164,211236,6,0,L|63:77,1,80,4|0,2:3|2:2,0:0:0:0:
202,40,211592,2,0,P|245:51|289:54,1,80,0|0,2:2|2:2,0:0:0:0:
364,136,211949,2,0,P|408:120|462:113,1,80,8|0,2:2|2:2,2:2:0:0:
346,284,212306,1,0,2:2:0:0:
435,221,212484,1,0,2:2:0:0:
229,224,212663,6,0,L|91:213,1,120,4|0,2:3|2:2,0:0:0:0:
76,119,213020,2,0,P|141:124|167:126,1,80,0|0,2:2|2:2,0:0:0:0:
327,92,213376,1,8,2:2:0:0:
229,224,213555,1,0,2:2:0:0:
142,36,213733,1,0,2:2:0:0:
336,109,213912,1,4,2:3:0:0:
336,109,214001,1,4,2:3:0:0:
336,109,214090,6,0,P|227:114|227:114,1,80,4|0,2:3|2:2,0:0:0:0:
140,210,214447,1,0,2:2:0:0:
111,89,214625,1,0,2:2:0:0:
225,181,214804,1,8,2:2:0:0:
43,152,214982,1,0,2:2:0:0:
224,158,215160,2,0,L|235:257,1,80,0|8,2:2|2:2,0:0:0:0:
125,294,215428,1,8,2:2:0:0:
125,294,215517,6,0,L|136:112,1,160,4|0,2:2|2:2,0:0:0:0:
266,82,216052,1,0,2:2:0:0:
387,169,216231,2,0,P|379:219|370:257,2,80,8|0|0,2:2|2:2|2:2,0:0:0:0:
232,264,216766,2,0,L|221:219,1,40,4|4,2:3|2:3,0:0:0:0:
274,339,216944,6,0,L|158:334,1,80,4|0,2:3|2:2,0:0:0:0:
105,263,217301,2,0,L|144:176,1,80,0|0,2:2|2:2,0:0:0:0:
253,157,217658,1,8,2:2:0:0:
358,224,217836,1,0,2:2:0:0:
241,134,218015,1,0,2:2:0:0:
232,264,218193,1,0,2:2:0:0:
232,120,218371,6,0,B|276:90|276:90|313:138|371:128,1,160,4|0,2:3|2:2,0:0:0:0:
350,40,218907,1,0,2:2:0:0:
250,201,219085,2,0,L|158:214,1,80,8|0,2:2|2:2,0:0:0:0:
214,345,219442,1,0,2:2:0:0:
354,302,219620,1,4,2:3:0:0:
354,302,219709,1,4,2:3:0:0:
354,302,219799,5,0,2:2:0:0:
155,260,219977,1,0,2:2:0:0:
373,282,220155,2,0,P|407:252|364:209,1,120,0|0,2:2|2:2,0:0:0:0:
281,249,220512,6,0,P|312:207|287:126,1,140,6|0,2:3|2:2,0:0:0:0:
235,184,221226,5,6,2:3:0:0:
195,297,221583,1,0,2:2:0:0:
388,272,221939,5,8,2:2:0:0:
373,184,222118,1,0,2:2:0:0:
356,102,222296,1,0,2:2:0:0:
195,297,222474,1,0,2:2:0:0:
195,297,222564,1,0,2:2:0:0:
195,297,222653,6,0,L|297:286,1,80,4|4,2:3|2:3,0:0:0:0:
373,184,223010,2,0,P|309:169|276:122,1,120,0|0,2:2|2:2,0:0:0:0:
361,22,223366,2,0,L|354:124,1,80,8|0,2:2|2:2,0:0:0:0:
274,288,223723,1,0,2:2:0:0:
452,191,224080,6,0,L|359:182,1,80,4|0,2:3|2:2,0:0:0:0:
105,88,224437,2,0,L|231:79,1,120,0|0,2:2|2:2,0:0:0:0:
255,165,224794,2,0,L|271:253,1,80,8|0,2:2|2:2,0:0:0:0:
55,244,225150,2,0,L|68:165,1,80,0|0,2:2|2:2,0:0:0:0:
105,88,225418,1,0,2:2:0:0:
105,88,225507,5,4,2:3:0:0:
255,165,225686,1,4,2:3:0:0:
55,244,225864,1,0,2:2:0:0:
64,220,226221,2,0,B|154:214|154:214|138:241,1,120,8|0,2:2|0:0,0:0:0:0:
96,317,226578,1,12,2:2:0:0:
96,317,226756,1,8,2:2:0:0:
128,127,226934,6,0,P|147:99|196:68,1,80,2|0,2:3|2:2,0:0:0:0:
260,194,227291,2,0,L|252:280,1,80,0|0,2:2|2:2,0:0:0:0:
212,72,227648,1,8,2:2:0:0:
358,133,227826,1,0,2:2:0:0:
185,185,228005,1,0,2:2:0:0:
358,133,228183,1,4,2:3:0:0:
358,133,228272,1,4,2:3:0:0:
358,133,228361,6,0,L|373:219,1,80,4|0,2:3|2:2,0:0:0:0:
371,352,228718,2,0,P|277:337|201:329,2,160,0|8|0,2:2|2:2|2:2,0:0:0:0:
377,149,229789,6,0,P|359:87|252:66,1,160,4|0,2:3|2:2,0:0:0:0:
104,154,230324,1,0,2:2:0:0:
249,268,230502,1,12,2:2:0:0:
296,135,230681,1,0,2:2:0:0:
98,239,230859,1,0,2:2:0:0:
335,275,231037,1,4,2:3:0:0:
335,275,231127,1,4,2:3:0:0:
335,275,231216,5,4,2:3:0:0:
397,152,231394,1,0,2:2:0:0:
197,230,231573,1,8,2:2:0:0:
335,275,231751,1,0,2:2:0:0:
150,176,231929,6,0,L|161:325,1,120,8|0,2:3|2:2,0:0:0:0:
220,351,232286,1,12,2:2:0:0:
220,351,232464,1,8,2:2:0:0:
423,246,232643,6,0,L|255:225,1,160,4|0,2:2|2:2,0:0:0:0:
35,62,233356,2,0,L|206:53,1,160,8|0,2:2|2:2,0:0:0:0:
323,119,233892,2,0,L|314:77,1,40,4|4,2:3|2:3,0:0:0:0:
385,178,234070,5,4,2:3:0:0:
385,178,234248,1,0,2:2:0:0:
267,286,234427,2,0,P|233:263|131:218,1,120,0|0,2:2|2:2,0:0:0:0:
73,336,234784,2,0,P|116:322|154:304,1,80,8|0,2:2|2:2,0:0:0:0:
94,160,235140,1,0,2:2:0:0:
19,230,235319,1,0,2:0:0:0:
119,181,235497,6,0,B|119:129|128:84|128:84|154:98,1,120,4|0,2:3|0:0,0:0:0:0:
90,113,235854,2,0,P|43:103|5:87,1,80,0|0,2:2|2:2,0:0:0:0:
245,20,236211,2,0,P|251:72|256:126,1,80,8|0,2:2|2:2,0:0:0:0:
355,65,236568,1,0,2:2:0:0:
124,95,236746,1,4,2:3:0:0:
124,95,236835,1,4,2:3:0:0:
124,95,236924,6,0,L|131:193,1,80,4|0,2:3|2:2,0:0:0:0:
241,238,237281,2,0,P|288:209|363:198,1,120,0|0,2:2|2:2,0:0:0:0:
427,216,237638,2,0,L|438:124,1,80,8|0,2:2|2:2,0:0:0:0:
241,238,237995,1,12,2:2:0:0:
333,185,238173,1,8,2:2:0:0:
241,244,238351,6,0,B|247:310|230:349|230:349|290:314,1,160,2|0,2:3|2:2,0:0:0:0:
302,103,239065,2,0,P|239:93|215:86,1,80,8|0,2:2|2:2,0:0:0:0:
282,12,239422,1,0,2:2:0:0:
366,190,239600,1,4,2:3:0:0:
359,191,239689,1,4,2:3:0:0:
353,194,239779,6,0,L|242:207,1,80,4|0,2:3|2:2,0:0:0:0:
80,287,240135,2,0,L|174:298,1,80,0|0,2:2|2:2,0:0:0:0:
147,56,240492,1,8,2:2:0:0:
115,171,240849,1,0,2:2:0:0:
352,141,241206,6,0,L|183:122,1,160,2|0,2:3|2:2,0:0:0:0:
204,275,241741,1,0,2:2:0:0:
353,335,241919,5,12,2:2:0:0:
288,172,242098,1,0,2:2:0:0:
227,373,242276,1,4,2:3:0:0:
371,248,242454,1,4,2:3:0:0:
371,248,242544,1,4,2:3:0:0:
371,248,242633,5,8,2:2:0:0:
146,221,242811,1,8,2:2:0:0:
218,352,242990,1,0,2:2:0:0:
288,172,243168,1,8,2:3:0:0:
288,172,243257,1,8,2:3:0:0:
288,172,243346,1,10,2:3:0:0:
142,306,243525,1,8,2:2:0:0:
390,323,243703,6,0,P|400:286|417:225,1,90.0000034332277,8|0,2:3|2:2,0:0:0:0:
362,176,244060,5,2,2:2:0:0:
288,172,244417,1,0,2:2:0:0:
240,117,244774,1,2,3:3:0:0:
76,158,245487,5,0,2:2:0:0:
153,178,245844,1,0,2:2:0:0:
214,136,246201,1,2,3:3:0:0:
79,133,246914,5,0,2:2:0:0:
75,228,247271,1,0,2:2:0:0:
153,178,247628,1,2,3:3:0:0:
78,246,247985,1,0,2:2:0:0:
79,109,248341,5,0,2:2:0:0:
153,178,248698,1,0,2:2:0:0:
231,104,249055,1,2,3:3:0:0:
143,190,249412,1,0,2:2:0:0:
223,245,249769,5,2,2:2:0:0:
315,216,250125,1,0,2:2:0:0:
245,152,250482,1,2,3:3:0:0:
143,190,251196,5,0,2:2:0:0:
245,152,251553,1,0,2:2:0:0:
340,115,251909,1,2,3:3:0:0:
341,98,252623,5,0,2:2:0:0:
309,206,252980,1,0,2:2:0:0:
207,283,253336,1,2,3:3:0:0:
309,206,253693,1,0,2:2:0:0:
348,78,254050,1,0,2:2:0:0:
309,206,254407,1,0,2:2:0:0:
341,98,254764,1,2,3:3:0:0:
389,208,255120,1,0,2:2:0:0:
265,262,255477,5,2,2:2:0:0:
210,163,255834,1,0,2:2:0:0:
276,74,256191,1,2,3:3:0:0:
210,163,256548,1,0,2:2:0:0:
95,205,256904,5,0,2:2:0:0:
210,163,257261,1,0,2:2:0:0:
318,221,257618,1,2,3:3:0:0:
425,177,257975,1,0,2:2:0:0:
328,123,258331,5,0,2:2:0:0:
318,221,258688,1,0,2:2:0:0:
383,307,259045,1,2,3:3:0:0:
487,328,259402,1,0,2:2:0:0:
425,177,259759,5,0,2:2:0:0:
383,307,260115,1,0,2:2:0:0:
327,91,260472,1,2,3:3:0:0:
327,91,261186,5,2,2:2:0:0:
208,150,261543,1,0,2:2:0:0:
79,92,261899,1,2,3:3:0:0:
93,297,262613,5,0,2:2:0:0:
212,222,262970,1,0,2:2:0:0:
331,267,263326,1,2,3:3:0:0:
331,267,264040,5,0,2:2:0:0:
317,352,264397,1,0,2:2:0:0:
405,326,264754,1,2,3:3:0:0:
256,192,265110,5,2,2:2:0:0:
