osu file format v14

[General]
AudioFilename: Mushin.mp3
AudioLeadIn: 0
PreviewTime: 196961
Countdown: 0
SampleSet: Soft
StackLeniency: 0.7
Mode: 0
LetterboxInBreaks: 1
WidescreenStoryboard: 0

[Editor]
DistanceSpacing: 1
BeatDivisor: 4
GridSize: 4
TimelineZoom: 1

[Metadata]
Title:Kokoronashi
TitleUnicode:心做し
Artist:Hanatan
ArtistUnicode:花たん
Creator:Selisi
Version:Insane
Source:
Tags:
BeatmapID:451628
BeatmapSetID:189561

[Difficulty]
HPDrainRate:7
CircleSize:4
OverallDifficulty:7
ApproachRate:8.5
SliderMultiplier:1.3
SliderTickRate:1

[Events]
//Background and Video events
0,0,"bg1.jpg",0,0
//Break Periods
2,24485,34671
2,115470,264452
//Storyboard Layer 0 (Background)
//Storyboard Layer 1 (Fail)
//Storyboard Layer 2 (Pass)
//Storyboard Layer 3 (Foreground)
//Storyboard Sound Samples

[TimingPoints]
1450,356.803044719315,4,2,1,50,1,0
47115,-83.3333333333333,4,2,1,50,0,0
80293,-83.3333333333333,4,2,1,50,0,0
80650,-66.6666666666667,4,2,1,50,0,0
81364,-66.6666666666667,4,2,1,50,0,1
92602,-66.6666666666667,4,2,1,50,0,0
92780,-66.6666666666667,4,2,1,50,0,1
104196,-83.3333333333333,4,2,1,50,0,0
141300,-83.3333333333333,4,2,1,50,0,1
146829,-83.3333333333333,4,2,1,50,0,0
147008,-83.3333333333333,4,2,1,50,0,1
152538,-83.3333333333333,4,2,1,50,0,0
152716,-83.3333333333333,4,2,1,50,0,1
174122,-83.3333333333333,4,2,1,50,0,0
198381,-83.3333333333333,4,2,1,50,0,1
209619,-83.3333333333333,4,2,1,50,0,0
209798,-83.3333333333333,4,2,1,50,0,1
221214,-83.3333333333333,4,2,1,50,0,0

[Colours]
Combo1 : 0,0,255
Combo2 : 236,157,151
Combo3 : 128,0,0
Combo4 : 225,0,0
Combo5 : 0,128,255
Combo6 : 9,83,183

[HitObjects]
104,88,1450,53,0,0:0:0:0:
184,180,1806,1,0,0:0:0:0:
56,208,2163,1,0,0:0:0:0:
396,332,2877,1,0,0:0:0:0:
300,244,3234,1,0,0:0:0:0:
428,220,3590,1,0,0:0:0:0:
240,68,4304,2,0,P|284:116|358:127,1,130
476,112,5018,2,0,P|472:176|420:231,1,130
332,308,5731,2,0,P|300:244|236:220,1,130
120,232,6445,2,0,P|97:201|76:167,1,65
68,116,6802,1,0,0:0:0:0:
168,36,7158,1,0,0:0:0:0:
280,104,7515,1,0,0:0:0:0:
396,40,7872,1,0,0:0:0:0:
168,348,8586,1,0,0:0:0:0:
280,280,8942,1,0,0:0:0:0:
396,344,9299,1,0,0:0:0:0:
460,232,9656,2,0,P|470:187|472:152,1,65
468,104,10013,2,0,P|424:59|347:53,1,130
244,112,10726,2,0,P|296:160|364:164,1,130
400,336,11440,2,0,P|451:293|460:217,1,130
416,112,12154,2,0,L|346:78,1,65
300,56,12510,1,0,0:0:0:0:
208,148,12867,1,0,0:0:0:0:
324,208,13224,1,0,0:0:0:0:
208,267,13581,2,0,P|140:275|73:242,1,130
100,52,14294,2,0,P|96:116|43:170,1,130
208,148,15008,2,0,P|272:184|296:235,1,130
344,352,15722,2,0,P|409:323|439:268,1,130
436,212,16257,2,0,P|400:162|408:88,1,130
444,44,16792,2,0,P|390:93|312:96,1,130
212,80,17506,1,0,0:0:0:0:
88,44,17862,2,0,L|63:103,1,65
40,164,18219,1,0,0:0:0:0:
92,284,18576,1,0,0:0:0:0:
208,224,18933,1,0,0:0:0:0:
208,352,19290,1,0,0:0:0:0:
208,224,19646,1,0,0:0:0:0:
300,132,20003,1,0,0:0:0:0:
428,148,20360,1,0,0:0:0:0:
464,272,20717,1,0,0:0:0:0:
208,308,21430,1,0,0:0:0:0:
92,248,21787,1,0,0:0:0:0:
68,120,22144,1,0,0:0:0:0:
160,28,22501,1,0,0:0:0:0:
352,356,23571,1,0,0:0:0:0:
256,192,24285,1,0,0:0:0:0:
208,184,35346,6,0,L|264:148,1,65
416,64,35703,5,0,0:0:0:0:
264,148,36059,1,0,0:0:0:0:
432,188,36416,1,0,1:0:0:0:
388,280,36773,2,0,L|304:308,1,81.25
148,352,37130,69,0,0:0:0:0:
208,184,37487,1,0,0:0:0:0:
28,200,37843,1,0,1:0:0:0:
112,136,38200,1,0,0:0:0:0:
392,48,38557,2,0,P|372:108|304:136,1,130
180,256,39271,1,0,1:0:0:0:
224,156,39627,2,0,L|280:196,1,65,0|0,0:0|0:0,0:0:0:0:
344,264,39984,2,0,P|376:209|363:146,1,130
104,172,40698,2,0,P|190:178|236:144,1,146.25
428,52,41411,2,0,P|336:56|300:84,1,130,0|0,0:0|0:0,0:0:0:0:
260,276,42125,1,0,0:0:0:0:
292,140,42482,1,0,0:0:0:0:
208,172,42660,1,0,0:0:0:0:
144,108,42839,2,0,P|104:108|64:136,1,81.25
48,204,43195,2,0,P|89:253|176:248,1,146.25
364,180,43909,1,0,0:0:0:0:
260,344,44266,2,0,P|244:280|276:220,1,130
364,180,44801,1,0,0:0:0:0:
436,236,44979,1,0,0:0:0:0:
348,264,45158,1,0,0:0:0:0:
452,144,45336,1,0,0:0:0:0:
380,88,45515,1,0,0:0:0:0:
380,88,45604,1,0,0:0:0:0:
380,88,45693,2,0,P|324:96|304:120,1,81.25
256,164,46050,2,0,P|208:196|128:184,1,130
120,36,46763,1,0,0:0:0:0:
180,104,46942,1,0,0:0:0:0:
48,200,47120,5,0,0:0:0:0:
48,200,47477,2,0,P|72:256|104:272,1,77.999997619629
140,340,47834,2,0,P|176:296|216:288,1,77.999997619629
288,280,48191,1,0,0:0:0:0:
376,340,48369,1,0,0:0:0:0:
376,340,48458,1,0,0:0:0:0:
376,340,48548,2,0,P|396:280|384:240,1,77.999997619629
348,184,48904,2,0,P|336:148|360:92,1,77.999997619629
404,40,49261,1,0,0:0:0:0:
188,124,49618,2,0,P|149:132|97:117,1,77.999997619629
284,88,49975,2,0,P|273:159|244:180,1,77.999997619629
191,207,50332,2,0,P|204:244|236:265,1,77.999997619629
288,344,50688,1,0,0:0:0:0:
288,344,50867,2,0,P|316:300|364:280,1,77.999997619629
428,256,51224,1,0,0:0:0:0:
428,256,51313,1,0,0:0:0:0:
428,256,51402,2,0,L|392:169,1,77.999997619629
364,96,51759,1,0,0:0:0:0:
96,68,52116,2,0,P|152:120|160:144,1,77.999997619629
160,212,52472,1,0,0:0:0:0:
80,180,52651,1,0,0:0:0:0:
228,152,52829,1,0,0:0:0:0:
440,224,53186,2,0,P|396:244|360:240,1,77.999997619629
360,336,53543,2,0,P|300:304|280:224,1,155.999995239258
320,140,54078,1,0,0:0:0:0:
320,140,54167,1,0,0:0:0:0:
320,140,54256,2,0,P|362:116|394:114,1,77.999997619629
484,108,54613,1,0,0:0:0:0:
164,32,54970,1,0,0:0:0:0:
80,300,55327,2,0,P|60:264|64:212,1,77.999997619629
108,148,55684,2,0,P|164:128|248:176,1,155.999995239258
264,264,56219,1,0,0:0:0:0:
356,264,56397,2,0,P|420:245|469:166,1,155.999995239258
428,88,56932,1,0,0:0:0:0:
428,88,57022,1,0,0:0:0:0:
428,88,57111,2,0,P|368:96|328:80,1,77.999997619629
264,60,57468,1,0,0:0:0:0:
184,228,57824,1,0,0:0:0:0:
16,68,58181,1,0,0:0:0:0:
72,144,58360,1,0,0:0:0:0:
120,64,58538,2,0,P|168:40|272:68,1,155.999995239258
492,212,59252,2,0,P|444:236|340:208,1,155.999995239258
256,196,59787,1,0,0:0:0:0:
256,196,59876,1,0,0:0:0:0:
256,196,59965,2,0,P|212:220|172:216,1,77.999997619629
92,232,60322,2,0,P|103:280|144:317,1,77.999997619629
196,356,60679,1,0,0:0:0:0:
444,320,61036,2,0,P|424:264|384:240,1,77.999997619629
452,168,61392,2,0,P|384:160|320:236,1,155.999995239258
288,304,61928,1,0,0:0:0:0:
288,304,62106,2,0,P|236:252|240:228,1,77.999997619629
216,164,62463,2,0,P|200:128|140:112,1,77.999997619629
152,104,62730,1,0,0:0:0:0:
136,100,62820,1,0,0:0:0:0:
60,192,62998,1,0,0:0:0:0:
128,328,63176,2,0,P|144:296|128:236,1,77.999997619629
60,192,63533,2,0,P|44:224|60:284,1,77.999997619629
128,328,63890,1,0,0:0:0:0:
232,280,64068,1,0,0:0:0:0:
400,304,64247,2,0,P|432:244|412:152,1,155.999995239258
260,60,64960,2,0,B|220:88|220:88|228:124|216:172|152:192,1,155.999995239258
128,104,65496,1,0,0:0:0:0:
288,208,65674,2,0,P|315:244|315:292,1,77.999997619629,0|0,0:0|0:0,0:0:0:0:
172,328,66031,2,0,P|145:292|145:244,1,77.999997619629,0|0,0:0|0:0,0:0:0:0:
128,104,66388,1,0,0:0:0:0:
256,80,66744,1,0,0:0:0:0:
424,276,67101,2,0,P|384:328|296:344,1,155.999995239258
244,268,67636,1,0,0:0:0:0:
172,328,67815,2,0,P|112:296|88:208,1,155.999995239258
208,128,68350,1,0,0:0:0:0:
208,128,68439,1,0,0:0:0:0:
208,128,68528,2,0,P|210:166|191:199,1,77.999997619629
64,140,68885,2,0,P|61:101|80:68,1,77.999997619629
208,124,69242,2,0,P|284:148|356:120,1,155.999995239258
404,44,69777,1,0,0:0:0:0:
368,212,69956,2,0,P|388:256|420:276,1,77.999997619629
492,316,70312,2,0,P|456:352|412:360,1,77.999997619629
340,336,70669,2,0,P|292:316|244:324,1,77.999997619629
132,344,71026,2,0,P|88:300|96:208,1,155.999995239258
180,172,71561,1,0,0:0:0:0:
192,264,71740,2,0,P|136:256|104:216,1,77.999997619629
108,96,72097,2,0,P|172:70|267:114,1,155.999995239258
288,324,72810,2,0,P|288:272|368:196,1,155.999995239258
448,192,73345,1,0,0:0:0:0:
400,304,73524,2,0,P|336:268|316:176,1,155.999995239258
300,104,74059,1,0,0:0:0:0:
300,104,74148,1,0,0:0:0:0:
300,104,74237,2,0,P|264:116|208:96,1,77.999997619629
132,100,74594,2,0,P|130:136|98:183,1,77.999997619629
72,248,74951,2,0,P|114:285|221:258,1,155.999995239258
264,200,75486,1,0,0:0:0:0:
336,324,75665,1,0,0:0:0:0:
336,324,76021,2,0,P|372:256|448:236,1,155.999995239258
263,200,76735,2,0,P|196:163|173:91,1,155.999995239258
288,88,77270,2,0,L|374:73,1,77.999997619629
264,200,77805,2,0,L|177:214,1,77.999997619629
56,232,78162,1,0,0:0:0:0:
288,328,78876,1,0,0:0:0:0:
156,160,79233,1,0,0:0:0:0:
308,100,79589,1,0,0:0:0:0:
408,208,79946,5,0,0:0:0:0:
212,116,80303,2,0,P|208:56|232:24,1,77.999997619629
308,100,80660,2,0,P|312:160|288:192,1,97.50000371933
80,288,81017,1,0,0:0:0:0:
64,40,81373,2,0,P|64:136|144:200,1,195.00000743866
272,212,81909,1,0,0:0:0:0:
416,240,82087,2,0,P|404:172|308:100,1,195.00000743866
112,140,82622,1,0,0:0:0:0:
272,212,82801,1,0,0:0:0:0:
160,236,82979,1,0,0:0:0:0:
188,56,83157,1,0,0:0:0:0:
468,40,83514,2,0,P|428:88|296:92,1,195.00000743866
188,56,84049,1,0,0:0:0:0:
36,188,84228,2,0,P|28:132|48:80,1,97.50000371933
160,236,84585,2,0,P|112:280|56:280,1,97.50000371933
248,240,84941,2,0,P|296:284|352:284,1,97.50000371933
484,188,85298,2,0,P|452:151|405:139,1,97.50000371933
256,140,85655,1,0,0:0:0:0:
88,320,86012,2,0,P|116:256|88:192,1,97.50000371933
40,80,86369,2,0,P|113:64|140:76,1,97.50000371933
256,140,86725,1,0,0:0:0:0:
336,308,86904,1,0,0:0:0:0:
336,308,86993,1,0,0:0:0:0:
336,308,87082,2,0,P|380:288|408:228,1,97.50000371933
348,80,87439,2,0,B|392:108|392:108|428:156,1,97.50000371933
476,312,87796,2,0,B|432:284|432:284|396:236,1,97.50000371933
256,140,88153,2,0,P|192:132|100:220,1,195.00000743866
136,340,88688,1,0,0:0:0:0:
232,268,88866,2,0,P|208:216|168:192,1,97.50000371933
44,144,89223,2,0,P|80:92|128:76,1,97.50000371933
256,140,89580,1,0,0:0:0:0:
360,24,89758,1,0,0:0:0:0:
432,160,89937,2,0,P|432:224|396:264,1,97.50000371933
216,356,90293,2,0,P|216:292|252:252,1,97.50000371933
356,128,90650,2,0,P|304:68|188:72,1,195.00000743866
88,156,91185,1,0,0:0:0:0:
64,328,91364,1,0,0:0:0:0:
16,236,91542,1,0,0:0:0:0:
172,216,91721,1,0,0:0:0:0:
264,272,91899,1,0,0:0:0:0:
264,272,91988,1,0,0:0:0:0:
264,272,92077,2,0,P|324:296|372:288,1,97.50000371933
344,116,92434,2,0,B|324:164|324:164|332:208,1,97.50000371933
456,344,92791,2,0,B|480:252|480:252|460:168,1,155.999995239258
344,116,93326,1,0,0:0:0:0:
192,168,93505,2,0,P|136:184|44:92,1,195.00000743866
184,12,94040,1,0,0:0:0:0:
344,116,94218,1,0,0:0:0:0:
192,168,94397,1,0,0:0:0:0:
288,24,94575,2,0,P|352:12|392:28,1,97.50000371933
396,200,94932,2,0,P|349:213|302:202,1,97.50000371933
116,248,95289,1,0,0:0:0:0:
192,168,95467,1,0,0:0:0:0:
168,332,95646,2,0,P|112:348|64:328,1,97.50000371933
32,184,96002,2,0,P|80:136|120:132,1,97.50000371933
284,224,96359,2,0,B|308:268|308:268|384:312,1,97.50000371933
504,340,96716,2,0,P|508:260|428:180,1,195.00000743866
348,292,97251,1,0,0:0:0:0:
432,180,97430,2,0,P|448:124|416:72,1,97.50000371933
268,20,97786,2,0,P|251:64|265:110,1,97.50000371933
332,188,98143,1,0,0:0:0:0:
192,320,98322,1,0,0:0:0:0:
192,320,98411,1,0,0:0:0:0:
192,320,98500,2,0,P|236:296|268:240,1,97.50000371933
320,100,98857,2,0,P|276:124|244:180,1,97.50000371933
192,320,99214,2,0,P|184:252|136:216,1,97.50000371933
40,140,99570,2,0,P|80:80|196:56,1,195.00000743866
332,192,100106,1,0,0:0:0:0:
192,320,100284,1,0,0:0:0:0:
404,48,100641,2,0,P|420:97|388:168,1,97.50000371933
176,228,100998,2,0,P|216:172|280:160,1,97.50000371933
452,292,101354,2,0,P|392:300|344:276,1,97.50000371933
240,160,101711,2,0,P|188:140|116:172,1,97.50000371933
52,272,102068,1,0,0:0:0:0:
176,228,102246,1,0,0:0:0:0:
64,76,102425,2,0,P|56:144|76:192,1,97.50000371933
176,324,102782,2,0,P|185:276|175:229,1,97.50000371933
64,76,103138,1,0,0:0:0:0:
240,160,103317,1,0,0:0:0:0:
240,160,103406,1,0,0:0:0:0:
240,160,103495,2,0,P|312:164|356:136,1,97.50000371933
424,100,103852,1,0,0:0:0:0:
440,252,104209,37,0,0:0:0:0:
200,312,104566,1,0,0:0:0:0:
96,244,104744,1,0,0:0:0:0:
440,132,105636,5,0,0:0:0:0:
200,72,105993,1,0,0:0:0:0:
96,140,106171,1,0,0:0:0:0:
376,332,107063,1,0,0:0:0:0:
324,88,107420,1,0,0:0:0:0:
440,132,107598,1,0,0:0:0:0:
204,292,108490,1,0,0:0:0:0:
136,52,108847,1,0,0:0:0:0:
68,308,109204,1,0,0:0:0:0:
132,200,109382,1,0,0:0:0:0:
256,184,109561,1,0,0:0:0:0:
464,324,109918,1,0,0:0:0:0:
476,80,110274,1,0,0:0:0:0:
352,100,110453,1,0,0:0:0:0:
48,324,111345,1,0,0:0:0:0:
160,100,111702,1,0,0:0:0:0:
36,80,111880,1,0,0:0:0:0:
48,324,112772,1,0,0:0:0:0:
160,100,113129,1,0,0:0:0:0:
280,64,113307,1,0,0:0:0:0:
436,324,114199,1,0,0:0:0:0:
96,236,114556,1,0,0:0:0:0:
212,196,114734,1,0,0:0:0:0:
212,196,114824,1,0,0:0:0:0:
212,196,114913,1,0,0:0:0:0:
184,320,115091,1,0,0:0:0:0:
304,284,115270,1,0,0:0:0:0:
204,204,265127,5,0,0:0:0:0:
