osu file format v14

[General]
AudioFilename: Mushin.mp3
AudioLeadIn: 0
PreviewTime: 196978
Countdown: 0
SampleSet: Soft
StackLeniency: 0.7
Mode: 0
LetterboxInBreaks: 0
WidescreenStoryboard: 0

[Editor]
Bookmarks: 47120
DistanceSpacing: 1.8
BeatDivisor: 4
GridSize: 4
TimelineZoom: 1.5

[Metadata]
Title:Kokoronashi
TitleUnicode:心做し
Artist:Hanatan
ArtistUnicode:花たん
Creator:Lavender
Version:Heartbreak
Source:
Tags:蝶々P papiyon vocaloid megpoid gumi
BeatmapID:965016
BeatmapSetID:449760

[Difficulty]
HPDrainRate:6
CircleSize:4
OverallDifficulty:8
ApproachRate:9
SliderMultiplier:1.7
SliderTickRate:1

[Events]
//Background and Video events
0,0,"bg1.jpg",0,0
//Break Periods
2,78358,79877
2,104405,114130
2,175765,196909
//Storyboard Layer 0 (Background)
//Storyboard Layer 1 (Fail)
//Storyboard Layer 2 (Pass)
//Storyboard Layer 3 (Foreground)
//Storyboard Sound Samples
Sample,62102,0,"soft-hitclap.wav",50

[TimingPoints]
1446,356.803044719315,4,2,1,30,1,0
1446,-200,4,2,1,30,0,0
5906,-200,4,2,1,10,0,0
6084,-200,4,2,1,30,0,0
11614,-200,4,2,1,10,0,0
11793,-200,4,2,1,30,0,0
23567,-500,4,2,1,50,0,0
23924,-500,4,2,1,10,0,0
24102,-500,4,2,1,50,0,0
24281,-100,4,2,1,50,0,0
81369,-100,4,2,1,80,0,1
103848,-100,4,2,1,20,0,1
104205,-100,4,2,1,50,0,0
137744,-200,4,2,1,50,0,0
138101,-200,4,2,1,10,0,0
138279,-200,4,2,1,50,0,0
138369,-200,4,2,1,40,0,0
138458,-200,4,2,1,30,0,0
140599,-100,4,2,1,70,0,0
140955,-100,4,2,1,10,0,0
141134,-100,4,2,1,70,0,0
163256,-100,4,2,1,60,0,0
164148,-100,4,2,1,50,0,0
198044,-100,4,2,1,10,0,0
198222,-100,4,2,1,50,0,0
198401,-100,4,2,1,80,0,1
220523,-133.333333333333,4,2,1,80,0,1
220879,-133.333333333333,4,2,1,10,0,1
221058,-133.333333333333,4,2,1,80,0,1
221236,-100,4,2,1,50,0,0
244072,-200,4,2,1,30,0,0
248532,-200,4,2,1,10,0,0
248710,-200,4,2,1,30,0,0
254240,-200,4,2,1,10,0,0
254419,-200,4,2,1,30,0,0

[Colours]
Combo1 : 115,115,255
Combo2 : 249,166,201
Combo3 : 191,85,232
Combo4 : 245,185,103
Combo5 : 113,184,255
Combo6 : 255,255,128

[HitObjects]
46,267,1446,5,0,0:0:0:0:
96,150,1802,1,0,0:0:0:0:
118,227,2159,2,0,L|169:231,1,42.5
228,268,2516,2,0,P|269:273|309:260,1,85
363,143,3230,1,0,0:0:0:0:
456,229,3586,1,0,0:0:0:0:
363,143,3943,6,0,L|354:96,1,42.5
296,50,4300,2,0,P|256:66|214:65,1,85
96,103,4835,2,0,P|137:109|170:135,1,85
264,267,5549,2,0,P|241:208|253:146,1,127.5
253,146,6441,2,0,L|248:103,2,42.5
153,261,7154,5,0,0:0:0:0:
213,310,7511,2,0,L|297:300,2,85
153,261,8582,1,0,0:0:0:0:
153,123,8938,1,0,0:0:0:0:
84,192,9295,1,0,0:0:0:0:
222,192,9652,2,0,L|264:192,1,42.5
298,209,10009,6,0,P|334:229|376:227,1,85
353,148,10544,2,0,P|394:147|430:124,1,85,0|0,0:0|0:0,2:0:0:0:
237,21,11258,2,0,P|209:77|225:137,1,127.5
225,137,12150,2,0,L|219:179,2,42.5
299,86,12863,5,0,0:0:0:0:
373,35,13220,1,0,0:0:0:0:
394,302,13577,1,0,0:0:0:0:
387,213,13934,1,0,0:0:0:0:
306,175,14290,1,0,0:0:0:0:
380,124,14647,1,0,0:0:0:0:
232,226,15004,1,0,0:0:0:0:
313,264,15361,1,0,0:0:0:0:
150,225,15718,6,0,P|190:236|231:225,1,85
228,86,16253,2,0,P|186:75|146:87,1,85
191,156,16788,2,0,L|285:155,1,85
408,77,17502,1,0,0:0:0:0:
408,77,17858,2,0,L|454:73,2,42.5
410,230,18572,5,0,0:0:0:0:
410,229,18929,2,0,P|369:240|328:229,1,85
203,320,19642,2,0,P|214:279|244:249,1,85
228,99,20356,2,0,P|257:129|268:169,1,85
56,134,21426,5,0,0:0:0:0:
37,286,21783,1,0,0:0:0:0:
178,226,22140,1,0,0:0:0:0:
90,212,22497,5,0,0:0:0:0:
391,72,23567,6,0,P|390:97|393:122,1,51
405,148,24281,6,0,P|321:156|236:154,1,170,6|0,0:0|0:0,0:0:0:0:
16,211,24995,2,0,P|85:254|165:233,1,170,8|0,0:0|0:0,0:0:0:0:
317,70,25530,1,2,0:0:0:0:
317,70,25619,1,2,0:0:0:0:
317,70,25708,2,0,P|359:71|401:65,1,85,2|8,0:0|0:0,0:0:0:0:
194,70,26065,2,0,P|152:71|110:65,1,85,2|0,0:0|0:0,0:0:0:0:
255,185,26422,2,0,B|282:265|226:279|252:351,1,170,8|0,0:0|0:0,0:0:0:0:
22,159,27135,6,0,P|103:173|166:120,1,170,2|2,0:0|0:0,0:0:0:0:
410,192,27849,1,8,0:0:0:0:
410,192,28206,2,0,L|307:202,1,85,0|2,0:0|0:0,0:0:0:0:
284,184,28473,1,2,0:0:0:0:
284,184,28563,1,2,0:0:0:0:
348,96,28741,1,8,0:0:0:0:
377,293,28919,1,2,0:0:0:0:
45,270,29276,2,0,P|87:270|127:257,1,85,8|0,0:0|0:0,0:0:0:0:
215,321,29633,1,2,0:0:0:0:
263,169,29811,1,8,0:0:0:0:
426,135,29990,6,0,B|353:134|332:184|261:168,1,170,2|0,0:0|0:0,0:0:0:0:
391,324,30703,2,0,L|402:239,1,85,8|0,0:0|0:0,0:0:0:0:
287,74,31060,1,0,0:0:0:0:
184,106,31239,1,2,0:0:0:0:
184,106,31328,1,2,0:0:0:0:
184,105,31417,2,0,P|141:109|99:109,1,85,2|8,0:0|0:0,0:0:0:0:
99,274,31774,2,0,P|141:274|184:278,1,85,2|0,0:0|0:0,0:0:0:0:
256,192,32131,2,0,P|340:195|425:191,1,170,8|0,0:0|0:0,0:0:0:0:
182,254,32844,6,0,P|115:215|21:259,1,170,2|2,0:0|0:0,0:0:0:0:
103,312,33379,1,2,0:0:0:0:
115,122,33558,1,8,0:0:0:0:
32,244,33736,1,0,0:0:0:0:
181,254,33915,2,0,P|224:251|266:247,1,85,0|2,0:0|0:0,0:0:0:0:
299,232,34182,1,2,0:0:0:0:
299,232,34271,1,2,0:0:0:0:
480,254,34450,1,8,0:0:0:0:
384,295,34628,2,0,P|388:252|392:210,1,85,2|0,0:0|0:0,0:0:0:0:
464,80,34985,2,0,P|411:113|348:110,1,127.5,8|0,0:0|0:0,0:0:0:0:
319,93,35342,1,8,0:0:0:0:
402,2,35520,1,8,0:0:0:0:
246,36,35699,6,0,P|165:59|81:53,1,170,6|0,0:0|0:0,0:0:0:0:
153,270,36412,2,0,P|234:246|318:252,1,170,8|0,0:0|0:0,0:0:0:0:
451,130,36947,1,2,0:0:0:0:
451,130,37037,1,2,0:0:0:0:
451,129,37126,2,0,P|452:172|458:214,1,85,2|8,0:0|0:0,0:0:0:0:
346,92,37483,2,0,P|344:49|338:7,1,85,2|0,0:0|0:0,0:0:0:0:
197,211,37839,2,0,P|124:179|134:100,1,170,8|2,0:0|0:0,0:0:0:0:
285,168,38375,1,0,0:0:0:0:
226,305,38553,6,0,P|141:312|56:315,1,170,2|2,0:0|0:0,0:0:0:0:
285,168,39267,2,0,P|370:175|454:178,1,170,8|0,0:0|0:0,0:0:0:0:
398,80,39802,1,2,0:0:0:0:
398,80,39891,1,2,0:0:0:0:
398,80,39980,1,2,0:0:0:0:
311,203,40159,1,8,0:0:0:0:
218,70,40337,2,0,P|176:78|133:81,1,85,2|0,0:0|0:0,0:0:0:0:
109,255,40694,2,0,P|193:246|278:243,1,170,8|2,0:0|0:0,0:0:0:0:
188,163,41229,1,8,0:0:0:0:
334,321,41407,6,0,P|372:247|339:171,1,170,2|0,0:0|0:0,0:0:0:0:
77,141,42121,2,0,P|119:140|161:135,1,85,8|0,0:0|0:0,0:0:0:0:
243,52,42478,1,0,0:0:0:0:
339,171,42656,1,2,0:0:0:0:
339,171,42745,1,2,0:0:0:0:
339,171,42835,2,0,P|381:170|423:165,1,85,2|8,0:0|0:0,0:0:0:0:
288,261,43191,2,0,P|245:260|203:255,1,85,2|0,0:0|0:0,0:0:0:0:
413,378,43548,2,0,B|400:252|400:252|378:289,1,170,8|2,0:0|0:0,0:0:0:0:
505,320,44083,1,0,0:0:0:0:
310,356,44262,6,0,P|225:355|141:342,1,170,2|2,0:0|0:0,0:0:0:0:
19,207,44797,1,2,0:0:0:0:
194,244,44975,1,8,0:0:0:0:
31,317,45154,1,0,0:3:0:0:
121,162,45332,2,0,L|126:78,1,85,0|2,0:0|0:0,0:0:0:0:
144,46,45600,1,2,0:0:0:0:
144,46,45689,1,2,0:0:0:0:
254,128,45867,1,8,0:0:0:0:
193,244,46046,2,0,P|152:250|109:253,1,85,2|0,0:0|0:0,0:0:0:0:
393,340,46403,2,0,P|405:277|391:216,1,127.5,8|0,0:0|0:0,0:0:0:0:
360,190,46759,1,8,0:0:0:0:
489,262,46938,1,8,0:0:0:0:
297,343,47116,6,0,P|212:334|127:329,1,170,6|0,0:0|0:0,0:0:0:0:
359,190,47830,2,0,P|317:188|275:184,1,85,8|0,0:0|0:0,0:0:0:0:
117,123,48187,2,0,P|159:121|201:117,1,85,0|2,0:0|0:0,0:0:0:0:
238,91,48454,1,2,0:0:0:0:
238,91,48544,1,2,0:0:0:0:
175,228,48722,1,8,0:0:0:0:
277,267,48900,2,0,P|283:224|274:183,1,85,2|0,0:0|0:0,0:0:0:0:
201,326,49257,2,0,P|284:304|368:305,1,170,8|2,0:0|0:0,0:0:0:0:
437,222,49792,1,0,0:0:0:0:
462,116,49971,6,0,B|389:115|368:165|298:149,1,170,2|2,0:0|0:0,0:0:0:0:
325,56,50506,1,0,0:0:0:0:
207,45,50684,2,0,P|205:87|192:127,1,85,8|0,0:0|0:0,0:0:0:0:
40,231,51041,2,0,P|77:212|119:203,1,85,0|2,0:0|0:0,0:0:0:0:
119,203,51309,1,2,0:0:0:0:
119,203,51398,1,2,0:0:0:0:
90,103,51576,1,8,0:0:0:0:
222,228,51755,2,0,L|306:222,1,85,2|0,0:0|0:0,0:0:0:0:
362,75,52112,1,8,0:0:0:0:
362,75,52290,1,0,0:0:0:0:
482,184,52468,2,0,L|397:173,1,85,2|8,0:0|0:0,0:0:0:0:
222,228,52825,6,0,P|179:227|137:220,1,85,2|0,0:0|0:0,0:0:0:0:
192,129,53182,1,0,0:0:0:0:
192,129,53360,1,0,0:0:0:0:
319,277,53539,2,0,P|362:276|404:269,1,85,8|0,0:0|0:0,0:0:0:0:
349,178,53896,1,0,0:0:0:0:
226,337,54074,1,2,0:0:0:0:
226,337,54163,1,2,0:0:0:0:
226,336,54252,2,0,P|183:340|141:340,1,85,2|8,0:0|0:0,0:0:0:0:
42,197,54609,1,2,0:0:0:0:
42,197,54966,2,0,P|126:187|211:184,1,170,8|2,0:0|0:0,0:0:0:0:
300,73,55501,1,0,0:0:0:0:
144,115,55680,6,0,P|117:192|157:264,1,170,2|2,0:0|0:0,0:0:0:0:
295,171,56215,1,2,0:0:0:0:
289,339,56393,2,0,L|204:349,1,85,8|0,0:0|0:0,0:0:0:0:
73,275,56750,2,0,L|157:264,1,85,0|2,0:0|0:0,0:0:0:0:
192,235,57018,1,2,0:0:0:0:
192,235,57107,1,2,0:0:0:0:
289,339,57285,1,8,0:0:0:0:
379,181,57464,2,0,P|420:178|462:174,1,85,2|0,0:0|0:0,0:0:0:0:
420,275,57820,1,8,0:0:0:0:
379,181,57999,1,0,0:0:0:0:
338,85,58177,2,0,P|295:82|253:82,1,85,8|8,0:0|0:0,0:0:0:0:
109,109,58534,6,0,P|187:132|252:83,1,170,6|0,0:0|0:0,0:0:0:0:
446,263,59248,1,8,0:0:0:0:
152,306,59604,2,0,P|151:263|147:221,1,85,0|2,0:0|0:0,0:0:0:0:
117,193,59872,1,2,0:0:0:0:
117,193,59961,2,0,L|108:106,1,85,2|8,0:0|0:0,0:0:0:0:
173,40,60318,1,2,0:0:0:0:
53,273,60675,1,8,0:0:0:0:
341,268,61032,1,2,0:0:0:0:
252,81,61388,6,0,P|335:91|408:52,1,170,2|2,0:0|0:0,0:0:0:0:
498,241,61924,2,0,P|414:230|341:269,1,170
232,205,62459,1,0,0:0:0:0:
319,116,62637,1,2,0:0:0:0:
319,116,62726,1,2,0:0:0:0:
319,116,62816,2,0,L|407:102,1,85,2|8,0:0|0:0,0:0:0:0:
197,89,63172,1,2,0:0:0:0:
264,293,63529,2,0,B|261:169|261:169|231:204,1,170,8|2,0:0|0:0,0:0:0:0:
359,234,64064,1,8,0:0:0:0:
162,298,64243,6,0,P|116:230|128:147,1,170,2|0,0:0|0:0,0:0:0:0:
366,64,64956,2,0,P|363:148|358:233,1,170,8|0,0:0|0:0,0:0:0:0:
464,153,65492,1,2,0:0:0:0:
464,153,65581,1,2,0:0:0:0:
463,153,65670,2,0,P|465:110|466:68,2,85,2|8|2,0:0|0:0|0:0,0:0:0:0:
371,341,66384,2,0,B|298:342|277:292|206:308,1,170,8|2,0:0|0:0,0:0:0:0:
132,70,67097,6,0,P|136:112|133:154,1,85,2|0,0:0|0:0,0:0:0:0:
115,251,67454,1,2,0:0:0:0:
115,251,67632,1,2,0:0:0:0:
243,139,67811,2,0,P|314:97|397:109,1,170,8|0,0:0|0:0,0:0:0:0:
342,285,68346,1,2,0:0:0:0:
342,285,68435,1,2,0:0:0:0:
342,285,68524,2,0,L|333:186,1,85,2|8,0:0|0:0,0:0:0:0:
484,165,68881,1,2,0:0:0:0:
234,320,69238,2,0,P|150:314|66:325,1,170,8|8,0:0|0:0,0:0:0:0:
3,207,69773,1,8,0:0:0:0:
78,60,69952,6,0,B|62:129|112:150|111:223,1,170,6|0,0:0|0:0,0:0:0:0:
183,86,70487,1,0,0:0:0:0:
183,86,70665,2,0,L|266:72,1,85,8|0,0:0|0:0,0:0:0:0:
369,157,71022,2,0,L|285:170,1,85
194,242,71379,1,2,0:0:0:0:
267,73,71557,1,8,0:0:0:0:
368,156,71736,2,0,P|377:198|371:240,1,85,2|0,0:0|0:0,0:0:0:0:
196,325,72093,2,0,P|187:283|193:241,1,85,8|0,0:0|0:0,0:0:0:0:
387,350,72449,2,0,L|297:341,1,85
78,355,72806,6,0,P|85:270|78:185,1,170,2|2,0:0|0:0,0:0:0:0:
330,90,73520,2,0,B|199:120|199:120|220:91,1,170,8|0,0:0|0:0,0:0:0:0:
440,120,74055,1,2,0:0:0:0:
440,120,74144,1,2,0:0:0:0:
440,120,74233,2,0,P|441:162|437:204,1,85,2|8,0:0|0:0,0:0:0:0:
368,288,74590,1,2,0:0:0:0:
118,241,74947,2,0,P|186:287|265:263,1,170,8|2,0:0|0:0,0:0:0:0:
334,186,75482,1,8,0:0:0:0:
199,195,75661,6,0,P|208:279|215:364,1,170,2|0,0:0|0:0,0:0:0:0:
453,35,76374,2,0,P|443:119|436:204,1,170,8|0,0:0|0:0,0:0:0:0:
342,123,76909,1,0,0:0:0:0:
341,123,77088,2,0,P|300:132|258:137,2,85,2|8|2,0:0|0:0|0:0,0:0:0:0:
80,112,77801,2,0,P|79:69|82:27,1,85,8|0,0:0|0:0,0:0:0:0:
161,190,78158,1,2,0:0:0:0:
323,209,80477,5,2,0:0:0:0:
323,209,80567,1,2,0:0:0:0:
323,209,80656,2,0,P|407:196|491:190,1,170,8|0,0:0|0:0,0:0:0:0:
395,99,81191,1,0,0:0:0:0:
306,239,81369,6,0,P|222:226|138:220,1,170,6|0,0:0|0:0,0:0:0:0:
477,273,82083,2,0,P|482:230|491:189,1,85,8|0,0:0|0:0,0:0:0:0:
365,29,82440,1,0,0:0:0:0:
512,101,82618,1,2,0:0:0:0:
512,101,82707,1,2,0:0:0:0:
511,101,82797,6,0,L|426:108,1,85,2|8,0:0|0:0,0:0:0:0:
153,146,83153,2,0,P|215:150|269:117,1,127.5,2|0,0:0|0:0,0:0:0:0:
292,93,83510,2,0,P|286:135|285:177,1,85,8|0,0:0|0:0,0:0:0:0:
451,284,83867,2,0,P|456:241|457:199,1,85,2|0,0:0|0:0,0:0:0:0:
353,333,84224,6,0,P|294:309|231:318,1,127.5,2|0,0:0|0:0,0:0:0:0:
201,304,84581,1,2,0:0:0:0:
301,224,84759,1,2,0:0:0:0:
352,333,84937,2,0,P|394:325|437:323,1,85,8|0,0:0|0:0,0:0:0:0:
469,136,85294,2,0,P|427:143|384:145,1,85,2|2,0:0|0:0,0:0:0:0:
385,146,85562,1,2,0:0:0:0:
385,146,85651,5,2,0:0:0:0:
306,41,85829,1,8,0:0:0:0:
301,224,86008,2,0,L|298:308,1,85,2|0,0:0|0:0,0:0:0:0:
379,282,86365,1,8,0:0:0:0:
221,166,86543,1,2,0:0:0:0:
385,146,86721,1,8,0:0:0:0:
201,312,86900,1,8,0:0:0:0:
201,312,86989,1,8,0:0:0:0:
201,312,87078,6,0,P|159:313|117:321,1,85,6|0,0:0|0:0,0:0:0:0:
28,244,87435,1,0,0:0:0:0:
28,244,87613,1,0,0:0:0:0:
191,146,87792,1,8,0:0:0:0:
117,322,87970,1,0,0:0:0:0:
73,136,88149,1,2,0:0:0:0:
218,260,88327,1,2,0:0:0:0:
218,260,88416,1,2,0:0:0:0:
218,260,88505,6,0,L|302:254,1,85,2|8,0:0|0:0,0:0:0:0:
476,175,88862,2,0,L|391:169,1,85,2|0,0:0|0:0,0:0:0:0:
273,135,89219,1,8,0:0:0:0:
420,288,89397,1,0,0:0:0:0:
505,47,89576,2,0,L|420:53,1,85,2|0,0:0|0:0,0:0:0:0:
273,135,89933,6,0,L|188:128,1,85,2|0,0:0|0:0,0:0:0:0:
120,48,90289,1,2,0:0:0:0:
120,48,90468,1,2,0:0:0:0:
14,212,90646,2,0,P|96:200|171:237,1,170,8|0,0:0|0:0,0:0:0:0:
260,318,91181,1,2,0:0:0:0:
260,318,91271,1,2,0:0:0:0:
260,318,91360,6,0,L|343:302,1,85,2|8,0:0|0:0,0:0:0:0:
403,201,91717,1,2,0:0:0:0:
512,237,91895,1,8,0:3:0:0:
512,237,91984,1,8,0:3:0:0:
512,237,92073,1,8,0:3:0:0:
463,100,92252,1,8,0:3:0:0:
451,337,92430,2,0,P|410:331|367:328,1,85,4|0,0:3|0:0,0:0:0:0:
104,306,92787,6,0,P|188:299|271:281,1,170,6|0,0:0|0:0,0:0:0:0:
391,59,93501,2,0,P|385:101|384:143,1,85,8|0,0:0|0:0,0:0:0:0:
482,101,93857,1,2,0:0:0:0:
292,100,94036,1,2,0:0:0:0:
292,100,94125,1,2,0:0:0:0:
292,100,94214,6,0,L|207:100,1,85,2|8,0:0|0:0,0:0:0:0:
340,223,94571,2,0,P|380:234|421:227,1,85,2|0,0:0|0:0,0:0:0:0:
320,372,94928,2,8,P|310:331|283:298,1,85,8|0,0:0|0:0,0:0:0:0:
469,311,95285,2,0,P|438:340|423:379,1,85,2|0,0:0|0:0,0:0:0:0:
225,373,95642,6,0,L|140:363,1,85,2|0,0:0|0:0,0:0:0:0:
56,267,95998,1,2,0:0:0:0:
245,187,96177,1,2,0:0:0:0:
245,346,96355,1,8,0:0:0:0:
166,155,96534,1,0,0:0:0:0:
278,267,96712,2,0,P|320:264|362:263,1,85,2|2,0:0|0:0,0:0:0:0:
391,249,96980,1,2,0:0:0:0:
390,249,97069,6,0,P|404:208|402:166,1,85,2|8,0:0|0:0,0:0:0:0:
338,83,97426,1,2,0:0:0:0:
338,83,97604,1,0,0:0:0:0:
506,153,97782,1,8,0:0:0:0:
362,262,97961,1,2,0:0:0:0:
441,69,98139,1,8,0:0:0:0:
298,179,98318,1,8,0:0:0:0:
298,179,98407,1,8,0:0:0:0:
298,178,98496,6,0,P|255:181|213:179,1,85,6|0,0:0|0:0,0:0:0:0:
110,105,98853,1,0,0:0:0:0:
110,105,99031,1,0,0:0:0:0:
313,253,99210,1,8,0:0:0:0:
95,230,99388,1,0,0:0:0:0:
227,53,99566,1,2,0:0:0:0:
197,304,99745,1,2,0:0:0:0:
197,304,99834,1,2,0:0:0:0:
197,304,99923,6,0,L|206:219,1,85,6|8,0:0|0:0,0:0:0:0:
328,128,100280,2,0,L|319:212,1,85,2|0,0:0|0:0,0:0:0:0:
106,267,100637,1,8,0:0:0:0:
414,188,100815,1,0,0:0:0:0:
214,19,100994,2,0,P|219:60|215:103,1,85,2|0,0:0|0:0,0:0:0:0:
320,297,101350,6,0,P|315:256|319:213,1,85,6|0,0:0|0:0,0:0:0:0:
376,106,101707,1,2,0:0:0:0:
376,106,101886,1,2,0:0:0:0:
209,204,102064,2,0,P|127:223|50:191,1,170,8|0,0:0|0:0,0:0:0:0:
247,90,102599,1,2,0:0:0:0:
247,90,102688,1,2,0:0:0:0:
247,90,102778,6,0,L|237:174,1,85,2|8,0:0|0:0,0:0:0:0:
359,206,103134,2,0,L|368:290,1,85,2|2,0:0|0:0,0:0:0:0:
399,322,103402,1,2,0:0:0:0:
399,321,103491,2,0,P|314:261|412:226,1,255,8|0,0:0|0:0,0:0:0:0:
466,284,104205,5,0,0:0:0:0:
158,134,114730,5,2,0:0:0:0:
158,134,114820,1,2,0:0:0:0:
158,133,114909,2,0,P|200:129|241:119,1,85,8|8,0:3|0:3,0:0:0:0:
352,160,115266,1,4,0:3:0:0:
145,300,115622,6,0,P|162:217|157:132,1,170,6|2,0:0|0:0,0:0:0:0:
367,84,116158,2,0,P|349:166|354:251,1,170,8|2,0:0|0:0,0:0:0:0:
256,192,116693,1,2,0:0:0:0:
155,373,117050,5,2,0:0:0:0:
57,341,117228,1,2,0:0:0:0:
214,290,117406,1,2,0:0:0:0:
57,239,117585,1,0,0:0:0:0:
155,207,117763,1,8,0:0:0:0:
165,221,118120,2,0,P|164:178|167:136,1,85,2|8,0:0|0:0,0:0:0:0:
97,82,118477,6,0,P|178:104|259:83,1,170,2|2,0:0|0:0,0:0:0:0:
330,180,119012,2,0,P|411:157|492:178,1,170,8|2,0:0|0:0,0:0:0:0:
409,67,119547,1,0,0:0:0:0:
412,255,119726,1,2,0:0:0:0:
412,255,119815,1,2,0:0:0:0:
412,255,119904,2,0,L|413:339,1,85,2|8,0:0|0:0,0:0:0:0:
508,290,120261,1,2,0:0:0:0:
79,251,120618,2,0,P|121:246|163:245,1,85,8|0,0:0|0:0,0:0:0:0:
249,323,120975,1,2,0:0:0:0:
330,180,121153,1,8,0:0:0:0:
329,180,121331,6,0,P|414:174|499:165,1,170,2|2,0:0|0:0,0:0:0:0:
388,255,121867,2,0,P|420:180|386:105,1,170,8|2,0:0|0:0,0:0:0:0:
272,81,122402,1,2,0:0:0:0:
57,341,122759,1,2,0:0:0:0:
155,373,122937,1,2,0:0:0:0:
155,207,123115,1,2,0:0:0:0:
57,239,123294,1,0,0:0:0:0:
214,290,123472,1,8,0:0:0:0:
205,302,123829,2,0,P|247:298|289:297,1,85,2|8,0:0|0:0,0:0:0:0:
331,370,124186,6,0,P|324:288|372:220,1,170,2|2,0:0|0:0,0:0:0:0:
414,68,124721,2,0,P|421:150|373:218,1,170,8|2,0:0|0:0,0:0:0:0:
299,145,125256,1,0,0:0:0:0:
445,295,125435,1,2,0:0:0:0:
445,295,125524,1,2,0:0:0:0:
444,295,125613,2,0,P|487:290|529:292,1,85,2|8,0:0|0:0,0:0:0:0:
299,145,125970,2,0,P|256:149|214:147,1,85,2|0,0:0|0:0,0:0:0:0:
177,124,126237,1,2,0:0:0:0:
177,124,126327,2,0,B|191:186|145:194|158:247,2,127.5,8|8|8,0:0|0:0|0:0,0:0:0:0:
140,101,126951,1,8,0:0:0:0:
140,101,127040,6,0,P|97:96|55:98,1,85,6|0,0:0|0:0,0:0:0:0:
263,241,127397,2,0,L|352:246,1,85,8|0,0:0|0:0,0:0:0:0:
424,323,127754,1,2,0:0:0:0:
504,160,127932,1,2,0:0:0:0:
504,160,128111,2,0,L|419:168,1,85,0|8,0:0|0:0,0:0:0:0:
223,87,128467,2,0,P|181:96|139:100,1,85,2|2,0:0|0:0,0:0:0:0:
124,285,128824,2,0,P|209:265|291:256,1,170,8|0,0:0|0:0,0:0:0:0:
194,180,129359,1,2,0:0:0:0:
194,180,129449,1,2,0:0:0:0:
194,180,129538,1,8,0:0:0:0:
438,359,129895,6,0,P|492:297|484:215,1,170,2|8,0:0|0:0,0:0:0:0:
332,169,130430,2,0,P|277:231|285:313,1,170,2|2,0:0|0:0,0:0:0:0:
384,265,130965,2,0,L|411:185,1,85,2|8,0:0|0:0,0:0:0:0:
446,78,131322,1,2,0:0:0:0:
446,78,131500,1,2,0:0:0:0:
332,169,131679,2,0,P|289:164|247:168,1,85,8|0,0:0|0:0,0:0:0:0:
138,78,132035,1,2,0:0:0:0:
79,183,132214,1,2,0:0:0:0:
76,204,132303,1,2,0:0:0:0:
73,225,132392,1,8,0:0:0:0:
212,244,132571,1,8,0:0:0:0:
219,285,132660,1,8,0:0:0:0:
225,326,132749,6,0,P|309:313|394:310,1,170,2|2,0:0|0:0,0:0:0:0:
500,153,133284,2,0,P|416:165|331:168,1,170,8|2,0:0|0:0,0:0:0:0:
254,82,133819,1,2,0:0:0:0:
57,341,134176,1,2,0:0:0:0:
155,207,134354,1,2,0:0:0:0:
155,373,134532,1,2,0:0:0:0:
57,239,134711,1,0,0:0:0:0:
214,290,134889,1,8,0:0:0:0:
207,305,135247,2,0,P|250:300|292:300,1,85,2|8,0:0|0:0,0:0:0:0:
506,231,135603,6,0,P|425:249|348:217,1,170,2|2,0:0|0:0,0:0:0:0:
282,44,136139,2,0,L|250:211,1,170,8|2,0:0|0:0,0:0:0:0:
171,74,136674,1,0,0:0:0:0:
373,114,136852,1,2,0:0:0:0:
373,114,136941,1,2,0:0:0:0:
372,113,137031,2,0,P|415:116|457:110,1,85,2|8,0:0|0:0,0:0:0:0:
334,214,137387,2,0,P|291:216|249:210,1,85,2|0,0:0|0:0,0:0:0:0:
440,248,137744,6,0,B|430:309|432:345|432:345|412:322,1,127.5,8|2,0:0|0:0,0:0:0:0:
394,318,138369,1,2,0:0:0:0:
373,314,138458,6,0,L|288:323,1,85,6|0,0:0|0:0,0:0:0:0:
303,290,139171,2,0,L|218:299,1,85
233,266,139885,2,0,L|148:275,1,85
40,155,140420,1,2,0:0:0:0:
40,155,140509,1,2,0:0:0:0:
39,154,140599,6,0,P|154:152|148:38,1,255,12|0,0:0|0:0,0:0:0:0:
97,99,141312,6,0,P|182:109|267:114,1,170,6|0,0:0|0:0,0:0:0:0:
323,346,142026,2,0,P|362:274|340:194,1,170,8|0,0:0|0:0,0:0:0:0:
373,91,142561,1,2,0:0:0:0:
373,91,142650,1,2,0:0:0:0:
373,91,142740,1,2,0:0:0:0:
234,217,142918,1,8,0:0:0:0:
193,33,143096,2,0,P|151:35|109:32,1,85,2|0,0:0|0:0,0:0:0:0:
27,157,143453,2,0,P|69:159|111:156,1,85,8|0,0:0|0:0,0:0:0:0:
233,217,143810,2,0,P|244:176|236:135,1,85,2|0,0:0|0:0,0:0:0:0:
160,266,144167,6,0,P|245:253|329:254,1,170,2|2,0:0|0:0,0:0:0:0:
497,145,144702,1,2,0:0:0:0:
431,290,144880,2,0,B|446:220|396:199|397:126,1,170,8|0,0:0|0:0,0:0:0:0:
312,61,145416,1,2,0:0:0:0:
312,61,145505,1,2,0:0:0:0:
312,61,145594,1,2,0:0:0:0:
128,114,145772,1,8,0:0:0:0:
229,133,145951,2,0,L|214:40,1,85,2|0,0:0|0:0,0:0:0:0:
320,198,146308,2,0,L|408:231,1,85,8|2,0:0|0:0,0:0:0:0:
218,244,146664,2,0,L|145:304,1,85,8|8,0:0|0:0,0:0:0:0:
129,322,146932,1,8,0:0:0:0:
129,322,147021,6,0,P|154:244|105:178,1,170,6|0,0:0|0:0,0:0:0:0:
68,259,147556,1,0,0:0:0:0:
231,190,147735,1,8,0:0:0:0:
96,84,147913,1,0,0:0:0:0:
314,256,148092,1,0,0:0:0:0:
325,45,148270,1,2,0:0:0:0:
325,45,148359,1,2,0:0:0:0:
325,45,148448,5,2,0:0:0:0:
192,208,148627,1,8,0:0:0:0:
394,153,148805,1,2,0:0:0:0:
199,79,148984,1,0,0:0:0:0:
314,256,149162,1,8,0:0:0:0:
325,45,149340,5,0,0:0:0:0:
85,137,149519,1,2,0:0:0:0:
394,153,149697,1,0,0:0:0:0:
78,266,149876,5,2,0:0:0:0:
325,45,150054,1,0,0:0:0:0:
365,371,150232,1,2,0:0:0:0:
192,208,150411,5,2,0:0:0:0:
394,153,150589,1,8,0:0:0:0:
314,256,150768,1,0,0:0:0:0:
199,79,150946,1,0,0:0:0:0:
325,45,151124,1,2,0:0:0:0:
325,45,151214,1,2,0:0:0:0:
325,45,151303,5,2,0:0:0:0:
192,208,151481,1,8,0:0:0:0:
314,256,151660,2,0,L|398:242,1,85,2|8,0:0|0:3,0:0:0:0:
398,242,151927,1,8,0:3:0:0:
398,242,152016,5,8,0:3:0:0:
287,148,152195,1,8,0:3:0:0:
183,336,152373,1,4,0:3:0:0:
454,128,152730,6,0,P|371:146|286:147,1,170,6|0,0:0|0:0,0:0:0:0:
169,269,153444,2,0,P|254:270|337:289,1,170,8|0,0:0|0:0,0:0:0:0:
356,68,153979,1,2,0:0:0:0:
356,68,154068,1,2,0:0:0:0:
355,68,154157,2,0,P|397:60|440:56,1,85,2|8,0:0|0:0,0:0:0:0:
275,161,154514,2,0,P|235:174|193:168,1,85,2|0,0:0|0:0,0:0:0:0:
59,274,154871,2,0,P|66:232|93:199,1,85,8|0,0:0|0:0,0:0:0:0:
69,30,155228,2,0,P|100:57|115:96,1,85
169,269,155584,6,0,L|253:262,1,85,2|0,0:0|0:0,0:0:0:0:
356,330,155941,1,2,0:0:0:0:
356,330,156120,1,2,0:0:0:0:
444,152,156298,2,0,P|359:159|275:161,1,170,8|0,0:0|0:0,0:0:0:0:
101,109,156833,1,2,0:0:0:0:
101,109,156922,1,2,0:0:0:0:
101,109,157012,1,2,0:0:0:0:
214,48,157190,1,8,0:0:0:0:
162,222,157368,2,0,P|156:264|155:306,1,85,2|0,0:0|0:0,0:0:0:0:
255,269,157725,1,8,0:0:0:0:
60,260,157904,1,2,0:0:0:0:
255,269,158082,2,0,L|339:272,1,85,8|8,0:0|0:0,0:0:0:0:
374,293,158350,1,8,0:0:0:0:
374,293,158439,5,6,0:0:0:0:
128,114,158796,2,0,P|170:115|212:110,1,85
340,46,159152,1,8,0:0:0:0:
191,206,159331,1,0,0:0:0:0:
233,23,159509,1,0,0:0:0:0:
370,151,159688,1,2,0:0:0:0:
370,151,159777,1,2,0:0:0:0:
369,150,159866,2,0,P|374:193|371:235,1,85,2|8,0:0|0:0,0:0:0:0:
278,384,160223,2,0,P|273:341|276:299,1,85,2|0,0:0|0:0,0:0:0:0:
191,206,160580,2,0,L|275:199,1,85,8|0,0:0|0:0,0:0:0:0:
461,341,160937,2,0,L|376:335,1,85,2|0,0:0|0:0,0:0:0:0:
163,324,161293,5,2,0:0:0:0:
191,206,161472,1,0,0:0:0:0:
76,242,161650,1,2,0:0:0:0:
278,289,161828,1,2,0:0:0:0:
238,99,162007,5,8,0:0:0:0:
191,206,162185,1,0,0:0:0:0:
379,229,162364,1,2,0:0:0:0:
357,114,162542,1,2,0:0:0:0:
357,114,162631,1,2,0:0:0:0:
357,114,162720,5,2,0:0:0:0:
278,289,162899,1,8,0:0:0:0:
238,99,163077,1,2,0:0:0:0:
94,225,163256,1,8,0:0:0:0:
94,225,163345,1,8,0:0:0:0:
94,225,163434,5,8,0:0:0:0:
287,188,163612,1,8,0:0:0:0:
158,38,163791,1,8,0:0:0:0:
278,289,163969,1,8,0:0:0:0:
278,289,164148,6,0,B|349:291|360:238|432:225,1,170,6|0,0:0|0:0,0:0:0:0:
438,323,164683,1,0,0:0:0:0:
287,188,164861,2,0,L|202:200,1,85,8|0,0:0|0:0,0:0:0:0:
126,261,165218,2,0,P|169:191|147:112,1,170,0|2,0:0|0:0,0:0:0:0:
88,34,165753,1,8,0:0:0:0:
255,90,165932,2,0,P|297:90|339:83,1,85,2|0,0:0|0:0,0:0:0:0:
469,211,166289,2,0,P|426:211|384:204,1,85,8|0,0:0|0:0,0:0:0:0:
443,56,166645,1,2,0:0:0:0:
294,264,167002,6,0,P|210:252|125:261,1,170,2|2,0:0|0:0,0:0:0:0:
255,90,167716,2,0,P|338:101|423:92,1,170,8|0,0:0|0:0,0:0:0:0:
332,206,168251,1,2,0:0:0:0:
332,206,168340,1,2,0:0:0:0:
332,206,168429,2,0,P|328:248|326:290,1,85,2|8,0:0|0:0,0:0:0:0:
70,323,168786,2,0,P|73:280|75:238,1,85,2|0,0:0|0:0,0:0:0:0:
228,329,169143,2,0,P|189:346|152:367,1,85,8|0,0:0|0:0,0:0:0:0:
163,187,169500,2,0,P|197:211|233:233,1,85,2|0,0:0|0:0,0:0:0:0:
76,80,169857,6,0,P|160:87|244:77,1,170,2|0,0:0|0:0,0:0:0:0:
365,254,170570,2,0,P|325:181|353:103,1,170,8|0,0:0|0:0,0:0:0:0:
427,173,171105,1,0,0:0:0:0:
263,295,171284,2,0,P|221:290|179:292,2,85,2|8|2,0:0|0:0|0:0,0:0:0:0:
178,135,171997,2,0,P|220:137|263:133,1,85,8|0,0:0|0:0,0:0:0:0:
98,215,172354,1,2,0:0:0:0:
256,192,172443,12,0,174138,0:0:0:0:
346,142,174673,5,2,0:0:0:0:
346,142,174763,1,2,0:0:0:0:
346,142,174852,2,0,L|353:230,1,85,8|8,0:0|0:3,0:0:0:0:
251,119,175209,1,4,0:3:0:0:
441,165,175387,1,4,0:3:0:0:
317,320,175565,5,6,0:0:0:0:
168,158,197509,5,2,0:0:0:0:
168,158,197598,1,2,0:0:0:0:
168,157,197687,2,0,P|68:209|32:103,1,255,8|0,0:0|0:0,0:0:0:0:
95,139,198401,6,0,P|107:222|112:307,1,170,6|0,0:0|0:0,0:0:0:0:
360,30,199114,2,0,P|347:113|342:198,1,170,8|2,0:0|0:0,0:0:0:0:
263,30,199650,1,2,0:0:0:0:
263,30,199739,1,2,0:0:0:0:
263,30,199828,5,2,0:0:0:0:
443,95,200006,1,8,0:0:0:0:
248,130,200185,2,0,P|184:130|120:135,1,127.5,2|0,0:0|0:0,0:0:0:0:
91,120,200542,2,0,P|101:160|91:202,1,85,8|0,0:0|0:0,0:0:0:0:
254,337,200898,2,0,P|243:296|253:254,1,85,2|0,0:0|0:0,0:0:0:0:
422,70,201255,6,0,P|419:133|414:197,1,127.5,2|0,0:0|0:0,0:0:0:0:
396,227,201612,1,2,0:0:0:0:
512,137,201790,1,2,0:0:0:0:
319,84,201969,2,0,P|276:89|234:86,1,85,8|0,0:0|0:0,0:0:0:0:
93,175,202326,2,0,P|135:169|177:172,1,85,2|2,0:0|0:0,0:0:0:0:
212,185,202593,1,2,0:0:0:0:
212,185,202682,5,2,0:0:0:0:
136,77,202861,1,8,0:0:0:0:
139,279,203039,2,0,L|224:279,1,85,2|0,0:0|0:0,0:0:0:0:
412,142,203396,1,8,0:0:0:0:
251,261,203574,1,2,0:0:0:0:
272,121,203753,1,8,0:0:0:0:
432,331,203931,1,8,0:0:0:0:
432,331,204020,1,8,0:0:0:0:
432,331,204110,6,0,P|384:328|344:335,1,85,6|0,0:0|0:0,0:0:0:0:
251,261,204466,1,0,0:0:0:0:
251,261,204645,1,0,0:0:0:0:
361,213,204823,1,8,0:0:0:0:
237,380,205002,1,0,0:0:0:0:
154,189,205180,1,2,0:0:0:0:
140,308,205358,1,2,0:0:0:0:
140,308,205448,1,2,0:0:0:0:
140,308,205537,6,0,P|97:304|55:306,1,85,2|8,0:0|0:0,0:0:0:0:
281,156,205894,2,0,P|323:155|365:147,1,85,2|0,0:0|0:0,0:0:0:0:
402,52,206250,1,8,0:0:0:0:
377,253,206429,1,0,0:0:0:0:
191,64,206607,2,0,P|148:67|106:65,1,85,2|0,0:0|0:0,0:0:0:0:
106,251,206964,6,0,P|148:249|190:252,1,85,2|0,0:0|0:0,0:0:0:0:
150,158,207321,1,2,0:0:0:0:
150,158,207499,1,2,0:0:0:0:
298,273,207678,2,0,P|380:282|453:240,1,170,8|0,0:0|0:0,0:0:0:0:
402,52,208213,1,2,0:0:0:0:
402,52,208302,1,2,0:0:0:0:
402,52,208391,6,0,L|392:136,1,85,2|8,0:0|0:0,0:0:0:0:
496,111,208748,1,2,0:0:0:0:
297,92,208926,1,8,0:3:0:0:
297,92,209015,1,8,0:3:0:0:
297,92,209105,1,8,0:3:0:0:
506,15,209283,1,8,0:3:0:0:
286,187,209462,2,0,P|244:185|202:188,1,85,4|0,0:3|0:0,0:0:0:0:
60,56,209818,6,0,P|141:72|212:28,1,170,6|0,0:0|0:0,0:0:0:0:
279,271,210532,2,0,P|282:228|286:186,1,85,8|0,0:0|0:0,0:0:0:0:
390,232,210889,1,2,0:0:0:0:
179,222,211067,1,2,0:0:0:0:
179,222,211156,1,2,0:0:0:0:
179,222,211246,6,0,P|136:220|94:223,1,85,2|8,0:0|0:0,0:0:0:0:
387,135,211602,2,0,P|429:137|471:134,1,85,2|0,0:0|0:0,0:0:0:0:
411,250,211959,2,0,P|388:285|369:323,1,85,8|0,0:0|0:0,0:0:0:0:
299,214,212316,2,0,P|279:176|256:141,1,85,2|0,0:0|0:0,0:0:0:0:
94,222,212673,6,0,P|136:224|178:221,1,85,2|0,0:0|0:0,0:0:0:0:
140,121,213030,1,2,0:0:0:0:
140,323,213208,1,2,0:0:0:0:
299,214,213387,1,8,0:0:0:0:
94,222,213565,1,0,0:0:0:0:
316,330,213743,2,0,P|329:290|323:249,1,85,2|2,0:0|0:0,0:0:0:0:
299,214,214011,1,2,0:0:0:0:
299,214,214100,6,0,L|286:130,1,85,2|8,0:0|0:0,0:0:0:0:
267,12,214457,1,2,0:0:0:0:
267,12,214635,1,0,0:0:0:0:
378,149,214814,1,8,0:0:0:0:
188,77,214992,1,2,0:0:0:0:
362,48,215171,1,8,0:0:0:0:
204,178,215349,1,8,0:0:0:0:
204,178,215438,1,8,0:0:0:0:
203,178,215527,6,0,P|162:186|120:178,1,85,6|0,0:0|0:0,0:0:0:0:
28,90,215884,1,0,0:0:0:0:
28,90,216063,1,0,0:0:0:0:
143,303,216241,1,8,0:0:0:0:
176,64,216420,1,0,0:0:0:0:
8,238,216598,1,2,0:0:0:0:
246,195,216777,1,2,0:0:0:0:
246,195,216865,1,2,0:0:0:0:
246,195,216955,6,0,L|330:182,1,85,6|8,0:0|0:0,0:0:0:0:
508,255,217311,2,0,P|466:263|425:254,1,85,2|0,0:0|0:0,0:0:0:0:
429,78,217668,1,8,0:0:0:0:
327,359,217847,1,0,0:0:0:0:
161,207,218025,2,0,L|246:195,1,85,2|0,0:0|0:0,0:0:0:0:
425,254,218382,6,0,P|437:295|427:335,1,85,6|0,0:0|0:0,0:0:0:0:
330,182,218739,1,2,0:0:0:0:
330,182,218917,1,2,0:0:0:0:
429,77,219095,2,0,P|365:132|282:129,1,170,8|2,0:0|0:0,0:0:0:0:
100,81,219631,1,2,0:0:0:0:
100,81,219720,1,2,0:0:0:0:
100,81,219809,1,2,0:0:0:0:
218,226,219987,1,8,0:0:0:0:
208,40,220166,1,2,0:0:0:0:
106,196,220344,1,2,0:0:0:0:
106,196,220433,1,2,0:0:0:0:
107,197,220523,6,0,B|147:245|111:314|111:314|144:306|176:309,1,191.250007295609,8|0,0:0|0:0,0:0:0:0:
214,323,221236,6,0,P|294:294|379:286,1,170,6|0,0:0|0:0,0:0:0:0:
441,72,221950,2,0,P|486:141|469:222,1,170,8|0,0:0|0:0,0:0:0:0:
307,175,222485,1,2,0:0:0:0:
307,175,222574,1,2,0:0:0:0:
307,175,222663,2,0,L|390:159,1,85,2|8,0:0|0:0,0:0:0:0:
221,117,223020,1,2,0:0:0:0:
0,195,223377,2,0,P|84:197|168:210,1,170,8|2,0:0|0:0,0:0:0:0:
389,132,224091,6,0,P|305:130|221:117,1,170,2|2,0:0|0:0,0:0:0:0:
72,297,224804,1,8,0:0:0:0:
260,200,225161,2,0,L|253:284,1,85,0|2,0:0|0:0,0:0:0:0:
253,284,225429,1,2,0:0:0:0:
253,284,225518,1,2,0:0:0:0:
168,210,225696,1,8,0:0:0:0:
352,189,225875,2,0,L|358:104,1,85,2|0,0:0|0:0,0:0:0:0:
403,26,226231,2,0,P|338:78|254:75,1,170,8|2,0:0|0:0,0:0:0:0:
161,22,226767,1,8,0:0:0:0:
84,188,226945,6,0,P|168:176|253:179,1,170,2|0,0:0|0:0,0:0:0:0:
453,241,227659,2,0,P|369:234|294:273,1,170,8|0,0:0|0:0,0:0:0:0:
123,379,228194,1,2,0:0:0:0:
123,379,228283,1,2,0:0:0:0:
123,379,228372,2,0,P|115:337|115:294,1,85,2|8,0:0|0:0,0:0:0:0:
294,272,228729,2,0,P|301:313|301:356,1,85,2|0,0:0|0:0,0:0:0:0:
209,327,229086,2,0,P|199:242|189:158,1,170,8|0,0:0|0:0,0:0:0:0:
434,92,229799,6,0,P|349:101|264:96,1,170,2|2,0:0|0:0,0:0:0:0:
347,15,230334,1,2,0:0:0:0:
349,190,230513,1,8,0:0:0:0:
434,92,230691,1,0,0:0:0:0:
258,187,230870,2,0,P|215:191|173:191,1,85,2|2,0:0|0:0,0:0:0:0:
173,191,231137,1,2,0:0:0:0:
173,191,231227,1,2,0:0:0:0:
0,96,231405,1,8,0:0:0:0:
93,84,231583,2,0,P|88:126|81:168,1,85,2|0,0:0|0:0,0:0:0:0:
55,318,231940,2,0,P|135:294|220:294,1,170,8|8,0:0|0:0,0:0:0:0:
410,227,232475,1,8,0:0:0:0:
317,337,232654,6,6,P|322:251|321:168,1,170,6|0,0:0|0:0,0:0:0:0:
108,38,233367,2,0,P|103:124|104:207,1,170,8|0,0:0|0:0,0:0:0:0:
5,156,233903,1,2,0:0:0:0:
5,156,233992,1,2,0:0:0:0:
5,155,234081,2,0,P|7:113|5:71,2,85,2|8|2,0:0|0:0|0:0,0:0:0:0:
256,289,234795,2,0,P|334:258|419:261,1,170,8|2,0:0|0:0,0:0:0:0:
426,79,235508,6,0,P|341:88|256:94,1,170,2|2,0:0|0:0,0:0:0:0:
99,274,236222,2,0,P|141:275|182:265,1,85,8|0,0:0|0:0,0:0:0:0:
256,192,236579,1,0,0:0:0:0:
332,342,236757,1,2,0:0:0:0:
332,342,236846,1,2,0:0:0:0:
332,342,236936,2,0,L|337:257,1,85,2|8,0:0|0:0,0:0:0:0:
418,182,237292,1,2,0:0:0:0:
99,274,237649,2,0,P|56:202|81:124,1,170,8|2,0:0|0:0,0:0:0:0:
213,51,238184,1,8,0:0:0:0:
349,108,238363,6,0,B|276:107|255:157|184:141,1,170,2|0,0:0|0:0,0:0:0:0:
301,380,239076,2,0,L|319:211,1,170,8|0,0:0|0:0,0:0:0:0:
439,50,239612,1,2,0:0:0:0:
439,50,239701,1,2,0:0:0:0:
438,49,239790,2,0,P|453:89|449:131,1,85,2|8,0:0|0:0,0:0:0:0:
416,230,240147,1,2,0:0:0:0:
67,274,240504,2,0,P|149:284|218:238,1,170,8|2,0:0|0:0,0:0:0:0:
485,176,241217,6,0,L|318:210,1,170,2|2,0:0|0:0,0:0:0:0:
209,176,241752,1,2,0:0:0:0:
343,108,241931,1,8,0:0:0:0:
293,312,242109,1,0,0:0:0:0:
133,220,242288,2,0,P|120:180|130:138,1,85,2|2,0:0|0:0,0:0:0:0:
129,139,242555,1,2,0:0:0:0:
129,139,242644,5,2,0:0:0:0:
260,109,242823,1,8,0:0:0:0:
210,260,243001,1,2,0:0:0:0:
187,69,243180,1,2,0:0:0:0:
187,69,243269,1,2,0:0:0:0:
187,69,243358,1,8,0:3:0:0:
262,192,243536,1,8,0:3:0:0:
331,66,243715,1,4,0:3:0:0:
96,234,244072,5,0,0:0:0:0:
46,117,244428,1,0,0:0:0:0:
118,157,244785,2,0,L|169:153,1,42.5
228,116,245142,2,0,P|269:111|309:124,1,85
456,155,245856,1,0,0:0:0:0:
402,38,246212,1,0,0:0:0:0:
363,241,246569,6,0,L|354:288,1,42.5
296,334,246926,2,0,P|256:318|214:319,1,85
296,334,247461,2,0,P|337:328|370:302,1,85
314,131,248175,2,0,P|291:190|303:252,1,127.5
303,252,249067,2,0,L|298:295,2,42.5
153,123,249780,5,0,0:0:0:0:
213,74,250137,2,0,L|297:84,2,85
141,46,251208,1,0,0:0:0:0:
225,151,251564,1,0,0:0:0:0:
92,171,251921,1,0,0:0:0:0:
183,279,252278,2,0,L|225:279,1,42.5
259,262,252635,6,0,P|295:242|337:244,1,85
325,161,253170,2,0,P|366:161|401:183,1,85,0|0,0:0|0:0,2:0:0:0:
413,57,253884,2,0,L|401:183,1,127.5
401,183,254776,2,0,L|440:198,2,42.5
299,298,255489,5,0,0:0:0:0:
373,349,255846,1,0,0:0:0:0:
394,82,256203,1,0,0:0:0:0:
306,209,256560,1,0,0:0:0:0:
387,171,256916,1,0,0:0:0:0:
232,158,257273,1,0,0:0:0:0:
380,260,257630,1,0,0:0:0:0:
313,120,257987,1,0,0:0:0:0:
150,159,258344,6,0,P|190:148|231:159,1,85
98,85,258879,2,0,P|57:97|16:86,1,85
150,159,259414,2,0,L|140:243,1,85
280,336,260128,1,0,0:0:0:0:
280,336,260484,2,0,L|326:340,2,42.5
282,183,261198,5,0,0:0:0:0:
368,132,261555,6,0,L|387:214,1,85
282,183,262269,2,0,L|283:268,1,85
196,132,262982,2,0,L|176:214,1,85
404,91,264052,5,0,0:0:0:0:
282,183,264409,1,0,0:0:0:0:
263,31,264766,1,0,0:0:0:0:
316,105,265123,5,0,0:0:0:0:
