osu file format v14

[General]
AudioFilename: audio.mp3
AudioLeadIn: 0
PreviewTime: 196974
Countdown: 0
SampleSet: None
StackLeniency: 0.2
Mode: 0
LetterboxInBreaks: 0
WidescreenStoryboard: 1

[Editor]
Bookmarks: 35699
DistanceSpacing: 1
BeatDivisor: 4
GridSize: 32
TimelineZoom: 1.7

[Metadata]
Title:Kokoronashi
TitleUnicode:心做し
Artist:Hanatan
ArtistUnicode:花たん
Creator:Lafayla
Version:Insane
Source:
Tags:蝶々P papiyon vocaloid megpoid gumi yurica somehow ataraxia
BeatmapID:1737702
BeatmapSetID:829414

[Difficulty]
HPDrainRate:5.5
CircleSize:4
OverallDifficulty:8
ApproachRate:8.8
SliderMultiplier:1.8
SliderTickRate:1

[Events]
//Background and Video events
0,0,"aaaa uwu.png",0,0
//Break Periods
2,104205,109200
//Storyboard Layer 0 (Background)
//Storyboard Layer 1 (Fail)
//Storyboard Layer 2 (Pass)
//Storyboard Layer 3 (Foreground)
//Storyboard Sound Samples

[TimingPoints]
1446,356.803044719315,4,3,1,20,1,0
23567,-500,4,2,1,50,0,0
23746,-500,4,2,1,5,0,0
24281,-117.647058823529,4,2,2,60,0,0
47116,-133.333333333333,4,2,2,60,0,0
58534,-133.333333333333,4,2,2,60,0,0
69952,-133.333333333333,4,2,2,60,0,0
80477,-100,4,2,2,60,0,0
81369,-100,4,2,2,75,0,1
103491,-133.333333333333,4,2,2,75,0,1
103848,-100,4,2,2,60,0,1
104205,-133.333333333333,4,2,2,40,0,0
104383,-133.333333333333,4,2,2,60,0,0
127040,-117.647058823529,4,2,2,60,0,0
141312,-105.263157894737,4,2,2,75,0,0
164148,-133.333333333333,4,2,2,60,0,0
196974,-100,4,2,2,60,0,0
198222,-100,4,2,2,60,0,0
198401,-100,4,2,2,75,0,1
220523,-133.333333333333,4,2,2,75,0,1
220879,-100,4,2,2,60,0,1
221236,-117.647058823529,4,2,2,60,0,0
244072,-117.647058823529,4,3,1,20,0,0
259771,-100,4,3,1,30,0,0

[Colours]
Combo1 : 230,208,240
Combo2 : 217,239,209
Combo3 : 243,205,206
Combo4 : 193,221,255

[HitObjects]
371,113,1446,5,0,3:0:0:0:
356,108,1803,1,0,3:0:0:0:
340,107,2159,1,2,3:2:0:0:
148,149,2873,5,0,3:0:0:0:
163,154,3230,1,0,3:0:0:0:
179,155,3586,1,2,3:2:0:0:
371,271,4300,5,0,3:0:0:0:
356,276,4657,1,0,3:0:0:0:
340,277,5013,1,2,3:2:0:0:
324,273,5370,1,2,3:2:0:0:
379,182,5727,5,0,3:0:0:0:
363,178,6084,1,0,3:0:0:0:
347,179,6440,1,2,3:2:0:0:
332,184,6797,1,0,3:0:0:0:
241,129,7154,5,2,3:2:0:0:
236,144,7511,1,0,3:0:0:0:
235,160,7867,1,2,3:2:0:0:
277,352,8582,5,2,0:2:0:0:
282,337,8939,1,0,0:0:0:0:
283,320,9295,1,2,0:2:0:0:
283,321,10009,5,2,0:2:0:0:
283,321,10722,5,0,0:0:0:0:
270,311,11079,1,0,0:0:0:0:
197,225,11436,5,2,0:2:0:0:
203,209,11793,1,0,0:0:0:0:
305,145,12150,5,2,0:2:0:0:
292,135,12507,1,0,0:0:0:0:
166,32,12863,5,2,0:2:0:0:
171,47,13220,1,2,0:2:0:0:
172,63,13576,1,0,0:0:0:0:
168,78,13933,1,0,0:2:0:0:
33,71,14290,5,2,0:2:0:0:
44,81,14647,1,2,0:2:0:0:
53,94,15003,1,0,0:0:0:0:
57,109,15360,1,0,0:0:0:0:
59,243,15718,5,2,0:2:0:0:
48,233,16075,1,2,0:2:0:0:
39,220,16431,1,0,0:0:0:0:
35,205,16788,1,2,0:2:0:0:
153,210,17145,5,2,0:2:0:0:
166,220,17502,1,0,0:0:0:0:
174,236,17858,1,2,0:2:0:0:
174,236,18572,5,2,0:2:0:0:
189,241,18929,1,0,0:0:0:0:
205,242,19285,1,2,0:2:0:0:
397,200,19999,5,2,0:2:0:0:
382,195,20356,1,0,0:0:0:0:
366,194,20712,1,2,0:2:0:0:
172,144,21426,5,2,0:2:0:0:
177,129,21783,1,0,0:0:0:0:
178,113,22140,1,2,0:2:0:0:
176,99,22497,1,2,0:2:0:0:
105,85,23567,6,0,P|138:87|168:82,1,63,2|0,2:0|0:0,0:0:0:0:
206,44,24281,6,0,P|202:84|211:126,1,76.5000014591217,4|0,3:2|0:0,0:0:0:0:
335,90,24638,2,0,L|422:80,1,76.5000014591217,0|0,3:0|0:0,0:0:0:0:
271,215,24995,2,0,L|347:222,1,76.5000014591217,0|0,1:0|0:0,0:0:0:0:
467,240,25351,1,0,0:3:0:0:
328,376,25530,1,0,3:0:0:0:
328,376,25619,1,0,1:0:0:0:
328,376,25708,5,0,3:0:0:0:
353,245,25887,1,0,1:0:0:0:
224,288,26065,2,0,P|178:290|137:269,1,76.5000014591217,0|0,3:3|0:0,0:0:0:0:
0,193,26422,2,0,P|35:180|73:183,1,76.5000014591217,0|0,1:0|0:0,0:0:0:0:
115,73,26779,2,0,P|152:80|183:102,1,76.5000014591217,0|0,3:0|0:0,0:0:0:0:
316,8,27135,6,0,L|298:175,1,153.000002918243,0|0,3:0|3:0,0:0:0:0:
300,160,27849,2,0,L|395:149,1,76.5000014591217,0|0,1:0|0:0,0:0:0:0:
510,52,28206,2,0,L|502:128,1,76.5000014591217,0|0,3:0|3:0,0:0:0:0:
502,129,28473,1,0,1:0:0:0:
502,129,28563,5,0,3:0:0:0:
395,32,28741,1,0,1:0:0:0:
393,185,28919,2,0,P|392:222|376:257,1,76.5000014591217,2|0,3:0|0:0,0:0:0:0:
289,373,29276,2,0,P|272:338|272:300,1,76.5000014591217,0|0,1:0|0:0,0:0:0:0:
301,159,29633,1,0,3:0:0:0:
168,256,29811,1,0,1:0:0:0:
74,298,29990,6,0,L|65:221,1,76.5000014591217,4|0,3:1|0:0,0:0:0:0:
4,101,30347,2,0,L|80:109,1,76.5000014591217,0|0,3:0|0:0,0:0:0:0:
314,137,30703,2,0,B|258:142|258:142|228:170|228:170|161:177,1,153.000002918243,0|0,1:0|0:0,0:0:0:0:
268,10,31239,1,0,3:0:0:0:
268,10,31328,1,0,1:0:0:0:
268,10,31417,5,0,3:0:0:0:
311,163,31595,1,0,1:0:0:0:
462,49,31774,2,0,L|386:41,1,76.5000014591217,0|0,3:0|0:0,0:0:0:0:
512,163,32131,2,0,L|435:170,1,76.5000014591217,0|0,1:0|0:0,0:0:0:0:
512,278,32487,2,0,L|504:354,1,76.5000014591217,0|0,3:0|0:0,0:0:0:0:
350,265,32844,6,0,B|299:242|299:242|172:255,1,153.000002918243,0|0,3:0|3:0,0:0:0:0:
108,344,33379,1,0,3:0:0:0:
128,149,33558,1,0,1:0:0:0:
31,205,33736,1,0,3:3:0:0:
4,52,33915,2,0,L|80:59,1,76.5000014591217,0|0,0:3|3:0,0:0:0:0:
80,59,34182,1,0,1:0:0:0:
80,59,34271,5,0,3:0:0:0:
13,176,34449,1,0,1:0:0:0:
208,93,34628,2,0,P|261:79|322:104,1,114.750002188683,2|0,0:3|0:0,0:0:0:0:
352,124,34985,1,0,1:0:0:0:
352,124,35342,1,0,1:0:0:0:
250,222,35520,1,0,1:0:0:0:
155,273,35699,6,0,B|150:217|150:217|122:187|122:187|115:119,1,153.000002918243,4|0,3:2|3:0,0:0:0:0:
116,131,36412,2,0,L|40:139,1,76.5000014591217,0|0,1:0|0:0,0:0:0:0:
0,306,36769,1,0,0:3:0:0:
184,298,36947,1,0,3:0:0:0:
184,298,37037,1,0,1:0:0:0:
184,298,37126,6,0,P|221:294|256:308,1,76.5000014591217,0|0,3:0|1:0,0:0:0:0:
382,381,37483,2,0,P|378:343|391:307,1,76.5000014591217,0|0,3:3|0:0,0:0:0:0:
350,139,37839,2,0,P|354:177|341:212,1,76.5000014591217,0|0,1:0|0:0,0:0:0:0:
463,70,38196,2,0,P|459:108|472:143,1,76.5000014591217,0|0,3:0|0:0,0:0:0:0:
350,11,38553,6,0,L|243:22,1,76.5000014591217,0|0,3:0|0:0,0:0:0:0:
229,123,38910,2,0,L|122:111,1,76.5000014591217,0|0,3:0|0:0,0:0:0:0:
16,0,39267,2,0,L|24:76,1,76.5000014591217,0|0,1:0|0:0,0:0:0:0:
0,206,39623,1,0,3:0:0:0:
162,125,39802,1,0,3:0:0:0:
162,125,39891,1,0,1:0:0:0:
162,125,39980,5,0,3:0:0:0:
48,71,40159,1,0,1:0:0:0:
100,239,40337,2,0,P|108:279|100:315,1,76.5000014591217,2|0,3:0|0:0,0:0:0:0:
247,283,40694,2,0,P|322:276|393:303,1,153.000002918243,0|0,1:0|3:0,0:0:0:0:
492,173,41229,1,0,1:0:0:0:
512,74,41407,6,0,B|461:51|461:51|334:64,1,153.000002918243,4|0,3:1|3:0,0:0:0:0:
364,60,42121,2,0,P|328:45|291:49,1,76.5000014591217,0|0,1:0|0:0,0:0:0:0:
177,15,42478,2,0,P|139:20|108:42,1,76.5000014591217,0|0,0:0|3:0,0:0:0:0:
108,42,42745,1,0,1:0:0:0:
108,42,42835,5,0,3:0:0:0:
184,141,43013,1,0,1:0:0:0:
27,143,43191,2,0,P|12:178|16:215,1,76.5000014591217,0|0,3:0|0:0,0:0:0:0:
101,348,43548,2,0,P|65:333|28:337,1,76.5000014591217,0|0,1:0|0:0,0:0:0:0:
204,285,43905,2,0,P|241:288|276:274,1,76.5000014591217,0|0,3:0|0:0,0:0:0:0:
391,377,44262,6,0,L|407:224,1,153.000002918243,0|0,3:0|3:0,0:0:0:0:
512,309,44796,1,0,3:0:0:0:
489,111,44975,1,0,1:0:0:0:
391,191,45153,1,0,3:3:0:0:
326,78,45332,2,0,P|320:39|334:2,1,76.5000014591217,0|0,0:3|3:0,0:0:0:0:
333,4,45599,1,0,1:0:0:0:
333,4,45688,5,0,3:0:0:0:
168,87,45867,1,0,1:0:0:0:
68,97,46046,1,2,0:3:0:0:
42,102,46403,2,0,B|35:157|35:157|56:192|56:192|49:260,1,153.000002918243,0|0,1:0|1:0,0:0:0:0:
148,379,46938,1,0,1:0:0:0:
180,194,47116,5,4,0:1:0:0:
206,217,47473,2,0,L|206:125,1,67.5000025749208,0|0,3:0|0:0,0:0:0:0:
285,3,47830,2,0,P|301:68|373:85,1,135.000005149842,0|0,1:0|0:0,0:0:0:0:
512,178,48365,1,0,3:0:0:0:
512,178,48454,1,0,1:0:0:0:
512,178,48544,6,0,P|478:167|445:167,1,67.5000025749208,0|0,3:0|1:0,0:0:0:0:
324,188,48900,1,0,3:0:0:0:
301,206,49257,1,0,1:0:0:0:
274,227,49614,2,0,P|240:226|208:216,1,67.5000025749208,0|0,3:0|0:0,0:0:0:0:
355,308,49971,6,0,P|291:333|224:326,1,135.000005149842,0|0,3:0|3:0,0:0:0:0:
173,207,50506,1,0,3:0:0:0:
207,352,50684,1,0,1:0:0:0:
77,279,50863,2,0,P|57:251|47:219,1,67.5000025749208,0|0,3:0|0:0,0:0:0:0:
0,101,51220,1,0,3:0:0:0:
0,101,51309,1,0,1:0:0:0:
0,101,51398,6,0,P|33:101|65:91,1,67.5000025749208,0|0,3:0|1:0,0:0:0:0:
213,30,51755,1,2,3:0:0:0:
244,28,52112,2,0,P|277:28|309:38,1,67.5000025749208,0|0,1:0|0:0,0:0:0:0:
415,140,52468,1,0,3:0:0:0:
339,24,52647,1,0,1:0:0:0:
319,209,52825,5,2,0:3:0:0:
297,229,53182,2,0,L|376:237,1,67.5000025749208,0|0,3:0|0:0,0:0:0:0:
512,337,53539,2,0,L|377:351,1,135.000005149842,0|0,1:0|0:0,0:0:0:0:
294,211,54074,1,0,3:0:0:0:
294,211,54163,1,0,1:0:0:0:
294,211,54252,5,0,3:0:0:0:
272,355,54431,1,0,1:0:0:0:
189,249,54609,1,0,3:0:0:0:
162,270,54966,1,0,1:0:0:0:
139,297,55323,2,0,P|126:328|125:361,1,67.5000025749208,0|0,3:0|0:0,0:0:0:0:
27,237,55680,6,0,P|32:167|-3:109,1,135.000005149842,0|0,3:0|3:0,0:0:0:0:
140,105,56215,1,0,3:0:0:0:
46,4,56393,1,0,1:0:0:0:
231,25,56572,2,0,B|281:29|281:29|311:17|311:17|361:24,1,135.000005149842,0|0,3:0|3:0,0:0:0:0:
468,4,57018,1,0,1:0:0:0:
468,4,57107,6,0,L|461:71,1,67.5000025749208,0|0,3:0|0:0,0:0:0:0:
347,197,57464,2,0,L|340:129,1,67.5000025749208,2|0,0:3|0:0,0:0:0:0:
493,243,57820,1,0,1:0:0:0:
496,78,57999,1,0,0:0:0:0:
347,197,58177,1,0,1:0:0:0:
467,66,58356,1,0,1:0:0:0:
502,273,58534,5,4,0:1:0:0:
477,289,58891,2,0,P|443:290|410:282,1,67.5000025749208,0|0,3:0|0:0,0:0:0:0:
250,241,59248,2,0,P|264:271|270:304,1,67.5000025749208,0|0,1:0|0:0,0:0:0:0:
101,383,59604,2,0,P|106:349|121:319,1,67.5000025749208,0|0,3:0|0:0,0:0:0:0:
42,256,59872,1,0,1:0:0:0:
42,256,59961,6,0,P|63:230|91:210,1,67.5000025749208,0|0,3:0|1:0,0:0:0:0:
204,133,60318,2,0,B|198:82|198:82|175:52|175:52|168:-17,2,135.000005149842,0|0|0,3:0|1:0|3:0,0:0:0:0:
204,133,61388,6,0,P|268:146|328:117,1,135.000005149842,0|0,3:0|3:0,0:0:0:0:
386,20,61924,1,0,3:0:0:0:
501,130,62102,1,0,1:0:0:0:
350,137,62280,1,0,3:0:0:0:
447,223,62459,2,0,P|478:233|512:234,1,67.5000025749208,0|0,0:0|3:0,0:0:0:0:
394,305,62726,1,0,1:0:0:0:
394,305,62816,6,0,P|360:306|328:316,1,67.5000025749208,0|0,3:0|1:0,0:0:0:0:
179,374,63172,1,2,3:0:0:0:
154,381,63529,2,0,L|147:313,1,67.5000025749208,0|0,1:0|0:0,0:0:0:0:
0,211,63886,1,0,3:0:0:0:
37,336,64064,1,0,1:0:0:0:
97,159,64243,5,2,0:3:0:0:
110,137,64600,2,0,L|117:204,1,67.5000025749208,0|0,3:0|0:0,0:0:0:0:
199,57,64956,2,0,B|237:39|237:39|333:49,1,135.000005149842,0|0,1:0|0:0,0:0:0:0:
386,178,65492,1,0,3:0:0:0:
386,178,65581,1,0,1:0:0:0:
386,178,65670,5,0,3:0:0:0:
358,24,65848,1,0,1:0:0:0:
512,103,66027,2,0,L|505:171,1,67.5000025749208,0|0,3:0|0:0,0:0:0:0:
394,305,66384,2,0,L|379:170,1,135.000005149842,0|0,1:0|3:0,0:0:0:0:
379,170,67097,6,0,L|307:162,1,67.5000025749208,0|0,3:0|0:0,0:0:0:0:
228,271,67454,1,0,3:0:0:0:
292,133,67633,1,0,3:0:0:0:
349,324,67811,1,0,1:0:0:0:
376,333,68168,1,0,3:0:0:0:
325,171,68346,1,0,3:0:0:0:
325,171,68435,1,0,1:0:0:0:
325,171,68524,5,0,3:0:0:0:
272,357,68703,1,0,1:0:0:0:
207,215,68881,2,0,P|207:180|214:147,1,67.5000025749208,2|0,0:3|0:0,0:0:0:0:
89,237,69238,2,0,P|92:273|89:305,1,67.5000025749208,0|0,1:0|0:0,0:0:0:0:
0,178,69595,1,0,1:0:0:0:
52,303,69773,1,0,1:0:0:0:
139,79,69952,5,4,0:1:0:0:
154,49,70308,2,0,P|91:26|25:36,2,135.000005149842,0|0|0,3:0|1:0|0:0,0:0:0:0:
154,49,71379,5,0,3:0:0:0:
282,31,71557,1,0,1:0:0:0:
223,165,71736,2,0,P|285:142|351:152,2,135.000005149842,0|0|0,3:0|1:0|3:0,0:0:0:0:
223,165,72806,6,0,L|127:155,1,67.5000025749208,0|0,3:0|0:0,0:0:0:0:
12,241,73163,2,0,L|79:234,1,67.5000025749208,0|0,3:0|3:0,0:0:0:0:
0,356,73520,2,0,L|135:341,1,135.000005149842,0|0,1:0|0:0,0:0:0:0:
306,377,74055,1,0,3:0:0:0:
306,377,74144,1,0,1:0:0:0:
306,377,74233,5,0,3:0:0:0:
295,237,74412,1,0,1:0:0:0:
435,325,74590,2,0,L|427:257,1,67.5000025749208,2|0,3:0|0:0,0:0:0:0:
512,118,74947,2,0,L|376:103,1,135.000005149842,0|0,1:0|3:0,0:0:0:0:
293,6,75482,1,0,1:0:0:0:
235,166,75661,5,2,0:3:0:0:
216,149,76017,2,0,P|150:126|67:148,2,135.000005149842,0|0|0,3:0|1:0|0:0,0:0:0:0:
216,149,77088,5,0,3:0:0:0:
192,0,77266,1,0,1:0:0:0:
338,85,77445,2,0,P|345:116|349:151,1,67.5000025749208,0|0,3:0|0:0,0:0:0:0:
450,225,77801,2,0,P|440:255|426:287,1,67.5000025749208,0|0,1:2|0:0,0:0:0:0:
225,384,78158,1,2,3:0:0:0:
225,384,78872,5,2,0:0:0:0:
239,381,79229,1,2,0:0:0:0:
254,372,79585,1,2,0:0:0:0:
254,372,80299,5,2,0:0:0:0:
178,244,80477,1,0,3:0:0:0:
178,244,80567,1,0,3:0:0:0:
178,244,80656,2,0,P|225:256|267:255,1,90,4|0,1:1|0:0,0:0:0:0:
420,156,81013,2,0,P|375:155|331:167,1,90,0|0,1:0|1:0,0:0:0:0:
512,280,81369,6,0,P|467:280|423:268,1,90,4|0,0:0|0:0,0:0:0:0:
267,256,81726,2,0,P|278:299|278:344,1,90,0|0,3:0|0:0,0:0:0:0:
0,258,82083,2,0,B|62:264|62:264|104:303|104:303|182:310,1,180,0|0,1:0|0:0,0:0:0:0:
212,150,82618,1,0,3:0:0:0:
212,150,82707,1,0,1:0:0:0:
212,150,82797,5,0,3:0:0:0:
78,243,82975,1,0,1:0:0:0:
0,103,83153,2,0,L|89:112,1,90,0|0,3:3|0:0,0:0:0:0:
302,36,83510,2,0,P|258:45|214:46,1,90,0|0,1:0|0:0,0:0:0:0:
298,168,83867,2,0,P|371:145|420:106,1,135,0|0,3:0|0:0,0:0:0:0:
479,55,84224,6,0,P|466:98|469:142,1,90,0|0,3:0|0:0,0:0:0:0:
470,143,84491,1,0,3:0:0:0:
470,143,84581,1,0,3:0:0:0:
298,168,84759,1,0,3:0:0:0:
479,55,84937,1,0,1:0:0:0:
327,28,85116,1,0,3:0:0:0:
395,204,85294,2,0,P|402:251|405:300,1,90,0|0,3:0|0:0,0:0:0:0:
405,293,85561,1,0,1:0:0:0:
405,293,85651,5,0,3:0:0:0:
268,168,85829,1,0,1:0:0:0:
264,315,86008,2,0,P|216:307|140:302,1,90,0|0,3:0|0:0,0:0:0:0:
34,224,86365,1,0,1:0:0:0:
92,384,86543,1,0,0:0:0:0:
179,169,86721,1,0,1:0:0:0:
0,88,86900,1,0,1:0:0:0:
0,88,86989,1,0,1:0:0:0:
0,88,87078,6,0,P|45:85|88:96,1,90,4|0,3:1|0:0,0:0:0:0:
213,181,87435,1,0,3:0:0:0:
195,19,87613,1,0,0:0:0:0:
380,81,87792,2,0,P|336:93|290:90,1,90,0|0,1:0|0:0,0:0:0:0:
511,159,88149,1,0,3:0:0:0:
423,261,88327,1,0,3:0:0:0:
423,261,88416,1,0,1:0:0:0:
423,261,88505,5,0,3:0:0:0:
414,74,88684,1,0,1:0:0:0:
292,197,88862,2,0,L|301:107,1,90,0|0,3:0|0:0,0:0:0:0:
349,301,89219,1,0,1:0:0:0:
182,207,89397,1,0,0:0:0:0:
160,363,89576,2,0,L|250:353,1,90,0|0,3:0|0:0,0:0:0:0:
2,249,89933,6,0,B|50:221|50:221|177:235,1,180,0|0,3:0|3:0,0:0:0:0:
353,339,90468,1,0,3:0:0:0:
163,367,90646,1,0,1:0:0:0:
260,162,90825,1,0,3:0:0:0:
329,366,91003,1,0,3:0:0:0:
363,228,91181,1,0,3:0:0:0:
363,228,91271,1,0,1:0:0:0:
363,228,91360,5,0,3:0:0:0:
457,362,91538,1,0,1:0:0:0:
483,171,91717,1,0,3:0:0:0:
380,76,91895,5,0,1:0:0:0:
380,76,91984,1,0,1:0:0:0:
380,76,92073,5,8,3:0:0:0:
321,87,92192,1,0,3:0:0:0:
262,71,92311,1,0,3:0:0:0:
212,36,92430,5,4,3:0:0:0:
154,18,92549,1,0,3:0:0:0:
93,18,92668,1,0,3:0:0:0:
41,49,92787,6,0,L|52:144,1,90,4|0,3:2|0:0,0:0:0:0:
155,268,93144,2,0,P|164:218|166:172,1,90,0|0,3:0|0:0,0:0:0:0:
41,375,93501,2,0,P|33:329|31:285,1,90,0|0,1:0|0:0,0:0:0:0:
193,174,93857,1,0,3:0:0:0:
165,384,94036,1,0,3:0:0:0:
165,384,94125,1,0,1:0:0:0:
165,384,94214,5,0,3:0:0:0:
282,243,94393,1,0,1:0:0:0:
399,296,94571,2,0,P|396:340|381:383,1,90,0|0,3:0|0:0,0:0:0:0:
512,277,94928,2,0,P|497:234|495:190,1,90,0|0,1:0|0:0,0:0:0:0:
403,81,95285,2,0,P|400:125|385:168,1,90,0|0,3:0|0:0,0:0:0:0:
307,324,95642,6,0,P|275:225|188:231,1,180,0|0,3:0|3:0,0:0:0:0:
91,316,96177,1,0,3:0:0:0:
102,125,96355,1,0,1:0:0:0:
215,250,96534,1,0,3:0:0:0:
297,81,96712,2,0,L|207:70,1,90,0|0,3:0|0:0,0:0:0:0:
208,70,96980,1,0,1:0:0:0:
208,70,97069,5,0,3:0:0:0:
299,204,97247,1,0,1:0:0:0:
119,145,97426,1,0,3:0:0:0:
202,310,97604,1,0,0:0:0:0:
0,254,97782,2,0,P|45:244|89:254,1,90,0|0,1:0|0:0,0:0:0:0:
313,353,98139,1,0,1:0:0:0:
433,378,98318,1,0,1:0:0:0:
433,378,98407,1,0,1:0:0:0:
433,378,98496,6,0,P|454:314|451:247,1,135,4|0,3:1|0:0,0:0:0:0:
496,303,98853,2,0,P|499:259|487:215,1,90,0|0,3:0|0:0,0:0:0:0:
424,67,99210,1,0,1:0:0:0:
349,184,99388,1,0,0:0:0:0:
317,10,99566,2,0,P|273:21|229:18,1,90,0|0,3:0|0:0,0:0:0:0:
229,18,99834,1,0,1:0:0:0:
229,18,99923,5,0,3:0:0:0:
234,148,100102,1,0,1:0:0:0:
119,55,100280,2,0,L|108:150,1,90,0|0,3:0|0:0,0:0:0:0:
25,330,100637,1,0,1:0:0:0:
167,244,100815,1,0,0:0:0:0:
125,384,100994,2,0,L|214:373,1,90,0|0,3:0|0:0,0:0:0:0:
457,302,101350,6,0,L|278:281,1,180,0|0,3:0|3:0,0:0:0:0:
131,244,101886,1,0,3:0:0:0:
321,145,102064,1,0,1:0:0:0:
265,312,102242,1,0,3:0:0:0:
181,100,102421,1,0,3:0:0:0:
329,154,102599,1,0,3:0:0:0:
329,154,102688,1,0,1:0:0:0:
329,154,102778,5,0,3:0:0:0:
151,201,102956,1,0,1:0:0:0:
350,257,103134,1,0,3:0:0:0:
172,349,103313,1,0,1:0:0:0:
172,349,103402,1,0,1:0:0:0:
172,349,103491,2,0,P|141:272|191:223,1,135.000005149842,4|0,0:0|0:0,0:0:0:0:
286,81,109914,6,0,L|429:96,1,135.000005149842,2|0,0:0|0:0,0:0:0:0:
420,94,110449,1,2,0:0:0:0:
420,94,111341,6,0,L|276:109,1,135.000005149842,2|0,0:0|0:0,0:0:0:0:
286,107,111876,1,2,0:0:0:0:
286,107,112768,6,0,L|429:122,1,135.000005149842,2|0,0:0|0:0,0:0:0:0:
420,120,113303,1,2,0:0:0:0:
420,120,114195,5,2,0:0:0:0:
401,140,114552,1,2,0:0:0:0:
260,253,114730,5,0,3:0:0:0:
260,253,114820,1,0,3:0:0:0:
260,253,114909,1,0,1:0:0:0:
188,134,115087,1,8,0:3:0:0:
359,74,115266,2,0,P|408:69|479:108,1,101.250003862381,4|0,0:3|0:0,0:0:0:0:
495,52,115622,6,0,L|505:147,1,67.5000025749208,4|0,0:0|0:0,0:0:0:0:
396,177,115979,1,0,3:0:0:0:
512,304,116158,2,0,L|368:288,1,135.000005149842,0|0,1:0|3:0,0:0:0:0:
319,375,116693,2,0,L|223:385,1,67.5000025749208,0|0,3:0|0:0,0:0:0:0:
173,278,117050,5,2,0:3:0:0:
91,384,117228,1,0,3:0:0:0:
22,249,117406,2,0,P|16:281|11:344,1,67.5000025749208,0|0,3:0|0:0,0:0:0:0:
200,259,117763,2,0,P|196:191|184:125,1,135.000005149842,0|0,1:0|3:0,0:0:0:0:
57,194,118298,1,0,1:0:0:0:
0,67,118477,6,0,P|33:70|66:76,1,67.5000025749208,2|0,3:0|0:0,0:0:0:0:
163,0,118834,1,0,3:0:0:0:
286,130,119012,2,0,B|247:149|247:149|152:139,1,135.000005149842,0|0,1:0|3:0,0:0:0:0:
163,0,119547,1,0,0:0:0:0:
293,139,119726,1,0,3:0:0:0:
293,138,119815,1,0,1:0:0:0:
293,138,119904,5,0,3:0:0:0:
355,1,120083,1,0,1:0:0:0:
402,126,120261,2,0,L|393:205,1,67.5000025749208,2|0,0:3|0:0,0:0:0:0:
511,49,120618,2,0,L|510:116,1,67.5000025749208,0|0,1:0|0:0,0:0:0:0:
512,258,120975,1,0,3:0:0:0:
394,193,121153,1,0,1:0:0:0:
438,337,121331,6,0,B|385:331|385:331|356:348|356:348|284:341,1,135.000005149842,2|0,0:3|3:0,0:0:0:0:
139,384,121867,1,0,1:0:0:0:
194,266,122045,2,0,L|126:273,1,67.5000025749208,2|0,0:3|3:0,0:0:0:0:
0,287,122402,1,0,3:0:0:0:
0,314,122759,5,2,0:3:0:0:
112,238,122937,1,0,3:0:0:0:
15,118,123115,2,0,L|7:185,1,67.5000025749208,0|0,3:0|0:0,0:0:0:0:
92,29,123472,2,0,L|226:14,1,135.000005149842,0|0,1:0|0:0,0:0:0:0:
354,41,124007,1,0,1:0:0:0:
211,137,124186,6,0,L|345:151,1,135.000005149842,2|0,3:3|3:0,0:0:0:0:
472,63,124721,2,0,P|465:96|465:130,1,67.5000025749208,0|2,1:0|0:3,0:0:0:0:
423,234,125078,2,0,P|430:267|429:301,1,67.5000025749208,0|0,3:0|0:0,0:0:0:0:
307,384,125435,1,0,3:0:0:0:
307,384,125524,1,0,1:0:0:0:
307,384,125613,5,0,3:0:0:0:
392,233,125791,1,0,1:0:0:0:
254,276,125970,2,0,L|174:267,1,67.5000025749208,0|0,3:0|3:0,0:0:0:0:
186,268,126237,1,0,3:0:0:0:
186,268,126327,1,8,1:3:0:0:
3,358,126594,5,4,1:3:0:0:
3,358,126683,1,0,3:0:0:0:
85,226,126862,1,0,1:0:0:0:
85,226,126951,1,0,1:0:0:0:
85,226,127040,6,0,L|76:146,1,76.5000014591217,4|0,0:0|0:0,0:0:0:0:
183,55,127397,2,0,P|236:41|297:66,1,114.750002188683,0|0,1:0|0:0,0:0:0:0:
341,125,127754,2,0,L|330:18,1,76.5000014591217,0|0,3:0|0:0,0:0:0:0:
451,17,128111,1,0,3:0:0:0:
373,135,128289,1,0,1:0:0:0:
512,114,128467,6,0,P|512:152|500:188,1,76.5000014591217,2|0,3:0|3:0,0:0:0:0:
409,317,128824,2,0,P|396:280|396:242,1,76.5000014591217,0|0,1:0|0:0,0:0:0:0:
512,215,129181,1,0,0:0:0:0:
417,325,129359,1,0,3:0:0:0:
417,325,129449,1,0,3:0:0:0:
417,325,129538,2,0,P|364:339|303:314,1,114.750002188683,0|0,1:0|0:0,0:0:0:0:
328,365,129895,6,0,P|284:348|250:305,1,76.5000014591217,2|0,3:0|0:0,0:0:0:0:
141,384,130251,2,0,L|148:307,1,76.5000014591217,0|0,1:0|3:0,0:0:0:0:
38,285,130608,2,0,L|29:205,1,76.5000014591217,0|0,3:0|3:0,0:0:0:0:
0,80,130965,1,0,3:0:0:0:
137,154,131143,1,0,1:0:0:0:
214,43,131322,6,0,P|154:1|83:38,1,153.000002918243,2|0,3:0|1:0,0:0:0:0:
87,32,132035,1,0,3:0:0:0:
165,181,132214,1,0,3:0:0:0:
165,181,132303,1,0,3:0:0:0:
165,181,132392,1,0,1:0:0:0:
244,20,132571,1,0,1:0:0:0:
244,20,132660,1,0,1:0:0:0:
244,20,132749,6,0,B|299:13|299:13|334:34|334:34|402:27,1,153.000002918243,4|0,0:2|3:0,0:0:0:0:
272,152,133284,2,0,L|367:162,1,76.5000014591217,0|0,1:0|0:0,0:0:0:0:
453,142,133641,1,0,3:0:0:0:
512,267,133819,2,0,P|459:286|404:272,1,114.750002188683,0|0,3:0|0:0,0:0:0:0:
344,228,134176,6,0,P|354:267|355:335,1,76.5000014591217,0|0,3:0|3:0,0:0:0:0:
225,384,134533,2,0,P|228:345|238:308,1,76.5000014591217,2|0,0:3|0:0,0:0:0:0:
95,209,134890,2,0,P|118:281|118:357,1,153.000002918243,0|0,1:0|3:0,0:0:0:0:
0,263,135425,1,0,1:0:0:0:
9,118,135603,6,0,B|60:95|60:95|187:108,1,153.000002918243,0|0,3:0|3:0,0:0:0:0:
265,0,136139,2,0,L|273:79,1,76.5000014591217,0|0,1:0|0:0,0:0:0:0:
392,147,136495,1,0,3:0:0:0:
302,228,136674,1,0,0:0:0:0:
380,41,136852,1,0,3:0:0:0:
380,41,136941,1,0,1:0:0:0:
380,41,137031,5,0,3:0:0:0:
402,181,137209,1,0,1:0:0:0:
512,52,137387,2,0,L|503:131,1,76.5000014591217,2|0,3:0|0:0,0:0:0:0:
452,303,137744,2,0,P|428:226|368:212,1,114.750002188683,0|8,1:0|3:0,1:0:0:0:
218,226,138279,5,4,3:0:0:0:
218,226,138369,1,4,3:0:0:0:
218,226,138458,1,4,3:1:0:0:
199,82,140420,5,8,3:0:0:0:
199,82,140510,1,8,3:0:0:0:
199,82,140599,1,4,3:2:0:0:
199,82,141312,6,0,P|212:132|210:193,1,85.4999977169037,4|0,0:0|0:0,0:0:0:0:
304,328,141669,2,0,P|302:276|315:216,1,85.4999977169037,0|0,3:0|0:0,0:0:0:0:
495,201,142026,2,0,P|406:177|387:78,1,170.999995433807,0|0,1:0|0:0,0:0:0:0:
475,39,142561,1,0,3:0:0:0:
475,39,142650,1,0,1:0:0:0:
475,39,142740,5,0,3:0:0:0:
508,179,142918,1,0,1:0:0:0:
352,118,143096,2,0,P|299:113|246:136,1,85.4999977169037,0|0,3:3|0:0,0:0:0:0:
158,0,143453,2,0,L|139:160,1,128.249996575356,0|0,1:0|0:0,0:0:0:0:
104,79,143810,2,0,L|112:164,1,85.4999977169037,0|0,3:0|0:0,0:0:0:0:
287,259,144167,6,0,B|229:252|229:252|182:280|182:280|123:273,1,170.999995433807,0|0,3:0|3:0,0:0:0:0:
65,121,144702,1,0,3:0:0:0:
1,310,144880,2,0,P|13:266|12:224,1,85.4999977169037,0|0,1:0|0:0,0:0:0:0:
135,356,145237,2,0,P|123:312|124:270,1,85.4999977169037,0|0,3:0|0:0,0:0:0:0:
124,273,145505,1,0,1:0:0:0:
124,273,145594,5,0,3:0:0:0:
221,180,145772,1,0,1:0:0:0:
284,299,145951,2,0,L|275:384,1,85.4999977169037,0|0,3:0|0:0,0:0:0:0:
398,222,146308,2,0,L|406:307,1,85.4999977169037,0|0,1:0|0:0,0:0:0:0:
294,162,146664,1,0,1:0:0:0:
462,71,146843,1,0,1:0:0:0:
462,71,146932,1,0,1:0:0:0:
462,71,147021,6,0,B|414:43|414:43|287:57,1,170.999995433807,4|0,3:1|3:0,0:0:0:0:
167,3,147556,1,0,3:0:0:0:
248,171,147735,1,0,1:0:0:0:
287,33,147913,1,0,3:0:0:0:
116,98,148092,1,0,3:0:0:0:
279,196,148270,1,0,3:0:0:0:
279,196,148359,1,0,1:0:0:0:
279,196,148448,6,0,P|223:203|179:176,1,85.4999977169037,0|0,3:0|1:0,0:0:0:0:
0,195,148805,2,0,P|55:187|99:214,1,85.4999977169037,0|0,3:0|0:0,0:0:0:0:
239,335,149162,1,0,1:0:0:0:
64,306,149340,1,0,3:0:0:0:
181,167,149519,1,0,3:0:0:0:
211,333,149697,1,0,3:0:0:0:
421,220,149876,6,0,B|363:213|363:213|313:244|313:244|248:236,1,170.999995433807,0|0,3:0|3:0,0:0:0:0:
236,85,150411,1,0,3:0:0:0:
400,190,150589,1,0,1:0:0:0:
386,13,150768,1,0,3:0:0:0:
278,209,150946,1,0,3:0:0:0:
248,51,151124,1,0,3:0:0:0:
248,51,151214,1,0,1:0:0:0:
248,51,151303,5,0,3:0:0:0:
393,160,151481,1,0,1:0:0:0:
292,288,151660,2,0,P|273:249|278:207,1,85.4999977169037,0|0,3:0|1:0,0:0:0:0:
278,207,151927,1,0,1:0:0:0:
278,207,152016,1,8,3:0:0:0:
396,356,152195,1,4,3:0:0:0:
393,160,152373,1,8,3:0:0:0:
260,308,152552,1,4,3:0:0:0:
171,365,152730,6,0,P|140:307|165:239,1,128.249996575356,4|0,3:2|0:0,0:0:0:0:
214,193,153087,2,0,L|129:202,1,85.4999977169037,0|0,3:0|0:0,0:0:0:0:
0,80,153444,2,0,L|85:89,1,85.4999977169037,0|0,1:0|0:0,0:0:0:0:
193,15,153800,2,0,L|278:24,1,85.4999977169037,0|0,3:0|3:0,0:0:0:0:
278,24,154068,1,0,1:0:0:0:
278,24,154157,1,0,3:0:0:0:
225,147,154336,1,0,1:0:0:0:
339,259,154514,6,0,L|352:131,1,128.249996575356,0|0,3:0|0:0,0:0:0:0:
382,55,154871,2,0,L|391:140,1,85.4999977169037,0|0,1:0|0:0,0:0:0:0:
512,144,155228,2,0,L|511:229,1,85.4999977169037,0|0,3:0|0:0,0:0:0:0:
512,371,155584,6,0,P|456:327|391:332,1,128.249996575356,0|0,3:0|0:0,0:0:0:0:
368,343,155941,1,0,3:0:0:0:
413,180,156120,1,0,3:0:0:0:
236,249,156298,2,0,P|290:264|343:247,1,85.4999977169037,0|0,1:0|3:0,0:0:0:0:
235,145,156655,2,0,P|192:140|152:155,1,85.4999977169037,0|0,3:0|0:0,0:0:0:0:
152,155,156922,1,0,1:0:0:0:
152,155,157012,5,0,3:0:0:0:
154,322,157190,1,0,1:0:0:0:
18,247,157368,2,0,L|28:151,1,85.4999977169037,0|0,3:0|0:0,0:0:0:0:
148,16,157725,1,0,1:0:0:0:
161,162,157904,1,0,0:0:0:0:
43,18,158082,1,0,1:0:0:0:
228,85,158260,1,0,1:0:0:0:
228,85,158350,1,0,1:0:0:0:
228,85,158439,6,0,P|271:86|312:77,1,85.4999977169037,4|0,3:1|0:0,0:0:0:0:
489,13,158796,2,0,P|447:3|404:5,1,85.4999977169037,0|0,3:0|0:0,0:0:0:0:
216,55,159152,1,0,1:0:0:0:
320,181,159331,1,0,0:0:0:0:
383,26,159509,1,0,3:0:0:0:
492,142,159688,1,0,0:0:0:0:
492,142,159777,1,0,1:0:0:0:
492,142,159866,5,0,3:0:0:0:
349,177,160044,1,0,1:0:0:0:
510,269,160223,2,0,L|424:277,1,85.4999977169037,0|0,3:0|0:0,0:0:0:0:
250,164,160580,2,0,B|243:222|243:222|274:272|274:272|266:337,1,170.999995433807,0|0,1:0|3:0,0:0:0:0:
127,384,161115,1,0,3:0:0:0:
127,384,161204,1,0,3:0:0:0:
127,384,161293,6,0,L|119:298,1,85.4999977169037,0|0,3:0|0:0,0:0:0:0:
85,94,161650,1,0,3:0:0:0:
25,243,161828,1,0,3:0:0:0:
240,181,162007,1,0,1:0:0:0:
114,75,162185,1,0,3:0:0:0:
301,28,162364,2,0,L|194:16,1,85.4999977169037,0|0,3:0|3:0,0:0:0:0:
216,20,162631,1,0,1:0:0:0:
216,20,162720,5,0,3:0:0:0:
364,124,162899,1,0,1:0:0:0:
364,124,162988,1,0,3:0:0:0:
364,124,163077,2,0,L|471:111,1,85.4999977169037,0|0,3:0|3:0,0:0:0:0:
448,113,163344,1,0,1:0:0:0:
448,113,163433,1,0,3:0:0:0:
369,275,163613,1,0,1:0:0:0:
337,107,163791,1,0,1:0:0:0:
485,259,163969,1,0,1:0:0:0:
267,204,164148,5,4,1:2:0:0:
292,195,164504,2,0,L|278:333,2,135.000005149842,0|0|0,3:0|1:0|0:0,0:0:0:0:
267,204,165575,5,0,3:0:0:0:
153,275,165753,1,0,1:0:0:0:
154,123,165932,2,0,L|16:137,2,135.000005149842,0|0|0,3:0|1:0|3:0,0:0:0:0:
154,123,167002,6,0,L|164:27,1,67.5000025749208,0|0,3:0|0:0,0:0:0:0:
265,145,167359,2,0,L|264:241,1,67.5000025749208,0|0,3:0|0:0,0:0:0:0:
365,56,167716,2,0,P|430:35|491:74,1,135.000005149842,0|0,1:0|0:0,0:0:0:0:
512,190,168251,1,0,3:0:0:0:
512,190,168340,1,0,1:0:0:0:
512,190,168429,5,0,3:0:0:0:
345,161,168608,1,0,1:0:0:0:
424,310,168786,2,0,L|416:242,1,67.5000025749208,2|0,3:0|0:0,0:0:0:0:
287,382,169143,2,0,L|302:246,1,135.000005149842,0|0,1:0|3:0,0:0:0:0:
428,99,169678,1,0,1:0:0:0:
263,114,169857,5,2,0:3:0:0:
240,134,170213,2,0,L|254:-4,2,135.000005149842,0|0|0,3:0|1:0|3:0,0:0:0:0:
240,134,171284,5,0,3:0:0:0:
132,256,171462,1,0,1:0:0:0:
294,253,171641,2,0,P|327:256|360:264,1,67.5000025749208,0|0,3:0|0:0,0:0:0:0:
512,160,171997,2,0,P|479:167|445:171,1,67.5000025749208,0|0,1:0|0:0,0:0:0:0:
240,134,172354,1,2,3:0:0:0:
240,134,173068,5,2,0:0:0:0:
226,131,173425,1,2,0:0:0:0:
211,122,173781,1,2,0:0:0:0:
211,122,174495,5,2,0:0:0:0:
268,275,174673,1,0,3:0:0:0:
268,275,174763,1,0,3:0:0:0:
268,275,174852,1,0,1:0:0:0:
323,101,175030,1,4,3:0:0:0:
383,268,175209,1,8,3:0:0:0:
190,146,175387,1,4,3:0:0:0:
438,103,175565,5,4,3:2:0:0:
399,81,175922,1,0,0:0:0:0:
355,71,176279,1,2,0:0:0:0:
270,216,176993,5,0,0:0:0:0:
314,206,177350,1,0,0:0:0:0:
353,184,177707,1,2,0:0:0:0:
259,38,178420,5,0,0:0:0:0:
237,77,178777,1,0,0:0:0:0:
227,121,179134,1,2,0:0:0:0:
227,121,179847,5,2,0:0:0:0:
227,121,180561,5,2,0:0:0:0:
88,197,181274,5,2,0:0:0:0:
110,158,181631,1,0,0:0:0:0:
120,114,181988,1,2,0:0:0:0:
211,201,182701,5,2,0:0:0:0:
221,245,183058,1,0,0:0:0:0:
243,283,183415,1,2,0:0:0:0:
405,367,184129,5,2,0:0:0:0:
427,328,184486,1,2,0:0:0:0:
437,284,184843,1,2,0:0:0:0:
438,239,185199,1,2,0:0:0:0:
369,149,185556,5,2,0:0:0:0:
347,187,185913,1,2,0:0:0:0:
337,231,186270,1,2,0:0:0:0:
323,376,186983,5,2,0:0:0:0:
285,354,187340,1,2,0:0:0:0:
241,344,187697,1,2,0:3:0:0:
96,291,188410,5,2,0:0:0:0:
140,281,188767,1,2,0:0:0:0:
178,259,189124,1,2,2:3:0:0:
51,190,189838,5,2,0:0:0:0:
61,146,190195,1,2,0:0:0:0:
83,107,190552,1,2,0:3:0:0:
83,107,191265,5,2,0:3:0:0:
83,107,191979,1,2,0:3:0:0:
206,225,192692,5,2,0:3:0:0:
245,203,193049,1,2,0:0:0:0:
289,193,193406,1,2,0:3:0:0:
438,227,194119,5,2,0:3:0:0:
428,183,194476,1,2,0:0:0:0:
406,144,194833,1,2,0:3:0:0:
406,144,195546,5,2,0:3:0:0:
406,144,196974,5,0,3:0:0:0:
420,172,197330,1,2,0:0:0:0:
357,288,197509,1,0,3:0:0:0:
357,288,197598,1,0,3:0:0:0:
357,288,197687,2,0,L|261:277,1,90,4|0,1:1|0:0,0:0:0:0:
115,365,198044,1,0,1:0:0:0:
216,191,198222,1,0,1:0:0:0:
9,280,198401,6,0,L|98:270,1,90,4|0,0:0|0:0,0:0:0:0:
242,167,198758,2,0,P|232:212|232:256,1,90,0|0,3:0|0:0,0:0:0:0:
21,147,199114,1,0,1:0:0:0:
51,305,199293,1,0,0:0:0:0:
151,131,199471,2,0,P|154:88|150:41,1,90,0|0,0:0|3:0,0:0:0:0:
150,41,199738,1,0,1:0:0:0:
150,41,199828,5,0,3:0:0:0:
269,160,200006,1,0,1:0:0:0:
346,18,200185,2,0,P|301:23|259:10,1,90,0|0,3:3|0:0,0:0:0:0:
512,84,200542,2,0,P|468:80|425:92,1,90,0|0,1:0|0:0,0:0:0:0:
505,269,200898,2,0,P|472:214|395:200,1,135,0|0,3:0|0:0,0:0:0:0:
348,248,201255,6,0,L|359:153,1,90,0|0,3:0|0:0,0:0:0:0:
358,158,201522,1,0,3:0:0:0:
358,158,201612,1,0,3:0:0:0:
505,269,201790,1,0,3:0:0:0:
346,382,201968,1,0,1:0:0:0:
365,167,202147,1,0,3:0:0:0:
194,302,202326,2,0,L|288:291,1,90,0|0,3:0|0:0,0:0:0:0:
283,291,202593,1,0,1:0:0:0:
283,291,202683,5,0,3:0:0:0:
184,187,202860,1,0,1:0:0:0:
60,285,203039,2,0,L|71:195,1,90,0|0,3:0|0:0,0:0:0:0:
147,16,203396,1,0,1:0:0:0:
4,96,203574,1,0,0:0:0:0:
179,219,203752,1,0,1:0:0:0:
281,267,203931,1,0,1:0:0:0:
281,267,204020,1,0,1:0:0:0:
281,267,204110,6,0,P|309:178|270:103,1,180,4|0,3:1|3:0,0:0:0:0:
423,189,204645,1,0,0:0:0:0:
406,0,204823,2,0,P|389:40|393:85,1,90,0|0,1:0|0:0,0:0:0:0:
512,256,205180,1,0,3:0:0:0:
340,254,205358,1,0,3:0:0:0:
340,254,205447,1,0,1:0:0:0:
340,254,205536,5,0,3:0:0:0:
461,168,205715,1,0,1:0:0:0:
415,354,205893,2,0,L|325:363,1,90,0|0,3:0|0:0,0:0:0:0:
139,240,206250,1,0,1:0:0:0:
212,384,206428,1,0,0:0:0:0:
358,245,206607,2,0,L|268:236,1,90,0|0,3:0|0:0,0:0:0:0:
48,122,206964,6,0,B|108:114|108:114|158:144|158:144|219:136,1,180,0|0,3:0|3:0,0:0:0:0:
382,77,207499,1,0,3:0:0:0:
268,236,207677,1,0,1:0:0:0:
214,102,207856,1,0,3:0:0:0:
390,178,208034,1,0,3:0:0:0:
299,13,208212,1,0,3:0:0:0:
299,13,208302,1,0,1:0:0:0:
299,13,208391,5,0,3:0:0:0:
254,206,208569,1,0,1:0:0:0:
397,70,208748,1,0,3:0:0:0:
404,238,208926,5,0,1:0:0:0:
404,238,209015,1,0,1:0:0:0:
404,238,209105,5,8,3:0:0:0:
358,277,209224,1,0,3:0:0:0:
300,295,209343,1,0,3:0:0:0:
240,288,209462,5,4,3:0:0:0:
233,224,209581,1,0,3:0:0:0:
226,161,209700,1,0,3:0:0:0:
221,101,209818,6,0,P|269:98|316:111,1,90,4|0,3:2|0:0,0:0:0:0:
181,3,210175,2,0,P|137:12|85:1,1,90,0|0,3:0|0:0,0:0:0:0:
0,195,210532,2,0,P|65:131|162:173,1,180,0|0,1:0|3:0,0:0:0:0:
165,319,211067,1,0,3:0:0:0:
165,319,211156,1,0,1:0:0:0:
165,319,211245,5,0,3:0:0:0:
1,225,211424,1,0,1:0:0:0:
143,150,211602,2,0,L|232:160,1,90,0|0,3:0|0:0,0:0:0:0:
346,281,211959,2,0,P|336:232|336:191,1,90,0|0,1:0|0:0,0:0:0:0:
453,106,212316,2,0,P|457:150|452:195,1,90,0|0,3:0|0:0,0:0:0:0:
286,93,212673,6,0,B|226:85|226:85|176:115|176:115|115:107,1,180,0|0,3:0|3:0,0:0:0:0:
239,249,213208,1,0,3:0:0:0:
25,278,213386,1,0,1:0:0:0:
84,109,213565,1,0,3:0:0:0:
139,275,213743,2,0,P|141:320|131:370,1,90,0|0,3:0|0:0,0:0:0:0:
133,365,214011,1,0,1:0:0:0:
133,365,214100,5,0,3:0:0:0:
252,265,214278,1,0,1:0:0:0:
351,384,214457,1,0,3:0:0:0:
356,191,214635,1,0,0:0:0:0:
512,307,214814,2,0,P|470:289|426:292,1,90,0|0,1:0|0:0,0:0:0:0:
470,116,215171,1,0,1:0:0:0:
446,15,215349,1,0,1:0:0:0:
446,15,215438,1,0,1:0:0:0:
446,15,215527,6,0,P|386:29|302:30,1,135,4|0,3:1|0:0,0:0:0:0:
312,31,215884,1,0,3:0:0:0:
339,173,216063,1,0,3:0:0:0:
194,52,216241,1,0,1:0:0:0:
195,208,216419,1,0,0:0:0:0:
1,150,216598,2,0,P|44:142|87:154,1,90,0|0,3:0|0:0,0:0:0:0:
87,154,216865,1,0,1:0:0:0:
87,154,216954,5,0,3:0:0:0:
2,283,217133,1,0,1:0:0:0:
138,365,217311,2,0,L|148:275,1,90,0|0,3:0|0:0,0:0:0:0:
215,101,217668,1,0,1:0:0:0:
345,165,217846,1,0,0:0:0:0:
253,301,218025,2,0,L|242:212,1,90,0|0,3:0|0:0,0:0:0:0:
395,46,218382,6,0,L|374:225,1,180,0|0,3:0|3:0,0:0:0:0:
385,366,218917,1,0,3:0:0:0:
503,201,219095,1,0,1:0:0:0:
296,268,219273,1,0,3:0:0:0:
512,324,219452,1,0,3:0:0:0:
511,209,219630,1,0,3:0:0:0:
511,209,219719,1,0,1:0:0:0:
511,209,219809,5,0,3:0:0:0:
385,366,219987,1,0,1:0:0:0:
421,147,220165,1,0,3:0:0:0:
268,209,220344,1,0,1:0:0:0:
268,209,220433,1,0,1:0:0:0:
268,209,220523,2,0,P|324:257|379:247,1,135.000005149842,4|0,0:0|0:0,0:0:0:0:
379,246,221236,6,0,P|375:286|384:328,1,76.5000014591217,4|0,3:2|0:0,0:0:0:0:
258,249,221593,2,0,P|221:238|183:238,1,76.5000014591217,0|0,3:0|0:0,0:0:0:0:
99,363,221950,2,0,P|137:363|173:352,1,76.5000014591217,0|0,1:0|0:0,0:0:0:0:
279,253,222306,1,0,0:3:0:0:
145,193,222485,1,0,3:0:0:0:
145,193,222574,1,0,1:0:0:0:
145,193,222663,5,0,3:0:0:0:
13,276,222842,1,0,1:0:0:0:
33,100,223020,2,0,L|41:179,1,76.5000014591217,0|0,3:3|0:0,0:0:0:0:
162,59,223377,2,0,P|201:63|236:74,1,76.5000014591217,0|0,1:0|0:0,0:0:0:0:
335,11,223734,2,0,P|367:34|391:62,1,76.5000014591217,0|0,3:0|0:0,0:0:0:0:
512,160,224090,6,0,L|359:176,1,153.000002918243,0|0,3:0|3:0,0:0:0:0:
359,176,224804,2,0,L|348:271,1,76.5000014591217,0|0,1:0|0:0,0:0:0:0:
471,348,225161,2,0,L|395:356,1,76.5000014591217,0|0,3:0|3:0,0:0:0:0:
394,356,225428,1,0,1:0:0:0:
394,356,225518,5,0,3:0:0:0:
490,228,225696,1,0,1:0:0:0:
324,191,225874,2,0,P|287:192|252:208,1,76.5000014591217,2|0,3:0|0:0,0:0:0:0:
148,300,226231,2,0,P|131:265|130:228,1,76.5000014591217,0|0,1:0|0:0,0:0:0:0:
151,55,226588,1,0,3:0:0:0:
36,181,226766,1,0,1:0:0:0:
221,157,226945,6,0,L|298:148,1,76.5000014591217,4|0,3:1|0:0,0:0:0:0:
302,37,227302,2,0,L|378:44,1,76.5000014591217,0|0,3:0|0:0,0:0:0:0:
462,181,227658,2,0,B|467:125|467:125|495:95|495:95|502:28,1,153.000002918243,0|0,1:0|0:0,0:0:0:0:
313,143,228194,1,0,3:0:0:0:
313,143,228283,1,0,1:0:0:0:
313,143,228372,5,0,3:0:0:0:
468,210,228550,1,0,1:0:0:0:
346,313,228729,2,0,L|354:236,1,76.5000014591217,0|0,3:0|0:0,0:0:0:0:
235,377,229086,2,0,L|228:300,1,76.5000014591217,0|0,1:0|0:0,0:0:0:0:
127,243,229442,2,0,L|119:319,1,76.5000014591217,0|0,3:0|0:0,0:0:0:0:
0,157,229799,6,0,B|51:134|51:134|178:147,1,153.000002918243,0|0,3:0|3:0,0:0:0:0:
238,57,230334,1,0,3:0:0:0:
50,0,230513,1,0,1:0:0:0:
147,143,230691,1,0,3:3:0:0:
269,34,230870,2,0,L|262:110,1,76.5000014591217,0|0,0:3|3:0,0:0:0:0:
262,110,231137,1,0,1:0:0:0:
262,110,231226,5,0,3:0:0:0:
392,63,231404,1,0,1:0:0:0:
512,176,231583,2,0,P|459:190|397:165,1,114.750002188683,2|0,0:3|0:0,0:0:0:0:
369,144,231940,1,0,1:0:0:0:
369,144,232297,1,0,1:0:0:0:
290,300,232475,1,0,1:0:0:0:
192,332,232654,6,0,B|169:281|169:281|182:154,1,153.000002918243,4|0,3:2|3:0,0:0:0:0:
179,185,233367,2,0,L|103:193,1,76.5000014591217,0|0,1:0|0:0,0:0:0:0:
0,248,233724,1,0,0:3:0:0:
124,359,233902,1,0,3:0:0:0:
124,359,233992,1,0,1:0:0:0:
124,359,234081,6,0,P|161:363|196:349,1,76.5000014591217,0|0,3:0|1:0,0:0:0:0:
309,285,234438,2,0,P|309:323|318:364,1,76.5000014591217,0|0,3:3|0:0,0:0:0:0:
452,283,234795,2,0,P|459:245|459:207,1,76.5000014591217,0|0,1:0|0:0,0:0:0:0:
512,113,235151,2,0,P|500:76|481:43,1,76.5000014591217,0|0,3:0|0:0,0:0:0:0:
348,21,235508,6,0,L|336:128,1,76.5000014591217,0|0,3:0|0:0,0:0:0:0:
232,155,235865,2,0,L|231:78,1,76.5000014591217,0|0,3:0|0:0,0:0:0:0:
50,15,236222,2,0,L|126:23,1,76.5000014591217,0|0,1:0|0:0,0:0:0:0:
209,177,236578,1,0,3:0:0:0:
52,142,236757,1,0,3:0:0:0:
52,142,236846,1,0,1:0:0:0:
52,142,236935,5,0,3:0:0:0:
65,296,237114,1,0,1:0:0:0:
191,201,237292,2,0,P|199:241|191:277,1,76.5000014591217,2|0,3:0|0:0,0:0:0:0:
312,384,237649,2,0,P|305:308|332:237,1,153.000002918243,0|0,1:0|3:0,0:0:0:0:
483,125,238184,1,0,1:0:0:0:
493,22,238363,6,0,B|437:15|437:15|402:36|402:36|335:29,1,153.000002918243,4|0,3:1|3:0,0:0:0:0:
346,30,239076,2,0,L|357:137,1,76.5000014591217,0|0,1:0|0:0,0:0:0:0:
233,203,239433,2,0,L|240:126,1,76.5000014591217,0|0,3:0|3:0,0:0:0:0:
240,126,239700,1,0,1:0:0:0:
240,126,239790,5,0,3:0:0:0:
159,20,239968,1,0,1:0:0:0:
32,105,240146,2,0,P|27:142|37:183,1,76.5000014591217,0|0,3:0|0:0,0:0:0:0:
112,322,240504,2,0,P|107:284|117:244,1,76.5000014591217,0|0,1:0|0:0,0:0:0:0:
236,278,240860,2,0,P|240:240|231:200,1,76.5000014591217,0|0,3:0|0:0,0:0:0:0:
274,384,241217,6,0,L|427:368,1,153.000002918243,0|0,3:0|3:0,0:0:0:0:
512,272,241751,1,0,3:0:0:0:
306,246,241930,1,0,1:0:0:0:
430,342,242108,1,0,3:3:0:0:
452,171,242287,2,0,P|453:133|443:97,1,76.5000014591217,0|0,0:3|3:0,0:0:0:0:
443,97,242554,1,0,1:0:0:0:
443,97,242643,5,0,3:0:0:0:
300,165,242822,1,0,1:0:0:0:
386,0,243001,1,2,0:3:0:0:
240,44,243180,1,0,3:0:0:0:
240,44,243269,1,0,3:0:0:0:
240,44,243358,1,8,1:3:0:0:
451,104,243536,1,4,3:3:0:0:
269,177,243715,1,4,3:3:0:0:
358,6,243893,1,4,3:3:0:0:
373,178,244072,5,4,0:1:0:0:
374,193,244429,1,0,0:0:0:0:
369,208,244785,1,2,0:2:0:0:
208,297,245499,5,0,0:0:0:0:
207,282,245856,1,0,0:0:0:0:
212,267,246212,1,2,0:2:0:0:
97,112,246926,5,0,0:0:0:0:
112,106,247283,1,0,0:0:0:0:
128,105,247639,1,2,0:2:0:0:
144,109,247996,1,2,0:2:0:0:
89,200,248353,5,0,0:0:0:0:
105,204,248710,1,0,0:0:0:0:
121,203,249066,1,2,0:2:0:0:
136,198,249423,1,0,0:0:0:0:
227,253,249780,5,2,0:2:0:0:
232,238,250137,1,0,0:0:0:0:
233,222,250493,1,2,0:2:0:0:
339,313,251208,5,2,0:2:0:0:
334,298,251565,1,0,0:0:0:0:
333,282,251921,1,2,0:2:0:0:
333,282,252635,5,2,0:2:0:0:
333,282,253348,5,2,0:2:0:0:
346,272,253705,1,2,0:2:0:0:
438,338,254062,5,0,0:0:0:0:
432,322,254419,1,0,0:0:0:0:
497,235,254776,5,2,0:2:0:0:
510,225,255133,1,2,0:2:0:0:
396,136,255489,5,0,0:0:0:0:
401,151,255846,1,2,0:2:0:0:
402,167,256202,1,0,0:0:0:0:
398,182,256559,1,2,0:2:0:0:
268,107,256916,5,2,0:2:0:0:
279,117,257273,1,0,0:0:0:0:
288,130,257629,1,2,0:2:0:0:
292,145,257986,1,0,0:0:0:0:
253,286,258344,5,2,0:2:0:0:
242,276,258701,1,2,0:2:0:0:
233,263,259057,1,0,0:0:0:0:
229,248,259414,1,0,0:0:0:0:
181,144,259771,5,2,0:2:0:0:
168,154,260128,1,2,3:2:0:0:
154,162,260485,1,2,0:2:0:0:
154,162,261198,5,2,0:2:0:0:
159,147,261555,1,2,0:2:0:0:
160,131,261911,1,2,0:2:0:0:
253,232,262625,5,2,0:2:0:0:
248,247,262982,1,2,0:2:0:0:
247,263,263338,1,2,0:2:0:0:
399,290,264052,5,2,0:2:0:0:
414,285,264409,1,2,0:2:0:0:
430,284,264766,1,2,0:2:0:0:
446,288,265123,1,2,0:0:0:0:
