osu file format v14

[General]
AudioFilename: Hanatan - Kokoronashi.mp3
AudioLeadIn: 0
PreviewTime: 140420
Countdown: 0
SampleSet: Soft
StackLeniency: 0.7
Mode: 0
LetterboxInBreaks: 0
WidescreenStoryboard: 1

[Editor]
Bookmarks: 1446,24281,41764,47116,69952,81369,104205,115622,141312,164148,175565,198401,221236,244072,265123
DistanceSpacing: 3
BeatDivisor: 4
GridSize: 32
TimelineZoom: 2.3

[Metadata]
Title:Kokoronashi
TitleUnicode:心做し
Artist:Hanatan
ArtistUnicode:花たん
Creator:Fall
Version:Empathy
Source:
Tags:蝶々P papiyon vocaloid megpoid gumi yurica somehow japanese utaite cover _tranquility NeKroMan4ik
BeatmapID:2181064
BeatmapSetID:1043493

[Difficulty]
HPDrainRate:6
CircleSize:4
OverallDifficulty:8
ApproachRate:8.8
SliderMultiplier:1.6
SliderTickRate:1

[Events]
//Background and Video events
0,0,"cute girl.jpg",0,0
//Break Periods
//Storyboard Layer 0 (Background)
//Storyboard Layer 1 (Fail)
//Storyboard Layer 2 (Pass)
//Storyboard Layer 3 (Foreground)
//Storyboard Layer 4 (Overlay)
//Storyboard Sound Samples

[TimingPoints]
1446,356.803044719315,4,2,2,30,1,0
1446,-500,4,2,2,30,0,0
23567,-333.333333333333,4,2,2,30,0,0
24192,-333.333333333333,4,2,2,30,0,0
24281,-119.047619047619,4,2,2,60,0,1
24370,-119.047619047619,4,2,2,60,0,0
28919,-119.047619047619,4,2,2,60,0,0
29276,-119.047619047619,4,2,2,60,0,0
29990,-119.047619047619,4,2,2,60,0,0
30347,-119.047619047619,4,2,2,60,0,0
34628,-119.047619047619,4,2,2,60,0,0
34896,-119.047619047619,4,2,2,60,0,0
34985,-119.047619047619,4,2,2,60,0,0
40337,-119.047619047619,4,2,2,60,0,0
40694,-119.047619047619,4,2,2,60,0,0
41407,-119.047619047619,4,2,2,60,0,0
41764,-119.047619047619,4,2,2,60,0,0
46046,-119.047619047619,4,2,2,60,0,0
46313,-119.047619047619,4,2,2,60,0,0
46403,-119.047619047619,4,2,2,60,0,0
47116,-147.058823529412,4,2,2,50,0,0
51755,-147.058823529412,4,2,2,50,0,0
52112,-147.058823529412,4,2,2,50,0,0
52825,-147.058823529412,4,2,2,50,0,0
53182,-147.058823529412,4,2,2,50,0,0
57464,-147.058823529412,4,2,2,50,0,0
57820,-147.058823529412,4,2,2,50,0,0
63172,-147.058823529412,4,2,2,50,0,0
63529,-147.058823529412,4,2,2,50,0,0
64243,-147.058823529412,4,2,2,50,0,0
64600,-147.058823529412,4,2,2,50,0,0
68881,-147.058823529412,4,2,2,50,0,0
69238,-147.058823529412,4,2,2,50,0,0
69952,-147.058823529412,4,2,2,50,0,0
74590,-147.058823529412,4,2,2,50,0,0
74947,-147.058823529412,4,2,2,50,0,0
80477,-285.714285714286,4,2,2,60,0,0
81280,-285.714285714286,4,2,2,60,0,0
81369,-86.9565217391304,4,2,2,70,0,1
84135,-86.9565217391304,4,2,2,70,0,1
84224,-86.9565217391304,4,2,2,70,0,1
89843,-86.9565217391304,4,2,2,70,0,1
89933,-86.9565217391304,4,2,2,70,0,1
92073,-100,4,2,2,70,0,0
92252,-111.111111111111,4,2,2,70,0,0
92430,-125,4,2,2,70,0,0
92609,-142.857142857143,4,2,2,70,0,0
92787,-86.9565217391304,4,2,2,70,0,1
95552,-86.9565217391304,4,2,2,70,0,1
95642,-86.9565217391304,4,2,2,70,0,1
95909,-86.9565217391304,4,2,2,70,0,1
95998,-86.9565217391304,4,2,2,70,0,1
98764,-86.9565217391304,4,2,2,70,0,1
98853,-86.9565217391304,4,2,2,70,0,1
101261,-86.9565217391304,4,2,2,70,0,1
101350,-86.9565217391304,4,2,2,70,0,1
101618,-86.9565217391304,4,2,2,70,0,1
101707,-86.9565217391304,4,2,2,70,0,1
103491,-133.333333333333,4,2,2,70,0,1
104205,-285.714285714286,4,2,2,40,0,0
109914,-181.818181818182,4,2,2,40,0,0
114730,-181.818181818182,4,2,2,40,0,0
115087,-181.818181818182,4,2,2,40,0,0
115266,-181.818181818182,4,2,2,40,0,0
115533,-181.818181818182,4,2,2,40,0,0
115622,-114.942528735632,4,2,2,50,0,0
117406,-114.942528735632,4,2,2,50,0,0
117763,-114.942528735632,4,2,2,50,0,0
118477,-114.942528735632,4,2,2,50,0,0
118834,-114.942528735632,4,2,2,50,0,0
120261,-114.942528735632,4,2,2,50,0,0
120618,-114.942528735632,4,2,2,50,0,0
121331,-114.942528735632,4,2,2,50,0,0
121688,-114.942528735632,4,2,2,50,0,0
123115,-114.942528735632,4,2,2,50,0,0
123472,-114.942528735632,4,2,2,50,0,0
124186,-114.942528735632,4,2,2,50,0,0
124543,-114.942528735632,4,2,2,50,0,0
125970,-114.942528735632,4,2,2,50,0,0
126327,-114.942528735632,4,2,2,50,0,0
127665,-114.942528735632,4,2,2,50,0,0
127754,-114.942528735632,4,2,2,50,0,0
128467,-114.942528735632,4,2,2,50,0,0
128824,-114.942528735632,4,2,2,50,0,0
129805,-114.942528735632,4,2,2,50,0,0
129895,-114.942528735632,4,2,2,50,0,0
130251,-114.942528735632,4,2,2,50,0,0
131322,-114.942528735632,4,2,2,50,0,0
131679,-114.942528735632,4,2,2,50,0,0
134087,-114.942528735632,4,2,2,50,0,0
134176,-114.942528735632,4,2,2,50,0,0
134533,-114.942528735632,4,2,2,50,0,0
134890,-114.942528735632,4,2,2,50,0,0
135603,-114.942528735632,4,2,2,50,0,0
135960,-114.942528735632,4,2,2,50,0,0
137387,-114.942528735632,4,2,2,50,0,0
137655,-114.942528735632,4,2,2,5,0,0
137744,-500,4,2,2,50,0,0
138101,-114.942528735632,4,2,2,50,0,0
138279,-114.942528735632,4,2,2,50,0,0
140599,-212.765957446809,4,2,2,50,0,0
141223,-212.765957446809,4,2,2,50,0,0
141312,-104.166666666667,4,2,20,70,0,1
141401,-104.166666666667,4,2,20,70,0,0
141669,-104.166666666667,4,2,21,70,0,0
142026,-104.166666666667,4,2,22,70,0,0
142383,-104.166666666667,4,2,20,70,0,0
142561,-104.166666666667,4,2,23,70,0,0
142740,-104.166666666667,4,2,22,70,0,0
142918,-104.166666666667,4,2,24,70,0,0
143096,-104.166666666667,4,2,20,70,0,0
143453,-104.166666666667,4,2,23,70,0,0
143721,-104.166666666667,4,2,23,70,0,0
143810,-104.166666666667,4,2,25,70,0,0
144167,-104.166666666667,4,2,20,70,0,0
144524,-104.166666666667,4,2,26,70,0,0
144880,-104.166666666667,4,2,27,70,0,0
145237,-104.166666666667,4,2,26,70,0,0
145594,-104.166666666667,4,2,20,70,0,0
145951,-104.166666666667,4,2,25,70,0,0
146308,-104.166666666667,4,2,23,70,0,0
146664,-104.166666666667,4,2,25,70,0,0
147021,-104.166666666667,4,2,28,70,0,0
147378,-104.166666666667,4,2,29,70,0,0
147556,-104.166666666667,4,2,30,70,0,0
147735,-104.166666666667,4,2,31,70,0,0
147913,-104.166666666667,4,2,32,70,0,0
148092,-104.166666666667,4,2,22,70,0,0
148270,-104.166666666667,4,2,30,70,0,0
148448,-104.166666666667,4,2,28,70,0,0
148627,-104.166666666667,4,2,31,70,0,0
148805,-104.166666666667,4,2,21,70,0,0
148984,-104.166666666667,4,2,22,70,0,0
149162,-104.166666666667,4,2,25,70,0,0
149340,-104.166666666667,4,2,23,70,0,0
149519,-104.166666666667,4,2,20,70,0,0
149697,-104.166666666667,4,2,24,70,0,0
149876,-104.166666666667,4,2,27,70,0,0
150054,-104.166666666667,4,2,26,70,0,0
150232,-104.166666666667,4,2,24,70,0,0
150411,-104.166666666667,4,2,23,70,0,0
150589,-104.166666666667,4,2,25,70,0,0
150768,-104.166666666667,4,2,24,70,0,0
150946,-104.166666666667,4,2,20,70,0,0
151124,-104.166666666667,4,2,22,70,0,0
151303,-104.166666666667,4,2,20,70,0,0
151481,-104.166666666667,4,2,23,70,0,0
151660,-104.166666666667,4,2,25,70,0,0
151838,-104.166666666667,4,2,22,70,0,0
152016,-116.279069767442,4,2,20,70,0,0
152195,-131.578947368422,4,2,23,70,0,0
152373,-151.515151515152,4,2,20,70,0,0
152552,-178.571428571429,4,2,20,70,0,0
152730,-104.166666666667,4,2,28,70,0,0
152998,-104.166666666667,4,2,28,70,0,0
153087,-104.166666666667,4,2,22,70,0,0
153444,-104.166666666667,4,2,20,70,0,0
153800,-104.166666666667,4,2,23,70,0,0
154157,-104.166666666667,4,2,25,70,0,0
154514,-104.166666666667,4,2,24,70,0,0
154782,-104.166666666667,4,2,24,70,0,0
154871,-104.166666666667,4,2,26,70,0,0
155228,-104.166666666667,4,2,27,70,0,0
155584,-104.166666666667,4,2,34,70,0,0
155852,-104.166666666667,4,2,34,70,0,0
155941,-104.166666666667,4,2,34,70,0,0
156298,-104.166666666667,4,2,34,70,0,0
156655,-104.166666666667,4,2,34,70,0,0
157012,-104.166666666667,4,2,27,70,0,0
157368,-104.166666666667,4,2,35,70,0,0
157636,-104.166666666667,4,2,35,70,0,0
157725,-104.166666666667,4,2,34,70,0,0
157904,-104.166666666667,4,2,33,70,0,0
158082,-104.166666666667,4,2,27,70,0,0
158796,-104.166666666667,4,2,35,70,0,0
159152,-104.166666666667,4,2,34,70,0,0
159331,-104.166666666667,4,2,33,70,0,0
159509,-104.166666666667,4,2,27,70,0,0
159688,-104.166666666667,4,2,24,70,0,0
159866,-104.166666666667,4,2,20,70,0,0
160223,-104.166666666667,4,2,23,70,0,0
160580,-104.166666666667,4,2,25,70,0,0
160936,-104.166666666667,4,2,20,70,0,0
161115,-104.166666666667,4,2,21,70,0,0
161293,-104.166666666667,4,2,20,70,0,0
161472,-104.166666666667,4,2,21,70,0,0
161650,-104.166666666667,4,2,22,70,0,0
161828,-104.166666666667,4,2,23,70,0,0
162007,-104.166666666667,4,2,20,70,0,0
162185,-104.166666666667,4,2,21,70,0,0
162364,-104.166666666667,4,2,20,70,0,0
162542,-104.166666666667,4,2,21,70,0,0
162720,-104.166666666667,4,2,36,70,0,0
163077,-104.166666666667,4,2,22,70,0,0
163434,-104.166666666667,4,2,20,70,0,0
164148,-135.135135135135,4,2,2,50,0,0
168786,-135.135135135135,4,2,2,50,0,0
169857,-135.135135135135,4,2,2,50,0,0
174673,-135.135135135135,4,2,2,50,0,0
174852,-156.25,4,2,2,50,0,0
175030,-185.185185185185,4,2,2,50,0,0
175209,-227.272727272727,4,2,2,50,0,0
175387,-294.117647058823,4,2,2,50,0,0
175565,-500,4,2,2,40,0,0
197509,-277.777777777778,4,2,2,40,0,0
198312,-277.777777777778,4,2,2,40,0,0
198401,-82.6446280991736,4,2,2,70,0,1
201166,-82.6446280991736,4,2,2,70,0,1
201255,-82.6446280991736,4,2,2,70,0,1
206875,-82.6446280991736,4,2,2,70,0,1
206964,-82.6446280991736,4,2,2,70,0,1
209105,-90.9090909090909,4,2,2,70,0,0
209283,-100,4,2,2,70,0,0
209462,-111.111111111111,4,2,2,70,0,0
209640,-125,4,2,2,70,0,0
209818,-82.6446280991736,4,2,2,70,0,1
212584,-82.6446280991736,4,2,2,70,0,1
212673,-82.6446280991736,4,2,2,70,0,1
212941,-82.6446280991736,4,2,2,70,0,1
213030,-82.6446280991736,4,2,2,70,0,1
215795,-82.6446280991736,4,2,2,70,0,1
215884,-82.6446280991736,4,2,2,70,0,1
218293,-82.6446280991736,4,2,2,70,0,1
218382,-82.6446280991736,4,2,2,70,0,1
218649,-82.6446280991736,4,2,2,70,0,1
218739,-82.6446280991736,4,2,2,70,0,1
220523,-117.647058823529,4,2,2,70,0,1
221236,-108.695652173913,4,2,2,60,0,0
225875,-108.695652173913,4,2,2,60,0,0
226231,-108.695652173913,4,2,2,60,0,0
226945,-108.695652173913,4,2,2,60,0,0
227302,-108.695652173913,4,2,2,60,0,0
231583,-108.695652173913,4,2,2,60,0,0
231851,-108.695652173913,4,2,2,60,0,0
231940,-108.695652173913,4,2,2,60,0,0
237292,-108.695652173913,4,2,2,60,0,0
237649,-108.695652173913,4,2,2,60,0,0
238363,-108.695652173913,4,2,2,60,0,0
238720,-108.695652173913,4,2,2,60,0,0
243001,-108.695652173913,4,2,2,60,0,0
243358,-108.695652173913,4,2,2,60,0,0
243715,-121.951219512195,4,2,2,60,0,0
243982,-121.951219512195,4,2,2,60,0,0
244072,-500,4,2,2,30,0,0
265123,-1000,4,2,2,30,0,0

[Colours]
Combo1 : 255,169,128
Combo2 : 106,181,255
Combo3 : 0,255,255
Combo4 : 255,121,106

[HitObjects]
45,125,1446,5,2,0:0:0:0:
72,94,1802,1,2,0:0:0:0:
106,117,2159,1,2,0:0:0:0:
177,198,2873,5,2,0:0:0:0:
204,229,3229,1,2,0:0:0:0:
238,206,3586,1,2,0:0:0:0:
342,47,4300,5,2,0:0:0:0:
373,74,4656,1,2,0:0:0:0:
350,108,5013,1,2,0:0:0:0:
326,142,5370,1,2,0:0:0:0:
346,178,5727,1,2,0:0:0:0:
331,217,6084,1,2,0:0:0:0:
346,255,6441,2,0,L|366:258,2,16,2|0|2,0:0|0:0|0:0,0:0:0:0:
250,310,7154,5,2,0:0:0:0:
223,341,7510,1,2,0:0:0:0:
189,318,7867,1,2,0:0:0:0:
118,237,8581,5,2,0:0:0:0:
91,206,8937,1,2,0:0:0:0:
57,229,9294,1,2,0:0:0:0:
29,97,10009,5,2,0:0:0:0:
68,82,10366,1,2,0:0:0:0:
103,102,10722,1,2,0:0:0:0:
141,86,11079,1,2,0:0:0:0:
179,70,11436,1,2,0:0:0:0:
213,93,11793,1,2,0:0:0:0:
227,132,12150,2,0,P|224:144|225:154,2,16,2|0|2,0:0|0:0|0:0,0:0:0:0:
301,66,12863,5,2,0:0:0:0:
329,95,13220,1,2,0:0:0:0:
330,136,13577,1,2,0:0:0:0:
331,177,13934,1,2,0:0:0:0:
352,212,14290,2,0,L|388:214,1,32,2|2,0:0|0:0,0:0:0:0:
450,283,15004,2,0,L|414:285,1,32,2|2,0:0|0:0,0:0:0:0:
351,327,15718,5,2,0:0:0:0:
311,313,16074,1,2,0:0:0:0:
273,330,16431,1,2,0:0:0:0:
235,312,16788,1,2,0:0:0:0:
193,312,17145,2,0,L|159:313,2,32,2|2|2,0:0|0:0|0:0,0:0:0:0:
178,193,18572,5,2,0:0:0:0:
142,214,18929,1,2,0:0:0:0:
103,199,19286,1,2,0:0:0:0:
65,85,19999,5,2,0:0:0:0:
101,64,20356,1,2,0:0:0:0:
140,79,20713,1,2,0:0:0:0:
294,125,21426,5,2,0:0:0:0:
258,103,21783,1,2,0:0:0:0:
283,55,22140,1,2,0:0:0:0:
353,75,22497,2,0,P|379:78|420:66,1,64,2|0,0:0|0:0,0:0:0:0:
475,21,23567,1,2,0:0:0:0:
475,21,24281,6,0,B|458:46|458:46|457:114,1,67.1999979492188,6|0,1:2|0:0,0:0:0:0:
478,167,24638,2,0,P|482:204|476:245,1,67.1999979492188,2|0,0:0|0:0,0:0:0:0:
425,305,24995,1,10,0:0:0:0:
337,232,25173,1,0,0:0:0:0:
401,298,25351,1,2,0:0:0:0:
300,338,25530,1,0,1:0:0:0:
300,338,25619,1,8,0:0:0:0:
300,338,25708,6,0,L|230:338,1,67.1999979492188,2|8,1:2|0:0,0:0:0:0:
149,304,26065,1,2,1:2:0:0:
149,304,26422,2,0,P|159:266|157:215,1,67.1999979492188,10|0,0:0|0:0,0:0:0:0:
101,179,26779,2,0,P|91:141|93:90,1,67.1999979492188,2|0,1:2|0:0,0:0:0:0:
147,51,27135,6,0,P|177:70|228:68,1,67.1999979492188,2|0,1:2|0:0,0:0:0:0:
285,37,27492,1,2,1:2:0:0:
268,142,27671,1,0,0:0:0:0:
345,121,27849,2,0,L|350:194,1,67.1999979492188,10|0,0:0|0:0,0:0:0:0:
364,277,28206,1,2,0:0:0:0:
452,220,28384,1,0,1:0:0:0:
452,220,28473,1,8,0:0:0:0:
452,220,28563,6,0,P|445:177|451:152,1,67.1999979492188,2|0,1:2|0:0,0:0:0:0:
489,86,28919,2,0,B|486:55|486:55|407:40,1,100.799996923828,2|0,1:2|0:0,0:0:0:0:
364,32,29276,1,10,0:0:0:0:
364,32,29633,1,2,1:2:0:0:
268,142,29811,1,8,0:0:0:0:
225,72,29990,6,0,L|148:69,1,67.1999979492188,6|0,1:2|0:0,0:0:0:0:
64,56,30347,2,0,P|70:102|66:141,1,67.1999979492188,2|0,1:2|0:0,0:0:0:0:
23,191,30703,2,0,P|17:237|21:276,1,67.1999979492188,10|0,0:0|0:0,0:0:0:0:
75,318,31060,1,2,0:0:0:0:
152,245,31239,1,0,1:0:0:0:
152,245,31328,1,8,0:0:0:0:
152,245,31417,5,2,1:2:0:0:
90,316,31595,1,8,0:0:0:0:
195,349,31774,2,0,P|249:340|278:344,1,67.1999979492188,2|0,1:2|0:0,0:0:0:0:
366,361,32131,1,8,0:0:0:0:
306,272,32487,1,2,1:2:0:0:
395,178,32844,6,0,L|396:250,1,67.1999979492188,2|0,1:2|0:0,0:0:0:0:
458,306,33201,1,2,1:2:0:0:
306,272,33379,1,0,1:0:0:0:
395,178,33558,1,10,0:0:0:0:
320,148,33736,1,2,0:0:0:0:
358,108,33915,1,2,0:0:0:0:
339,80,34093,1,0,1:0:0:0:
339,80,34182,1,8,0:0:0:0:
339,80,34271,6,0,L|272:79,1,67.1999979492188,2|8,1:2|0:0,0:0:0:0:
204,24,34628,2,0,B|179:44|179:44|174:128,1,100.799996923828,2|0,1:2|0:0,0:0:0:0:
176,166,34985,1,10,0:0:0:0:
176,166,35342,1,10,0:0:0:0:
85,89,35520,1,8,0:0:0:0:
23,152,35699,6,0,L|26:232,1,67.1999979492188,6|0,1:2|0:0,0:0:0:0:
29,310,36055,2,0,P|63:300|101:308,1,67.1999979492188,2|0,0:0|0:0,0:0:0:0:
162,349,36412,1,10,0:0:0:0:
240,302,36591,1,0,0:0:0:0:
307,347,36769,2,0,P|345:351|384:342,1,67.1999979492188,2|0,0:0|1:0,0:0:0:0:
424,326,37037,1,8,0:0:0:0:
424,326,37126,5,2,1:2:0:0:
359,253,37304,1,8,0:0:0:0:
467,222,37483,2,0,P|455:184|461:146,1,67.1999979492188,2|0,1:2|0:0,0:0:0:0:
490,83,37839,2,0,P|452:70|405:78,1,67.1999979492188,10|0,0:0|0:0,0:0:0:0:
350,119,38196,2,0,P|312:132|265:124,1,67.1999979492188,2|0,1:2|0:0,0:0:0:0:
202,103,38553,5,2,1:2:0:0:
202,103,38910,2,0,L|208:33,1,67.1999979492188,2|0,1:2|0:0,0:0:0:0:
344,52,39267,2,0,L|350:122,1,67.1999979492188,10|0,0:0|0:0,0:0:0:0:
287,226,39623,1,2,0:0:0:0:
189,192,39802,1,0,1:0:0:0:
189,192,39891,1,8,0:0:0:0:
189,192,39980,2,0,P|131:184|96:191,1,67.1999979492188,2|8,1:2|0:0,0:0:0:0:
67,242,40337,2,0,B|54:269|54:269|29:182,1,100.799996923828,2|0,1:2|0:0,0:0:0:0:
22,154,40694,5,10,0:0:0:0:
22,154,41051,1,2,1:2:0:0:
87,60,41229,1,8,0:0:0:0:
202,103,41407,6,0,P|246:98|276:101,1,67.1999979492188,6|0,1:2|0:0,0:0:0:0:
354,144,41764,2,0,P|398:149|428:146,1,67.1999979492188,2|0,1:2|0:0,0:0:0:0:
502,44,42121,2,0,B|485:52|485:52|476:102,1,67.1999979492188,10|0,0:0|0:0,0:0:0:0:
491,184,42478,1,2,0:0:0:0:
423,253,42656,1,0,1:0:0:0:
423,253,42745,1,8,0:0:0:0:
423,253,42835,5,2,1:2:0:0:
488,333,43013,1,8,0:0:0:0:
372,365,43191,2,0,L|298:363,1,67.1999979492188,2|0,1:2|0:0,0:0:0:0:
230,314,43548,2,0,L|156:316,1,67.1999979492188,8|0,0:0|0:0,0:0:0:0:
91,361,43905,1,2,1:2:0:0:
91,361,44262,6,0,P|71:319|72:279,1,67.1999979492188,2|0,1:2|0:0,0:0:0:0:
67,215,44619,1,2,1:2:0:0:
153,293,44797,1,0,1:0:0:0:
158,197,44975,1,10,0:0:0:0:
208,221,45154,1,2,0:0:0:0:
231,185,45332,1,2,0:0:0:0:
266,188,45511,1,0,1:0:0:0:
266,188,45600,1,8,0:0:0:0:
266,188,45689,6,0,P|308:184|331:193,1,67.1999979492188,2|8,1:2|0:0,0:0:0:0:
386,248,46046,2,0,B|379:265|379:265|467:264,1,100.799996923828,2|0,1:2|0:0,0:0:0:0:
508,261,46403,1,10,0:0:0:0:
508,261,46759,1,10,0:0:0:0:
455,181,46938,1,8,0:0:0:0:
503,89,47116,6,0,P|476:78|430:78,1,54.4000003320313,6|0,1:2|0:0,0:0:0:0:
373,93,47473,2,0,P|346:104|300:104,1,54.4000003320313,2|0,0:0|0:0,0:0:0:0:
245,97,47830,2,0,P|209:87|123:96,1,108.800000664063,10|0,0:0|0:0,0:0:0:0:
62,139,48365,5,0,1:0:0:0:
62,139,48454,1,0,1:0:0:0:
62,139,48544,2,0,L|60:195,2,54.4000003320313,2|8|2,1:2|0:0|1:2,0:0:0:0:
135,221,49257,1,10,0:0:0:0:
135,221,49614,1,0,1:0:0:0:
71,290,49792,1,0,0:0:0:0:
149,344,49971,6,0,P|181:334|224:341,1,54.4000003320313,2|0,1:2|0:0,0:0:0:0:
286,350,50328,2,0,P|318:360|361:353,1,54.4000003320313,2|0,1:2|0:0,0:0:0:0:
416,350,50684,1,10,0:0:0:0:
361,285,50863,1,0,0:0:0:0:
436,252,51041,1,2,0:0:0:0:
390,184,51220,1,0,1:0:0:0:
390,184,51309,1,0,1:0:0:0:
390,184,51398,6,0,P|402:144|403:129,1,54.4000003320313,2|8,1:2|0:0,0:0:0:0:
395,46,51755,2,0,B|382:31|382:31|302:20,1,81.6000004980469,2|0,1:2|0:0,0:0:0:0:
282,20,52112,1,10,0:0:0:0:
215,87,52290,1,0,0:0:0:0:
294,106,52468,1,2,1:2:0:0:
200,5,52647,1,8,0:0:0:0:
200,5,52825,6,0,L|138:9,1,54.4000003320313,6|0,1:2|0:0,0:0:0:0:
47,73,53182,2,0,L|101:76,1,54.4000003320313,2|0,0:0|0:0,0:0:0:0:
141,149,53539,2,0,P|135:189|142:263,1,108.800000664063,10|0,0:0|0:0,0:0:0:0:
199,329,54074,1,0,1:0:0:0:
199,329,54163,1,0,1:0:0:0:
199,329,54252,6,0,L|128:333,1,54.4000003320313,2|8,1:2|0:0,0:0:0:0:
39,309,54609,1,2,1:2:0:0:
39,309,54966,2,0,P|45:268|39:234,1,54.4000003320313,10|0,0:0|0:0,0:0:0:0:
19,178,55323,2,0,P|13:137|19:103,1,54.4000003320313,0|0,1:0|0:0,0:0:0:0:
55,60,55680,6,0,P|96:70|166:61,1,108.800000664063,2|0,1:2|1:0,0:0:0:0:
245,24,56215,1,0,1:0:0:0:
212,148,56393,2,0,P|246:142|280:147,1,54.4000003320313,10|0,0:0|0:0,0:0:0:0:
338,184,56750,1,2,0:0:0:0:
404,117,56928,1,0,1:0:0:0:
404,117,57018,1,0,1:0:0:0:
404,117,57107,5,2,1:2:0:0:
347,204,57285,1,8,0:0:0:0:
424,270,57464,2,0,P|411:290|412:348,1,81.6000004980469,2|0,1:2|0:0,0:0:0:0:
439,371,57820,1,10,0:0:0:0:
328,338,57999,1,0,0:0:0:0:
253,374,58177,1,10,0:0:0:0:
131,340,58356,1,8,0:0:0:0:
197,293,58534,6,0,L|196:218,1,54.4000003320313,6|0,1:2|0:0,0:0:0:0:
124,152,58891,2,0,L|125:227,1,54.4000003320313,2|0,0:0|0:0,0:0:0:0:
273,240,59248,2,0,P|257:191|187:163,1,108.800000664063,10|2,0:0|0:0,0:0:0:0:
57,224,59783,1,0,1:0:0:0:
92,221,59872,1,0,1:0:0:0:
124,206,59961,1,2,1:2:0:0:
100,118,60140,1,8,0:0:0:0:
193,73,60318,6,0,P|230:74|251:68,1,54.4000003320313,2|0,1:2|0:0,0:0:0:0:
311,29,60675,2,0,P|348:28|369:34,1,54.4000003320313,10|0,0:0|0:0,0:0:0:0:
423,81,61032,1,2,1:2:0:0:
423,81,61388,6,0,B|403:107|403:107|404:194,1,108.800000664063,2|0,1:2|1:0,0:0:0:0:
453,241,61924,2,0,B|473:267|473:267|472:354,1,108.800000664063,2|2,0:0|0:0,0:0:0:0:
403,376,62459,1,2,0:0:0:0:
332,310,62637,1,0,1:0:0:0:
332,310,62726,1,0,1:0:0:0:
332,310,62816,5,2,1:2:0:0:
225,362,62994,1,8,0:0:0:0:
167,303,63172,2,0,L|69:307,1,81.6000004980469,2|0,1:2|0:0,0:0:0:0:
47,307,63529,1,10,0:0:0:0:
77,379,63708,1,0,0:0:0:0:
90,234,63886,1,0,1:0:0:0:
23,177,64064,1,8,0:0:0:0:
109,146,64243,6,0,L|179:150,1,54.4000003320313,6|0,1:2|0:0,0:0:0:0:
269,90,64600,2,0,L|199:86,1,54.4000003320313,2|0,0:0|0:0,0:0:0:0:
115,16,64956,2,0,L|185:20,1,54.4000003320313,10|0,0:0|0:0,0:0:0:0:
269,90,65313,1,0,0:0:0:0:
354,26,65492,1,0,1:0:0:0:
354,26,65581,1,0,1:0:0:0:
354,26,65670,6,0,P|349:62|354:87,1,54.4000003320313,2|8,1:2|0:0,0:0:0:0:
404,134,66027,2,0,P|409:160|406:187,1,54.4000003320313,2|0,1:2|0:0,0:0:0:0:
354,243,66384,1,10,0:0:0:0:
435,324,66740,1,0,1:0:0:0:
354,243,67097,6,0,P|302:241|241:247,1,108.800000664063,2|2,0:0|1:2,0:0:0:0:
170,301,67632,1,0,1:0:0:0:
273,346,67811,1,10,0:0:0:0:
273,346,68168,5,2,0:0:0:0:
161,313,68346,1,0,1:0:0:0:
161,313,68435,1,0,1:0:0:0:
161,313,68524,1,2,1:2:0:0:
70,350,68703,1,8,0:0:0:0:
26,277,68881,2,0,P|26:234|52:182,1,81.6000004980469,2|0,1:2|0:0,0:0:0:0:
66,170,69238,5,10,0:0:0:0:
66,170,69595,1,10,0:0:0:0:
190,232,69773,1,8,0:0:0:0:
152,149,69952,6,0,L|146:93,1,54.4000003320313,6|0,1:2|0:0,0:0:0:0:
243,15,70308,2,0,L|237:69,1,54.4000003320313,2|0,0:0|0:0,0:0:0:0:
325,157,70665,2,0,L|319:101,1,54.4000003320313,10|0,0:0|0:0,0:0:0:0:
416,26,71022,2,0,L|405:108,1,81.6000004980469,0|0,0:0|0:0,0:0:0:0:
402,126,71379,5,2,1:2:0:0:
498,88,71557,1,8,0:0:0:0:
511,221,71736,2,0,P|471:214|440:216,1,54.4000003320313,2|0,1:2|0:0,0:0:0:0:
391,253,72093,2,0,P|363:251|337:246,1,54.4000003320313,10|0,0:0|0:0,0:0:0:0:
270,209,72449,1,0,1:0:0:0:
270,209,72806,6,0,P|262:240|291:308,1,108.800000664063,2|2,1:2|1:2,0:0:0:0:
291,308,73520,2,0,P|260:300|192:329,1,108.800000664063,10|0,0:0|0:0,0:0:0:0:
125,381,74055,1,0,1:0:0:0:
125,381,74144,1,0,1:0:0:0:
125,381,74233,1,2,1:2:0:0:
34,326,74412,1,8,0:0:0:0:
113,286,74590,2,0,B|95:266|95:266|100:198,1,81.6000004980469,2|0,1:2|0:0,0:0:0:0:
105,173,74947,1,10,0:0:0:0:
105,173,75304,1,0,1:0:0:0:
197,222,75482,1,8,0:0:0:0:
264,168,75661,6,0,L|325:171,1,54.4000003320313,6|0,1:2|0:0,0:0:0:0:
387,140,76017,2,0,L|441:137,1,54.4000003320313,2|0,0:0|0:0,0:0:0:0:
504,179,76374,1,10,0:0:0:0:
383,223,76731,1,0,0:0:0:0:
321,96,77088,5,2,1:2:0:0:
378,28,77266,1,8,0:0:0:0:
274,6,77445,1,2,1:2:0:0:
274,6,77801,2,0,L|159:10,1,108.800000664063,2|6,1:2|0:0,0:0:0:0:
256,192,78247,12,0,80299,0:0:0:0:
89,16,80477,5,0,1:0:0:0:
82,40,80567,5,0,1:0:0:0:
86,64,80656,5,10,0:0:0:0:
152,153,80834,1,0,0:0:0:0:
200,82,81013,2,0,L|233:83,1,27.9999991455078,0|0,0:0|0:0,0:0:0:0:
390,50,81369,6,0,P|329:55|296:43,1,92.0000017547608,6|0,1:2|0:0,0:0:0:0:
283,217,81726,2,0,L|291:123,1,92.0000017547608,2|0,0:0|0:0,0:0:0:0:
491,212,82083,1,10,0:0:0:0:
371,136,82261,1,2,0:0:0:0:
470,112,82440,1,2,0:0:0:0:
381,267,82618,1,0,1:0:0:0:
381,267,82707,1,8,0:0:0:0:
381,267,82797,6,0,P|366:320|371:365,1,92.0000017547608,2|8,0:0|0:0,0:0:0:0:
504,383,83153,1,2,1:2:0:0:
444,321,83332,1,0,0:0:0:0:
291,373,83510,2,0,L|193:370,1,92.0000017547608,10|0,0:0|0:0,0:0:0:0:
89,301,83867,2,0,L|180:298,1,92.0000017547608,2|0,1:2|0:0,0:0:0:0:
283,217,84224,1,2,1:2:0:0:
283,217,84581,5,2,1:2:0:0:
190,286,84759,1,2,1:2:0:0:
90,162,84937,1,10,0:0:0:0:
180,128,85116,1,2,0:0:0:0:
161,210,85294,1,2,0:0:0:0:
109,77,85473,1,0,1:0:0:0:
102,55,85562,1,8,0:0:0:0:
96,32,85651,6,0,P|154:37|195:26,1,92.0000017547608,2|8,1:2|0:0,0:0:0:0:
380,0,86008,2,0,P|322:-5|281:6,1,92.0000017547608,2|0,1:2|0:0,0:0:0:0:
344,183,86365,1,10,0:0:0:0:
337,73,86543,1,2,0:0:0:0:
441,132,86721,1,10,0:0:0:0:
405,271,86900,1,8,0:0:0:0:
405,271,86989,1,8,0:0:0:0:
405,271,87078,6,0,L|403:368,1,92.0000017547608,6|0,1:2|0:0,0:0:0:0:
209,361,87435,2,0,L|207:269,1,92.0000017547608,2|2,0:0|0:0,0:0:0:0:
269,171,87792,1,10,0:0:0:0:
314,259,87970,1,2,0:0:0:0:
171,171,88149,1,2,0:0:0:0:
126,259,88327,1,0,1:0:0:0:
126,259,88416,1,8,0:0:0:0:
126,259,88505,6,0,P|73:255|31:264,1,92.0000017547608,2|8,0:0|0:0,0:0:0:0:
155,161,88862,1,2,1:2:0:0:
155,161,89219,5,10,0:0:0:0:
21,53,89397,1,2,0:0:0:0:
105,4,89576,2,0,P|106:49|106:98,1,92.0000017547608,2|0,1:2|0:0,0:0:0:0:
274,95,89933,6,0,P|217:78|174:87,1,92.0000017547608,2|0,1:2|0:0,0:0:0:0:
344,39,90289,1,2,1:2:0:0:
403,200,90468,1,0,1:0:0:0:
287,190,90646,1,10,0:0:0:0:
450,81,90825,1,2,0:0:0:0:
491,265,91003,1,2,0:0:0:0:
398,321,91181,1,0,1:0:0:0:
398,321,91271,1,8,0:0:0:0:
398,321,91360,6,0,L|300:324,1,92.0000017547608,2|8,1:2|0:0,0:0:0:0:
266,207,91717,1,2,1:2:0:0:
199,346,91895,1,8,0:0:0:0:
190,324,91984,1,8,0:0:0:0:
173,312,92073,1,10,0:3:0:0:
42,284,92252,1,10,0:3:0:0:
91,367,92430,1,6,0:3:0:0:
122,217,92609,1,0,0:0:0:0:
41,166,92787,6,0,L|45:68,1,92.0000017547608,6|0,1:2|0:0,0:0:0:0:
138,15,93144,1,2,0:0:0:0:
203,98,93322,1,0,0:0:0:0:
355,41,93501,2,0,L|262:40,1,92.0000017547608,10|2,0:0|0:0,0:0:0:0:
203,98,93857,1,2,0:0:0:0:
285,187,94036,1,0,1:0:0:0:
285,187,94125,1,8,0:0:0:0:
285,187,94214,6,0,P|277:247|283:279,1,92.0000017547608,2|8,1:2|0:0,0:0:0:0:
438,348,94571,2,0,P|446:288|440:256,1,92.0000017547608,2|0,1:2|0:0,0:0:0:0:
362,146,94928,2,0,B|378:166|378:166|454:168,1,92.0000017547608,10|0,0:0|0:0,0:0:0:0:
506,34,95285,2,0,B|490:14|490:14|414:12,1,92.0000017547608,2|0,1:2|0:0,0:0:0:0:
223,48,95642,6,0,P|291:74|343:62,1,92.0000017547608,2|0,1:2|0:0,0:0:0:0:
229,159,95998,1,2,1:2:0:0:
285,0,96177,1,2,1:2:0:0:
362,146,96355,1,10,0:0:0:0:
210,55,96534,1,2,0:0:0:0:
168,227,96712,1,2,0:0:0:0:
66,202,96890,1,0,1:0:0:0:
66,202,96980,1,8,0:0:0:0:
66,202,97069,6,0,L|69:294,1,92.0000017547608,2|8,1:2|0:0,0:0:0:0:
168,227,97426,1,2,1:2:0:0:
267,325,97604,1,2,0:0:0:0:
137,349,97782,1,10,0:0:0:0:
268,231,97961,1,2,1:2:0:0:
397,362,98139,1,10,0:0:0:0:
487,253,98318,1,8,0:0:0:0:
487,253,98407,1,8,0:0:0:0:
487,253,98496,6,0,P|503:215|505:164,1,92.0000017547608,6|0,1:2|0:0,0:0:0:0:
502,11,98853,1,2,0:0:0:0:
413,133,99031,1,2,0:0:0:0:
255,28,99210,1,10,0:0:0:0:
354,53,99388,1,2,0:0:0:0:
248,120,99566,1,2,0:0:0:0:
141,12,99745,1,0,1:0:0:0:
141,12,99834,1,8,0:0:0:0:
141,12,99923,6,0,L|143:103,1,92.0000017547608,2|8,0:0|0:0,0:0:0:0:
47,255,100280,2,0,L|45:164,1,92.0000017547608,2|0,1:2|0:0,0:0:0:0:
255,282,100637,1,10,0:0:0:0:
122,333,100815,1,2,0:0:0:0:
126,176,100994,2,0,P|177:174|209:133,1,92.0000017547608,2|0,1:2|0:0,0:0:0:0:
432,289,101350,6,0,P|362:266|242:288,1,184.000003509522,2|2,1:2|1:2,0:0:0:0:
122,333,101886,1,0,1:0:0:0:
326,357,102064,1,10,0:0:0:0:
182,251,102242,1,2,0:0:0:0:
277,193,102421,1,2,0:0:0:0:
204,146,102599,1,0,1:0:0:0:
204,146,102688,1,8,0:0:0:0:
204,146,102778,6,0,P|208:95|207:52,2,92.0000017547608,2|8|2,1:2|0:0|1:2,0:0:0:0:
433,101,103402,5,8,0:0:0:0:
411,104,103491,2,0,L|289:107,1,120.000004577637,12|0,0:0|0:0,0:0:0:0:
207,54,104205,6,0,L|144:53,1,55.9999982910157,2|2,0:0|0:0,0:0:0:0:
136,52,104740,1,2,0:0:0:0:
21,134,105632,6,0,L|84:133,1,55.9999982910157,2|2,0:0|0:0,0:0:0:0:
92,132,106167,1,2,0:0:0:0:
233,195,107059,6,0,L|170:194,1,55.9999982910157,2|2,0:0|0:0,0:0:0:0:
162,193,107594,1,2,0:0:0:0:
47,275,108486,6,0,L|110:274,1,55.9999982910157,2|2,0:0|0:0,0:0:0:0:
208,326,109200,2,0,P|186:321|180:317,1,27.9999991455078,2|2,0:0|0:0,0:0:0:0:
287,300,109557,1,2,0:0:0:0:
287,300,109914,6,0,P|342:307|375:303,1,88.000002685547,2|2,0:0|0:0,0:0:0:0:
395,297,110449,1,2,0:0:0:0:
477,168,111341,6,0,P|422:161|389:165,1,88.000002685547,2|2,0:0|0:0,0:0:0:0:
369,171,111876,1,2,0:0:0:0:
234,39,112768,6,0,P|289:46|322:42,1,88.000002685547,2|2,0:0|0:0,0:0:0:0:
342,36,113303,1,2,0:0:0:0:
175,124,114195,6,0,P|120:117|87:121,1,88.000002685547,2|2,0:0|0:0,0:0:0:0:
31,239,114730,1,0,1:0:0:0:
44,215,114820,1,0,1:0:0:0:
36,189,114909,1,10,0:0:0:0:
108,324,115087,1,10,0:3:0:0:
229,268,115266,1,6,0:3:0:0:
229,268,115622,6,0,P|271:276|368:249,1,139.200001168213,6|2,1:2|1:2,0:0:0:0:
434,207,116158,1,8,0:0:0:0:
434,207,116514,1,2,1:2:0:0:
369,153,116693,2,0,L|372:76,1,69.6000005841065,2|0,1:2|0:0,0:0:0:0:
408,8,117050,5,2,0:0:0:0:
300,52,117228,1,2,1:2:0:0:
222,21,117406,2,0,L|137:22,1,69.6000005841065,2|2,1:2|0:0,0:0:0:0:
64,82,117763,1,8,0:0:0:0:
171,126,117942,1,2,0:0:0:0:
56,97,118120,1,2,1:2:0:0:
133,211,118298,1,8,0:0:0:0:
70,273,118477,6,0,P|66:318|70:357,1,69.6000005841065,2|0,1:2|0:0,0:0:0:0:
146,371,118834,1,2,1:2:0:0:
230,334,119012,2,0,L|308:332,1,69.6000005841065,8|2,0:0|0:0,0:0:0:0:
391,361,119369,2,0,L|469:363,1,69.6000005841065,0|2,1:0|0:0,0:0:0:0:
501,289,119726,1,0,1:0:0:0:
483,251,119815,1,8,0:0:0:0:
487,209,119904,1,2,1:2:0:0:
393,274,120083,1,8,0:0:0:0:
365,115,120261,2,0,P|360:166|364:191,1,69.6000005841065,2|2,1:2|0:0,0:0:0:0:
512,132,120618,2,0,P|514:97|509:63,1,69.6000005841065,8|2,0:0|0:0,0:0:0:0:
438,19,120975,1,0,1:0:0:0:
365,115,121153,1,8,0:0:0:0:
295,69,121331,6,0,L|217:70,1,69.6000005841065,2|0,1:2|0:0,0:0:0:0:
147,139,121688,1,2,1:2:0:0:
72,12,121867,2,0,P|83:61|85:87,1,69.6000005841065,10|2,0:0|0:0,0:0:0:0:
147,139,122223,1,0,1:0:0:0:
75,220,122402,1,2,1:2:0:0:
75,220,122759,5,2,0:0:0:0:
129,295,122937,1,2,1:2:0:0:
205,247,123115,2,0,L|281:249,1,69.6000005841065,2|2,1:2|0:0,0:0:0:0:
360,218,123472,2,0,P|409:217|436:219,1,69.6000005841065,8|2,0:0|0:0,0:0:0:0:
498,277,123829,1,2,1:2:0:0:
398,302,124007,1,8,0:0:0:0:
499,168,124186,5,2,1:2:0:0:
499,168,124543,5,2,1:2:0:0:
443,38,124721,2,0,L|445:117,1,69.6000005841065,10|2,0:0|0:0,0:0:0:0:
288,109,125078,2,0,L|289:39,1,69.6000005841065,0|2,1:0|0:0,0:0:0:0:
366,156,125435,1,0,1:0:0:0:
332,185,125524,1,8,0:0:0:0:
289,199,125613,1,2,1:2:0:0:
199,150,125791,1,8,0:0:0:0:
126,210,125970,2,0,L|132:303,1,69.6000005841065,2|0,1:2|1:0,0:0:0:0:
139,323,126237,1,0,1:0:0:0:
139,323,126327,5,8,0:0:0:0:
199,150,126594,5,8,0:0:0:0:
281,286,126862,5,8,0:0:0:0:
319,309,126951,1,8,0:0:0:0:
362,296,127040,6,0,L|435:298,1,69.6000005841065,6|0,1:2|0:0,0:0:0:0:
506,184,127397,2,0,L|433:186,1,69.6000005841065,8|0,0:0|0:0,0:0:0:0:
345,189,127754,1,2,1:2:0:0:
386,90,127932,1,0,1:0:0:0:
241,43,128111,1,2,0:0:0:0:
294,116,128289,1,8,0:0:0:0:
152,26,128467,6,0,P|81:32|72:30,1,69.6000005841065,2|0,0:0|1:0,0:0:0:0:
9,11,128824,1,8,0:0:0:0:
9,11,129181,5,2,0:0:0:0:
52,121,129359,1,0,1:0:0:0:
57,159,129449,1,0,1:0:0:0:
53,197,129538,1,8,0:0:0:0:
53,197,129895,6,0,P|102:197|173:258,1,139.200001168213,2|2,1:2|1:2,0:0:0:0:
182,326,130430,1,8,0:0:0:0:
266,266,130608,1,2,1:2:0:0:
94,297,130787,1,0,1:0:0:0:
269,356,130965,2,0,L|358:355,1,69.6000005841065,2|8,0:0|0:0,0:0:0:0:
415,352,131322,5,2,1:2:0:0:
353,280,131500,1,0,1:0:0:0:
434,183,131679,2,0,P|440:226|439:262,1,69.6000005841065,10|0,0:0|0:0,0:0:0:0:
366,287,132035,5,2,1:2:0:0:
312,169,132214,1,2,1:2:0:0:
328,134,132303,1,0,1:0:0:0:
360,114,132392,1,8,0:0:0:0:
483,37,132571,1,8,0:0:0:0:
446,50,132660,1,8,0:0:0:0:
410,41,132749,6,0,P|361:29|314:42,1,69.6000005841065,6|0,1:2|0:0,0:0:0:0:
328,134,133106,1,2,1:2:0:0:
235,20,133284,2,0,P|232:60|240:97,1,69.6000005841065,10|2,0:0|0:0,0:0:0:0:
180,171,133641,1,0,1:0:0:0:
58,99,133819,2,0,L|131:102,1,69.6000005841065,0|0,1:0|0:0,0:0:0:0:
180,171,134176,1,2,0:0:0:0:
81,237,134355,1,2,1:2:0:0:
158,279,134533,2,0,L|161:353,1,69.6000005841065,2|2,1:2|0:0,0:0:0:0:
254,376,134890,1,8,0:0:0:0:
254,376,135247,5,2,1:2:0:0:
160,348,135425,1,8,0:0:0:0:
298,295,135603,6,0,L|301:222,1,69.6000005841065,2|0,1:2|0:0,0:0:0:0:
355,150,135960,1,2,1:2:0:0:
408,228,136139,2,0,L|410:297,1,69.6000005841065,10|2,0:0|0:0,0:0:0:0:
488,314,136495,1,0,1:0:0:0:
355,358,136674,1,2,0:0:0:0:
512,172,136852,1,0,1:0:0:0:
499,135,136941,1,8,0:0:0:0:
480,101,137031,6,0,P|424:86|389:94,1,69.6000005841065,2|8,1:2|0:0,0:0:0:0:
355,150,137387,2,0,P|295:155|237:148,1,104.40000087616,2|0,1:2|0:0,0:0:0:0:
238,139,137744,6,0,P|241:123|239:89,1,48,10|0,0:0|1:0,0:0:0:0:
229,61,138369,1,0,1:0:0:0:
204,42,138458,1,6,1:2:0:0:
204,42,140420,5,0,1:0:0:0:
157,64,140509,5,0,1:0:0:0:
129,57,140599,5,14,0:0:0:0:
129,57,141312,6,0,P|116:122|121:168,1,76.800001875,6|0,1:2|0:0,0:0:0:0:
193,218,141669,2,0,P|206:283|201:329,1,76.800001875,2|0,0:0|0:0,0:0:0:0:
53,337,142026,2,0,P|107:327|140:334,1,76.800001875,10|0,0:0|0:0,0:0:0:0:
265,358,142383,1,2,0:0:0:0:
112,247,142561,5,2,1:2:0:0:
112,247,142650,1,8,0:0:0:0:
112,247,142740,1,2,1:2:0:0:
263,335,142918,1,10,0:0:0:0:
357,279,143096,2,0,P|399:285|444:278,1,76.800001875,2|0,1:2|0:0,0:0:0:0:
393,102,143453,2,0,P|387:143|394:188,1,76.800001875,10|0,0:0|0:0,0:0:0:0:
474,75,143810,2,0,P|450:42|421:23,1,76.800001875,2|0,1:2|0:0,0:0:0:0:
314,91,144167,5,2,1:2:0:0:
314,91,144524,5,2,1:2:0:0:
203,246,144702,1,0,1:0:0:0:
144,57,144880,2,0,L|226:61,1,76.800001875,10|0,0:0|0:0,0:0:0:0:
125,184,145237,2,0,L|43:188,1,76.800001875,2|0,0:0|1:0,0:0:0:0:
13,185,145505,1,8,0:0:0:0:
2,152,145594,5,2,1:2:0:0:
92,313,145772,1,10,0:0:0:0:
203,246,145951,2,0,P|204:284|211:322,1,76.800001875,2|0,1:2|0:0,0:0:0:0:
367,350,146308,2,0,P|318:337|281:346,1,76.800001875,10|0,0:0|1:0,0:0:0:0:
443,380,146664,1,10,0:0:0:0:
400,255,146843,1,8,0:0:0:0:
425,232,146932,1,8,0:0:0:0:
427,197,147021,1,6,1:2:0:0:
427,197,147378,5,2,0:0:0:0:
351,142,147556,1,2,0:0:0:0:
470,103,147735,1,10,0:0:0:0:
309,231,147913,1,2,0:0:0:0:
269,10,148092,5,2,0:0:0:0:
395,91,148270,1,0,1:2:0:0:
369,113,148359,1,8,0:0:0:0:
351,142,148448,1,2,1:2:0:0:
400,255,148627,1,10,0:0:0:0:
236,338,148805,5,2,1:2:0:0:
264,154,148984,1,2,0:0:0:0:
189,200,149162,1,10,0:0:0:0:
340,345,149340,1,2,0:0:0:0:
150,288,149519,5,2,1:2:0:0:
400,255,149697,1,2,0:0:0:0:
208,114,149876,5,2,1:2:0:0:
189,200,150054,1,2,0:0:0:0:
351,142,150232,1,2,1:2:0:0:
164,23,150411,1,2,1:2:0:0:
66,242,150589,5,10,0:0:0:0:
208,114,150768,1,2,0:0:0:0:
281,274,150946,1,2,0:0:0:0:
189,200,151124,5,2,1:2:0:0:
173,230,151214,1,8,0:0:0:0:
173,264,151303,1,2,1:2:0:0:
356,358,151481,1,10,0:0:0:0:
281,274,151660,1,2,1:2:0:0:
351,142,151838,5,10,0:0:0:0:
376,180,151927,1,8,0:0:0:0:
381,234,152016,1,10,0:3:0:0:
356,358,152195,1,10,0:3:0:0:
281,274,152373,1,6,0:3:0:0:
381,234,152552,1,0,0:0:0:0:
351,142,152730,6,0,P|276:145|241:142,1,76.800001875,6|0,1:2|0:0,0:0:0:0:
187,1,153087,2,0,P|207:59|208:90,1,76.800001875,2|0,0:0|0:0,0:0:0:0:
139,221,153444,2,0,P|119:163|118:132,1,76.800001875,10|0,0:0|0:0,0:0:0:0:
225,207,153800,1,2,0:0:0:0:
84,293,153979,5,2,1:2:0:0:
84,293,154068,1,8,0:0:0:0:
84,293,154157,1,2,1:2:0:0:
169,369,154336,1,8,0:0:0:0:
261,309,154514,1,2,1:2:0:0:
261,309,154871,2,0,P|327:322|352:317,1,76.800001875,10|0,0:0|0:0,0:0:0:0:
397,168,155228,2,0,P|384:234|389:259,1,76.800001875,2|0,1:2|0:0,0:0:0:0:
476,157,155584,6,0,P|459:119|344:110,1,153.60000375,2|2,1:2|1:2,0:0:0:0:
385,242,156120,1,0,1:0:0:0:
178,106,156298,6,0,P|222:46|295:48,1,153.60000375,10|2,0:0|0:0,0:0:0:0:
268,191,156834,1,0,1:0:0:0:
242,213,156922,1,8,0:0:0:0:
207,211,157012,1,2,1:2:0:0:
81,139,157190,1,8,0:0:0:0:
257,114,157368,1,2,1:2:0:0:
257,114,157725,5,10,0:0:0:0:
207,211,157904,1,2,1:2:0:0:
294,324,158082,1,10,0:0:0:0:
411,240,158260,1,8,0:0:0:0:
380,222,158350,1,8,0:0:0:0:
345,225,158439,1,6,1:2:0:0:
345,225,158796,6,0,P|362:247|372:300,1,76.800001875,2|0,0:0|0:0,0:0:0:0:
503,112,159152,2,0,P|486:134|476:187,1,76.800001875,10|2,0:0|0:0,0:0:0:0:
399,50,159509,1,2,0:0:0:0:
257,114,159688,1,2,1:2:0:0:
290,121,159777,1,8,0:0:0:0:
323,111,159866,1,2,1:2:0:0:
284,3,160044,1,8,0:0:0:0:
176,147,160223,1,2,1:2:0:0:
176,147,160580,6,0,L|182:224,1,76.800001875,10|0,0:0|0:0,0:0:0:0:
55,323,160936,2,0,L|49:246,1,76.800001875,2|2,1:2|0:0,0:0:0:0:
70,95,161293,5,2,1:2:0:0:
176,147,161472,1,2,0:0:0:0:
191,44,161650,1,2,1:2:0:0:
276,62,161828,1,2,1:2:0:0:
302,163,162007,5,10,0:0:0:0:
359,19,162185,1,2,0:0:0:0:
276,62,162364,1,2,0:0:0:0:
417,85,162542,1,2,1:2:0:0:
434,114,162631,1,8,0:0:0:0:
436,148,162720,5,2,1:2:0:0:
309,181,162899,1,8,0:0:0:0:
460,295,163077,2,0,P|405:281|366:287,1,76.800001875,2|8,1:2|0:0,0:0:0:0:
291,361,163434,5,2,1:2:0:0:
309,181,163612,1,8,0:0:0:0:
196,249,163791,5,8,0:0:0:0:
385,210,163969,1,8,0:0:0:0:
360,113,164148,1,6,1:2:0:0:
360,113,164504,6,0,P|322:98|291:99,1,59.2000014453125,2|0,0:0|0:0,0:0:0:0:
237,135,164861,2,0,P|199:150|168:149,1,59.2000014453125,10|0,0:0|0:0,0:0:0:0:
110,120,165218,1,2,0:0:0:0:
110,120,165575,5,2,1:2:0:0:
28,204,165753,1,8,0:0:0:0:
108,251,165932,2,0,L|108:316,1,59.2000014453125,2|0,1:2|0:0,0:0:0:0:
237,350,166289,2,0,P|197:347|164:353,1,59.2000014453125,10|0,0:0|0:0,0:0:0:0:
306,299,166645,1,2,1:2:0:0:
306,299,167002,6,0,P|348:309|416:276,1,118.400002890625,2|2,1:2|1:2,0:0:0:0:
476,188,167716,2,0,P|439:210|414:282,1,118.400002890625,10|2,0:0|0:0,0:0:0:0:
495,359,168251,1,0,1:0:0:0:
495,341,168340,1,8,0:0:0:0:
490,323,168429,1,2,1:2:0:0:
413,278,168608,1,8,0:0:0:0:
476,188,168786,6,0,P|468:148|468:117,1,59.2000014453125,2|0,1:2|0:0,0:0:0:0:
504,3,169143,2,0,P|512:43|512:74,1,59.2000014453125,10|0,0:0|0:0,0:0:0:0:
390,143,169500,1,2,1:2:0:0:
316,61,169678,1,8,0:0:0:0:
241,117,169857,5,2,1:2:0:0:
241,117,170213,2,0,P|231:174|232:196,1,59.2000014453125,2|0,0:0|0:0,0:0:0:0:
269,242,170570,2,0,P|279:299|278:321,1,59.2000014453125,10|0,0:0|0:0,0:0:0:0:
223,354,170927,1,2,0:0:0:0:
223,354,171284,5,2,1:2:0:0:
269,242,171462,1,8,0:0:0:0:
120,245,171641,1,2,1:2:0:0:
120,245,171997,2,0,L|122:108,1,118.400002890625,10|6,0:0|1:2,0:0:0:0:
256,192,172443,12,0,174495,0:0:0:0:
121,126,174673,5,0,1:0:0:0:
168,130,174763,5,0,1:0:0:0:
207,119,174852,5,10,0:0:0:0:
99,15,175030,1,8,0:3:0:0:
265,4,175209,5,8,0:3:0:0:
182,39,175387,1,8,0:3:0:0:
292,87,175565,5,6,0:0:0:0:
292,87,175922,6,0,L|329:87,1,32,2|2,0:0|0:0,0:0:0:0:
407,104,176457,2,0,P|404:111|407:122,1,16,0|0,0:0|0:0,0:0:0:0:
366,213,176993,1,2,0:0:0:0:
498,281,177349,2,0,P|481:266|468:265,1,32,2|2,0:0|0:0,0:0:0:0:
393,291,178063,1,0,0:0:0:0:
366,213,178420,1,2,0:0:0:0:
366,213,178777,5,2,0:0:0:0:
393,291,178955,1,0,0:0:0:0:
367,296,179133,1,2,0:0:0:0:
263,336,179312,1,0,0:0:0:0:
237,331,179490,1,0,0:0:0:0:
237,331,179847,6,0,L|239:313,1,16,2|0,0:0|0:0,0:0:0:0:
219,283,180204,1,2,0:0:0:0:
89,184,180561,5,2,0:0:0:0:
129,265,180739,1,0,0:0:0:0:
182,195,180917,1,0,0:0:0:0:
148,113,181274,5,2,0:0:0:0:
148,113,181631,2,0,L|180:112,1,32,2|2,0:0|0:0,0:0:0:0:
257,89,182166,2,0,P|256:76|258:70,1,16,0|0,0:0|0:0,0:0:0:0:
349,23,182701,5,2,0:0:0:0:
434,75,183058,1,2,0:0:0:0:
386,138,183415,5,2,0:0:0:0:
434,75,183593,1,0,0:0:0:0:
488,173,183772,1,0,0:0:0:0:
488,173,184129,6,0,P|485:191|488:204,1,32,2|2,0:0|0:0,0:0:0:0:
428,286,184842,2,0,L|411:285,2,16,2|0|2,0:0|0:0|0:0,0:0:0:0:
344,353,185556,1,2,0:0:0:0:
246,251,185913,1,2,0:0:0:0:
141,342,186269,5,2,0:0:0:0:
235,344,186448,1,0,0:0:0:0:
246,251,186626,1,0,0:0:0:0:
141,342,186983,6,0,L|105:345,1,32,2|2,0:0|0:0,0:0:0:0:
41,292,187697,2,0,P|46:279|46:273,1,16,2|0,0:0|0:0,0:0:0:0:
45,249,188053,1,0,0:0:0:0:
117,185,188410,1,2,0:0:0:0:
54,112,188767,2,0,L|53:80,2,32,2|2|0,0:0|0:0|0:0,0:0:0:0:
134,169,189838,5,2,0:0:0:0:
208,89,190194,2,0,L|230:90,1,16,2|0,0:0|0:0,0:0:0:0:
299,68,190551,2,0,L|321:67,1,16,2|0,0:0|0:0,0:0:0:0:
384,105,190908,1,0,0:0:0:0:
384,105,191265,6,0,P|378:135|380:142,1,32,2|2,0:0|0:0,0:0:0:0:
458,222,191978,1,2,0:0:0:0:
371,241,192157,1,0,0:0:0:0:
374,328,192335,1,0,0:0:0:0:
374,328,192692,6,0,L|339:333,1,32,2|2,0:0|0:0,0:0:0:0:
230,303,193227,1,0,0:0:0:0:
318,236,193406,1,2,0:0:0:0:
214,186,193584,1,0,0:0:0:0:
266,125,193762,1,0,0:0:0:0:
266,125,194119,6,0,L|262:89,1,32,2|2,0:0|0:0,0:0:0:0:
164,81,194833,1,2,0:0:0:0:
88,31,195546,5,2,0:0:0:0:
30,270,196974,5,2,0:0:0:0:
123,327,197330,6,0,L|143:326,1,16,0|0,0:0|1:0,0:0:0:0:
169,324,197598,5,0,1:0:0:0:
198,317,197687,5,10,0:0:0:0:
279,243,197866,1,0,0:0:0:0:
333,338,198044,2,0,P|364:336|374:337,1,28.800000703125,0|0,0:0|0:0,0:0:0:0:
460,358,198401,6,0,P|448:305|453:259,1,96.7999972674561,6|0,1:2|0:0,0:0:0:0:
396,85,198758,2,0,P|408:138|403:184,1,96.7999972674561,2|0,0:0|0:0,0:0:0:0:
279,243,199114,1,10,0:0:0:0:
486,192,199293,1,2,0:0:0:0:
240,76,199471,2,0,P|283:108|330:110,1,96.7999972674561,2|0,0:0|1:0,0:0:0:0:
363,105,199739,1,8,0:0:0:0:
396,85,199828,5,2,0:0:0:0:
322,11,200006,1,8,0:0:0:0:
201,148,200185,2,0,L|103:151,1,96.7999972674561,2|0,1:2|0:0,0:0:0:0:
56,310,200542,2,0,P|63:255|57:202,1,96.7999972674561,10|0,0:0|0:0,0:0:0:0:
38,15,200898,2,0,P|31:70|37:123,1,96.7999972674561,2|0,1:2|0:0,0:0:0:0:
147,230,201255,5,2,1:2:0:0:
147,230,201612,1,2,1:2:0:0:
201,148,201790,1,2,1:2:0:0:
274,339,201969,1,10,0:0:0:0:
177,319,202147,1,2,0:0:0:0:
361,291,202326,6,0,P|424:296|456:276,1,96.7999972674561,2|0,0:0|1:0,0:0:0:0:
473,248,202593,1,8,0:0:0:0:
473,209,202682,1,2,1:2:0:0:
420,101,202861,1,8,0:0:0:0:
303,120,203039,2,0,P|336:169|376:191,1,96.7999972674561,2|0,1:2|0:0,0:0:0:0:
351,37,203396,2,0,P|293:25|249:38,1,96.7999972674561,10|2,0:0|0:0,0:0:0:0:
201,148,203753,1,10,0:0:0:0:
62,20,203931,1,8,0:0:0:0:
62,20,204020,1,8,0:0:0:0:
62,20,204110,6,0,L|67:122,1,96.7999972674561,6|0,1:2|0:0,0:0:0:0:
126,278,204466,1,2,0:0:0:0:
201,148,204645,1,2,0:0:0:0:
34,197,204823,1,10,0:0:0:0:
193,345,205002,1,2,0:0:0:0:
412,254,205180,6,0,P|358:235|315:240,1,96.7999972674561,2|0,0:0|1:0,0:0:0:0:
283,253,205448,1,8,0:0:0:0:
257,282,205537,1,2,0:0:0:0:
451,336,205715,1,8,0:0:0:0:
481,119,205894,2,0,L|483:220,1,96.7999972674561,2|0,1:2|0:0,0:0:0:0:
355,315,206250,1,10,0:0:0:0:
451,336,206429,1,2,0:0:0:0:
319,238,206607,2,0,L|320:141,1,96.7999972674561,2|0,1:2|0:0,0:0:0:0:
158,73,206964,6,0,P|221:100|266:100,1,96.7999972674561,2|0,1:2|0:0,0:0:0:0:
392,29,207321,1,2,1:2:0:0:
320,141,207499,1,0,1:0:0:0:
232,10,207678,1,10,0:0:0:0:
88,124,207856,2,0,P|94:174|89:221,1,96.7999972674561,2|2,0:0|0:0,0:0:0:0:
20,319,208213,5,0,1:0:0:0:
57,309,208302,1,8,0:0:0:0:
92,323,208391,1,2,1:2:0:0:
184,373,208570,1,8,0:0:0:0:
89,219,208748,1,2,1:2:0:0:
235,274,208926,5,8,0:0:0:0:
272,284,209015,1,8,0:0:0:0:
307,270,209104,1,10,0:3:0:0:
399,220,209283,1,10,0:3:0:0:
402,331,209461,1,6,0:3:0:0:
316,185,209640,1,0,0:0:0:0:
444,43,209818,6,0,P|441:116|444:158,1,96.7999972674561,6|0,1:2|0:0,0:0:0:0:
268,30,210175,2,0,P|316:26|361:42,1,96.7999972674561,2|0,0:0|0:0,0:0:0:0:
316,185,210532,1,10,0:0:0:0:
189,71,210710,1,2,0:0:0:0:
77,241,210889,2,0,P|89:189|84:145,1,96.7999972674561,2|0,0:0|1:0,0:0:0:0:
69,110,211156,1,8,0:0:0:0:
42,81,211246,5,2,1:2:0:0:
0,189,211424,1,8,0:0:0:0:
189,71,211602,2,0,L|290:70,1,96.7999972674561,2|0,1:2|0:0,0:0:0:0:
390,235,211959,2,0,P|328:207|313:173,1,96.7999972674561,10|0,0:0|0:0,0:0:0:0:
406,62,212316,2,0,P|399:120|388:161,1,96.7999972674561,2|0,1:2|0:0,0:0:0:0:
266,287,212673,5,2,1:2:0:0:
266,287,213030,1,2,1:2:0:0:
315,184,213208,1,2,1:2:0:0:
403,321,213387,1,10,0:0:0:0:
209,156,213565,1,2,0:0:0:0:
21,254,213743,2,0,P|81:289|117:279,1,96.7999972674561,2|0,0:0|1:0,0:0:0:0:
143,278,214011,1,8,0:0:0:0:
179,264,214100,5,2,1:2:0:0:
96,185,214279,1,8,0:0:0:0:
315,184,214457,5,2,1:2:0:0:
96,185,214635,1,2,0:0:0:0:
173,25,214814,1,10,0:0:0:0:
179,264,214992,1,2,1:2:0:0:
40,77,215171,5,10,0:0:0:0:
243,90,215349,1,8,0:0:0:0:
282,94,215438,1,8,0:0:0:0:
320,96,215527,6,0,L|424:103,1,96.7999972674561,6|0,1:2|0:0,0:0:0:0:
436,291,215884,2,0,P|422:236|426:186,1,96.7999972674561,2|2,0:0|0:0,0:0:0:0:
481,47,216241,2,0,P|495:102|491:152,1,96.7999972674561,10|2,0:0|0:0,0:0:0:0:
345,271,216598,1,2,0:0:0:0:
228,206,216776,1,0,1:0:0:0:
238,243,216865,1,8,0:0:0:0:
236,282,216955,6,0,P|215:333|179:357,1,96.7999972674561,2|8,0:0|0:0,0:0:0:0:
64,266,217311,2,0,P|124:265|170:288,1,96.7999972674561,2|0,1:2|0:0,0:0:0:0:
7,375,217668,1,10,0:0:0:0:
236,282,217847,1,2,0:0:0:0:
9,207,218025,2,0,L|8:105,1,96.7999972674561,2|0,1:2|0:0,0:0:0:0:
171,82,218382,6,0,P|113:87|75:66,1,96.7999972674561,2|0,1:2|0:0,0:0:0:0:
253,50,218739,1,2,1:2:0:0:
13,31,218917,1,0,1:0:0:0:
234,132,219095,1,10,0:0:0:0:
150,198,219274,1,2,0:0:0:0:
241,257,219452,2,0,P|300:249|340:254,1,96.7999972674561,2|0,0:0|1:0,0:0:0:0:
371,271,219720,1,8,0:0:0:0:
392,303,219809,5,2,1:2:0:0:
319,355,219987,1,8,0:0:0:0:
451,243,220166,2,0,P|447:182|456:135,1,96.7999972674561,2|8,1:2|0:0,0:0:0:0:
469,112,220433,1,8,0:0:0:0:
495,90,220523,5,12,0:0:0:0:
378,20,220879,5,0,0:0:0:0:
285,165,221236,6,0,L|209:168,1,73.599997529297,6|0,1:2|0:0,0:0:0:0:
137,135,221593,2,0,L|61:132,1,73.599997529297,2|0,0:0|0:0,0:0:0:0:
11,194,221950,2,0,P|21:230|11:344,1,147.199995058594,10|2,0:0|0:0,0:0:0:0:
94,362,222485,1,0,1:0:0:0:
118,353,222574,1,8,0:0:0:0:
143,357,222663,1,2,1:2:0:0:
224,328,222842,1,8,0:0:0:0:
309,367,223020,1,2,1:2:0:0:
309,367,223377,6,0,P|310:315|339:273,1,73.599997529297,10|0,0:0|0:0,0:0:0:0:
375,248,223734,2,0,P|374:196|345:154,1,73.599997529297,2|0,1:2|0:0,0:0:0:0:
310,127,224091,5,2,1:2:0:0:
396,70,224447,1,2,1:2:0:0:
306,18,224804,2,0,P|251:25|222:19,1,73.599997529297,10|0,0:0|0:0,0:0:0:0:
161,5,225161,1,2,0:0:0:0:
89,81,225339,5,0,1:0:0:0:
100,116,225429,1,8,0:0:0:0:
97,152,225518,1,2,1:2:0:0:
46,236,225696,1,8,0:0:0:0:
100,308,225875,2,0,L|177:305,1,73.599997529297,2|0,1:2|0:0,0:0:0:0:
256,335,226231,2,0,L|333:338,1,73.599997529297,10|0,0:0|0:0,0:0:0:0:
418,341,226588,1,2,1:2:0:0:
379,257,226767,1,8,0:0:0:0:
466,151,226945,6,0,P|470:210|460:248,1,73.599997529297,6|0,1:2|0:0,0:0:0:0:
306,255,227302,2,0,P|365:259|403:249,1,73.599997529297,2|0,1:2|0:0,0:0:0:0:
337,163,227659,2,0,P|278:159|240:169,1,73.599997529297,10|0,0:0|0:0,0:0:0:0:
188,207,228015,1,2,0:0:0:0:
115,155,228194,5,0,1:0:0:0:
104,131,228283,1,8,0:0:0:0:
105,105,228372,1,2,1:2:0:0:
172,47,228551,1,8,0:0:0:0:
257,69,228729,2,0,P|316:73|354:63,1,73.599997529297,2|0,1:2|0:0,0:0:0:0:
475,39,229086,2,0,P|416:35|378:45,1,73.599997529297,8|0,0:0|0:0,0:0:0:0:
400,126,229443,1,2,1:2:0:0:
400,126,229799,6,0,L|403:200,1,73.599997529297,2|0,1:2|0:0,0:0:0:0:
412,287,230156,1,2,1:2:0:0:
412,287,230335,1,0,1:0:0:0:
318,349,230513,1,10,0:0:0:0:
264,266,230691,1,2,0:0:0:0:
211,317,230870,1,2,0:0:0:0:
169,286,231048,1,0,1:0:0:0:
169,286,231137,1,8,0:0:0:0:
169,286,231227,6,0,P|116:279|80:287,1,73.599997529297,2|8,1:2|0:0,0:0:0:0:
17,384,231583,2,0,P|28:338|24:297,1,73.599997529297,2|0,1:2|0:0,0:0:0:0:
9,240,231940,2,0,P|-2:194|2:153,1,73.599997529297,10|0,0:0|0:0,0:0:0:0:
48,113,232297,1,10,0:0:0:0:
130,178,232475,1,8,0:0:0:0:
182,71,232654,6,0,P|225:74|258:71,1,73.599997529297,6|0,1:2|0:0,0:0:0:0:
332,28,233011,2,0,P|375:25|408:28,1,73.599997529297,2|0,0:0|0:0,0:0:0:0:
478,77,233367,5,10,0:0:0:0:
410,154,233724,1,2,0:0:0:0:
464,223,233903,1,0,1:0:0:0:
458,248,233992,1,8,0:0:0:0:
466,272,234081,6,0,P|415:269|385:288,1,73.599997529297,2|8,1:2|0:0,0:0:0:0:
330,337,234438,2,0,P|279:340|249:321,1,73.599997529297,2|0,1:2|0:0,0:0:0:0:
193,271,234795,1,10,0:0:0:0:
128,330,234973,1,0,0:0:0:0:
62,270,235151,2,0,L|64:187,1,73.599997529297,2|0,1:2|0:0,0:0:0:0:
68,107,235508,1,2,1:2:0:0:
68,107,235865,6,0,P|114:102|146:111,1,73.599997529297,2|0,1:2|0:0,0:0:0:0:
207,51,236222,2,0,P|253:56|285:47,1,73.599997529297,10|0,0:0|0:0,0:0:0:0:
364,25,236579,1,2,0:0:0:0:
339,109,236757,5,0,1:0:0:0:
348,152,236846,1,8,0:0:0:0:
341,196,236936,1,2,1:2:0:0:
271,269,237114,1,8,0:0:0:0:
339,342,237292,2,0,L|416:344,1,73.599997529297,2|0,1:2|0:0,0:0:0:0:
491,256,237649,2,0,L|414:254,1,73.599997529297,10|0,0:0|0:0,0:0:0:0:
341,196,238006,1,2,1:2:0:0:
457,129,238184,1,8,0:0:0:0:
351,54,238363,6,0,P|311:55|267:52,1,73.599997529297,6|0,1:2|0:0,0:0:0:0:
193,23,238720,2,0,P|153:22|109:25,1,73.599997529297,2|0,1:2|0:0,0:0:0:0:
42,66,239076,2,0,B|16:99|16:99|19:218,1,147.199995058594,10|2,0:0|0:0,0:0:0:0:
118,263,239612,1,0,1:0:0:0:
96,266,239701,1,8,0:0:0:0:
78,279,239790,1,2,1:2:0:0:
86,366,239968,1,8,0:0:0:0:
173,350,240147,6,0,P|221:347|255:358,1,73.599997529297,2|0,1:2|0:0,0:0:0:0:
320,307,240504,2,0,P|355:314|392:310,1,73.599997529297,8|0,0:0|0:0,0:0:0:0:
464,253,240860,2,0,L|461:171,1,73.599997529297,2|0,1:2|0:0,0:0:0:0:
457,90,241217,1,2,1:2:0:0:
457,90,241574,5,2,1:2:0:0:
380,162,241752,1,0,1:0:0:0:
298,7,241931,5,10,0:0:0:0:
374,62,242109,1,2,0:0:0:0:
301,124,242288,1,2,0:0:0:0:
363,186,242466,1,0,1:0:0:0:
361,211,242555,1,8,0:0:0:0:
368,235,242644,1,2,1:2:0:0:
453,293,242823,1,8,0:0:0:0:
369,346,243001,2,0,P|334:339|297:343,1,73.599997529297,2|0,1:2|1:0,0:0:0:0:
272,353,243269,1,0,1:0:0:0:
254,371,243358,5,10,0:0:0:0:
117,316,243536,1,8,0:3:0:0:
205,225,243715,5,8,0:3:0:0:
203,305,243893,1,0,0:0:0:0:
117,316,244072,6,0,L|80:314,2,32,2|2|2,0:0|0:0|0:0,0:0:0:0:
205,225,245499,2,0,P|202:208|204:193,2,32,2|2|2,0:0|0:0|0:0,0:0:0:0:
301,142,246926,6,0,L|269:143,1,32,2|2,0:0|0:0,0:0:0:0:
175,121,247640,2,0,L|143:120,1,32,2|2,0:0|0:0,0:0:0:0:
49,98,248353,1,2,0:0:0:0:
115,28,248710,1,2,0:0:0:0:
143,120,249067,5,2,0:0:0:0:
83,173,249246,1,0,0:0:0:0:
128,238,249424,1,2,0:0:0:0:
128,238,249780,6,0,L|159:235,2,32,2|2|2,0:0|0:0|0:0,0:0:0:0:
45,330,251208,2,0,P|38:348|40:362,2,32,2|2|0,0:0|0:0|0:0,0:0:0:0:
230,348,252635,6,0,L|199:349,1,32,2|2,0:0|0:0,0:0:0:0:
333,310,253348,2,0,L|302:309,1,32,2|2,0:0|0:0,0:0:0:0:
435,353,254062,2,0,L|404:354,1,32,2|2,0:0|0:0,0:0:0:0:
486,265,254776,2,0,P|480:280|481:285,2,16,2|0|2,0:0|0:0|0:0,0:0:0:0:
433,194,255489,5,2,0:0:0:0:
497,123,255846,1,2,0:0:0:0:
426,57,256203,2,0,P|405:63|391:60,1,32,2|2,0:0|0:0,0:0:0:0:
301,40,256916,5,2,0:0:0:0:
234,109,257273,1,2,0:0:0:0:
142,80,257630,2,0,P|140:96|140:116,1,32,2|2,0:0|0:0,0:0:0:0:
184,197,258344,6,0,L|150:196,2,32,2|2|2,0:0|0:0|0:0,0:0:0:0:
261,253,259414,1,2,0:0:0:0:
203,329,259771,5,2,0:0:0:0:
120,279,260128,1,2,0:0:0:0:
36,326,260485,2,0,L|35:306,2,16,2|0|0,0:0|0:0|0:0,0:0:0:0:
203,329,261198,6,0,P|219:331|237:329,1,32,2|2,0:0|0:0,0:0:0:0:
324,294,261912,1,2,0:0:0:0:
503,201,262625,6,0,P|487:199|469:201,1,32,2|2,0:0|0:0,0:0:0:0:
382,236,263339,1,2,0:0:0:0:
324,294,264053,5,2,0:0:0:0:
382,236,264409,1,2,0:0:0:0:
303,215,264766,6,0,L|281:191,1,32,2|2,0:0|0:0,0:0:0:0:
