osu file format v14

[General]
AudioFilename: audio.mp3
AudioLeadIn: 0
PreviewTime: 207619
Countdown: 0
SampleSet: Soft
StackLeniency: 0.7
Mode: 0
LetterboxInBreaks: 0
WidescreenStoryboard: 0

[Editor]
Bookmarks: 36208,48208,60208,96208,135637,164780,190494,250494
DistanceSpacing: 0.6
BeatDivisor: 4
GridSize: 16
TimelineZoom: 1.5

[Metadata]
Title:Kokoro
TitleUnicode:ココロ
Artist:Hanatan
ArtistUnicode:花たん
Creator:sodarose
Version:Miracle
Source:
Tags:FLOWER トラボルタP vocaloid Kagamine Rin 鏡音リン Hatsune Miku Misure Gust pop [Hatsune Miku] _lai remapper Ultimate Madoka ToraborutaP Toraboruta-P Travolta cover japanese ボカロ ボーカロイド
BeatmapID:2104338
BeatmapSetID:1005463

[Difficulty]
HPDrainRate:6
CircleSize:4
OverallDifficulty:8
ApproachRate:8.5
SliderMultiplier:1.6
SliderTickRate:1

[Events]
//Background and Video events
0,0,"BG.jpg",0,0
//Break Periods
2,91248,93587
2,164962,189801
//Storyboard Layer 0 (Background)
//Storyboard Layer 1 (Fail)
//Storyboard Layer 2 (Pass)
//Storyboard Layer 3 (Foreground)
//Storyboard Layer 4 (Overlay)
//Storyboard Sound Samples

[TimingPoints]
8762,428.571428571429,4,2,1,50,1,0
8762,-125,4,2,0,50,0,0
21405,-125,4,2,2,40,0,0
22476,-100,4,2,1,70,0,0
35333,-100,4,2,1,50,0,0
35762,-100,4,2,1,60,0,0
36190,-125,4,2,1,60,0,0
48190,-125,4,2,1,40,0,0
48619,-100,4,2,1,50,0,0
49476,-100,4,2,1,60,0,0
49905,-100,4,2,1,70,0,0
60190,-100,4,2,1,50,0,0
62762,-100,4,2,1,60,0,0
63619,-100,4,2,1,70,0,0
91048,-100,4,2,1,40,0,0
95119,-100,4,2,2,60,0,0
95762,-100,4,2,1,60,0,0
96190,-100,4,2,1,75,0,1
96404,-100,4,2,0,75,0,0
96619,-100,4,2,1,75,0,0
96833,-100,4,2,0,75,0,0
97048,-100,4,2,1,75,0,0
97262,-100,4,2,0,75,0,0
97476,-100,4,2,1,75,0,0
97690,-100,4,2,0,75,0,0
97905,-100,4,2,1,75,0,0
98119,-100,4,2,0,75,0,0
98333,-100,4,2,1,75,0,0
98548,-100,4,2,0,75,0,0
98762,-100,4,2,1,75,0,0
98976,-100,4,2,0,75,0,0
99190,-100,4,2,1,75,0,0
99405,-100,4,2,0,75,0,0
99619,-100,4,2,1,75,0,0
100262,-100,4,2,0,75,0,0
100476,-100,4,2,1,75,0,0
100690,-100,4,2,0,75,0,0
100905,-100,4,2,1,75,0,0
101119,-100,4,2,0,75,0,0
101333,-100,4,2,1,75,0,0
101548,-100,4,2,0,75,0,0
101762,-100,4,2,1,75,0,0
101976,-100,4,2,0,75,0,0
102190,-100,4,2,1,75,0,0
102405,-100,4,2,0,75,0,0
102619,-100,4,2,1,75,0,0
102833,-100,4,2,0,75,0,0
103048,-100,4,2,1,75,0,0
103690,-100,4,2,0,75,0,0
103905,-100,4,2,1,75,0,0
104119,-100,4,2,0,75,0,0
104333,-100,4,2,1,75,0,0
104548,-100,4,2,0,75,0,0
104762,-100,4,2,1,75,0,0
104976,-100,4,2,0,75,0,0
105190,-100,4,2,1,75,0,0
105405,-100,4,2,0,75,0,0
105619,-100,4,2,1,75,0,0
105833,-100,4,2,0,75,0,0
106048,-100,4,2,1,75,0,0
106262,-100,4,2,0,75,0,0
106476,-100,4,2,1,75,0,0
106690,-100,4,2,0,75,0,0
106905,-100,4,2,1,75,0,0
107119,-100,4,2,0,75,0,0
107333,-100,4,2,1,75,0,0
107548,-100,4,2,0,75,0,0
107762,-100,4,2,1,75,0,0
107976,-100,4,2,0,75,0,0
108190,-100,4,2,1,75,0,0
110119,-100,4,2,0,75,0,0
110333,-100,4,2,1,75,0,0
110548,-100,4,2,0,75,0,0
110762,-100,4,2,1,75,0,0
110976,-100,4,2,0,75,0,0
111190,-100,4,2,1,75,0,0
111405,-100,4,2,0,75,0,0
111619,-100,4,2,1,75,0,0
111833,-100,4,2,0,75,0,0
112048,-100,4,2,1,75,0,0
112262,-100,4,2,0,75,0,0
112476,-100,4,2,1,75,0,0
112690,-100,4,2,0,75,0,0
112905,-100,4,2,1,75,0,0
113119,-100,4,2,0,75,0,0
113333,-100,4,2,1,75,0,0
113976,-100,4,2,0,75,0,0
114190,-100,4,2,1,75,0,0
114405,-100,4,2,0,75,0,0
114619,-100,4,2,1,75,0,0
114833,-100,4,2,0,75,0,0
115048,-100,4,2,1,75,0,0
115262,-100,4,2,0,75,0,0
115476,-100,4,2,1,75,0,0
115690,-100,4,2,0,75,0,0
115905,-100,4,2,1,75,0,0
116119,-100,4,2,0,75,0,0
116333,-100,4,2,1,75,0,0
116548,-100,4,2,0,75,0,0
116762,-100,4,2,1,75,0,0
117405,-100,4,2,0,75,0,0
117619,-100,4,2,1,75,0,0
117833,-100,4,2,0,75,0,0
118048,-100,4,2,1,75,0,0
118262,-100,4,2,0,75,0,0
118476,-100,4,2,1,75,0,0
118690,-100,4,2,0,75,0,0
118905,-100,4,2,1,75,0,0
119119,-100,4,2,0,75,0,0
119333,-100,4,2,1,75,0,0
119548,-100,4,2,0,75,0,0
119762,-100,4,2,1,75,0,0
119976,-100,4,2,0,75,0,0
120190,-100,4,2,1,75,0,0
120833,-100,4,2,0,75,0,0
121048,-100,4,2,1,75,0,0
121262,-100,4,2,0,75,0,0
121476,-100,4,2,1,75,0,0
121690,-100,4,2,0,75,0,0
121905,-100,4,2,1,60,0,0
135619,-100,4,2,1,40,0,0
137333,-100,4,2,2,50,0,0
151048,-83.3333333333333,4,2,2,60,0,0
154476,-83.3333333333333,4,2,1,60,0,0
154905,-83.3333333333333,4,2,2,60,0,0
155333,-83.3333333333333,4,2,1,60,0,0
155762,-83.3333333333333,4,2,2,60,0,0
156190,-83.3333333333333,4,2,1,60,0,0
156619,-83.3333333333333,4,2,2,60,0,0
157048,-83.3333333333333,4,2,1,60,0,0
157476,-83.3333333333333,4,2,2,60,0,0
157905,-83.3333333333333,4,2,1,60,0,0
158333,-83.3333333333333,4,2,2,60,0,0
158762,-83.3333333333333,4,2,1,60,0,0
159190,-83.3333333333333,4,2,2,60,0,0
159619,-83.3333333333333,4,2,1,60,0,0
160048,-83.3333333333333,4,2,2,60,0,0
160476,-83.3333333333333,4,2,1,60,0,0
160905,-83.3333333333333,4,2,2,60,0,0
161333,-76.9230769230769,4,2,1,60,0,0
161762,-76.9230769230769,4,2,2,60,0,0
162190,-76.9230769230769,4,2,1,60,0,0
162619,-76.9230769230769,4,2,2,70,0,0
163048,-100,4,2,1,60,0,0
192190,-100,4,2,2,50,0,0
193155,-100,4,2,1,60,0,0
193905,-100,4,2,1,70,0,0
205905,-83.3333333333333,4,2,1,70,0,0
207190,-83.3333333333333,4,2,1,80,0,1
207833,-83.3333333333333,4,2,0,80,0,0
208048,-83.3333333333333,4,2,1,80,0,0
208262,-83.3333333333333,4,2,0,80,0,0
208476,-83.3333333333333,4,2,1,80,0,0
208690,-83.3333333333333,4,2,0,80,0,0
208905,-83.3333333333333,4,2,1,80,0,0
209119,-83.3333333333333,4,2,0,80,0,0
209333,-83.3333333333333,4,2,1,80,0,0
209548,-83.3333333333333,4,2,0,80,0,0
209762,-83.3333333333333,4,2,1,80,0,0
209976,-83.3333333333333,4,2,0,80,0,0
210190,-83.3333333333333,4,2,1,80,0,0
210405,-83.3333333333333,4,2,0,80,0,0
210619,-83.3333333333333,4,2,1,80,0,0
210833,-83.3333333333333,4,2,0,80,0,0
211048,-83.3333333333333,4,2,1,80,0,0
211262,-83.3333333333333,4,2,0,80,0,0
211476,-83.3333333333333,4,2,1,80,0,0
211690,-83.3333333333333,4,2,0,80,0,0
211905,-83.3333333333333,4,2,1,80,0,0
212119,-83.3333333333333,4,2,0,80,0,0
212333,-83.3333333333333,4,2,1,80,0,0
212548,-83.3333333333333,4,2,0,80,0,0
212762,-83.3333333333333,4,2,1,80,0,0
212976,-83.3333333333333,4,2,0,80,0,0
213190,-83.3333333333333,4,2,1,80,0,0
213405,-83.3333333333333,4,2,0,80,0,0
213619,-83.3333333333333,4,2,1,80,0,0
213833,-83.3333333333333,4,2,0,80,0,0
214048,-83.3333333333333,4,2,1,80,0,0
214262,-83.3333333333333,4,2,0,80,0,0
214476,-83.3333333333333,4,2,1,80,0,0
214690,-83.3333333333333,4,2,0,80,0,0
214905,-83.3333333333333,4,2,1,80,0,0
215119,-83.3333333333333,4,2,0,80,0,0
215333,-83.3333333333333,4,2,1,80,0,0
215548,-83.3333333333333,4,2,0,80,0,0
215762,-83.3333333333333,4,2,1,80,0,0
215976,-83.3333333333333,4,2,0,80,0,0
216190,-83.3333333333333,4,2,1,80,0,0
216405,-83.3333333333333,4,2,0,80,0,0
216619,-83.3333333333333,4,2,1,80,0,0
216833,-83.3333333333333,4,2,0,80,0,0
217048,-83.3333333333333,4,2,1,80,0,0
217262,-83.3333333333333,4,2,0,80,0,0
217476,-83.3333333333333,4,2,1,80,0,0
217690,-83.3333333333333,4,2,0,80,0,0
217905,-83.3333333333333,4,2,1,80,0,0
218119,-83.3333333333333,4,2,0,80,0,0
218333,-83.3333333333333,4,2,1,80,0,0
218548,-83.3333333333333,4,2,0,80,0,0
218762,-83.3333333333333,4,2,1,80,0,0
218976,-83.3333333333333,4,2,0,80,0,0
219190,-83.3333333333333,4,2,1,80,0,0
219405,-83.3333333333333,4,2,0,80,0,0
219619,-83.3333333333333,4,2,1,80,0,0
221548,-83.3333333333333,4,2,0,80,0,0
221762,-83.3333333333333,4,2,1,80,0,0
221976,-83.3333333333333,4,2,0,80,0,0
222190,-83.3333333333333,4,2,1,80,0,0
222405,-83.3333333333333,4,2,0,80,0,0
222619,-83.3333333333333,4,2,1,80,0,0
222833,-83.3333333333333,4,2,0,80,0,0
223048,-83.3333333333333,4,2,1,80,0,0
223262,-83.3333333333333,4,2,0,80,0,0
223476,-83.3333333333333,4,2,1,80,0,0
223690,-83.3333333333333,4,2,0,80,0,0
223905,-83.3333333333333,4,2,1,80,0,0
224119,-83.3333333333333,4,2,0,80,0,0
224333,-83.3333333333333,4,2,1,80,0,0
224548,-83.3333333333333,4,2,0,80,0,0
224762,-83.3333333333333,4,2,1,80,0,0
224976,-83.3333333333333,4,2,0,80,0,0
225190,-83.3333333333333,4,2,1,80,0,0
225405,-83.3333333333333,4,2,0,80,0,0
225619,-83.3333333333333,4,2,1,80,0,0
225833,-83.3333333333333,4,2,0,80,0,0
226048,-83.3333333333333,4,2,1,80,0,0
226262,-83.3333333333333,4,2,0,80,0,0
226476,-83.3333333333333,4,2,1,80,0,0
226690,-83.3333333333333,4,2,0,80,0,0
226905,-83.3333333333333,4,2,1,80,0,0
227119,-83.3333333333333,4,2,0,80,0,0
227333,-83.3333333333333,4,2,1,80,0,0
227548,-83.3333333333333,4,2,0,80,0,0
227762,-83.3333333333333,4,2,1,80,0,0
227976,-83.3333333333333,4,2,0,80,0,0
228190,-83.3333333333333,4,2,1,80,0,0
228405,-83.3333333333333,4,2,0,80,0,0
228619,-83.3333333333333,4,2,1,80,0,0
228833,-83.3333333333333,4,2,0,80,0,0
229048,-83.3333333333333,4,2,1,80,0,0
229262,-83.3333333333333,4,2,0,80,0,0
229476,-83.3333333333333,4,2,1,80,0,0
229690,-83.3333333333333,4,2,0,80,0,0
229905,-83.3333333333333,4,2,1,80,0,0
230120,-83.3333333333333,4,2,0,80,0,0
230333,-83.3333333333333,4,2,1,80,0,0
230548,-83.3333333333333,4,2,0,80,0,0
230762,-83.3333333333333,4,2,1,80,0,0
230976,-83.3333333333333,4,2,0,80,0,0
231190,-83.3333333333333,4,2,1,80,0,0
231405,-83.3333333333333,4,2,0,80,0,0
231619,-83.3333333333333,4,2,1,80,0,0
231833,-83.3333333333333,4,2,0,80,0,0
232048,-83.3333333333333,4,2,1,80,0,0
232262,-83.3333333333333,4,2,0,80,0,0
232476,-83.3333333333333,4,2,1,80,0,0
232690,-83.3333333333333,4,2,0,80,0,0
232905,-83.3333333333333,4,2,1,80,0,0
233119,-83.3333333333333,4,2,0,80,0,0
233333,-83.3333333333333,4,2,1,80,0,0
235262,-100,4,2,0,80,0,0
235476,-100,4,2,1,80,0,0
235690,-100,4,2,0,80,0,0
235905,-83.3333333333333,4,2,1,80,0,0
236119,-83.3333333333333,4,2,0,80,0,0
236333,-83.3333333333333,4,2,1,80,0,0
236548,-83.3333333333333,4,2,0,80,0,0
236762,-83.3333333333333,4,2,1,80,0,0
236976,-100,4,2,0,80,0,0
237190,-100,4,2,1,80,0,0
237405,-100,4,2,0,80,0,0
237619,-83.3333333333333,4,2,1,80,0,0
237833,-83.3333333333333,4,2,0,80,0,0
238048,-83.3333333333333,4,2,1,80,0,0
238262,-83.3333333333333,4,2,0,80,0,0
238476,-83.3333333333333,4,2,1,80,0,0
239119,-83.3333333333333,4,2,0,80,0,0
239333,-83.3333333333333,4,2,1,80,0,0
239548,-83.3333333333333,4,2,0,80,0,0
239762,-83.3333333333333,4,2,1,80,0,0
239976,-83.3333333333333,4,2,0,80,0,0
240190,-83.3333333333333,4,2,1,80,0,0
240405,-83.3333333333333,4,2,0,80,0,0
240619,-83.3333333333333,4,2,1,80,0,0
240833,-83.3333333333333,4,2,0,80,0,0
241048,-83.3333333333333,4,2,1,80,0,0
241262,-83.3333333333333,4,2,0,80,0,0
241476,-83.3333333333333,4,2,1,80,0,0
241690,-83.3333333333333,4,2,0,80,0,0
241905,-83.3333333333333,4,2,1,80,0,0
242548,-83.3333333333333,4,2,0,80,0,0
242762,-83.3333333333333,4,2,1,80,0,0
242976,-83.3333333333333,4,2,0,80,0,0
243190,-83.3333333333333,4,2,1,80,0,0
243405,-83.3333333333333,4,2,0,80,0,0
243619,-83.3333333333333,4,2,1,80,0,0
243833,-83.3333333333333,4,2,0,80,0,0
244048,-83.3333333333333,4,2,1,80,0,0
244262,-83.3333333333333,4,2,0,80,0,0
244476,-83.3333333333333,4,2,1,80,0,0
244690,-83.3333333333333,4,2,0,80,0,0
244905,-83.3333333333333,4,2,1,80,0,0
245119,-83.3333333333333,4,2,0,80,0,0
245333,-83.3333333333333,4,2,1,80,0,0
250369,-83.3333333333333,4,2,0,40,0,0

[Colours]
Combo1 : 255,192,0
Combo2 : 255,128,192
Combo3 : 128,128,128
Combo4 : 242,24,57

[HitObjects]
126,98,8762,6,0,P|131:134|141:179,2,64,4|0|2,0:0|0:0|0:0,0:0:0:0:
179,25,9405,1,0,0:0:0:0:
386,98,9833,2,0,P|381:134|371:179,2,64,0|2|0,0:0|0:0|0:0,0:0:0:0:
333,25,10476,5,4,0:3:0:0:
280,172,10690,2,0,P|300:222|315:245,2,64,0|2|0,0:0|0:0|0:0,0:0:0:0:
179,25,11548,2,0,P|125:17|98:18,2,64,0|2|0,0:0|0:0|0:0,0:0:0:0:
197,205,12190,5,4,0:3:0:0:
280,172,12405,2,0,P|339:181|368:193,1,64,0|2,0:0|0:0,0:0:0:0:
395,254,12833,1,0,0:0:0:0:
189,314,13262,2,0,P|130:323|101:335,2,64,0|2|0,0:0|0:0|0:0,0:0:0:0:
270,351,13905,5,4,0:3:0:0:
352,281,14119,2,0,P|359:311|362:343,2,64,0|2|0,0:0|0:0|0:0,0:0:0:0:
188,194,14976,1,0,0:0:0:0:
275,212,15190,1,2,0:0:0:0:
323,136,15405,1,0,0:0:0:0:
157,35,15619,5,4,0:0:0:0:
245,22,15833,2,0,P|302:13|325:6,2,64,0|2|0,0:0|0:0|0:0,0:0:0:0:
99,157,16690,2,0,P|90:100|83:77,2,64,0|2|0,0:0|0:0|0:0,0:0:0:0:
24,268,17333,5,4,0:3:0:0:
110,242,17548,2,0,P|166:252|188:262,1,64,0|2,0:0|0:0,0:0:0:0:
220,329,17976,1,0,0:0:0:0:
438,337,18405,1,0,0:0:0:0:
395,258,18619,1,2,0:0:0:0:
473,215,18833,1,0,0:0:0:0:
338,189,19048,6,0,P|311:234|309:261,2,64,4|0|2,0:3|0:0|0:0,0:0:0:0:
291,112,19690,1,0,0:0:0:0:
74,149,20119,1,0,0:0:0:0:
74,149,20333,2,0,P|83:179|102:204,1,64,2|0,0:0|0:0,0:0:0:0:
246,256,20762,5,0,0:0:0:0:
230,255,20869,1,0,0:0:0:0:
214,257,20976,1,0,0:0:0:0:
199,262,21083,1,0,0:0:0:0:
185,271,21190,1,0,0:0:0:0:
176,284,21298,1,0,0:0:0:0:
156,309,21405,5,8,0:0:0:0:
187,302,21512,1,8,0:0:0:0:
219,302,21619,1,8,0:0:0:0:
250,310,21726,1,8,0:0:0:0:
278,326,21833,1,8,0:0:0:0:
301,348,21940,1,8,0:0:0:0:
319,374,22048,2,0,L|338:326,3,32
345,307,22476,6,0,P|404:314|434:321,1,80,4|0,0:0|0:0,0:0:0:0:
290,187,22905,1,8,0:0:0:0:
204,259,23119,1,0,0:0:0:0:
149,357,23333,2,0,P|90:364|60:371,1,80,2|0,0:0|0:0,0:0:0:0:
192,179,23762,2,0,P|199:218|203:258,1,80,8|0,0:0|0:0,0:0:0:0:
16,152,24190,6,0,P|87:122|127:102,1,120,2|0,0:0|0:0,0:0:0:0:
142,66,24619,2,0,P|193:85|221:101,1,80,8|0,0:0|0:0,0:0:0:0:
118,277,25048,1,2,0:0:0:0:
192,179,25262,1,0,0:0:0:0:
319,299,25476,2,0,P|283:317|245:330,1,80,8|0,0:0|0:0,0:0:0:0:
365,139,25905,6,0,P|384:185|389:227,2,80,2|0|8,0:0|0:0|0:0,0:0:0:0:
192,179,26548,1,0,0:0:0:0:
261,38,26762,2,0,P|318:50|363:54,1,80,2|0,0:0|0:0,0:0:0:0:
137,111,27190,2,0,P|80:123|35:127,1,80,8|0,0:0|0:0,0:0:0:0:
131,288,27619,6,0,P|168:328|272:309,1,160,2|8,0:0|0:0,0:0:0:0:
297,174,28262,1,0,0:0:0:0:
210,256,28476,2,0,P|211:301|216:351,1,80,2|0,0:0|0:0,0:0:0:0:
381,258,28905,1,8,0:0:0:0:
149,178,29119,1,0,0:0:0:0:
149,178,29226,1,0,0:0:0:0:
149,178,29333,6,0,P|76:167|61:167,1,80,6|0,0:0|0:0,0:0:0:0:
214,335,29762,1,8,0:0:0:0:
288,251,29976,1,0,0:0:0:0:
397,229,30190,2,0,P|470:218|485:218,1,80,2|0,0:0|0:0,0:0:0:0:
298,99,30619,2,0,P|270:127|248:161,1,80,8|0,0:0|0:0,0:0:0:0:
69,30,31048,6,0,P|98:90|114:159,1,120,2|0,0:0|0:0,0:0:0:0:
112,181,31476,2,0,P|90:238|84:268,1,80,8|0,0:0|0:0,0:0:0:0:
280,354,31905,1,2,0:0:0:0:
148,332,32119,1,0,0:0:0:0:
349,269,32333,2,0,P|371:326|377:356,1,80,8|0,0:0|0:0,0:0:0:0:
261,182,32762,6,0,P|320:174|354:156,1,80,2|0,0:0|0:0,0:0:0:0:
492,82,33190,2,0,P|433:74|399:56,1,80,8|0,0:0|0:0,0:0:0:0:
190,16,33619,2,0,P|249:24|283:42,1,80,2|0,0:0|0:0,0:0:0:0:
90,186,34048,2,0,P|52:199|12:202,1,80,8|0,0:0|0:0,0:0:0:0:
135,354,34476,6,0,L|184:339,3,40,4|0|0|0,0:0|0:0|0:0|0:0,0:0:0:0:
260,304,34905,2,0,L|298:315,3,40,2|0|0|0,0:0|0:0|0:0|0:0,0:0:0:0:
396,365,35333,1,0,1:0:0:0:
398,341,35440,1,0,1:0:0:0:
401,317,35548,1,0,1:0:0:0:
403,293,35655,1,0,1:0:0:0:
447,265,35762,5,8,0:0:0:0:
442,229,35869,1,8,0:0:0:0:
424,199,35976,1,8,0:0:0:0:
394,179,36083,1,8,0:0:0:0:
359,173,36190,6,0,P|320:184|275:191,1,64,4|0,0:0|0:0,0:0:0:0:
156,262,36619,1,2,0:0:0:0:
156,262,36833,1,0,0:0:0:0:
156,262,37048,2,0,P|195:272|240:279,1,64,2|0,0:0|0:0,0:0:0:0:
296,188,37476,2,0,L|284:111,1,64,2|0,0:0|0:0,0:0:0:0:
120,57,37905,6,0,L|187:69,1,64,2|0,0:0|0:0,0:0:0:0:
349,136,38333,2,0,L|286:124,1,64,2|0,0:0|0:0,0:0:0:0:
120,156,38762,2,0,L|187:168,1,64,2|0,0:0|0:0,0:0:0:0:
344,241,39190,2,0,L|281:229,1,64,2|0,0:0|0:0,0:0:0:0:
29,278,39619,5,2,0:0:0:0:
29,278,39833,1,0,0:0:0:0:
84,117,40048,2,0,L|95:210,1,64,2|0,0:0|0:0,0:0:0:0:
132,351,40476,2,0,L|139:287,1,64,2|0,0:0|0:0,0:0:0:0:
194,115,40905,2,0,L|205:208,1,64,2|0,0:0|0:0,0:0:0:0:
275,338,41333,6,0,P|318:343|388:288,1,128,2|2,0:0|0:0,0:0:0:0:
386,180,41976,1,0,0:0:0:0:
303,242,42190,2,0,L|233:234,1,64,2|0,0:0|0:0,0:0:0:0:
372,86,42619,2,0,L|383:170,1,64,2|0,0:0|0:0,0:0:0:0:
386,180,42940,1,0,0:0:0:0:
386,180,43048,6,0,L|395:40,1,128,2|2,0:0|0:0,0:0:0:0:
226,85,43690,1,0,0:0:0:0:
226,85,43905,2,0,P|192:68|168:38,1,64,2|0,0:0|0:0,0:0:0:0:
59,173,44333,2,0,P|81:150|110:137,1,64,2|0,0:0|0:0,0:0:0:0:
219,256,44762,6,0,L|209:319,1,64,2|0,0:0|0:0,0:0:0:0:
295,297,45190,2,0,L|304:233,1,64,2|0,0:0|0:0,0:0:0:0:
135,272,45619,2,0,L|125:335,1,64,2|0,0:0|0:0,0:0:0:0:
376,285,46048,2,0,L|385:221,1,64,2|0,0:0|0:0,0:0:0:0:
170,59,46476,5,2,0:0:0:0:
170,59,46690,1,0,0:0:0:0:
298,235,46905,1,2,0:0:0:0:
298,235,47119,1,0,0:0:0:0:
96,141,47333,2,0,B|63:154|63:154|35:188,1,64,2|0,0:0|0:0,0:0:0:0:
230,359,47762,2,0,B|263:346|263:346|291:312,1,64,2|0,0:0|0:0,0:0:0:0:
253,136,48190,6,0,L|246:100,3,32,0|0|0|0,1:0|1:0|1:0|1:0,0:0:0:0:
347,95,48619,6,0,L|351:39,3,40,0|0|0|0,1:0|1:0|1:0|1:0,0:0:0:0:
393,187,49048,1,0,1:0:0:0:
411,171,49155,1,0,1:0:0:0:
429,155,49262,1,0,1:0:0:0:
447,140,49369,1,0,1:0:0:0:
477,114,49476,5,8,0:0:0:0:
494,145,49583,1,8,0:0:0:0:
500,180,49690,1,8,0:0:0:0:
492,215,49798,1,8,0:0:0:0:
473,245,49905,6,0,P|413:254|381:262,1,80,6|0,0:0|0:0,0:0:0:0:
170,318,50333,1,8,0:0:0:0:
304,356,50548,1,0,0:0:0:0:
307,164,50762,2,0,P|272:220|256:255,1,80,2|0,0:0|0:0,0:0:0:0:
149,356,51190,2,0,P|130:320|107:287,1,80,8|0,0:0|0:0,0:0:0:0:
30,123,51619,5,2,0:0:0:0:
187,236,51833,2,0,P|206:188|229:152,1,80,0|8,0:0|0:0,0:0:0:0:
61,34,52262,2,0,P|98:48|137:55,1,80,0|2,0:0|0:0,0:0:0:0:
98,215,52690,2,0,P|60:229|21:236,1,80,0|8,0:0|0:0,0:0:0:0:
168,143,53119,1,0,0:0:0:0:
312,233,53333,6,0,P|255:265|244:330,1,120,2|0,0:0|0:0,0:0:0:0:
263,348,53762,1,8,0:0:0:0:
405,271,53976,1,0,0:0:0:0:
405,271,54190,2,0,P|413:229|400:187,1,80,2|0,0:0|0:0,0:0:0:0:
238,89,54619,2,0,P|270:116|313:126,1,80,8|0,0:0|0:0,0:0:0:0:
459,11,55048,5,2,0:0:0:0:
483,200,55262,2,0,P|412:193|380:195,1,80,0|8,0:0|0:0,0:0:0:0:
219,303,55690,2,0,P|258:302|298:296,1,80,0|2,0:0|0:0,0:0:0:0:
112,146,56119,2,0,P|106:185|105:225,1,80,0|8,0:0|0:0,0:0:0:0:
279,96,56548,1,0,0:0:0:0:
279,96,56655,1,0,0:0:0:0:
279,96,56762,6,0,B|187:75|187:75|219:116,1,120,2|0,0:0|0:0,0:0:0:0:
202,95,57190,1,8,0:0:0:0:
350,163,57405,1,0,0:0:0:0:
350,163,57619,2,0,L|366:75,1,80,2|0,0:0|0:0,0:0:0:0:
159,170,58048,2,0,L|173:248,1,80,8|0,0:0|0:0,0:0:0:0:
355,327,58476,5,2,0:0:0:0:
282,264,58690,1,0,0:0:0:0:
458,220,58905,1,8,0:0:0:0:
364,198,59119,1,0,0:0:0:0:
462,90,59333,1,2,0:0:0:0:
368,112,59548,1,0,0:0:0:0:
352,13,59762,1,8,0:0:0:0:
279,76,59976,1,0,0:0:0:0:
201,185,60190,6,0,L|213:231,3,40,2|0|0|0,1:2|1:0|1:0|1:0,0:0:0:0:
115,254,60619,2,0,L|121:315,3,40,8|0|0|0,1:2|1:0|1:0|1:0,0:0:0:0:
42,182,61048,6,0,L|52:116,3,40,2|0|0|0,1:2|1:2|1:2|1:2,0:0:0:0:
141,97,61476,2,0,L|166:45,3,40,8|0|0|0,1:2|1:2|1:2|1:2,0:0:0:0:
251,28,61905,5,2,1:2:0:0:
262,49,62012,1,0,1:0:0:0:
270,71,62119,1,0,1:0:0:0:
277,94,62226,1,0,1:0:0:0:
281,118,62333,1,0,1:0:0:0:
283,142,62440,1,0,1:0:0:0:
283,166,62548,1,0,1:0:0:0:
279,189,62655,1,0,1:0:0:0:
274,216,62762,5,0,1:0:0:0:
250,229,62869,1,0,1:0:0:0:
224,240,62976,1,0,1:0:0:0:
197,247,63083,1,0,1:0:0:0:
170,252,63190,1,0,1:0:0:0:
142,254,63298,1,0,1:0:0:0:
114,253,63405,1,0,1:0:0:0:
86,249,63512,1,0,1:0:0:0:
59,242,63619,6,0,P|75:175|121:81,1,160,4|8,0:0|0:0,0:0:0:0:
258,24,64262,2,0,P|272:90|272:127,1,80,0|2,0:0|0:0,0:0:0:0:
188,247,64690,1,2,1:2:0:0:
281,198,64905,1,8,0:0:0:0:
227,351,65119,6,0,P|168:345|64:323,1,160,2|2,1:2|0:0,0:0:0:0:
163,171,65762,2,0,P|184:221|188:261,1,80,8|0,0:0|0:0,0:0:0:0:
34,174,66190,1,2,0:0:0:0:
111,35,66405,1,2,0:0:0:0:
111,35,66512,1,2,0:0:0:0:
111,35,66619,1,10,0:0:0:0:
288,131,66833,2,0,L|337:93,1,40,2|0,0:0|0:0,0:0:0:0:
385,54,67048,6,0,L|360:212,1,160,2|8,1:2|0:0,0:0:0:0:
487,309,67690,2,0,L|473:215,1,80
277,275,68119,1,2,1:2:0:0:
375,308,68333,1,8,0:0:0:0:
243,185,68548,6,0,B|200:210|188:242|188:242|135:254|75:228,1,160,2|0,1:2|0:0,0:0:0:0:
120,71,69190,2,0,P|135:112|145:160,1,80,8|0,0:0|0:0,0:0:0:0:
30,283,69619,1,2,0:0:0:0:
211,353,69833,1,0,1:0:0:0:
217,325,69940,1,0,1:0:0:0:
224,297,70048,1,8,1:2:0:0:
143,147,70262,1,2,0:0:0:0:
309,238,70476,6,0,L|136:249,1,160,4|8,1:2|0:0,0:0:0:0:
268,139,71119,2,0,L|360:146,1,80,0|2,0:0|0:0,0:0:0:0:
252,319,71548,1,2,1:2:0:0:
218,220,71762,1,8,0:0:0:0:
281,56,71976,6,0,P|208:72|178:149,1,160,2|0,1:2|0:0,0:0:0:0:
347,145,72619,2,0,L|435:141,1,80,8|0,0:0|0:0,0:0:0:0:
357,280,73048,1,2,0:0:0:0:
268,139,73262,1,2,0:0:0:0:
268,139,73369,1,2,0:0:0:0:
268,139,73476,1,10,0:0:0:0:
183,335,73690,2,0,L|164:270,1,40,2|0,0:0|0:0,0:0:0:0:
251,264,73905,6,0,P|176:259|88:256,1,160,2|8,1:2|0:0,0:0:0:0:
276,362,74548,2,0,P|355:359|435:354,1,160,2|2,0:0|1:2,0:0:0:0:
397,176,75190,1,8,0:0:0:0:
431,256,75405,6,0,P|353:257|310:183,1,160,2|0,1:2|0:0,0:0:0:0:
369,86,76048,1,8,0:0:0:0:
397,176,76262,1,0,0:0:0:0:
266,121,76476,1,2,0:0:0:0:
285,33,76690,1,2,0:0:0:0:
285,33,76798,1,2,0:0:0:0:
285,33,76905,1,10,0:0:0:0:
156,191,77119,1,2,0:0:0:0:
156,191,77333,6,0,P|205:193|336:211,1,160,4|8,1:2|0:0,0:0:0:0:
412,298,77976,2,0,P|366:328|322:335,1,80,0|2,0:0|0:0,0:0:0:0:
212,275,78405,1,2,1:2:0:0:
232,376,78619,1,8,0:0:0:0:
315,206,78833,6,0,P|292:139|198:128,1,160,2|0,1:2|0:0,0:0:0:0:
61,218,79476,2,0,P|109:232|151:223,1,80,8|0,0:0|0:0,0:0:0:0:
138,73,79905,1,2,0:0:0:0:
238,195,80119,1,2,0:0:0:0:
238,195,80226,1,2,0:0:0:0:
238,195,80333,1,10,0:0:0:0:
352,8,80548,2,0,L|373:64,1,40,2|0,0:0|0:0,0:0:0:0:
287,73,80762,6,0,P|365:74|422:139,1,160,2|8,1:2|0:0,0:0:0:0:
327,240,81405,2,0,P|326:186|329:143,1,80,0|2,0:0|0:0,0:0:0:0:
436,282,81833,1,2,1:2:0:0:
395,378,82048,1,8,0:0:0:0:
232,282,82262,6,0,B|170:267|116:292|116:292|80:235,1,160,2|0,1:2|0:0,0:0:0:0:
184,103,82905,2,0,L|173:192,1,80,8|0,0:0|0:0,0:0:0:0:
96,40,83333,1,2,0:0:0:0:
250,24,83548,1,8,0:0:0:0:
250,24,83655,1,8,0:0:0:0:
250,24,83762,1,8,0:0:0:0:
174,182,83976,1,0,0:0:0:0:
308,111,84190,6,0,B|427:95|427:95|398:131,1,160,4|8,1:2|0:0,0:0:0:0:
253,189,84833,2,0,L|169:181,1,80,0|2,0:0|0:0,0:0:0:0:
351,292,85262,1,2,1:2:0:0:
342,188,85476,1,8,0:0:0:0:
266,347,85690,6,0,L|429:337,1,160,2|0,1:2|0:0,0:0:0:0:
253,189,86333,2,0,L|263:276,1,80,8|0,0:0|0:0,0:0:0:0:
406,255,86762,1,2,0:0:0:0:
426,115,86976,1,2,0:0:0:0:
426,115,87083,1,2,0:0:0:0:
426,115,87190,1,10,0:0:0:0:
246,103,87405,2,0,L|195:100,1,40,2|0,0:0|0:0,0:0:0:0:
114,132,87619,6,0,P|179:96|182:3,1,160,4|8,1:2|0:0,0:0:0:0:
29,105,88262,2,0,P|37:181|103:220,1,160,4|2,0:0|0:0,0:0:0:0:
320,186,88905,1,2,1:2:0:0:
256,192,89012,12,0,91048,0:0:0:0:
257,168,94262,6,0,L|265:192,2,20,0|0|0,1:0|1:0|1:0,0:0:0:0:
232,145,94476,6,0,L|244:101,3,40,0|0|0|0,1:0|1:0|1:0|1:0,0:0:0:0:
158,217,94905,2,0,L|146:163,1,40,0|0,1:0|1:0,0:0:0:0:
87,108,95119,6,0,L|94:88,2,20,8|8|8,0:0|0:0|0:0,0:0:0:0:
61,143,95333,1,8,0:0:0:0:
57,174,95440,1,8,0:0:0:0:
54,206,95548,1,8,0:0:0:0:
51,238,95655,1,8,0:0:0:0:
37,276,95762,5,2,1:2:0:0:
76,280,95869,1,2,1:2:0:0:
116,284,95976,1,2,1:2:0:0:
156,288,96083,1,2,1:2:0:0:
196,293,96190,6,0,P|251:288|293:288,1,80,4|2,1:2|0:0,0:0:0:0:
492,358,96619,2,0,P|437:353|395:353,1,80,8|2,1:2|0:0,0:0:0:0:
376,169,97048,1,2,0:0:0:0:
468,274,97262,1,2,0:0:0:0:
275,287,97476,2,0,P|276:247|280:207,1,80,8|2,1:2|0:0,0:0:0:0:
433,37,97905,5,2,0:0:0:0:
376,169,98119,1,2,0:0:0:0:
328,33,98333,1,8,1:2:0:0:
466,136,98548,1,2,0:0:0:0:
252,73,98762,1,2,0:0:0:0:
321,234,98976,1,2,0:0:0:0:
328,33,99190,1,8,1:2:0:0:
205,240,99405,1,2,0:0:0:0:
441,244,99619,6,0,P|475:178|442:97,1,160,2|8,0:0|1:2,0:0:0:0:
221,65,100262,1,2,0:0:0:0:
328,33,100476,2,0,P|370:24|422:0,1,80,2|2,0:0|0:0,0:0:0:0:
321,234,100905,2,0,P|283:219|244:211,1,80,8|2,1:2|0:0,0:0:0:0:
77,62,101333,5,2,0:0:0:0:
173,178,101548,1,2,0:0:0:0:
1,93,101762,1,8,1:2:0:0:
248,136,101976,1,2,0:0:0:0:
81,265,102190,2,0,P|75:236|76:212,2,40,2|0|2,0:0|0:0|0:0,0:0:0:0:
329,130,102619,2,0,P|327:149|322:169,2,40,8|0|2,1:2|0:0|0:0,0:0:0:0:
40,33,103048,6,0,B|75:54|75:54|154:33|154:33|205:59,1,160,6|8,1:2|1:2,0:0:0:0:
236,250,103690,1,2,0:0:0:0:
136,199,103905,2,0,L|151:102,1,80,2|2,0:0|0:0,0:0:0:0:
297,25,104333,2,0,L|309:104,1,80,8|2,1:2|0:0,0:0:0:0:
378,340,104762,5,2,0:0:0:0:
424,200,104976,1,2,0:0:0:0:
270,353,105190,1,8,1:2:0:0:
273,209,105405,1,2,0:0:0:0:
163,376,105619,2,0,P|153:323|140:289,1,80,2|2,0:0|0:0,0:0:0:0:
33,131,106048,2,0,P|20:168|14:208,1,80,8|2,1:2|0:0,0:0:0:0:
273,209,106476,5,2,0:0:0:0:
140,166,106690,1,2,0:0:0:0:
312,115,106905,2,0,L|403:121,1,80,8|2,1:2|0:0,0:0:0:0:
228,42,107333,1,2,0:0:0:0:
273,209,107548,1,2,0:0:0:0:
104,238,107762,2,0,L|24:232,1,80,8|2,1:2|0:0,0:0:0:0:
207,362,108190,5,8,0:0:0:0:
207,362,108298,1,8,0:0:0:0:
207,362,108405,2,0,L|263:351,1,40,8|8,0:0|0:0,0:0:0:0:
353,351,108619,1,8,0:0:0:0:
353,351,108726,1,8,0:0:0:0:
353,351,108833,2,0,L|389:315,1,40,8|8,0:0|0:0,0:0:0:0:
461,272,109048,5,0,1:0:0:0:
457,248,109155,1,0,1:0:0:0:
454,224,109262,1,0,1:0:0:0:
450,200,109369,1,0,1:0:0:0:
474,163,109476,5,0,1:0:0:0:
450,141,109583,1,0,1:0:0:0:
423,125,109690,1,0,1:0:0:0:
392,116,109798,1,0,1:0:0:0:
360,114,109905,6,0,P|289:122|250:124,1,80,4|2,1:2|0:0,0:0:0:0:
89,44,110333,2,0,P|160:51|199:53,1,80,8|2,1:2|0:0,0:0:0:0:
281,222,110762,1,2,0:0:0:0:
156,134,110976,1,2,0:0:0:0:
58,279,111190,2,0,P|50:350|48:389,1,80,8|2,1:2|0:0,0:0:0:0:
312,308,111619,5,2,0:0:0:0:
167,267,111833,1,2,0:0:0:0:
378,194,112048,1,8,1:2:0:0:
237,193,112262,1,2,0:0:0:0:
401,88,112476,1,2,0:0:0:0:
435,246,112690,1,2,0:0:0:0:
237,193,112905,1,8,1:2:0:0:
280,46,113119,1,2,0:0:0:0:
298,266,113333,6,0,P|231:289|153:236,1,160,6|8,0:0|1:2,0:0:0:0:
195,25,113976,1,2,0:0:0:0:
259,116,114190,2,0,P|247:164|232:202,1,80,2|2,0:0|0:0,0:0:0:0:
33,188,114619,2,0,P|80:174|120:168,1,80,8|2,1:2|0:0,0:0:0:0:
210,374,115048,5,2,0:0:0:0:
159,248,115262,1,2,0:0:0:0:
345,205,115476,1,8,1:2:0:0:
312,339,115690,1,2,0:0:0:0:
238,149,115905,2,0,P|241:128|251:101,2,40,2|0|2,0:0|0:0|0:0,0:0:0:0:
458,62,116333,2,0,P|464:81|466:100,2,40,8|0|2,1:2|0:0|0:0,0:0:0:0:
288,231,116762,6,0,P|227:182|144:206,1,160,6|8,0:0|1:2,0:0:0:0:
176,378,117405,1,2,0:0:0:0:
270,319,117619,2,0,P|313:316|363:317,1,80,2|2,0:0|0:0,0:0:0:0:
105,262,118048,2,0,P|62:265|12:264,1,80,8|2,1:2|0:0,0:0:0:0:
203,101,118476,5,2,0:0:0:0:
236,249,118690,1,2,0:0:0:0:
136,25,118905,1,8,1:2:0:0:
87,174,119119,1,2,0:0:0:0:
279,144,119333,2,0,P|318:147|358:155,1,80,2|2,0:0|0:0,0:0:0:0:
148,317,119762,2,0,P|137:249|136:214,1,80,8|2,1:2|0:0,0:0:0:0:
25,24,120190,6,0,P|34:97|34:209,1,160,6|8,0:0|1:2,0:0:0:0:
196,65,120833,2,0,P|183:121|178:162,1,80,2|2,0:0|0:0,0:0:0:0:
63,304,121262,1,2,0:0:0:0:
180,277,121476,1,8,1:2:0:0:
267,361,121690,1,2,0:0:0:0:
397,248,121905,5,0,1:0:0:0:
408,218,122012,1,0,1:0:0:0:
414,186,122119,1,0,1:0:0:0:
414,155,122226,1,0,1:0:0:0:
405,124,122333,2,0,P|400:102|389:77,3,40,0|0|0|0,1:0|1:0|1:0|1:0,0:0:0:0:
303,28,122762,1,0,1:0:0:0:
271,30,122869,1,0,1:0:0:0:
239,33,122976,1,0,1:0:0:0:
207,36,123083,1,0,1:0:0:0:
175,40,123190,2,0,P|151:32|118:30,1,40,0|0,1:0|1:0,0:0:0:0:
95,159,123405,2,0,P|76:175|57:203,1,40,0|0,1:0|1:0,0:0:0:0:
112,333,123619,5,12,1:2:0:0:
256,192,123726,12,2,127048,0:0:0:0:
205,51,130476,6,0,L|293:31,1,80,4|0,1:2|0:0,0:0:0:0:
116,131,130905,2,0,L|28:111,1,80,2|0,0:0|0:0,0:0:0:0:
206,208,131333,2,0,L|294:188,1,80,2|0,0:0|0:0,0:0:0:0:
129,292,131762,2,0,L|41:272,1,80,2|0,0:0|0:0,0:0:0:0:
116,131,132190,5,2,0:0:0:0:
205,51,132405,1,0,0:0:0:0:
322,27,132619,2,0,P|372:33|414:45,1,80,2|0,0:0|0:0,0:0:0:0:
416,225,133048,1,2,0:0:0:0:
297,219,133262,1,0,0:0:0:0:
215,130,133476,2,0,P|206:80|205:36,1,80,2|0,0:0|0:0,0:0:0:0:
416,225,133905,6,0,P|413:264|405:304,1,80,2|0,0:0|0:0,0:0:0:0:
347,115,134333,2,0,P|386:117|426:125,1,80,2|0,0:0|0:0,0:0:0:0:
229,187,134762,2,0,P|231:147|239:107,1,80,2|0,0:0|0:0,0:0:0:0:
301,298,135190,2,0,P|261:295|221:287,1,80,2|0,0:0|0:0,0:0:0:0:
56,175,135619,6,0,L|50:128,3,40,2|0|0|0,1:2|1:0|1:0|1:0,0:0:0:0:
138,124,136048,2,0,L|132:77,3,40,2|0|0|0,1:2|1:0|1:0|1:0,0:0:0:0:
223,84,136476,2,0,L|217:37,3,40,2|0|0|0,1:2|1:0|1:0|1:0,0:0:0:0:
304,48,136905,2,0,L|298:1,3,40,2|0|0|0,1:2|1:0|1:0|1:0,0:0:0:0:
306,155,137333,5,6,3:2:0:0:
306,155,137440,1,0,3:0:0:0:
306,155,137548,2,0,L|360:177,1,40,0|0,3:0|3:0,0:0:0:0:
430,220,137762,2,0,L|486:202,3,40,8|0|0|0,0:0|3:0|3:0|3:0,0:0:0:0:
345,305,138190,5,2,3:2:0:0:
345,305,138298,1,0,3:0:0:0:
345,305,138405,2,0,P|322:294|286:286,1,40
210,312,138619,2,0,P|200:335|194:371,3,40,8|0|0|0,3:2|3:0|3:0|3:0,3:0:0:0:
261,207,139048,5,2,3:2:0:0:
261,207,139155,1,0,3:0:0:0:
261,207,139262,2,0,P|230:218|197:222,1,40,0|0,3:0|3:0,0:0:0:0:
128,251,139476,2,0,P|108:246|90:238,3,40,8|0|0|0,3:2|3:0|3:0|3:0,0:0:0:0:
17,313,139905,5,2,3:2:0:0:
17,313,140012,1,0,3:0:0:0:
17,313,140119,2,0,L|4:265,1,40
0,174,140333,2,0,L|58:158,3,40,8|0|0|0,3:2|3:0|3:0|3:0,0:0:0:0:
112,102,140762,6,0,L|120:57,3,40,2|0|0|0,3:2|3:0|3:0|3:0,3:0:0:0:
199,160,141190,2,0,L|206:199,3,40,8|0|0|0,3:2|3:0|3:0|3:0,3:0:0:0:
276,79,141619,2,0,L|284:34,3,40,2|0|0|0,3:2|3:0|3:0|3:0,3:0:0:0:
328,178,142048,2,0,L|335:217,3,40,8|0|0|0,3:2|3:0|3:0|3:0,3:0:0:0:
395,69,142476,5,2,3:2:0:0:
407,78,142583,1,0,3:0:0:0:
421,84,142690,2,0,P|447:79|470:64,1,40,0|0,3:0|3:0,3:0:0:0:
337,139,142905,2,0,P|327:164|329:191,1,40,8|0,3:2|3:0,3:0:0:0:
331,44,143119,2,0,P|313:23|289:11,1,40,0|0,3:0|3:0,3:0:0:0:
209,62,143333,6,0,P|192:73|180:89,1,40,2|0,3:2|3:0,3:0:0:0:
99,117,143548,2,0,P|94:136|96:156,1,40,0|0,3:0|3:0,3:0:0:0:
46,227,143762,2,0,P|55:244|70:257,1,40,8|0,3:2|3:0,3:0:0:0:
91,344,143976,2,0,P|109:350|129:350,1,40,0|0,3:0|3:0,3:0:0:0:
257,354,144190,5,4,3:2:0:0:
257,354,144298,1,0,3:0:0:0:
257,354,144405,2,0,L|320:344,1,40
404,300,144619,2,0,P|423:301|467:284,3,40,8|0|0|0,3:2|3:0|3:0|3:0,3:0:0:0:
282,242,145048,5,2,3:2:0:0:
282,242,145155,1,0,3:0:0:0:
282,242,145262,2,0,L|332:233,1,40,0|0,3:0|3:0,0:0:0:0:
431,191,145476,2,0,P|449:197|469:198,3,40,8|0|0|0,3:2|3:0|3:0|3:0,0:0:0:0:
492,87,145905,5,2,3:2:0:0:
492,87,146012,1,0,3:0:0:0:
492,87,146119,2,0,P|485:64|456:29,1,40,0|0,3:0|3:0,0:0:0:0:
370,69,146333,2,0,P|350:55|305:45,3,40,8|0|0|0,3:2|3:0|3:0|3:0,0:0:0:0:
296,153,146762,5,2,3:2:0:0:
296,153,146869,1,0,0:0:0:0:
296,153,146976,2,0,L|314:194,1,40
191,179,147190,2,0,L|186:243,3,40,8|0|0|0,3:2|3:0|3:0|3:0,0:0:0:0:
161,65,147619,6,0,L|166:21,3,40,2|0|0|0,3:2|3:0|3:0|3:0,3:0:0:0:
88,145,148048,2,0,L|74:102,3,40,8|0|0|0,3:2|3:0|3:0|3:0,3:0:0:0:
62,248,148476,2,0,L|32:214,3,40,2|0|0|0,3:2|3:0|3:0|3:0,3:0:0:0:
83,357,148905,2,0,L|41:338,3,40,8|0|0|0,3:2|3:0|3:0|3:0,3:0:0:0:
184,293,149333,5,2,3:2:0:0:
189,273,149440,1,0,3:0:0:0:
201,256,149548,2,0,P|216:243|252:228,1,40,0|0,3:0|3:0,3:0:0:0:
254,161,149762,2,0,P|272:167|303:191,1,40,8|0,3:2|3:0,3:0:0:0:
361,153,149976,2,0,P|364:172|359:211,1,40,0|0,3:0|3:0,3:0:0:0:
414,279,150190,6,0,P|398:292|363:307,1,40,2|0,3:2|3:0,3:0:0:0:
314,369,150405,2,0,P|295:362|264:338,1,40,0|0,3:0|3:0,3:0:0:0:
189,325,150619,2,0,P|185:305|190:266,1,40,8|0,3:2|3:0,3:0:0:0:
148,200,150833,2,0,P|163:187|199:171,1,40,0|0,3:0|3:0,3:0:0:0:
263,90,151048,5,4,3:2:0:0:
285,97,151155,1,0,3:0:0:0:
307,104,151262,2,0,L|358:96,1,47.9999985351563,0|0,3:0|3:0,0:0:0:0:
479,78,151476,2,0,L|491:14,3,47.9999985351563,8|0|0|0,3:2|3:0|3:0|3:0,0:0:0:0:
461,205,151905,5,2,3:2:0:0:
437,199,152012,1,0,3:0:0:0:
413,198,152119,2,0,P|379:203|342:226,1,47.9999985351563,0|0,3:0|3:0,0:0:0:0:
294,298,152333,2,0,P|316:306|340:308,3,47.9999985351563,8|0|0|0,3:2|3:0|3:0|3:0,0:0:0:0:
199,214,152762,5,2,3:2:0:0:
203,190,152869,1,0,3:0:0:0:
207,166,152976,2,0,L|263:141,1,47.9999985351563,0|0,3:0|3:0,0:0:0:0:
313,48,153190,2,0,L|371:68,3,47.9999985351563,8|0|0|0,3:2|3:0|3:0|3:0,0:0:0:0:
190,31,153619,5,2,3:2:0:0:
167,38,153726,1,0,3:0:0:0:
143,44,153833,2,0,P|118:62|97:90,1,47.9999985351563,0|0,3:0|3:0,0:0:0:0:
30,170,154048,1,8,3:2:0:0:
33,193,154155,1,0,3:0:0:0:
36,216,154262,1,0,3:0:0:0:
39,239,154369,1,0,3:0:0:0:
22,269,154476,6,0,L|102:280,1,47.9999985351563,12|0,3:2|3:0,3:0:0:0:
196,354,154690,1,0,3:0:0:0:
218,362,154798,1,0,3:0:0:0:
240,369,154905,2,0,L|306:354,1,47.9999985351563,8|0,3:2|3:0,3:0:0:0:
446,281,155119,1,0,3:0:0:0:
424,289,155226,1,0,3:0:0:0:
402,296,155333,2,0,L|355:285,1,47.9999985351563,10|0,3:2|3:0,3:0:0:0:
197,204,155548,1,0,3:0:0:0:
219,212,155655,1,0,3:0:0:0:
241,219,155762,2,0,L|307:201,1,47.9999985351563,8|0,3:2|3:0,3:0:0:0:
435,123,155976,1,0,3:0:0:0:
429,99,156083,1,0,3:0:0:0:
431,75,156190,6,0,P|434:54|445:26,3,47.9999985351563,10|0|0|0,3:2|3:0|3:0|3:0,3:0:0:0:
304,135,156619,2,0,P|311:153|312:184,3,47.9999985351563,8|0|0|0,3:2|3:0|3:0|3:0,3:0:0:0:
193,52,157048,2,0,P|196:31|212:-1,3,47.9999985351563,10|0|0|0,3:2|3:0|3:0|3:0,3:0:0:0:
83,134,157476,2,0,P|90:152|93:183,3,47.9999985351563,8|0|0|0,3:2|3:2|3:2|3:2,3:0:0:0:
71,285,157905,5,14,3:2:0:0:
104,283,158012,1,0,3:2:0:0:
138,285,158119,1,0,3:2:0:0:
171,291,158226,1,0,3:2:0:0:
203,300,158333,1,8,3:2:0:0:
234,313,158440,1,0,3:2:0:0:
263,330,158548,1,0,3:2:0:0:
290,350,158655,1,0,3:2:0:0:
310,376,158762,5,10,3:2:0:0:
338,358,158869,1,0,3:2:0:0:
365,338,158976,1,0,3:2:0:0:
390,316,159083,1,0,3:2:0:0:
413,291,159190,1,8,3:2:0:0:
434,265,159298,1,0,3:2:0:0:
452,236,159405,1,0,3:2:0:0:
468,207,159512,1,0,3:2:0:0:
481,176,159619,5,10,3:2:0:0:
449,164,159726,1,0,3:2:0:0:
416,157,159833,1,0,3:2:0:0:
383,152,159940,1,0,3:2:0:0:
349,151,160048,1,8,3:2:0:0:
316,154,160155,1,0,3:2:0:0:
283,160,160262,1,0,3:2:0:0:
251,169,160369,1,0,3:2:0:0:
225,191,160476,5,10,3:2:0:0:
192,183,160583,1,0,3:2:0:0:
161,170,160690,1,0,3:2:0:0:
133,151,160798,1,0,3:2:0:0:
108,128,160905,1,8,3:2:0:0:
88,102,161012,1,0,3:2:0:0:
73,72,161119,1,0,3:2:0:0:
63,40,161226,1,0,3:2:0:0:
62,3,161333,6,0,P|93:5|121:13,1,51.999997619629,14|0,3:2|3:0,3:0:0:0:
192,183,161548,1,0,3:0:0:0:
175,203,161655,1,0,3:0:0:0:
152,216,161762,2,0,P|126:221|100:223,1,51.999997619629,8|0,3:2|3:0,3:0:0:0:
279,42,161976,1,0,3:0:0:0:
302,30,162083,1,0,3:0:0:0:
327,27,162190,2,0,P|352:29|380:38,1,51.999997619629,10|0,3:2|3:0,3:0:0:0:
485,209,162405,1,0,3:0:0:0:
467,227,162512,1,0,3:0:0:0:
446,242,162619,2,0,P|421:249|395:252,1,51.999997619629,8|0,3:2|3:0,3:0:0:0:
223,142,162833,2,0,P|197:134|172:133,1,51.999997619629,8|0,3:2|3:0,3:0:0:0:
40,314,163048,5,14,3:2:0:0:
256,192,163155,12,0,164762,0:0:0:0:
256,192,190476,12,4,192190,0:0:0:0:
200,150,192940,6,0,L|183:119,2,20,8|8|8,1:2|1:2|1:2,0:0:0:0:
223,183,193155,2,0,L|209:232,2,40,6|6|6,0:3|0:3|0:3,0:0:0:0:
269,107,193476,5,2,1:2:0:0:
300,113,193583,1,2,1:2:0:0:
331,119,193690,1,2,1:2:0:0:
363,125,193798,1,2,1:2:0:0:
394,134,193905,6,0,P|407:191|410:232,1,80,4|0,1:2|0:0,0:0:0:0:
196,299,194333,2,0,P|201:259|211:220,1,80,8|0,0:0|0:0,0:0:0:0:
409,212,194762,1,2,0:0:0:0:
342,349,194976,1,0,0:0:0:0:
196,299,195190,2,0,P|157:289|117:283,1,80,8|0,0:0|0:0,0:0:0:0:
5,113,195619,5,2,0:0:0:0:
28,255,195833,1,0,0:0:0:0:
142,73,196048,2,0,P|180:63|220:57,1,80,8|0,0:0|0:0,0:0:0:0:
306,216,196476,1,2,0:0:0:0:
196,299,196690,1,0,0:0:0:0:
328,199,196905,1,8,0:0:0:0:
167,191,197119,1,0,0:0:0:0:
386,123,197333,6,0,P|423:181|374:281,1,160,2|8,0:0|0:0,0:0:0:0:
196,299,197976,1,0,0:0:0:0:
248,198,198190,2,0,P|287:194|360:208,1,80,2|0,0:0|0:0,0:0:0:0:
196,299,198619,1,8,0:0:0:0:
156,164,198833,1,0,0:0:0:0:
35,312,199048,6,0,L|44:210,1,80,2|0,0:0|0:0,0:0:0:0:
148,84,199476,2,0,L|155:163,1,80,8|0,0:0|0:0,0:0:0:0:
191,347,199904,1,2,0:0:0:0:
197,323,200012,1,0,0:0:0:0:
196,299,200119,1,0,0:0:0:0:
372,240,200333,1,8,0:0:0:0:
376,263,200440,1,0,0:0:0:0:
387,285,200548,1,0,0:0:0:0:
155,163,200762,6,0,P|224:168|299:184,1,120,6|0,0:0|0:0,0:0:0:0:
312,166,201190,2,0,P|332:122|343:78,1,80,8|0,0:0|0:0,0:0:0:0:
126,88,201619,2,0,P|137:126|154:162,1,80,2|0,0:0|0:0,0:0:0:0:
279,283,202048,2,0,P|323:263|367:252,1,80,8|0,0:0|0:0,0:0:0:0:
208,371,202476,5,2,0:0:0:0:
107,322,202690,1,0,0:0:0:0:
57,221,202905,2,0,P|60:172|75:123,1,80,8|0,0:0|0:0,0:0:0:0:
189,40,203333,1,2,0:0:0:0:
260,126,203548,1,0,0:0:0:0:
370,146,203762,1,8,0:0:0:0:
476,112,203976,1,0,0:0:0:0:
357,0,204190,6,0,P|346:56|342:149,1,120,2|0,0:0|0:0,0:0:0:0:
370,146,204619,2,8,P|395:181|392:239,1,80,8|0,0:0|0:0,0:0:0:0:
217,292,205048,2,0,P|234:252|286:226,1,80,2|0,0:0|0:0,0:0:0:0:
420,342,205476,2,0,P|377:346|328:314,1,80,8|0,0:0|0:0,0:0:0:0:
135,223,205905,5,8,0:0:0:0:
135,223,206012,1,8,0:0:0:0:
135,223,206119,1,8,0:0:0:0:
135,223,206226,1,8,0:0:0:0:
135,223,206333,2,8,L|97:156,1,47.9999985351563,10|8,0:2|0:0,0:0:0:0:
206,149,206548,2,8,L|198:72,1,47.9999985351563
297,96,206762,2,0,L|321:22,3,47.9999985351563,8|8|8|8,0:0|0:0|0:0|0:0,0:0:0:0:
400,65,207190,1,10,0:0:0:0:
402,98,207298,1,8,0:0:0:0:
405,131,207405,1,8,0:0:0:0:
408,165,207512,1,8,0:0:0:0:
411,198,207619,5,14,0:0:0:0:
482,341,207833,2,0,L|497:233,1,95.9999970703126,2|8,0:0|1:2,0:0:0:0:
314,190,208262,1,2,0:0:0:0:
283,375,208476,2,0,L|391:360,1,95.9999970703126,2|2,0:0|0:0,0:0:0:0:
226,229,208905,1,8,1:2:0:0:
193,384,209119,1,2,0:0:0:0:
314,190,209333,5,2,1:2:0:0:
130,216,209548,2,2,L|250:232,1,95.9999970703126,2|8,0:0|1:2,0:0:0:0:
275,53,209976,1,2,0:0:0:0:
91,34,210190,2,0,L|107:154,1,95.9999970703126,2|2,0:0|0:0,0:0:0:0:
85,330,210619,1,8,1:2:0:0:
34,193,210833,1,2,0:0:0:0:
211,117,211048,5,2,1:2:0:0:
143,210,211262,1,2,0:0:0:0:
330,186,211476,1,8,1:2:0:0:
232,247,211690,1,2,0:0:0:0:
423,282,211905,1,2,0:0:0:0:
310,307,212119,1,2,0:0:0:0:
489,384,212333,1,8,1:2:0:0:
373,384,212548,1,2,0:0:0:0:
430,193,212762,6,0,P|484:214|511:253,1,95.9999970703126,2|2,1:2|0:0,0:0:0:0:
310,307,213190,1,8,1:2:0:0:
242,170,213405,2,0,P|233:112|253:69,1,95.9999970703126,2|2,0:0|0:0,0:0:0:0:
430,193,213833,1,2,0:0:0:0:
310,307,214048,2,0,L|195:297,1,95.9999970703126,8|2,1:2|0:0,0:0:0:0:
91,87,214476,5,6,1:2:0:0:
106,292,214690,2,0,P|144:262|157:198,1,95.9999970703126,2|8,0:0|1:2,0:0:0:0:
0,131,215119,1,2,0:0:0:0:
57,362,215333,2,0,P|102:378|163:356,1,95.9999970703126,2|2,0:0|0:0,0:0:0:0:
249,180,215762,1,8,1:2:0:0:
76,211,215976,1,2,0:0:0:0:
301,319,216190,5,2,0:0:0:0:
247,100,216405,2,0,P|290:109|326:172,1,95.9999970703126,2|8,0:0|1:2,0:0:0:0:
200,283,216833,1,2,0:0:0:0:
183,54,217048,2,0,P|216:25|288:36,1,95.9999970703126,2|2,0:0|0:0,0:0:0:0:
402,197,217476,1,8,1:2:0:0:
249,180,217690,1,2,0:0:0:0:
421,30,217905,5,2,1:2:0:0:
421,30,218119,1,2,0:0:0:0:
324,208,218333,1,8,1:2:0:0:
324,208,218548,1,2,0:0:0:0:
122,94,218762,2,0,P|69:105|25:123,1,95.9999970703126,2|2,0:0|0:0,0:0:0:0:
156,321,219190,2,0,P|200:338|247:347,1,95.9999970703126,8|2,1:2|0:0,0:0:0:0:
461,221,219619,5,10,1:2:0:0:
454,197,219726,1,8,0:0:0:0:
446,174,219833,2,8,L|428:112,1,47.9999985351563
310,25,220048,1,10,1:2:0:0:
303,49,220155,1,8,0:0:0:0:
295,72,220262,2,8,L|281:118,1,47.9999985351563
192,306,220476,1,10,1:2:0:0:
185,282,220583,1,8,0:0:0:0:
177,259,220690,2,8,L|159:197,1,47.9999985351563
52,83,220905,1,10,1:2:0:0:
45,107,221012,1,8,0:0:0:0:
37,130,221119,2,8,L|23:176,1,47.9999985351563
74,302,221333,5,6,1:2:0:0:
271,278,221548,2,0,P|216:268|148:251,1,95.9999970703126,2|8,0:0|1:2,0:0:0:0:
45,107,221976,1,2,0:0:0:0:
74,302,222190,2,0,P|84:247|101:179,1,95.9999970703126,2|2,0:0|0:0,0:0:0:0:
194,34,222619,1,8,1:2:0:0:
238,203,222833,1,2,0:0:0:0:
410,88,223048,5,2,1:2:0:0:
385,283,223262,2,0,P|372:222|354:169,1,95.9999970703126,2|8,0:0|1:2,0:0:0:0:
194,34,223690,1,2,0:0:0:0:
410,88,223905,2,0,P|349:101|296:119,1,95.9999970703126,2|2,0:0|0:0,0:0:0:0:
194,256,224333,1,8,1:2:0:0:
385,283,224548,1,2,0:0:0:0:
222,148,224762,5,2,1:2:0:0:
255,298,224976,1,2,0:0:0:0:
228,176,225190,1,8,1:2:0:0:
278,313,225405,1,2,0:0:0:0:
235,204,225619,1,2,0:0:0:0:
301,329,225833,1,2,0:0:0:0:
242,233,226048,1,8,1:2:0:0:
324,348,226262,1,2,0:0:0:0:
142,280,226476,6,0,L|176:379,1,95.9999970703126,2|2,1:2|0:0,0:0:0:0:
239,148,226905,1,8,1:2:0:0:
61,183,227119,2,0,L|32:291,1,95.9999970703126,2|2,0:0|0:0,0:0:0:0:
151,75,227548,1,2,0:0:0:0:
142,280,227762,1,8,1:2:0:0:
239,148,227976,1,2,0:0:0:0:
36,275,228190,5,6,1:2:0:0:
243,308,228405,2,0,P|248:261|205:197,1,95.9999970703126,2|8,0:0|1:2,0:0:0:0:
56,127,228833,1,2,0:0:0:0:
100,361,229048,2,0,P|132:326|134:249,1,95.9999970703126,2|2,0:0|0:0,0:0:0:0:
140,60,229476,1,8,1:2:0:0:
9,232,229690,1,2,0:0:0:0:
284,202,229905,5,2,1:2:0:0:
212,4,230119,2,0,P|168:21|133:90,1,95.9999970703126,2|8,0:0|1:2,0:0:0:0:
136,252,230548,1,2,0:0:0:0:
328,103,230762,2,0,P|282:91|213:127,1,95.9999970703126,2|2,0:0|0:0,0:0:0:0:
201,326,231190,1,8,1:2:0:0:
147,134,231405,1,2,0:0:0:0:
351,284,231619,6,0,P|408:278|476:255,1,95.9999970703126,2|2,1:2|0:0,0:0:0:0:
161,100,232048,2,0,P|104:106|36:129,1,95.9999970703126,8|2,1:2|0:0,0:0:0:0:
351,100,232476,2,0,P|345:43|322:-25,1,95.9999970703126,2|2,0:0|0:0,0:0:0:0:
161,284,232905,2,0,P|167:341|190:409,1,95.9999970703126,8|2,1:2|0:0,0:0:0:0:
402,271,233333,5,12,1:2:0:0:
382,257,233440,1,8,0:0:0:0:
360,247,233548,1,8,0:0:0:0:
336,243,233655,1,8,0:0:0:0:
307,242,233762,5,10,1:2:0:0:
331,226,233869,1,8,0:0:0:0:
358,217,233976,1,8,0:0:0:0:
386,213,234083,1,8,0:0:0:0:
418,206,234190,5,10,1:2:0:0:
392,184,234298,1,8,0:0:0:0:
361,172,234405,1,8,0:0:0:0:
327,168,234512,1,8,0:0:0:0:
288,170,234619,5,10,1:2:0:0:
318,146,234726,1,8,0:0:0:0:
353,132,234833,1,8,0:0:0:0:
391,129,234940,1,8,0:0:0:0:
435,134,235048,5,12,1:2:0:0:
259,58,235262,2,0,L|171:53,2,80,2|8|2,0:0|1:2|0:0,0:0:0:0:
464,28,235905,5,2,0:0:0:0:
331,221,236119,2,0,L|336:322,2,95.9999970703126,2|8|2,0:0|1:2|0:0,0:0:0:0:
104,81,236762,5,2,1:2:0:0:
287,130,236976,2,0,L|375:125,2,80,2|8|2,0:0|1:2|0:0,0:0:0:0:
158,295,237619,5,2,1:2:0:0:
17,126,237833,2,0,L|12:25,2,95.9999970703126,2|8|2,0:0|1:2|0:0,0:0:0:0:
77,341,238476,6,0,P|76:252|131:206,1,143.999995605469,2|0,1:2|0:0,0:0:0:0:
157,202,238905,2,0,P|208:211|242:265,1,95.9999970703126,8|2,0:0|0:0,0:0:0:0:
421,340,239333,2,0,P|388:374|341:380,1,95.9999970703126,2|2,0:0|0:0,0:0:0:0:
157,202,239762,1,8,0:0:0:0:
208,362,239976,1,2,0:0:0:0:
344,172,240190,6,0,P|410:152|457:145,1,95.9999970703126,2|2,0:0|0:0,0:0:0:0:
245,45,240619,2,0,P|179:25|132:18,1,95.9999970703126,8|2,0:0|0:0,0:0:0:0:
25,185,241047,1,2,0:0:0:0:
29,213,241154,1,0,0:0:0:0:
41,238,241262,1,2,0:0:0:0:
243,124,241476,1,8,2:0:0:0:
245,152,241583,1,0,2:0:0:0:
239,179,241691,1,2,2:0:0:0:
108,338,241905,6,0,P|190:325|323:316,1,191.999994140625,4|8,1:2|0:0,0:0:0:0:
465,187,242548,1,2,0:0:0:0:
261,236,242762,2,0,P|199:221|154:204,1,95.9999970703126,2|2,0:0|0:0,0:0:0:0:
42,35,243190,1,8,0:0:0:0:
10,217,243405,1,2,0:0:0:0:
227,93,243619,6,0,P|273:80|320:72,1,95.9999970703126,2|2,0:2|0:0,0:0:0:0:
463,242,244048,1,8,0:0:0:0:
344,305,244262,1,2,0:0:0:0:
216,259,244476,2,0,P|169:246|122:238,1,95.9999970703126,2|2,0:0|0:0,0:0:0:0:
320,72,244905,2,0,P|332:118|340:165,1,95.9999970703126,8|2,0:0|0:0,0:0:0:0:
193,351,245333,5,10,1:2:0:0:
193,351,245440,1,8,0:0:0:0:
193,351,245548,1,8,0:0:0:0:
193,351,245655,1,8,0:0:0:0:
193,351,245762,2,8,L|130:347,1,47.9999985351563,10|8,1:2|0:0,0:0:0:0:
87,232,245976,2,8,L|23:214,1,47.9999985351563
199,147,246190,2,8,L|263:129,1,47.9999985351563,10|8,1:2|0:0,0:0:0:0:
317,21,246405,2,8,L|363:33,1,47.9999985351563
437,154,246619,5,8,1:2:0:0:
437,192,246726,1,8,0:0:0:0:
424,227,246833,1,8,0:0:0:0:
398,256,246940,1,8,0:0:0:0:
364,273,247047,5,14,1:2:0:0:
256,192,247154,12,2,250475,0:0:0:0:
