osu file format v14

[General]
AudioFilename: koinomp3.mp3
AudioLeadIn: 0
PreviewTime: 0
Countdown: 0
SampleSet: Soft
StackLeniency: 0.7
Mode: 0
LetterboxInBreaks: 0
WidescreenStoryboard: 1

[Editor]
Bookmarks: 13747
DistanceSpacing: 1.2
BeatDivisor: 4
GridSize: 4
TimelineZoom: 1

[Metadata]
Title:Koi no Mushi (Cut Ver.)
TitleUnicode:恋ノ蟲 (Cut Ver.)
Artist:Hanatan
ArtistUnicode:花たん
Creator:kakifly
Version:Hard
Source:東方妖々夢 ~ Perfect Cherry Blossom.
Tags:東方Project touhou yurica ユリカ insect of love yuyuko saigyouji 西行寺幽々子 さいぎょうじ ゆゆこ DiGiTAL WiNG さくら Sakura ~ Japanize Dream… デジウィ LEGEND ena peЯoco. peroco Hakurei Shrine Reitaisai 11 博麗神社例大祭 RTS staff roll credits theme song 2014 pop edm electronic dance music trance japanese short version video game videogame
BeatmapID:672057
BeatmapSetID:294227

[Difficulty]
HPDrainRate:4
CircleSize:4
OverallDifficulty:6
ApproachRate:7.5
SliderMultiplier:1.6
SliderTickRate:1

[Events]
//Background and Video events
0,0,"yuyukoBG.jpg",0,0
//Break Periods
//Storyboard Layer 0 (Background)
//Storyboard Layer 1 (Fail)
//Storyboard Layer 2 (Pass)
//Storyboard Layer 3 (Foreground)
//Storyboard Layer 4 (Overlay)
//Storyboard Sound Samples

[TimingPoints]
414,416.666666666667,4,2,1,90,1,0
15413,-100,4,2,1,95,0,0
15517,-100,4,2,3,75,0,0
15622,-100,4,2,1,75,0,0
27080,-100,4,2,1,75,0,0
28747,-100,4,2,1,30,0,0
29788,-100,4,2,1,50,0,0
29997,-100,4,2,1,50,0,0
30205,-100,4,2,1,10,0,0
30413,-133.333333333333,4,2,1,45,0,0
43330,-200,4,2,1,60,0,0
43747,-100,4,2,1,70,0,0
49580,-90.9090909090909,4,2,1,90,0,0
49684,-90.9090909090909,4,2,3,50,0,0
49788,-100,4,2,1,50,0,0
49997,-100,4,2,1,90,0,0
50101,-100,4,2,3,60,0,0
50205,-100,4,2,1,60,0,0
50413,-100,4,2,1,70,0,0
56663,-133.333333333333,4,2,1,70,0,0
57080,-111.111111111111,4,2,1,75,0,0
70413,-111.111111111111,4,2,1,95,0,0
72080,-100,4,2,1,100,0,1
72184,-100,4,2,3,85,0,1
72496,-100,4,2,1,85,0,1
84580,-111.111111111111,4,2,1,95,0,0
85414,-100,4,2,1,100,0,1
85517,-100,4,2,3,85,0,1
85830,-100,4,2,1,85,0,1
98747,-100,4,2,1,90,0,0
98851,-100,4,2,3,70,0,0
99163,-100,4,2,1,70,0,0
102080,-100,4,2,1,90,0,0
102184,-100,4,2,3,70,0,0
102288,-100,4,2,1,70,0,0
115934,-100,4,2,3,40,0,0
116039,-100,4,2,3,35,0,0
116143,-100,4,2,3,30,0,0
116195,-100,4,2,0,25,0,0
116247,-100,4,2,1,25,0,0
116351,-100,4,2,3,20,0,0
116872,-100,4,2,3,10,0,0
118747,-100,4,2,1,5,0,0

[Colours]
Combo1 : 146,87,176
Combo2 : 72,50,169
Combo3 : 111,137,220
Combo4 : 105,36,132

[HitObjects]
176,140,13747,5,0,1:1:0:0:
172,164,14372,1,0,1:1:0:0:
168,188,14997,1,0,1:1:0:0:
164,212,15414,6,0,P|112:208|72:204,1,80,12|0,2:2|2:2,0:0:0:0:
8,148,15830,1,0,1:1:0:0:
84,88,16039,2,0,P|184:104|264:116,1,160,0|0,2:2|2:2,0:0:0:0:
316,176,16664,1,0,1:1:0:0:
400,132,16872,1,0,2:2:0:0:
428,40,17080,6,0,P|356:12|272:80,1,160,4|0,2:3|1:1,0:0:0:0:
400,132,17705,2,0,P|404:208|412:304,1,160,0|0,2:2|2:2,0:0:0:0:
488,348,18330,1,0,1:1:0:0:
488,348,18539,1,0,2:2:0:0:
411,292,18747,6,0,P|371:296|319:304,1,80,4|0,2:3|2:2,0:0:0:0:
264,372,19164,2,0,P|224:352|184:328,1,80,0|0,1:1|2:2,0:0:0:0:
200,240,19580,2,0,P|260:224|368:196,1,160,4|0,2:3|1:1,0:0:0:0:
400,116,20205,1,0,2:2:0:0:
308,88,20414,6,0,P|268:104|220:128,1,80,4|0,2:3|2:2,0:0:0:0:
144,92,20830,2,0,P|128:180|112:284,2,160,0|4|0,1:1|2:3|1:1,0:0:0:0:
224,40,21872,1,0,2:2:0:0:
224,40,21976,1,0,0:0:0:0:
224,40,22080,6,0,P|276:36|324:24,1,80,4|0,2:2|2:2,0:0:0:0:
411,44,22497,2,0,P|418:100|421:142,1,80,0|0,1:1|2:2,0:0:0:0:
408,228,22914,2,0,B|356:212|284:200|284:200|312:228,1,160,4|0,2:3|1:1,0:0:0:0:
224,40,23747,6,0,P|160:48|60:64,1,160,4|0,2:3|1:1,0:0:0:0:
20,148,24372,1,0,2:2:0:0:
112,172,24580,2,0,B|192:160|228:152|228:152|284:112,1,160,4|0,2:3|1:1,0:0:0:0:
224,40,25205,1,0,2:2:0:0:
140,88,25414,6,0,P|148:200|152:260,1,160,4|0,2:3|1:1,0:0:0:0:
216,320,26039,1,0,2:2:0:0:
264,236,26247,2,0,P|320:252|348:264,1,80,4|0,2:3|2:2,0:0:0:0:
216,320,26664,2,0,P|178:334|139:344,1,80,0|0,1:1|2:2,0:0:0:0:
152,236,27080,5,2,2:2:0:0:
256,192,27184,12,0,29997,0:0:0:0:
56,116,30414,6,0,P|64:200|72:304,2,180.000006866455,2|2|2,2:2|2:2|2:2,0:0:0:0:
220,88,32080,6,0,P|212:160|204:236,1,120.000004577637,2|0,2:2|0:0,0:0:0:0:
236,288,32705,1,2,2:2:0:0:
308,248,32914,2,0,P|304:192|300:160,1,60.0000022888184,0|0,2:2|2:2,0:0:0:0:
372,140,33330,2,0,P|404:160|436:176,1,60.0000022888184,2|0,2:2|2:2,0:0:0:0:
456,280,33747,6,0,P|408:300|332:336,1,120.000004577637,2|0,2:2|2:2,0:0:0:0:
228,208,34580,2,0,P|192:196|128:180,2,90.0000034332277,2|0|0,2:2|2:2|2:2,0:0:0:0:
260,128,35414,6,0,P|304:120|336:112,1,60.0000022888184,2|0,2:2|2:2,0:0:0:0:
400,136,35830,2,0,P|392:176|388:204,1,60.0000022888184,0|0,2:2|2:2,0:0:0:0:
316,236,36247,1,2,2:2:0:0:
324,256,36664,1,2,2:2:0:0:
332,276,37080,6,0,B|280:272|244:280|244:280|200:268|200:268|164:280|128:268,2,180.000006866455,2|2|0,2:2|2:2|2:2,0:0:0:0:
408,236,38539,1,0,2:2:0:0:
340,188,38747,6,0,P|332:148|328:120,1,60.0000022888184,2|0,2:2|0:0,0:0:0:0:
411,70,39164,1,0,0:0:0:0:
478,136,39372,1,2,2:2:0:0:
467,230,39580,2,0,P|415:234|391:238,1,60.0000022888184,0|0,2:2|2:2,0:0:0:0:
300,303,39997,2,0,P|343:304|381:304,1,60.0000022888184,2|0,2:2|2:2,0:0:0:0:
340,188,40414,6,0,B|328:136|316:100|316:100|304:128,1,120.000004577637,2|0,2:2|2:2,0:0:0:0:
174,269,41247,2,0,P|186:313|202:365,2,90.0000034332277,2|0|0,2:2|0:0|2:2,0:0:0:0:
181,161,42080,6,0,B|129:165|94:178|94:178|49:173|49:173|15:191|-21:185,2,180.000006866455,2|2|2,2:2|2:2|2:2,0:0:0:0:
294,73,43747,6,0,P|350:77|390:81,1,80,4|0,2:3|2:2,0:0:0:0:
430,156,44164,2,0,P|446:200|458:236,2,80,0|0|4,1:1|2:2|2:3,0:0:0:0:
334,165,44789,1,0,2:2:0:0:
373,79,44997,2,0,P|377:35|381:-13,1,80,0|0,1:1|2:2,0:0:0:0:
233,29,45414,6,0,L|248:188,1,160,4|0,2:3|1:1,0:0:0:0:
238,278,46039,1,0,2:2:0:0:
138,223,46247,2,0,P|142:171|146:127,1,80,4|0,2:3|2:2,0:0:0:0:
160,44,46664,1,0,1:1:0:0:
58,110,46872,1,0,2:2:0:0:
138,223,47080,6,0,P|177:215|216:208,1,80,4|0,2:3|2:2,0:0:0:0:
303,269,47497,1,0,1:1:0:0:
384,212,47705,1,0,2:2:0:0:
376,116,47914,2,0,P|328:104|268:92,1,80,4|0,2:3|2:2,0:0:0:0:
384,212,48330,2,0,P|396:264|408:308,1,80,0|0,1:1|2:2,0:0:0:0:
488,216,48747,6,0,P|496:120|500:40,1,160,4|0,2:3|1:1,0:0:0:0:
416,8,49372,1,0,2:2:0:0:
336,80,49580,2,0,P|284:92|240:104,1,88.000002685547,12|0,2:1|0:0,0:0:0:0:
180,200,49997,2,0,P|224:204|276:208,1,80,12|0,2:1|2:2,0:0:0:0:
336,268,50414,5,4,2:2:0:0:
420,220,50622,1,0,2:2:0:0:
346,160,50830,2,0,P|338:100|334:52,1,80,0|0,1:1|2:2,0:0:0:0:
244,52,51247,2,0,B|128:68|128:68|88:92,1,160,4|0,2:3|1:1,0:0:0:0:
56,180,51872,1,0,2:2:0:0:
152,188,52080,6,0,P|164:252|172:300,1,80,4|0,2:3|0:0,0:0:0:0:
234,335,52497,2,0,P|273:339|313:346,1,80,0|0,1:1|2:2,0:0:0:0:
344,250,52914,2,0,P|298:228|271:191,1,80,4|0,2:3|2:2,0:0:0:0:
367,151,53330,1,0,1:1:0:0:
460,277,53539,1,0,2:2:0:0:
460,277,53643,1,0,0:0:0:0:
460,277,53747,6,0,B|476:225|452:189|452:189|460:153|460:153|452:125|452:93,1,160,4|0,2:3|1:1,0:0:0:0:
371,66,54372,1,0,2:2:0:0:
288,112,54580,2,0,L|261:122|213:138,1,80,4|0,2:3|2:2,0:0:0:0:
256,284,54997,2,0,P|268:236|276:196,1,80,0|0,1:1|2:2,0:0:0:0:
148,228,55414,5,4,2:3:0:0:
148,228,55622,1,0,2:2:0:0:
256,284,55830,1,0,1:1:0:0:
256,284,56039,1,0,2:2:0:0:
320,212,56247,2,0,P|324:160|328:112,1,80,4|0,2:3|2:2,0:0:0:0:
236,100,56664,6,4,P|191:94|146:89,1,90.0000034332277,0|0,1:1|2:2,0:0:0:0:
110,104,57080,6,0,L|115:176|120:248,1,143.999995605469,4|0,2:2|1:1,0:0:0:0:
251,311,57705,1,0,2:2:0:0:
251,311,57809,1,0,0:0:0:0:
251,311,57914,2,0,L|258:203,1,107.999996704102,4|0,2:3|2:2,0:0:0:0:
287,171,58330,2,0,P|335:167|371:163,1,71.9999978027344,0|0,1:1|2:2,0:0:0:0:
438,26,58747,6,0,B|334:34|334:34|286:62,2,143.999995605469,4|0|4,2:3|1:1|2:3,0:0:0:0:
388,120,59789,1,0,2:2:0:0:
304,144,59997,2,0,P|256:140|216:132,1,71.9999978027344,0|0,1:1|2:2,0:0:0:0:
152,104,60414,6,0,L|160:228,1,107.999996704102,4|0,2:3|2:2,0:0:0:0:
192,240,60830,2,0,P|248:236|292:232,1,71.9999978027344,0|0,1:1|0:0,0:0:0:0:
312,304,61247,2,0,B|348:276|348:224|348:224|384:236|420:268,1,143.999995605469,4|0,2:3|1:1,0:0:0:0:
464,196,61872,1,0,2:2:0:0:
408,128,62080,6,0,P|368:132|328:140,1,71.9999978027344,4|0,2:3|0:0,0:0:0:0:
256,164,62497,2,0,P|184:148|160:140,1,71.9999978027344,0|0,1:1|2:2,0:0:0:0:
196,40,62914,2,0,P|260:48|316:56,1,107.999996704102,4|0,2:3|0:0,0:0:0:0:
328,88,63330,2,0,P|332:132|332:168,1,71.9999978027344,0|0,1:1|2:2,0:0:0:0:
300,240,63747,6,0,B|356:260|400:212|400:212|408:260,2,143.999995605469,4|0|4,2:2|1:1|2:3,0:0:0:0:
224,196,64789,1,0,0:0:0:0:
184,272,64997,2,0,P|140:268|96:268,1,71.9999978027344,0|0,1:1|2:2,0:0:0:0:
72,192,65414,6,0,L|184:184,1,107.999996704102,4|0,2:3|2:2,0:0:0:0:
224,196,65830,2,0,P|220:136|220:100,1,71.9999978027344,0|0,1:1|2:2,0:0:0:0:
320,92,66247,2,0,P|316:160|312:192,2,71.9999978027344,4|0|0,2:3|0:0|1:1,0:0:0:0:
256,32,66872,1,0,2:2:0:0:
184,84,67080,6,0,P|140:92|104:100,1,71.9999978027344,4|0,2:2|2:2,0:0:0:0:
60,168,67497,2,0,P|68:216|76:260,1,71.9999978027344,0|0,1:1|2:2,0:0:0:0:
160,236,67914,2,0,P|156:308|152:352,1,107.999996704102,4|0,2:3|2:2,0:0:0:0:
109,348,68330,2,0,P|69:344|29:336,1,71.9999978027344,0|0,1:1|2:2,0:0:0:0:
88,246,68747,6,0,P|136:238|159:236,1,71.9999978027344,4|0,2:2|2:2,0:0:0:0:
213,303,69164,2,0,B|253:271|245:215|245:215|301:247,1,143.999995605469,0|4,1:1|2:3,0:0:0:0:
370,224,69789,1,0,2:2:0:0:
412,148,69997,2,0,P|364:136|312:124,1,71.9999978027344,0|0,1:1|2:2,0:0:0:0:
252,140,70414,5,4,1:2:0:0:
256,160,71039,1,4,1:3:0:0:
260,180,71664,1,4,1:3:0:0:
264,204,72080,6,0,B|224:216|184:196|184:196|148:208|148:208|112:204|72:212|72:212,2,160,12|0|4,2:2|1:1|2:3,0:0:0:0:
228,112,73122,1,0,2:2:0:0:
324,128,73330,2,0,P|380:136|416:144,1,80,0|0,1:1|2:2,0:0:0:0:
480,196,73747,6,0,B|444:248|376:232|376:232|400:276,1,160,4|0,2:3|1:1,0:0:0:0:
352,356,74372,2,0,P|264:340|164:320,1,160,0|0,2:2|2:2,0:0:0:0:
207,231,74997,1,0,1:1:0:0:
277,175,75205,1,0,2:2:0:0:
128,168,75414,6,0,P|104:216|88:252,1,80,4|0,2:3|2:2,0:0:0:0:
232,308,75830,2,0,P|220:269|208:232,1,80,0|0,1:1|2:2,0:0:0:0:
152,348,76247,2,0,P|256:340|336:336,1,160,4|0,2:3|1:1,0:0:0:0:
384,272,76872,1,0,2:2:0:0:
308,212,77080,6,0,P|228:207|144:205,1,160,4|0,2:3|1:1,0:0:0:0:
84,280,77705,1,0,2:2:0:0:
152,348,77914,2,0,P|216:340|260:336,1,80,4|0,2:3|2:2,0:0:0:0:
325,359,78330,1,0,1:1:0:0:
330,363,78539,1,0,2:2:0:0:
308,212,78747,6,0,P|268:240|156:204,2,160,4|0|4,2:2|1:1|2:3,0:0:0:0:
236,148,79789,1,0,2:2:0:0:
324,112,79997,2,0,P|376:100|420:92,1,80,0|0,1:1|2:2,0:0:0:0:
488,140,80414,6,0,B|460:192|392:192|392:192|440:224,1,160,4|0,2:2|1:1,0:0:0:0:
512,268,81039,1,0,2:2:0:0:
432,320,81247,2,0,L|384:316|336:312,1,80,4|0,2:3|2:2,0:0:0:0:
268,356,81664,1,0,1:1:0:0:
216,276,81872,1,0,2:2:0:0:
296,220,82080,6,0,B|340:224|380:208|380:208|412:216|412:216|448:208|476:216,1,160,4|0,2:2|1:1,0:0:0:0:
292,104,82914,2,0,B|286:108|250:100|250:100|218:108|218:108|178:92|134:96,1,160,4|0,2:3|1:1,0:0:0:0:
156,188,83539,1,0,2:2:0:0:
64,168,83747,6,0,P|55:128|47:89,1,80,4|0,2:2|0:0,0:0:0:0:
116,20,84164,2,0,P|164:20|212:24,1,80,0|0,1:1|2:2,0:0:0:0:
292,104,84580,6,0,B|336:100|364:92|364:92|408:52,2,107.999996704102,0|0|0,1:1|1:1|1:1,0:0:0:0:
222,170,85414,6,0,B|146:158|98:158|98:158|46:174,1,160,12|0,2:2|1:1,0:0:0:0:
80,264,86039,1,0,2:2:0:0:
172,292,86247,2,0,P|232:276|264:264,1,80,4|0,2:3|2:2,0:0:0:0:
301,175,86664,2,0,P|261:171|222:170,1,80,0|0,1:1|2:2,0:0:0:0:
336,252,87080,6,0,B|392:224|384:160|384:160|436:200,2,160,4|0|4,2:3|1:1|2:3,0:0:0:0:
301,175,88122,1,0,0:0:0:0:
340,88,88330,2,0,P|400:76|448:72,1,80,0|0,1:1|2:2,0:0:0:0:
500,128,88747,6,0,P|496:184|492:216,1,80,4|0,2:3|2:2,0:0:0:0:
396,200,89164,2,0,P|408:264|424:360,1,160,0|4,1:1|2:3,0:0:0:0:
328,376,89789,1,0,0:0:0:0:
252,316,89997,2,0,P|300:296|340:280,1,80,0|0,1:1|2:2,0:0:0:0:
396,200,90414,5,4,2:3:0:0:
308,160,90622,1,0,2:2:0:0:
224,208,90830,2,0,P|176:220|120:236,1,80,0|0,1:1|2:2,0:0:0:0:
191,313,91247,2,0,P|247:317|315:325,1,120,4|0,2:3|0:0,0:0:0:0:
351,353,91664,2,0,P|359:301|363:261,1,80,0|0,1:1|2:2,0:0:0:0:
469,238,92080,6,0,P|453:142|441:58,2,160,4|0|4,2:2|1:1|2:3,0:0:0:0:
302,339,93330,1,0,1:1:0:0:
284,232,93539,1,0,2:2:0:0:
391,217,93747,6,0,P|430:227|469:238,1,80,4|0,2:2|0:0,0:0:0:0:
382,306,94164,2,0,P|338:318|246:250,1,160,0|4,1:1|2:3,0:0:0:0:
304,179,94789,1,0,2:2:0:0:
382,128,94997,1,0,1:1:0:0:
391,217,95205,1,0,2:2:0:0:
304,179,95414,6,0,P|308:79|312:3,1,160,4|0,2:2|1:1,0:0:0:0:
220,20,96039,1,0,2:2:0:0:
164,96,96247,2,0,P|192:136|216:176,1,80,4|0,2:3|2:2,0:0:0:0:
92,260,96664,2,0,P|97:220|106:181,1,80,0|0,1:1|2:2,0:0:0:0:
180,280,97080,6,0,P|80:292|-12:304,2,160,4|0|4,2:2|1:1|2:3,0:0:0:0:
260,224,98122,1,0,2:2:0:0:
324,296,98330,2,0,P|376:292|416:288,1,80,0|0,1:1|2:2,0:0:0:0:
496,264,98747,6,0,B|476:200|412:192|412:192|440:160,1,160,4|0,2:2|1:1,0:0:0:0:
404,72,99372,2,0,P|344:80|232:96,1,160,0|0,2:2|2:2,0:0:0:0:
216,184,99997,2,0,P|272:188|316:192,1,80,0|0,1:1|2:2,0:0:0:0:
140,268,100414,6,0,P|132:204|120:96,1,160,4|0,2:3|1:1,0:0:0:0:
404,72,101247,2,0,P|400:128|392:196,2,120,0|0|0,1:1|1:1|1:1,0:0:0:0:
316,36,102080,6,8,P|260:48|220:60,1,80,12|0,2:2|2:2,0:0:0:0:
180,132,102497,1,0,1:1:0:0:
252,196,102705,2,0,P|316:208|384:144,1,160,0|0,2:2|2:2,0:0:0:0:
316,36,103330,2,0,P|304:88|300:124,1,80,0|0,1:1|2:2,0:0:0:0:
252,196,103747,6,0,P|268:248|280:292,1,80,4|0,2:3|2:2,0:0:0:0:
228,356,104164,1,0,1:1:0:0:
164,284,104372,2,0,P|104:296|8:316,1,160,0|0,2:2|2:2,0:0:0:0:
72,208,104997,1,0,1:1:0:0:
150,161,105205,1,0,2:2:0:0:
150,161,105309,1,0,0:0:0:0:
150,161,105414,6,0,B|224:136|272:168|272:168|252:196,2,160,4|0|4,2:3|1:1|2:3,0:0:0:0:
72,208,106455,1,0,2:2:0:0:
152,264,106664,2,0,P|160:324|164:364,1,80,0|0,1:1|2:2,0:0:0:0:
256,364,107080,6,0,P|304:352|348:340,1,80,4|0,2:3|2:2,0:0:0:0:
388,264,107497,1,0,1:1:0:0:
228,156,107914,1,4,2:3:0:0:
256,364,108330,1,0,1:1:0:0:
388,264,108747,6,0,P|312:272|212:284,1,160,4|0,2:2|1:1,0:0:0:0:
228,156,109580,2,0,P|296:164|352:172,1,120,4|0,2:3|0:0,0:0:0:0:
396,180,109997,2,0,P|392:124|388:76,1,80,0|0,1:1|2:2,0:0:0:0:
500,88,110414,6,0,P|492:180|484:268,2,160,4|0|4,2:3|1:1|2:3,0:0:0:0:
424,32,111455,1,0,2:2:0:0:
348,92,111664,2,0,P|308:100|252:104,1,80,0|0,1:1|2:2,0:0:0:0:
232,192,112080,6,0,P|271:196|311:202,1,80,4|0,2:3|0:0,0:0:0:0:
396,244,112497,2,0,P|392:296|388:344,1,80,0|0,1:1|2:2,0:0:0:0:
296,312,112914,2,0,P|248:328|172:256,1,160,4|0,2:3|1:1,0:0:0:0:
396,244,113747,5,4,2:3:0:0:
468,180,113955,2,0,P|472:124|472:88,1,80,0|0,1:1|1:1,0:0:0:0:
368,40,114372,1,4,2:3:0:0:
368,40,114476,1,4,2:3:0:0:
368,40,114580,2,4,P|360:124|356:176,2,120,4|0|0,2:3|1:1|1:1,0:0:0:0:
256,192,116247,12,0,118747,2:2:0:0:
