osu file format v14

[General]
AudioFilename: sm17094726.mp3
AudioLeadIn: 0
PreviewTime: 40545
Countdown: 0
SampleSet: None
StackLeniency: 0.2
Mode: 0
LetterboxInBreaks: 0
WidescreenStoryboard: 1

[Editor]
Bookmarks: 19630,32316,35402,40716,42430,44316,47916,50659,53402,58888,61630,64373,69859,72602,75345,78088,80830,83573,86316,87688,90088,91802,93173,95916,97288,98659,109630,113745,115116,119230,120602,126088,128830,131573,137059,139802,142545,145288,148030,149402,150773,153516,154888,157630,159002,160373,163116,164488,165859,176830,182316,186430,187802,193288,196030,198773,204259,209745,212488,215230,217973,220716,223459,228945,231688,233059,234430,237173,239916,242659,244030,245402,252259,258088,267002,273002
DistanceSpacing: 0.9
BeatDivisor: 4
GridSize: 4
TimelineZoom: 1

[Metadata]
Title:Kitsune no Yomeiri
TitleUnicode:狐ノ嫁入リ
Artist:Hanatan
ArtistUnicode:花たん
Creator:Veridian
Version:Extreme
Source:
Tags:niconico vocaloid yurika OSTER Project sawashiro miyuki Bakahuang
BeatmapID:1783015
BeatmapSetID:853149

[Difficulty]
HPDrainRate:6
CircleSize:4
OverallDifficulty:6
ApproachRate:9
SliderMultiplier:2.2
SliderTickRate:1

[Events]
//Background and Video events
0,0,"thumb-1920-311157.jpg",0,0
//Break Periods
2,169488,176230
2,223659,228345
2,254002,257488
//Storyboard Layer 0 (Background)
//Storyboard Layer 1 (Fail)
//Storyboard Layer 2 (Pass)
//Storyboard Layer 3 (Foreground)
//Storyboard Sound Samples

[TimingPoints]
1288,342.857142857143,4,1,1,50,1,0
19545,320.855614973262,4,1,1,50,1,0
19545,-133.333333333333,4,1,1,50,0,0
27887,-285.714285714284,4,1,1,50,0,0
32299,320.855614973262,4,1,1,50,1,0
35347,-200,4,1,1,50,0,0
36229,320.855614973262,4,1,1,50,1,0
37592,320.855614973262,4,1,1,50,1,0
37592,-333.333333333333,4,1,1,50,0,0
38393,320.855614973262,4,1,1,50,1,0
38393,-1000,4,1,1,50,0,0
40719,342.857142857143,4,1,1,50,1,0
42430,-250,4,1,1,50,0,0
50659,-200,4,1,1,50,0,0
53402,-133.333333333333,4,1,1,50,0,0
58888,-117.647058823529,4,1,1,50,0,0
61630,-200,4,1,1,50,0,0
64373,-133.333333333333,4,1,1,50,0,0
69859,-117.647058823529,4,1,1,50,0,0
75345,-100,4,1,1,50,0,1
78088,-117.647058823529,4,1,1,50,0,0
80830,-100,4,1,1,50,0,1
82202,-117.647058823529,4,1,1,50,0,0
83573,-105.263157894737,4,1,1,50,0,0
87688,-100,4,1,1,50,0,1
93173,-90.9090909090909,4,1,1,50,0,1
97288,-100,4,1,1,50,0,0
98659,-153.846153846153,4,1,1,50,0,0
109630,-117.647058823529,4,1,1,50,0,0
120602,-133.333333333333,4,1,1,50,0,0
126088,-117.647058823529,4,1,1,50,0,0
128830,-200,4,1,1,50,0,0
131573,-133.333333333333,4,1,1,50,0,0
137059,-117.647058823529,4,1,1,50,0,0
142545,-100,4,1,1,50,0,1
145288,-117.647058823529,4,1,1,50,0,0
148030,-100,4,1,1,50,0,1
149402,-117.647058823529,4,1,1,50,0,0
150773,-105.263157894737,4,1,1,50,0,0
154888,-100,4,1,1,50,0,1
160373,-90.9090909090909,4,1,1,50,0,1
164488,-100,4,1,1,50,0,0
176830,-153.846153846153,4,1,1,50,0,0
181630,-100,4,1,1,50,0,0
182316,-100,4,1,1,50,0,1
182659,-153.846153846153,4,1,1,50,0,0
187802,-117.647058823529,4,1,1,50,0,0
196030,-117.647058823529,4,1,1,50,0,0
197230,-200,4,1,1,50,0,0
198773,-117.647058823529,4,1,1,50,0,0
209745,-100,4,1,1,50,0,1
212488,-117.647058823529,4,1,1,50,0,0
215230,-100,4,1,1,50,0,1
216602,-117.647058823529,4,1,1,50,0,0
217973,-105.263157894737,4,1,1,50,0,0
223459,-100,4,1,1,50,0,1
224145,-100,4,1,1,50,0,0
231688,-100,4,1,1,50,0,0
234430,-90.9090909090909,4,1,1,50,0,1
239916,-83.3333333333333,4,1,1,50,0,1
244030,-100,4,1,1,50,0,0
245402,-76.9230769230769,4,1,1,50,0,1
252259,-200,4,1,1,50,0,1
253802,-200,4,1,1,50,0,0
265716,-500,4,1,1,50,0,0

[Colours]
Combo1 : 209,149,146
Combo2 : 206,82,79
Combo3 : 143,194,165
Combo4 : 149,192,67

[HitObjects]
256,192,16630,12,0,19288,0:0:0:0:
216,60,19545,6,0,L|326:79,1,82.5000031471254
372,20,19865,1,0,0:0:0:0:
288,208,20507,1,0,0:0:0:0:
351,280,20667,1,0,0:0:0:0:
385,193,20828,2,0,P|395:153|379:105,1,82.5000031471254
268,240,21149,2,0,P|258:280|274:328,1,82.5000031471254
164,220,21790,2,0,L|160:194,5,20.6250007867813
172,180,22111,6,0,L|153:77,1,82.5000031471254
216,28,22432,1,0,0:0:0:0:
40,212,23074,1,0,0:0:0:0:
128,260,23234,1,0,0:0:0:0:
89,341,23395,2,0,P|129:351|177:335,1,82.5000031471254
296,264,23716,2,0,P|256:254|208:270,1,82.5000031471254
361,318,24036,2,0,P|341:262|371:199,1,123.750004720688
380,188,24357,2,0,L|376:160,6,20.6250007867813
432,88,24678,6,0,L|336:71,1,82.5000031471254
272,136,24999,1,0,0:0:0:0:
84,40,25641,1,0,0:0:0:0:
12,104,25801,1,0,0:0:0:0:
108,136,25962,2,0,P|124:168|88:272,1,123.750004720688
96,272,26282,2,0,L|115:382,1,82.5000031471254
196,288,26603,2,0,L|235:294,4,27.5000010490418
244,272,26924,2,0,L|283:278,4,27.5000010490418
300,260,27245,1,0,0:0:0:0:
192,84,27887,5,0,0:0:0:0:
116,136,28208,1,0,0:0:0:0:
200,176,28528,1,0,0:0:0:0:
112,48,28849,1,0,0:0:0:0:
36,176,29170,1,0,0:0:0:0:
112,28,29491,1,0,0:0:0:0:
184,264,29812,6,0,L|266:249,1,76.9999976501466
360,116,30454,2,0,L|284:129,1,76.9999976501466
456,56,31095,2,0,P|448:108|460:172,1,115.49999647522
252,368,31737,2,0,P|262:311|255:254,1,115.49999647522
64,68,32299,5,0,0:0:0:0:
256,192,32459,12,0,34865,0:0:0:0:
136,140,36229,5,0,0:0:0:0:
256,192,36549,1,0,0:0:0:0:
164,248,36870,1,0,0:0:0:0:
356,192,37191,1,0,0:0:0:0:
284,48,37592,6,0,L|262:170,1,115.49999647522
372,252,38394,6,0,B|300:220|300:276|230:250,1,143
256,192,40716,12,0,42259,0:0:0:0:
256,364,42430,5,0,0:0:0:0:
256,236,42602,1,0,0:0:0:0:
328,276,42773,2,0,P|340:248|322:187,1,88
184,193,43288,2,0,P|170:234|184:276,1,88
204,112,43802,2,0,L|116:104,1,88
308,112,44316,2,0,L|396:104,1,88
184,193,44830,1,0,0:0:0:0:
256,40,45002,1,0,0:0:0:0:
328,193,45173,2,0,P|340:228|320:288,1,88
256,376,45688,6,0,L|256:312,1,44
256,232,46030,1,0,0:0:0:0:
344,364,46202,1,0,0:0:0:0:
172,324,46373,2,0,L|180:260,1,44
256,64,46716,5,0,0:0:0:0:
168,196,46888,1,0,0:0:0:0:
340,156,47059,1,0,0:0:0:0:
337,134,47144,1,0,0:0:0:0:
334,112,47230,1,0,0:0:0:0:
168,24,47402,5,0,0:0:0:0:
256,196,47573,1,0,0:0:0:0:
344,24,47745,1,0,0:0:0:0:
256,224,47916,6,0,L|256:332,1,88
320,372,48430,1,0,0:0:0:0:
456,236,48602,1,0,0:0:0:0:
352,272,48773,1,0,0:0:0:0:
436,340,48945,1,0,0:0:0:0:
476,216,49116,2,0,P|486:181|468:119,1,88
416,40,49630,1,0,0:0:0:0:
300,172,49888,5,0,0:0:0:0:
300,172,49973,2,0,L|316:208,2,29.3333333333333
212,172,50316,2,0,L|192:212,2,29.3333333333333
256,104,50659,1,0,0:0:0:0:
96,260,50830,6,0,B|128:248|128:248|216:296,1,110
416,260,51345,2,0,B|384:248|384:248|296:296,1,110
256,32,51859,1,0,0:0:0:0:
268,48,52373,1,0,0:0:0:0:
280,64,52716,1,0,0:0:0:0:
192,128,52888,1,0,0:0:0:0:
357,103,53059,2,0,P|366:62|354:22,1,82.5
304,184,53402,5,0,0:0:0:0:
376,252,53573,2,0,L|464:240,1,82.5000031471254
472,256,53916,1,0,0:0:0:0:
208,184,54088,1,0,0:0:0:0:
136,252,54259,2,0,L|48:240,1,82.5000031471254
232,96,54602,6,0,B|175:87|175:87|145:116|145:116|49:104,1,165.000006294251
320,56,55116,2,0,B|329:98|329:98|315:144,1,82.5000031471254
328,152,55373,1,0,0:0:0:0:
328,152,55459,1,0,0:0:0:0:
204,200,55630,1,0,0:0:0:0:
432,273,55802,2,0,P|392:254|303:289,1,123.750004720688
375,336,56145,5,0,0:0:0:0:
444,264,56316,2,0,L|428:160,1,82.5000031471254
336,108,56659,2,0,L|348:180,1,41.2500015735627
136,336,56830,1,0,0:0:0:0:
68,264,57001,2,0,L|84:160,1,82.5000031471254
232,368,57345,6,0,B|240:311|240:311|221:283|221:283|236:191,1,165.000006294251
256,112,57859,1,0,0:0:0:0:
420,264,58030,1,0,0:0:0:0:
339,306,58202,2,0,P|329:267|342:220,1,82.5000031471254
364,192,58459,1,0,0:0:0:0:
364,192,58545,1,0,0:0:0:0:
507,244,58716,2,0,P|509:277|488:313,1,41.2500015735627
420,380,58888,5,0,0:0:0:0:
420,380,59059,1,0,0:0:0:0:
312,104,59230,2,0,L|456:92,1,140.250002675057
500,160,59573,5,0,0:0:0:0:
500,160,59745,1,0,0:0:0:0:
200,104,59916,2,0,L|76:92,1,93.500001783371
0,180,60259,5,0,0:0:0:0:
132,300,60430,1,0,0:0:0:0:
172,216,60602,2,0,P|132:206|92:216,1,82.5000031471254
68,244,60859,1,0,0:0:0:0:
68,244,60945,1,0,0:0:0:0:
200,368,61116,2,0,L|272:344,1,46.7500008916855
400,232,61288,2,0,L|236:287,1,140.250002675057
240,256,61630,6,0,P|224:216|248:144,1,110
272,132,62316,2,0,P|309:128|340:139,2,55
160,280,62830,1,0,0:0:0:0:
144,268,63345,1,0,0:0:0:0:
128,256,63688,1,0,0:0:0:0:
264,248,63859,1,0,0:0:0:0:
264,248,63945,1,0,0:0:0:0:
264,248,64030,2,0,P|273:293|252:339,1,82.5
192,176,64373,5,0,0:0:0:0:
48,96,64545,2,0,L|160:108,1,82.5000031471254
144,76,64888,1,0,0:0:0:0:
320,176,65059,1,0,0:0:0:0:
464,96,65231,2,0,L|352:108,1,82.5000031471254
461,226,65573,6,0,B|390:234|390:234|373:263|373:263|275:272,1,165.000006294251
256,368,66088,1,0,0:0:0:0:
172,248,66259,1,0,0:0:0:0:
187,225,66345,1,0,0:0:0:0:
192,196,66430,1,0,0:0:0:0:
188,168,66516,1,0,0:0:0:0:
172,144,66602,1,0,0:0:0:0:
104,192,66773,1,0,0:0:0:0:
104,192,66945,1,0,0:0:0:0:
256,88,67116,5,0,0:0:0:0:
176,28,67288,2,0,L|72:40,1,82.5000031471254
256,252,67802,1,0,0:0:0:0:
336,192,67974,2,0,L|440:204,1,82.5000031471254
216,336,68316,6,0,B|286:343|286:343|308:324|308:324|396:336,1,165.000006294251
488,352,68830,1,0,0:0:0:0:
504,240,69002,1,0,0:0:0:0:
512,212,69087,1,0,0:0:0:0:
504,184,69173,1,0,0:0:0:0:
368,64,69345,2,0,L|392:128,1,41.2500015735627
417,201,69516,1,0,0:0:0:0:
286,145,69688,2,0,L|300:184,1,41.2500015735627
336,300,69859,5,0,0:0:0:0:
336,300,70030,1,0,0:0:0:0:
176,48,70202,2,0,L|64:40,1,93.500001783371
12,120,70545,5,0,0:0:0:0:
12,120,70716,1,0,0:0:0:0:
332,48,70888,2,0,L|492:36,1,140.250002675057
504,120,71230,6,0,P|516:177|493:226,1,93.500001783371
392,360,71573,2,0,P|380:303|403:254,1,93.500001783371
480,320,71916,1,0,0:0:0:0:
308,224,72088,1,0,0:0:0:0:
376,156,72259,2,0,P|302:179|223:133,1,140.250002675057
309,88,72602,5,0,0:0:0:0:
309,88,72773,1,0,0:0:0:0:
192,360,72945,2,0,L|88:344,1,93.500001783371
44,264,73288,1,0,0:0:0:0:
44,264,73459,1,0,0:0:0:0:
320,360,73630,2,0,L|484:336,1,140.250002675057
468,264,73973,5,0,0:0:0:0:
256,192,74145,1,0,0:0:0:0:
412,96,74316,1,0,0:0:0:0:
356,284,74488,1,0,0:0:0:0:
348,252,74573,1,0,0:0:0:0:
340,220,74659,1,0,0:0:0:0:
496,72,74830,2,0,P|500:104|484:136,1,46.7500008916855
328,140,75002,2,0,P|318:97|338:33,1,93.500001783371
352,20,75259,1,0,0:0:0:0:
352,20,75345,5,0,0:0:0:0:
256,256,75516,1,0,0:0:0:0:
184,96,75688,1,0,0:0:0:0:
256,288,75859,1,0,0:0:0:0:
328,140,76030,1,0,0:0:0:0:
392,208,76373,5,0,0:0:0:0:
120,208,76545,1,0,0:0:0:0:
184,96,76716,5,0,0:0:0:0:
256,316,76888,1,0,0:0:0:0:
328,140,77059,1,0,0:0:0:0:
256,348,77230,1,0,0:0:0:0:
176,268,77402,5,0,0:0:0:0:
204,240,77488,1,0,0:0:0:0:
240,228,77573,1,0,0:0:0:0:
280,232,77659,1,0,0:0:0:0:
336,284,77745,5,0,0:0:0:0:
364,312,77831,1,0,0:0:0:0:
400,324,77916,1,0,0:0:0:0:
440,320,78002,1,0,0:0:0:0:
504,268,78088,6,0,P|526:213|488:120,1,140.250002675057
452,76,78430,2,0,P|396:64|344:88,1,93.500001783371
256,192,78773,1,0,0:0:0:0:
256,192,78945,1,0,0:0:0:0:
60,76,79116,2,0,P|116:64|168:88,1,93.500001783371
256,284,79459,5,0,0:0:0:0:
108,168,79630,1,0,0:0:0:0:
356,256,79802,2,0,L|348:360,1,93.500001783371
163,349,80145,2,0,L|155:255,1,93.500001783371
172,236,80402,1,0,0:0:0:0:
172,236,80488,1,0,0:0:0:0:
256,128,80659,2,0,L|256:208,1,46.7500008916855
256,24,80830,5,0,0:0:0:0:
384,128,81002,1,0,0:0:0:0:
256,256,81173,1,0,0:0:0:0:
128,128,81345,1,0,0:0:0:0:
380,256,81516,1,0,0:0:0:0:
176,308,81859,2,0,P|160:260|193:186,1,110
256,132,82202,5,0,0:0:0:0:
256,132,82373,1,0,0:0:0:0:
448,356,82545,2,0,L|464:256,1,93.500001783371
64,356,82888,2,0,L|48:256,1,93.500001783371
256,40,83230,2,0,L|256:199,1,140.250002675057
256,264,83573,5,0,0:0:0:0:
176,220,83745,1,0,0:0:0:0:
360,288,83916,1,0,0:0:0:0:
180,364,84088,1,0,0:0:0:0:
392,288,84259,1,0,0:0:0:0:
140,204,84430,5,0,0:0:0:0:
252,292,84602,1,0,0:0:0:0:
144,100,84773,1,0,0:0:0:0:
48,296,84945,5,0,0:0:0:0:
232,204,85116,1,0,0:0:0:0:
44,128,85288,1,0,0:0:0:0:
268,204,85459,1,0,0:0:0:0:
20,312,85630,5,0,0:0:0:0:
300,204,85802,1,0,0:0:0:0:
8,112,85973,1,0,0:0:0:0:
128,188,86145,1,0,0:0:0:0:
172,52,86316,5,0,0:0:0:0:
96,284,86488,1,0,0:0:0:0:
132,292,86573,1,0,0:0:0:0:
168,300,86659,1,0,0:0:0:0:
416,284,86830,1,0,0:0:0:0:
380,292,86915,1,0,0:0:0:0:
344,300,87001,5,0,0:0:0:0:
256,24,87173,1,0,0:0:0:0:
272,36,87516,1,0,0:0:0:0:
316,128,87688,6,0,B|236:168|236:88|136:140,1,165
96,184,88030,2,0,P|81:246|114:304,1,110
324,320,88373,1,0,0:0:0:0:
324,320,88459,2,0,L|340:228,2,55
176,236,88716,2,0,L|196:372,1,110
156,124,89059,5,0,0:0:0:0:
64,280,89230,1,0,0:0:0:0:
260,164,89402,1,0,0:0:0:0:
68,60,89573,1,0,0:0:0:0:
68,60,89659,1,0,0:0:0:0:
68,60,89745,1,0,0:0:0:0:
124,160,89916,1,0,0:0:0:0:
328,48,90088,5,0,0:0:0:0:
256,264,90259,1,0,0:0:0:0:
184,48,90430,5,0,0:0:0:0:
184,48,90602,1,0,0:0:0:0:
364,200,90773,2,0,L|496:184,1,110
328,48,91116,5,0,0:0:0:0:
328,48,91288,1,0,0:0:0:0:
148,200,91459,2,0,L|16:184,1,110
120,340,91802,5,0,0:0:0:0:
256,96,91973,1,0,0:0:0:0:
392,340,92145,1,0,0:0:0:0:
428,252,92316,1,0,0:0:0:0:
392,240,92402,1,0,0:0:0:0:
356,252,92488,1,0,0:0:0:0:
256,332,92659,1,0,0:0:0:0:
499,303,92830,2,0,P|515:247|472:177,1,110
412,68,93173,6,0,B|328:24|328:112|224:60,1,181.500005538941
168,20,93516,1,0,0:0:0:0:
368,140,93688,1,0,0:0:0:0:
164,232,93859,1,0,0:0:0:0:
336,140,94030,1,0,0:0:0:0:
84,80,94202,5,0,0:0:0:0:
192,312,94373,1,0,0:0:0:0:
192,152,94545,5,0,0:0:0:0:
56,240,94716,1,0,0:0:0:0:
308,304,94888,5,0,0:0:0:0:
204,44,95059,1,0,0:0:0:0:
84,360,95230,1,0,0:0:0:0:
341,294,95402,1,0,0:0:0:0:
168,152,95573,5,0,0:0:0:0:
256,376,95745,1,0,0:0:0:0:
328,72,95916,5,0,0:0:0:0:
256,344,96088,1,0,0:0:0:0:
136,276,96259,1,0,0:0:0:0:
396,200,96430,1,0,0:0:0:0:
80,100,96602,1,0,0:0:0:0:
500,192,96773,6,0,L|484:264,1,60.5000018463135
312,300,96945,1,0,0:0:0:0:
304,260,97030,1,0,0:0:0:0:
296,220,97116,1,0,0:0:0:0:
288,180,97202,1,0,0:0:0:0:
280,144,97288,6,0,P|276:110|292:72,1,55
396,276,97459,2,0,P|400:310|384:348,1,55
144,336,98145,5,0,0:0:0:0:
228,318,98230,1,0,0:0:0:0:
312,300,98316,1,0,0:0:0:0:
256,192,98659,12,0,101059,0:0:0:0:
408,128,101402,6,0,L|491:143,2,71.4999967269899
313,177,101916,1,0,0:0:0:0:
289,173,102002,1,0,0:0:0:0:
265,169,102088,1,0,0:0:0:0:
241,165,102173,1,0,0:0:0:0:
217,161,102259,1,0,0:0:0:0:
277,81,102430,1,0,0:0:0:0:
157,233,102602,1,0,0:0:0:0:
48,132,102773,6,0,L|131:147,2,71.4999967269899
144,256,103288,1,0,0:0:0:0:
120,252,103373,1,0,0:0:0:0:
96,248,103459,1,0,0:0:0:0:
200,344,103630,1,0,0:0:0:0:
256,220,103802,1,0,0:0:0:0:
88,356,103973,1,0,0:0:0:0:
352,240,104145,6,0,L|339:169,2,71.4999967269899
464,312,104659,1,0,0:0:0:0:
458,288,104745,1,0,0:0:0:0:
454,264,104831,1,0,0:0:0:0:
448,240,104916,1,0,0:0:0:0:
444,216,105002,1,0,0:0:0:0:
488,104,105173,2,0,L|417:116,1,71.4999967269899
396,104,105430,1,0,0:0:0:0:
372,92,105516,6,0,L|301:104,2,71.4999967269899
344,209,106030,1,0,0:0:0:0:
320,215,106116,1,0,0:0:0:0:
296,219,106202,1,0,0:0:0:0:
140,168,106373,2,0,L|210:155,2,71.4999967269899
188,272,106888,6,0,L|118:285,2,71.4999967269899
280,336,107402,1,0,0:0:0:0:
304,330,107488,1,0,0:0:0:0:
328,326,107574,1,0,0:0:0:0:
352,320,107659,1,0,0:0:0:0:
376,316,107745,1,0,0:0:0:0:
480,348,107916,1,0,0:0:0:0:
448,196,108088,6,0,L|292:230,1,142.99999345398
232,140,108602,2,0,L|305:123,1,71.4999967269899
328,116,108859,1,0,0:0:0:0:
352,109,108945,1,0,0:0:0:0:
408,16,109116,1,0,0:0:0:0:
476,160,109288,2,0,L|495:156,9,11.916666121165
420,216,109630,6,0,P|415:243|434:283,1,46.7500008916855
344,368,109802,2,0,P|348:345|343:322,1,46.7500008916855
272,264,109973,2,0,P|214:241|128:284,1,140.250002675057
88,332,110316,1,0,0:0:0:0:
4,176,110488,2,0,P|48:189|104:163,1,93.500001783371
236,100,110830,6,0,L|124:80,1,93.500001783371
208,220,111173,1,0,0:0:0:0:
208,220,111345,2,0,L|300:236,1,93.500001783371
328,212,111602,1,0,0:0:0:0:
328,212,111688,1,0,0:0:0:0:
376,356,111859,1,0,0:0:0:0:
460,276,112030,2,0,L|448:273,9,11.916666121165
420,196,112373,6,0,P|416:172|442:123,1,46.7500008916855
481,45,112545,1,0,0:0:0:0:
453,61,112630,1,0,0:0:0:0:
421,61,112716,1,0,0:0:0:0:
389,49,112802,1,0,0:0:0:0:
361,33,112888,1,0,0:0:0:0:
329,33,112973,1,0,0:0:0:0:
297,45,113059,1,0,0:0:0:0:
208,176,113230,1,0,0:0:0:0:
88,88,113402,6,0,P|110:92|133:88,1,46.7500008916855
288,220,113573,2,0,P|302:168|272:115,1,93.500001783371
182,277,113916,5,0,0:0:0:0:
357,362,114088,1,0,0:0:0:0:
152,371,114259,1,0,0:0:0:0:
152,371,114345,1,0,0:0:0:0:
152,371,114430,1,0,0:0:0:0:
324,276,114602,1,0,0:0:0:0:
64,192,114773,5,0,0:0:0:0:
448,192,114945,1,0,0:0:0:0:
328,68,115116,6,0,P|316:115|338:170,1,93.500001783371
180,260,115373,1,0,0:0:0:0:
180,260,115459,2,0,P|201:194|166:112,1,140.250002675057
124,64,115802,2,0,L|28:72,1,93.500001783371
48,204,116145,2,0,L|124:196,1,46.7500008916855
320,356,116316,6,0,L|348:196,1,140.250002675057
364,136,116659,1,0,0:0:0:0:
256,40,116830,2,0,L|256:120,1,46.7500008916855
192,356,117002,2,0,L|164:196,1,140.250002675057
148,136,117345,1,0,0:0:0:0:
256,188,117516,1,0,0:0:0:0:
60,176,117688,1,0,0:0:0:0:
60,176,117773,1,0,0:0:0:0:
60,176,117859,6,0,P|47:125|72:69,1,93.500001783371
79,61,118116,1,0,0:0:0:0:
99,33,118202,2,0,L|167:41,1,46.7500008916855
287,154,118373,2,0,L|114:131,1,140.250002675057
375,134,118716,6,0,P|376:173|353:210,1,46.7500008916855
484,288,118888,2,0,P|449:269|429:230,1,46.7500008916855
268,284,119059,2,0,P|301:263|344:265,1,46.7500008916855
256,192,119402,12,0,120259,0:0:0:0:
312,256,120602,5,0,0:0:0:0:
360,344,120773,2,0,L|460:360,1,82.5000031471254
200,256,121288,1,0,0:0:0:0:
152,344,121459,2,0,L|52:360,1,82.5000031471254
207,169,121802,6,0,B|144:184|144:184|119:221|119:221|44:236,1,165.000006294251
60,136,122316,1,0,0:0:0:0:
204,260,122488,1,0,0:0:0:0:
204,260,122573,1,0,0:0:0:0:
204,260,122659,2,0,P|246:269|294:252,1,82.5000031471254
436,148,123002,2,0,P|394:139|346:156,1,82.5000031471254
396,220,123259,1,0,0:0:0:0:
472,76,123345,5,0,0:0:0:0:
396,16,123516,2,0,L|296:32,1,82.5000031471254
288,16,123859,2,0,L|284:84,1,41.2500015735627
40,76,124030,1,0,0:0:0:0:
116,16,124201,2,0,L|216:32,1,82.5000031471254
8,168,124545,6,0,B|64:176|64:176|104:148|104:148|184:160,1,165.000006294251
244,360,125059,1,0,0:0:0:0:
120,260,125230,1,0,0:0:0:0:
332,172,125402,2,0,L|324:276,1,82.5000031471254
384,320,125659,1,0,0:0:0:0:
384,320,125745,2,0,P|413:323|452:304,1,41.2500015735627
504,228,125916,2,0,P|475:225|436:244,1,41.2500015735627
304,372,126088,5,0,0:0:0:0:
304,372,126259,1,0,0:0:0:0:
188,100,126430,2,0,L|40:80,1,140.250002675057
8,156,126773,5,0,0:0:0:0:
8,156,126945,1,0,0:0:0:0:
324,100,127116,2,0,L|445:81,1,93.500001783371
496,220,127459,6,0,P|452:200|348:240,1,140.250002675057
312,276,127802,2,0,P|262:290|199:259,1,93.500001783371
192,264,128059,1,0,0:0:0:0:
192,264,128145,1,0,0:0:0:0:
268,184,128316,1,0,0:0:0:0:
116,328,128488,2,0,B|84:292|84:292|118:183,1,140.250002675057
128,168,128830,6,0,P|146:111|127:63,1,110
96,40,129516,2,0,P|65:35|27:49,2,55
256,144,130030,1,0,0:0:0:0:
268,128,130545,1,0,0:0:0:0:
284,108,130888,5,0,0:0:0:0:
352,32,131059,1,0,0:0:0:0:
182,101,131230,2,0,P|177:138|190:170,1,55
44,244,131573,5,0,0:0:0:0:
104,328,131745,2,0,L|192:340,1,82.5000031471254
468,244,132259,1,0,0:0:0:0:
408,328,132431,2,0,L|320:340,1,82.5000031471254
467,156,132773,6,0,B|410:165|410:165|390:208|390:208|319:218,1,165.000006294251
216,93,133288,1,0,0:0:0:0:
324,64,133459,1,0,0:0:0:0:
332,91,133545,1,0,0:0:0:0:
325,118,133630,1,0,0:0:0:0:
216,192,133802,1,0,0:0:0:0:
216,192,133973,1,0,0:0:0:0:
114,110,134145,2,0,P|110:87|126:51,1,41.2500015735627
320,236,134316,5,0,0:0:0:0:
400,300,134488,2,0,L|496:284,1,82.5000031471254
192,236,135002,1,0,0:0:0:0:
112,300,135174,2,0,L|16:284,1,82.5000031471254
219,152,135516,6,0,B|157:138|157:138|131:164|131:164|57:151,1,165.000006294251
240,44,136030,1,0,0:0:0:0:
312,124,136202,1,0,0:0:0:0:
320,151,136288,1,0,0:0:0:0:
313,178,136373,1,0,0:0:0:0:
248,300,136545,6,0,L|236:244,1,41.2500015735627
392,104,136716,1,0,0:0:0:0:
404,128,136802,1,0,0:0:0:0:
408,156,136888,1,0,0:0:0:0:
404,184,136973,1,0,0:0:0:0:
392,208,137059,5,0,0:0:0:0:
392,208,137230,1,0,0:0:0:0:
160,364,137402,2,0,L|60:352,1,93.500001783371
36,260,137745,5,0,0:0:0:0:
36,260,137916,1,0,0:0:0:0:
352,364,138088,2,0,L|452:352,1,93.500001783371
296,76,138430,6,0,P|274:142|313:226,1,140.250002675057
346,263,138773,2,0,P|390:275|452:250,1,93.500001783371
456,236,139030,1,0,0:0:0:0:
456,236,139116,1,0,0:0:0:0:
256,328,139288,1,0,0:0:0:0:
172,264,139459,2,0,P|106:242|22:281,1,140.250002675057
0,328,139802,5,0,0:0:0:0:
0,328,139973,1,0,0:0:0:0:
176,88,140145,2,0,L|76:72,1,93.500001783371
16,136,140488,5,0,0:0:0:0:
16,136,140659,1,0,0:0:0:0:
336,88,140830,2,0,L|436:72,1,93.500001783371
184,256,141173,5,0,0:0:0:0:
256,92,141345,1,0,0:0:0:0:
328,256,141516,1,0,0:0:0:0:
104,288,141688,1,0,0:0:0:0:
92,256,141773,1,0,0:0:0:0:
103,225,141859,1,0,0:0:0:0:
409,225,142030,5,0,0:0:0:0:
420,256,142116,1,0,0:0:0:0:
408,288,142201,1,0,0:0:0:0:
256,360,142373,1,0,0:0:0:0:
152,84,142545,5,0,0:0:0:0:
256,264,142716,1,0,0:0:0:0:
360,84,142888,1,0,0:0:0:0:
256,284,143059,1,0,0:0:0:0:
164,116,143230,1,0,0:0:0:0:
124,232,143573,5,0,0:0:0:0:
376,232,143745,1,0,0:0:0:0:
336,96,143916,5,0,0:0:0:0:
256,316,144088,1,0,0:0:0:0:
184,144,144259,1,0,0:0:0:0:
256,348,144430,1,0,0:0:0:0:
320,108,144602,1,0,0:0:0:0:
256,232,144773,5,0,0:0:0:0:
256,232,144945,1,0,0:0:0:0:
256,232,145116,1,0,0:0:0:0:
420,132,145288,5,0,0:0:0:0:
256,44,145460,1,0,0:0:0:0:
337,277,145630,2,0,P|350:229|329:175,1,93.500001783371
256,68,145973,1,0,0:0:0:0:
256,68,146145,1,0,0:0:0:0:
173,187,146316,2,0,P|161:232|175:277,1,93.500001783371
256,368,146659,5,0,0:0:0:0:
384,292,146830,1,0,0:0:0:0:
376,260,146916,1,0,0:0:0:0:
368,228,147002,2,0,L|348:152,1,46.7500008916855
436,88,147173,1,0,0:0:0:0:
220,56,147345,2,0,L|256:200,1,140.250002675057
220,268,147688,1,0,0:0:0:0:
336,100,147859,2,0,L|320:32,1,46.7500008916855
132,192,148030,5,0,0:0:0:0:
256,360,148202,1,0,0:0:0:0:
380,192,148373,1,0,0:0:0:0:
132,192,148545,1,0,0:0:0:0:
256,360,148716,1,0,0:0:0:0:
204,120,149059,6,0,P|148:92|48:136,1,165
16,200,149402,1,0,0:0:0:0:
16,200,149573,1,0,0:0:0:0:
52,360,149745,6,0,L|104:252,1,93.500001783371
460,360,150088,2,0,L|408:252,1,93.500001783371
256,28,150430,2,0,L|256:200,1,140.250002675057
256,248,150773,5,0,0:0:0:0:
360,176,150945,1,0,0:0:0:0:
168,104,151116,1,0,0:0:0:0:
392,172,151288,1,0,0:0:0:0:
192,316,151459,1,0,0:0:0:0:
256,168,151630,5,0,0:0:0:0:
324,304,151802,1,0,0:0:0:0:
112,228,151973,1,0,0:0:0:0:
288,84,152145,5,0,0:0:0:0:
216,264,152316,1,0,0:0:0:0:
152,80,152488,1,0,0:0:0:0:
216,300,152659,1,0,0:0:0:0:
328,208,152830,5,0,0:0:0:0:
88,304,153002,1,0,0:0:0:0:
336,376,153173,1,0,0:0:0:0:
192,180,153345,2,0,L|64:200,1,104.499997209549
188,312,153688,6,0,L|268:297,1,52.2499986047745
316,368,153859,1,0,0:0:0:0:
340,340,153945,1,0,0:0:0:0:
348,304,154030,1,0,0:0:0:0:
340,268,154116,1,0,0:0:0:0:
316,240,154202,1,0,0:0:0:0:
320,124,154373,6,0,L|240:109,1,52.2499986047745
192,180,154544,1,0,0:0:0:0:
168,152,154630,1,0,0:0:0:0:
160,116,154715,1,0,0:0:0:0:
168,80,154801,1,0,0:0:0:0:
228,24,154888,6,0,L|357:49,1,110
488,76,155230,1,0,0:0:0:0:
256,221,155402,1,0,0:0:0:0:
353,272,155573,2,0,P|368:201|335:148,1,110
157,168,155916,2,0,P|142:220|159:272,1,110
244,216,156259,5,0,0:0:0:0:
72,96,156430,1,0,0:0:0:0:
272,216,156602,1,0,0:0:0:0:
56,336,156773,5,0,0:0:0:0:
56,336,156859,1,0,0:0:0:0:
56,336,156945,1,0,0:0:0:0:
144,240,157116,1,0,0:0:0:0:
196,356,157288,5,0,0:0:0:0:
16,212,157459,1,0,0:0:0:0:
192,120,157630,5,0,0:0:0:0:
192,120,157802,1,0,0:0:0:0:
336,304,157973,2,0,L|456:288,1,110
320,120,158316,5,0,0:0:0:0:
320,120,158488,1,0,0:0:0:0:
176,304,158659,2,0,L|56:288,1,110
164,96,159002,5,0,0:0:0:0:
256,352,159173,1,0,0:0:0:0:
348,96,159345,1,0,0:0:0:0:
128,176,159516,1,0,0:0:0:0:
164,188,159602,1,0,0:0:0:0:
200,176,159688,1,0,0:0:0:0:
37,147,159859,2,0,P|33:193|55:227,1,55
284,227,160030,2,0,P|299:176|270:104,1,110
241,316,160373,6,0,B|325:352|325:280|421:324,1,181.500005538941
480,373,160716,1,0,0:0:0:0:
372,196,160888,1,0,0:0:0:0:
512,248,161059,1,0,0:0:0:0:
404,71,161231,1,0,0:0:0:0:
284,244,161402,1,0,0:0:0:0:
512,128,161573,1,0,0:0:0:0:
400,328,161745,5,0,0:0:0:0:
284,120,161916,1,0,0:0:0:0:
164,328,162088,1,0,0:0:0:0:
400,192,162259,1,0,0:0:0:0:
60,56,162430,1,0,0:0:0:0:
164,244,162602,1,0,0:0:0:0:
312,100,162773,5,0,0:0:0:0:
40,248,162945,1,0,0:0:0:0:
312,364,163116,1,0,0:0:0:0:
12,248,163288,1,0,0:0:0:0:
224,156,163459,5,0,0:0:0:0:
164,368,163630,1,0,0:0:0:0:
80,124,163802,1,0,0:0:0:0:
372,180,163973,6,0,L|352:264,1,60.5000018463135
192,288,164145,1,0,0:0:0:0:
184,248,164230,1,0,0:0:0:0:
176,208,164316,1,0,0:0:0:0:
168,168,164402,1,0,0:0:0:0:
160,132,164488,6,0,P|155:104|168:64,1,55
272,264,164659,2,0,P|277:292|264:332,1,55
104,304,165173,5,0,0:0:0:0:
16,316,165345,5,0,0:0:0:0:
104,304,165430,1,0,0:0:0:0:
192,288,165516,1,0,0:0:0:0:
256,192,165859,12,0,169288,0:0:0:0:
160,240,176830,6,0,L|173:169,2,71.4999967269899
48,312,177344,1,0,0:0:0:0:
54,288,177430,1,0,0:0:0:0:
58,264,177516,1,0,0:0:0:0:
64,240,177601,1,0,0:0:0:0:
68,216,177687,1,0,0:0:0:0:
24,104,177858,2,0,L|95:116,1,71.4999967269899
116,104,178115,1,0,0:0:0:0:
140,92,178201,6,0,L|211:104,2,71.4999967269899
168,209,178715,1,0,0:0:0:0:
192,215,178801,1,0,0:0:0:0:
216,219,178887,1,0,0:0:0:0:
432,216,179059,1,0,0:0:0:0:
408,212,179145,1,0,0:0:0:0:
381,205,179230,2,0,L|310:193,1,71.4999967269899
284,160,179488,1,0,0:0:0:0:
264,132,179573,6,0,L|276:64,1,35.749998363495
384,48,179745,2,0,L|372:116,1,35.749998363495
408,300,179916,2,0,L|337:288,1,71.4999967269899
312,284,180173,1,0,0:0:0:0:
288,280,180259,5,0,0:0:0:0:
264,276,180345,1,0,0:0:0:0:
240,272,180430,1,0,0:0:0:0:
216,268,180516,1,0,0:0:0:0:
192,264,180602,1,0,0:0:0:0:
24,312,180773,1,0,0:0:0:0:
48,316,180859,1,0,0:0:0:0:
75,323,180944,2,0,L|146:335,1,71.4999967269899
80,104,181288,6,0,B|96:152|60:152|80:208,1,107.249995090485
160,184,181630,5,0,0:0:0:0:
228,128,181745,1,0,0:0:0:0:
308,156,181859,1,0,0:0:0:0:
320,244,181973,5,0,0:0:0:0:
428,304,182088,1,0,0:0:0:0:
512,216,182202,1,0,0:0:0:0:
392,56,182316,6,0,L|420:264,1,165
428,304,182659,1,0,0:0:0:0:
511,191,182830,1,0,0:0:0:0:
505,166,182916,1,0,0:0:0:0:
502,142,183002,1,0,0:0:0:0:
496,118,183087,1,0,0:0:0:0:
492,96,183173,1,0,0:0:0:0:
317,120,183345,2,0,L|329:208,1,71.4999967269899
319,215,183602,1,0,0:0:0:0:
309,238,183688,6,0,L|321:326,2,71.4999967269899
224,344,184202,1,0,0:0:0:0:
221,319,184288,1,0,0:0:0:0:
218,294,184373,1,0,0:0:0:0:
216,268,184459,1,0,0:0:0:0:
214,242,184545,1,0,0:0:0:0:
211,217,184630,1,0,0:0:0:0:
208,192,184716,1,0,0:0:0:0:
288,84,184888,1,0,0:0:0:0:
291,109,184974,1,0,0:0:0:0:
294,134,185059,5,0,0:0:0:0:
256,192,185145,12,0,186259,0:0:0:0:
0,80,186430,5,0,0:0:0:0:
96,324,186602,1,0,0:0:0:0:
188,128,186773,1,0,0:0:0:0:
252,272,186945,5,0,0:0:0:0:
252,272,187030,1,0,0:0:0:0:
252,272,187116,1,0,0:0:0:0:
336,160,187288,1,0,0:0:0:0:
336,160,187373,1,0,0:0:0:0:
336,160,187459,2,0,L|384:164,1,35.749998363495
432,244,187630,2,0,L|488:248,1,35.749998363495
468,152,187802,6,0,P|496:100|456:20,1,140.250002675057
440,12,188145,1,0,0:0:0:0:
408,8,188230,1,0,0:0:0:0:
376,20,188316,1,0,0:0:0:0:
352,44,188402,1,0,0:0:0:0:
348,76,188488,1,0,0:0:0:0:
149,27,188659,2,0,P|209:39|258:8,1,93.500001783371
344,195,189002,6,0,P|289:169|208:207,1,140.250002675057
164,264,189345,2,0,L|80:244,1,46.7500008916855
12,216,189516,1,0,0:0:0:0:
72,348,189688,1,0,0:0:0:0:
124,152,189859,2,0,L|-4:116,1,93.500001783371
184,28,190202,5,0,0:0:0:0:
256,144,190316,5,0,0:0:0:0:
328,28,190430,5,0,0:0:0:0:
192,209,190545,6,0,P|252:237|331:187,1,140.250002675057
340,184,190888,1,0,0:0:0:0:
368,168,190973,1,0,0:0:0:0:
400,164,191059,1,0,0:0:0:0:
432,172,191145,1,0,0:0:0:0:
460,192,191230,6,0,L|448:268,1,46.7500008916855
356,352,191402,2,0,L|368:276,1,46.7500008916855
500,104,191573,1,0,0:0:0:0:
452,68,191659,1,0,0:0:0:0:
396,56,191745,1,0,0:0:0:0:
336,64,191830,1,0,0:0:0:0:
288,100,191916,1,0,0:0:0:0:
116,52,192088,6,0,L|132:120,1,46.7500008916855
256,308,192259,5,0,0:0:0:0:
256,288,192345,2,0,L|256:212,1,46.7500008916855
404,32,192516,5,0,0:0:0:0:
396,52,192602,2,0,L|380:120,1,46.7500008916855
277,145,192773,2,0,L|287:99,1,46.7500008916855
480,124,192945,5,0,0:0:0:0:
472,156,193030,1,0,0:0:0:0:
464,188,193116,1,0,0:0:0:0:
456,220,193202,1,0,0:0:0:0:
447,253,193288,5,0,0:0:0:0:
416,356,193459,1,0,0:0:0:0:
168,164,193630,2,0,P|219:141|315:185,1,140.250002675057
337,236,193973,2,0,P|338:279|323:306,1,46.7500008916855
397,53,194145,2,0,P|384:101|425:172,1,93.500001783371
392,340,194488,6,0,L|219:306,1,140.250002675057
176,364,194830,2,0,L|96:344,1,46.7500008916855
144,100,195002,1,0,0:0:0:0:
144,100,195088,1,0,0:0:0:0:
144,100,195173,1,0,0:0:0:0:
212,192,195345,1,0,0:0:0:0:
20,96,195516,1,0,0:0:0:0:
220,16,195688,5,0,0:0:0:0:
60,240,195859,1,0,0:0:0:0:
272,236,196030,5,0,0:0:0:0:
288,208,196116,1,0,0:0:0:0:
288,176,196202,1,0,0:0:0:0:
272,148,196288,1,0,0:0:0:0:
232,84,196373,5,0,0:0:0:0:
248,111,196459,1,0,0:0:0:0:
275,127,196545,1,0,0:0:0:0:
308,128,196631,1,0,0:0:0:0:
384,136,196716,5,0,0:0:0:0:
352,136,196802,1,0,0:0:0:0:
325,151,196888,1,0,0:0:0:0:
307,179,196974,1,0,0:0:0:0:
376,208,197059,5,0,0:0:0:0:
164,32,197230,2,0,P|146:85|170:141,1,110
256,192,197830,12,0,198602,0:0:0:0:
188,172,198773,5,0,0:0:0:0:
128,268,198945,2,0,L|12:248,1,93.500001783371
16,280,199288,2,0,L|24:352,1,46.7500008916855
316,172,199459,1,0,0:0:0:0:
376,268,199631,2,0,L|492:248,1,93.500001783371
268,92,199973,6,0,B|340:80|340:80|364:100|364:100|460:84,1,187.000003566742
196,144,200488,1,0,0:0:0:0:
180,120,200574,1,0,0:0:0:0:
176,88,200659,1,0,0:0:0:0:
184,64,200745,1,0,0:0:0:0:
196,40,200831,1,0,0:0:0:0:
296,180,201002,1,0,0:0:0:0:
248,276,201173,5,0,0:0:0:0:
200,268,201259,1,0,0:0:0:0:
152,260,201345,1,0,0:0:0:0:
108,252,201430,1,0,0:0:0:0:
64,244,201516,6,0,L|-8:236,1,46.7500008916855
92,161,201688,1,0,0:0:0:0:
92,161,201773,2,0,L|56:130,1,46.7500008916855
160,97,201945,1,0,0:0:0:0:
160,97,202030,2,0,L|134:34,1,46.7500008916855
256,71,202203,1,0,0:0:0:0:
256,71,202288,2,0,L|256:7,1,46.7500008916855
352,97,202459,1,0,0:0:0:0:
352,97,202544,2,0,L|378:34,1,46.7500008916855
420,161,202716,1,0,0:0:0:0:
420,161,202801,2,0,L|484:105,2,46.7500008916855
448,244,203059,2,0,L|520:236,1,46.7500008916855
256,348,203230,5,0,0:0:0:0:
240,324,203316,1,0,0:0:0:0:
236,296,203402,1,0,0:0:0:0:
240,268,203488,1,0,0:0:0:0:
260,236,203573,5,0,0:0:0:0:
288,208,203659,1,0,0:0:0:0:
304,172,203745,1,0,0:0:0:0:
304,136,203830,1,0,0:0:0:0:
292,92,203916,1,0,0:0:0:0:
256,60,204002,1,0,0:0:0:0:
220,92,204088,1,0,0:0:0:0:
208,136,204173,1,0,0:0:0:0:
212,184,204259,5,0,0:0:0:0:
324,296,204430,1,0,0:0:0:0:
120,232,204602,2,0,P|108:184|128:128,1,93.500001783371
100,112,204859,1,0,0:0:0:0:
100,112,204945,1,0,0:0:0:0:
296,16,205116,1,0,0:0:0:0:
212,184,205288,1,0,0:0:0:0:
128,12,205459,1,0,0:0:0:0:
304,144,205630,6,0,P|314:189|302:233,1,93.500001783371
212,328,205973,1,0,0:0:0:0:
384,276,206145,2,0,P|407:211|379:88,1,187.000003566742
136,168,206659,1,0,0:0:0:0:
172,200,206745,1,0,0:0:0:0:
216,208,206830,1,0,0:0:0:0:
260,200,206916,1,0,0:0:0:0:
292,168,207002,5,0,0:0:0:0:
112,308,207173,1,0,0:0:0:0:
216,108,207345,1,0,0:0:0:0:
316,308,207516,1,0,0:0:0:0:
316,308,207602,1,0,0:0:0:0:
316,308,207688,1,0,0:0:0:0:
212,280,207859,1,0,0:0:0:0:
368,216,208030,1,0,0:0:0:0:
348,384,208202,1,0,0:0:0:0:
256,202,208373,2,0,B|210:189|210:189|140:210,1,93.500001783371
340,112,208716,5,0,0:0:0:0:
340,112,208802,1,0,0:0:0:0:
340,112,208888,2,0,L|356:44,1,46.7500008916855
172,112,209059,2,0,L|156:44,1,46.7500008916855
432,112,209230,1,0,0:0:0:0:
432,112,209316,1,0,0:0:0:0:
432,112,209402,2,0,L|472:48,1,46.7500008916855
80,112,209573,2,0,L|40:48,1,46.7500008916855
256,320,209745,5,0,0:0:0:0:
328,120,209916,1,0,0:0:0:0:
144,252,210088,1,0,0:0:0:0:
360,252,210260,1,0,0:0:0:0:
188,120,210431,1,0,0:0:0:0:
256,208,210773,5,0,0:0:0:0:
256,16,210945,1,0,0:0:0:0:
352,124,211116,5,0,0:0:0:0:
256,320,211288,1,0,0:0:0:0:
160,160,211459,1,0,0:0:0:0:
256,356,211631,1,0,0:0:0:0:
344,160,211802,1,0,0:0:0:0:
256,236,211973,5,0,0:0:0:0:
256,236,212145,1,0,0:0:0:0:
256,236,212316,1,0,0:0:0:0:
436,364,212488,6,0,L|416:212,1,140.250002675057
456,140,212830,2,0,L|352:128,1,93.500001783371
256,48,213173,1,0,0:0:0:0:
256,48,213345,1,0,0:0:0:0:
56,140,213516,2,0,L|160:128,1,93.500001783371
320,268,213859,5,0,0:0:0:0:
188,268,214030,1,0,0:0:0:0:
408,224,214202,2,0,P|416:280|400:324,1,93.500001783371
106,314,214545,2,0,P|95:269|104:224,1,93.500001783371
128,196,214803,1,0,0:0:0:0:
128,196,214888,1,0,0:0:0:0:
266,146,215059,2,0,L|250:218,1,46.7500008916855
188,56,215230,5,0,0:0:0:0:
388,164,215402,1,0,0:0:0:0:
188,268,215573,1,0,0:0:0:0:
424,164,215745,1,0,0:0:0:0:
212,64,215916,1,0,0:0:0:0:
162,146,216259,2,0,P|213:162|286:126,1,110
324,52,216602,5,0,0:0:0:0:
324,52,216773,1,0,0:0:0:0:
52,188,216945,2,0,L|72:292,1,93.500001783371
448,188,217288,2,0,L|428:292,1,93.500001783371
256,384,217630,2,0,L|256:212,1,140.250002675057
256,160,217973,5,0,0:0:0:0:
168,100,218145,1,0,0:0:0:0:
344,100,218316,1,0,0:0:0:0:
156,224,218488,1,0,0:0:0:0:
372,84,218659,1,0,0:0:0:0:
92,40,218830,1,0,0:0:0:0:
256,160,219002,1,0,0:0:0:0:
256,44,219173,1,0,0:0:0:0:
96,160,219345,5,0,0:0:0:0:
124,260,219516,1,0,0:0:0:0:
416,160,219688,1,0,0:0:0:0:
388,260,219859,1,0,0:0:0:0:
40,232,220030,1,0,0:0:0:0:
68,332,220201,1,0,0:0:0:0:
472,232,220373,1,0,0:0:0:0:
444,332,220544,1,0,0:0:0:0:
256,280,220716,5,0,0:0:0:0:
376,120,220888,1,0,0:0:0:0:
396,168,220973,1,0,0:0:0:0:
376,216,221059,1,0,0:0:0:0:
136,120,221230,1,0,0:0:0:0:
116,168,221315,1,0,0:0:0:0:
136,216,221401,1,0,0:0:0:0:
256,32,221573,1,0,0:0:0:0:
256,192,221659,12,0,223459,0:0:0:0:
72,48,228945,6,0,P|96:94|226:60,1,165
256,44,229288,5,0,0:0:0:0:
416,192,229973,1,0,0:0:0:0:
256,340,230659,1,0,0:0:0:0:
96,192,231344,1,0,0:0:0:0:
225,120,231688,5,0,0:0:0:0:
329,160,231859,1,0,0:0:0:0:
285,264,232030,1,0,0:0:0:0:
181,224,232201,1,0,0:0:0:0:
210,83,232373,5,0,0:0:0:0:
366,144,232544,1,0,0:0:0:0:
300,300,232715,1,0,0:0:0:0:
143,240,232886,1,0,0:0:0:0:
256,192,233059,5,0,0:0:0:0:
420,56,233230,1,0,0:0:0:0:
460,100,233316,1,0,0:0:0:0:
464,160,233402,1,0,0:0:0:0:
436,216,233488,1,0,0:0:0:0:
388,252,233573,1,0,0:0:0:0:
380,312,233659,1,0,0:0:0:0:
416,360,233745,6,0,L|510:347,1,55
376,140,233916,2,0,L|282:153,1,55
336,64,234430,6,0,P|288:32|162:90,1,181.500005538941
113,10,234773,2,0,P|95:82|136:142,1,121.000003692627
64,272,235116,2,0,L|156:260,1,60.5000018463135
188,344,235288,1,0,0:0:0:0:
336,160,235459,2,0,L|212:180,1,121.000003692627
336,280,235802,5,0,0:0:0:0:
408,76,235973,1,0,0:0:0:0:
192,180,236145,1,0,0:0:0:0:
336,372,236316,1,0,0:0:0:0:
336,372,236402,1,0,0:0:0:0:
336,372,236488,5,0,0:0:0:0:
427,247,236659,1,0,0:0:0:0:
296,252,236830,5,0,0:0:0:0:
464,368,237002,1,0,0:0:0:0:
396,136,237173,5,0,0:0:0:0:
396,136,237345,1,0,0:0:0:0:
160,248,237516,2,0,L|176:380,1,121.000003692627
116,136,237859,5,0,0:0:0:0:
116,136,238031,1,0,0:0:0:0:
352,248,238202,2,0,L|336:380,1,121.000003692627
108,36,238545,5,0,0:0:0:0:
404,36,238716,1,0,0:0:0:0:
256,300,238888,1,0,0:0:0:0:
204,184,239059,1,0,0:0:0:0:
256,164,239145,1,0,0:0:0:0:
304,184,239230,1,0,0:0:0:0:
156,328,239402,1,0,0:0:0:0:
392,128,239573,2,0,B|408:186|408:186|383:261,1,121.000003692627
123,243,239916,6,0,B|104:186|104:186|120:128,1,121.000003692627
328,44,240259,1,0,0:0:0:0:
256,276,240430,1,0,0:0:0:0:
188,44,240602,1,0,0:0:0:0:
256,296,240773,1,0,0:0:0:0:
380,168,240945,1,0,0:0:0:0:
136,296,241116,1,0,0:0:0:0:
376,384,241288,5,0,0:0:0:0:
300,220,241459,1,0,0:0:0:0:
256,336,241630,5,0,0:0:0:0:
476,192,241802,1,0,0:0:0:0:
80,44,241973,1,0,0:0:0:0:
148,244,242145,1,0,0:0:0:0:
212,4,242316,5,0,0:0:0:0:
24,192,242488,1,0,0:0:0:0:
356,384,242659,2,0,L|385:163,1,197.99999395752
396,96,243002,1,0,0:0:0:0:
512,320,243173,1,0,0:0:0:0:
212,276,243345,1,0,0:0:0:0:
400,64,243516,6,0,L|488:56,1,65.9999979858399
268,192,243688,1,0,0:0:0:0:
192,176,243773,1,0,0:0:0:0:
112,164,243859,1,0,0:0:0:0:
32,148,243945,1,0,0:0:0:0:
84,84,244030,6,0,P|89:50|70:10,1,55
132,252,244202,2,0,P|126:278|130:306,1,55
381,309,244888,2,0,P|387:281|378:251,1,55
256,288,245059,1,0,0:0:0:0:
256,288,245230,1,0,0:0:0:0:
107,82,245402,5,0,0:0:0:0:
121,167,245488,1,0,0:0:0:0:
132,252,245573,2,0,L|142:338,1,71.4999967269899
381,309,245916,1,0,0:0:0:0:
395,224,246002,1,0,0:0:0:0:
406,139,246087,2,0,L|417:53,1,71.4999967269899
255,13,246430,5,0,0:0:0:0:
256,44,246688,1,0,0:0:0:0:
256,72,246945,1,0,0:0:0:0:
107,302,247116,5,0,0:0:0:0:
121,217,247202,1,0,0:0:0:0:
132,132,247287,2,0,L|142:46,1,71.4999967269899
381,75,247630,1,0,0:0:0:0:
395,160,247716,1,0,0:0:0:0:
406,245,247801,2,0,L|417:331,1,71.4999967269899
255,371,248145,5,0,0:0:0:0:
256,340,248403,1,0,0:0:0:0:
256,312,248659,2,0,L|254:224,1,71.4999967269899
86,72,248830,5,0,0:0:0:0:
120,100,248916,1,0,0:0:0:0:
164,108,249002,1,0,0:0:0:0:
204,96,249088,1,0,0:0:0:0:
232,64,249173,1,0,0:0:0:0:
268,40,249259,1,0,0:0:0:0:
312,32,249345,5,0,0:0:0:0:
356,36,249430,1,0,0:0:0:0:
404,68,249516,1,0,0:0:0:0:
428,120,249602,1,0,0:0:0:0:
424,176,249688,1,0,0:0:0:0:
388,220,249773,1,0,0:0:0:0:
332,228,249859,5,0,0:0:0:0:
280,200,249945,1,0,0:0:0:0:
260,148,250030,1,0,0:0:0:0:
284,96,250116,1,0,0:0:0:0:
340,80,250202,1,0,0:0:0:0:
388,112,250288,1,0,0:0:0:0:
396,168,250373,1,0,0:0:0:0:
360,212,250459,1,0,0:0:0:0:
304,216,250545,5,0,0:0:0:0:
260,168,250630,1,0,0:0:0:0:
196,152,250716,1,0,0:0:0:0:
132,168,250802,1,0,0:0:0:0:
88,216,250888,1,0,0:0:0:0:
88,280,250973,1,0,0:0:0:0:
124,336,251059,5,0,0:0:0:0:
188,352,251145,1,0,0:0:0:0:
248,336,251230,1,0,0:0:0:0:
288,284,251316,1,0,0:0:0:0:
336,240,251402,1,0,0:0:0:0:
400,236,251488,1,0,0:0:0:0:
432,292,251573,5,0,0:0:0:0:
368,276,251659,1,0,0:0:0:0:
332,220,251745,1,0,0:0:0:0:
336,156,251830,1,0,0:0:0:0:
380,108,251916,1,0,0:0:0:0:
444,104,252002,1,0,0:0:0:0:
500,140,252088,2,0,P|512:156|512:216,1,71.4999967269899
423,197,252259,5,0,0:0:0:0:
256,192,252345,12,0,253802,0:0:0:0:
200,248,258088,6,0,P|196:216|40:112,2,220
256,328,260145,1,0,0:0:0:0:
312,248,260830,2,0,L|434:269,2,110
256,328,261859,1,0,0:0:0:0:
384,176,262202,2,0,P|400:132|368:56,1,110
256,12,262888,1,0,0:0:0:0:
256,120,263230,1,0,0:0:0:0:
128,72,263573,6,0,P|111:124|128:176,2,110
256,192,264602,1,0,0:0:0:0:
172,296,264945,2,0,L|61:276,1,110
340,296,265716,2,0,L|450:276,1,110
256,192,267002,12,0,272916,0:0:0:0:
